osu file format v14

[General]
AudioFilename: audio.mp3
AudioLeadIn: 0
PreviewTime: 26
Countdown: 0
SampleSet: Soft
StackLeniency: 0.4
Mode: 0
LetterboxInBreaks: 0
WidescreenStoryboard: 1

[Editor]
Bookmarks: 38001,43019
DistanceSpacing: 0.4
BeatDivisor: 4
GridSize: 8
TimelineZoom: 2.2

[Metadata]
Title:With You (DJ Fortify "SadBooty" Flip) (Cut Ver.)
TitleUnicode:With You (DJ Fortify "SadBooty" Flip) (Cut Ver.)
Artist:Awedgoo
ArtistUnicode:Awedgoo
Creator:Fall
Version:jasontime's Hard
Source:
Tags:dance edm short version _tranquility future experimental electronic dance vocal chops english jasontime12345 vanchanical ancelysia ancel mimari
BeatmapID:2909140
BeatmapSetID:1181195

[Difficulty]
HPDrainRate:4
CircleSize:3.6
OverallDifficulty:6.5
ApproachRate:8
SliderMultiplier:1.2
SliderTickRate:1

[Events]
//Background and Video events
0,0,"890612.jpg",0,0
//Break Periods
2,51435,53925
//Storyboard Layer 0 (Background)
//Storyboard Layer 1 (Fail)
//Storyboard Layer 2 (Pass)
//Storyboard Layer 3 (Foreground)
//Storyboard Layer 4 (Overlay)
//Storyboard Sound Samples

[TimingPoints]
26,382.165605095541,4,2,0,50,1,0
1076,-100,4,2,0,5,0,0
1172,-100,4,2,0,50,0,0
2605,-100,4,2,0,5,0,0
2701,-100,4,2,0,50,0,0
4134,-100,4,2,0,5,0,0
4229,-100,4,2,0,50,0,0
5662,-100,4,2,0,5,0,0
5758,-100,4,2,0,70,0,0
6140,-83.3333333333333,4,2,0,70,0,0
11682,-83.3333333333333,4,2,1,50,0,0
12255,-83.3333333333333,4,2,0,70,0,0
23147,-83.3333333333333,4,2,0,60,0,0
23338,-83.3333333333333,4,2,0,50,0,0
23720,-83.3333333333333,4,2,0,40,0,0
24293,-83.3333333333333,4,2,1,70,0,0
24484,-76.9230769230769,4,2,0,90,0,0
30408,-76.9230769230769,4,2,1,70,0,0
30599,-76.9230769230769,4,2,0,90,0,0
36331,-76.9230769230769,4,2,1,70,0,0
36713,-76.9230769230769,4,2,0,90,0,0
48943,-200,4,2,1,70,0,0
49038,-200,4,2,0,90,0,0
49707,-200,4,2,0,70,0,0
50471,-200,4,2,0,60,0,0
51236,-200,4,2,0,50,0,0
54675,-133.333333333333,4,2,0,50,0,0
59643,-133.333333333333,4,2,0,70,0,0
60981,-133.333333333333,4,2,1,70,0,0
61172,-66.6666666666667,4,2,0,90,0,0
72924,-66.6666666666667,4,2,1,70,0,0
73115,-66.6666666666667,4,2,0,90,0,0
85248,-66.6666666666667,4,2,1,70,0,0
85631,-66.6666666666667,4,2,0,70,0,0

[Colours]
Combo1 : 108,108,255
Combo2 : 255,128,0
Combo3 : 255,169,83
Combo4 : 85,85,255

[HitObjects]
74,37,26,6,0,L|90:105,1,60,2|2,0:0|0:0,0:0:0:0:
151,152,408,1,2,0:0:0:0:
101,215,599,2,0,L|171:31,1,180,2|2,0:0|0:0,0:0:0:0:
434,104,1554,6,0,L|377:120,1,60,2|2,0:0|0:0,0:0:0:0:
312,191,1936,1,2,0:0:0:0:
247,134,2127,2,0,L|420:180,1,180,2|2,0:0|0:0,0:0:0:0:
394,379,3083,6,0,P|361:369|339:342,2,60,2|2|2,0:0|0:0|0:0,0:0:0:0:
403,302,3656,2,0,P|305:328|230:354,1,180,2|2,0:0|0:0,0:0:0:0:
62,291,4611,6,0,P|72:316|81:350,1,60,2|2,0:0|0:0,0:0:0:0:
144,285,4994,1,2,0:0:0:0:
145,273,5185,2,0,P|173:199|218:141,1,150,2|0,0:0|0:0,0:0:0:0:
223,146,5758,6,0,B|220:160|220:160|234:168,1,30,2|0,0:3|0:0,0:0:0:0:
296,221,5949,2,0,B|309:224|309:224|320:207,1,30,2|0,0:3|0:0,0:0:0:0:
405,169,6140,6,0,P|379:289|364:398,2,215.999993408203,2|2|0,3:2|3:2|3:2,0:2:0:0:
428,83,7478,1,2,3:2:0:0:
420,75,7669,6,0,P|388:80|345:104,1,71.9999978027344,2|0,3:2|3:2,3:2:0:0:
307,179,8051,1,2,3:2:0:0:
389,228,8242,2,0,P|314:206|235:190,1,143.999995605469,2|2,3:2|3:2,3:2:0:0:
169,241,8815,1,0,3:2:0:0:
50,116,9197,6,0,P|78:220|100:325,2,215.999993408203,2|2|2,3:2|3:2|3:2,3:2:0:0:
196,10,10726,6,0,P|160:25|140:56,1,71.9999978027344,2|0,3:2|3:2,3:2:0:0:
176,155,11108,1,2,3:2:0:0:
215,86,11299,2,0,P|282:103|401:150,1,179.999994506836,2|0,3:2|0:0,3:2:0:0:
391,156,11873,6,0,P|370:164|363:190,1,35.9999989013672,2|2,0:0|0:0,0:0:0:0:
328,252,12064,2,0,P|335:268|354:270,1,35.9999989013672,2|2,0:0|0:0,0:0:0:0:
431,234,12255,5,4,3:2:0:0:
252,169,12637,1,10,0:0:0:0:
180,209,12828,2,0,L|165:138,2,71.9999978027344,2|2|0,3:2|3:0|0:0,0:0:0:0:
198,305,13401,2,0,L|115:282,1,71.9999978027344,8|0,3:2|3:0,0:0:0:0:
49,270,13783,6,0,P|61:312|73:375,1,107.999996704102,0|0,3:0|0:0,0:0:0:0:
67,384,14166,2,0,P|57:330|42:278,1,107.999996704102,8|0,0:0|0:0,0:0:0:0:
30,276,14548,5,0,3:2:0:0:
56,186,14739,2,0,P|80:167|95:120,1,71.9999978027344,2|8,0:0|3:2,0:0:0:0:
66,51,15121,1,0,3:0:0:0:
11,121,15312,6,0,P|107:94|239:64,1,215.999993408203,0|2,3:0|3:2,0:0:0:0:
311,24,16076,6,0,P|352:36|412:82,1,107.999996704102,0|0,3:0|0:0,0:0:0:0:
401,83,16459,2,0,P|358:50|307:33,1,107.999996704102,8|0,3:2|3:0,0:0:0:0:
302,45,16841,6,0,L|321:136,1,71.9999978027344,0|0,3:0|0:0,0:0:0:0:
396,173,17223,1,10,0:0:0:0:
381,185,17414,2,0,L|366:259,1,71.9999978027344,2|2,3:2|3:0,0:0:0:0:
347,345,17796,5,8,0:0:0:0:
347,345,17987,1,8,0:0:0:0:
134,327,18369,6,0,P|169:322|188:287,1,71.9999978027344,4|2,3:2|0:0,0:0:0:0:
149,219,18752,1,10,0:0:0:0:
156,205,18943,2,0,L|168:130,2,71.9999978027344,2|2|0,3:2|3:0|0:0,0:0:0:0:
70,249,19516,2,0,P|34:244|15:209,1,71.9999978027344,8|0,3:2|3:0,0:0:0:0:
70,130,19898,6,0,P|134:117|224:105,1,143.999995605469,0|8,3:0|0:0,0:0:0:0:
422,127,20662,1,0,3:2:0:0:
468,194,20854,2,0,L|446:125,1,71.9999978027344,2|8,0:0|3:2,0:0:0:0:
380,222,21236,6,0,P|364:282|343:388,1,143.999995605469,0|2,3:0|0:0,0:0:0:0:
393,311,21809,1,10,0:0:0:0:
317,278,22000,2,0,P|275:293|238:307,1,71.9999978027344,2|0,3:2|3:0,0:0:0:0:
175,354,22382,1,2,0:0:0:0:
163,344,22573,6,0,L|145:263,2,71.9999978027344,8|0|0,3:2|3:0|3:0,0:0:0:0:
157,354,24484,6,0,P|192:324|192:278,1,77.9999964294435,4|0,1:0|0:0,0:0:0:0:
232,216,24866,2,0,P|197:188|163:194,1,77.9999964294435,4|0,1:3|0:0,0:0:0:0:
99,258,25248,2,0,L|80:136,2,116.999994644165,4|4|4,1:3|1:3|1:3,0:0:0:0:
166,192,26013,6,0,P|204:190|232:216,1,77.9999964294435,4|2,1:3|3:2,0:0:0:0:
324,216,26395,2,0,P|344:261|326:290,1,77.9999964294435,4|2,1:3|3:2,0:0:0:0:
386,366,26777,2,0,L|499:336,2,116.999994644165,4|4|4,1:3|1:3|1:3,0:0:0:0:
332,284,27541,6,0,P|344:247|324:216,1,77.9999964294435,8|0,1:3|0:0,0:0:0:0:
350,127,27924,2,0,P|393:127|421:99,1,77.9999964294435,8|0,1:3|0:0,0:0:0:0:
387,19,28306,2,0,L|267:41,2,116.999994644165,8|8|8,1:3|1:3|1:3,0:0:0:0:
417,104,29070,6,0,P|388:128|350:127,1,77.9999964294435,4|2,1:3|3:2,0:0:0:0:
266,53,29452,2,0,P|242:37|188:40,1,77.9999964294435,4|2,1:3|3:2,0:0:0:0:
139,115,29834,5,4,1:3:0:0:
139,115,30025,1,0,1:0:0:0:
114,138,30217,6,0,L|126:178,1,38.9999982147218,8|0,1:2|0:0,0:0:0:0:
194,221,30408,2,0,L|186:269,1,38.9999982147218,6|2,1:3|3:0,0:0:0:0:
122,323,30599,6,0,B|143:290|143:290|182:294,1,77.9999964294435,4|0,1:0|0:0,0:0:0:0:
267,264,30981,2,0,B|303:284|303:284|293:332,1,77.9999964294435,4|0,1:3|0:0,0:0:0:0:
360,378,31363,2,0,L|475:362,2,116.999994644165,4|4|4,1:3|1:3|1:3,0:0:0:0:
295,320,32127,6,0,B|303:284|303:284|267:264,1,77.9999964294435,4|2,1:3|3:2,0:0:0:0:
226,168,32510,2,0,B|189:160|189:160|169:196,1,77.9999964294435,4|2,1:3|3:2,0:0:0:0:
83,237,32892,2,0,L|116:366,2,116.999994644165,4|4|4,1:3|1:3|1:3,0:0:0:0:
169,196,33656,6,0,B|189:160|189:160|226:168,1,77.9999964294435,8|0,1:3|0:0,0:0:0:0:
321,130,34038,2,0,B|288:105|288:105|299:63,1,77.9999964294435,8|0,1:3|0:0,0:0:0:0:
375,22,34420,2,0,L|248:1,2,116.999994644165,8|8|8,1:3|1:3|1:3,0:0:0:0:
297,69,35185,6,0,B|288:105|288:105|321:130,1,77.9999964294435,4|2,1:3|3:2,0:0:0:0:
361,212,35567,2,0,B|404:201|404:201|413:161,1,77.9999964294435,4|2,1:3|3:2,0:0:0:0:
397,84,35949,1,4,1:3:0:0:
397,84,36140,1,2,3:0:0:0:
373,57,36331,6,0,L|320:48,1,38.9999982147218,2|2,1:3|1:3,0:0:0:0:
263,74,36522,2,0,L|210:65,1,38.9999982147218,2|2,1:3|1:3,0:0:0:0:
155,27,36713,6,0,P|164:63|175:115,1,77.9999964294435,4|2,1:0|3:0,0:0:0:0:
45,135,37096,2,0,P|36:171|25:223,1,77.9999964294435,8|2,1:2|3:2,0:0:0:0:
155,208,37478,6,0,P|164:244|175:296,1,77.9999964294435,4|2,1:3|3:2,0:0:0:0:
182,303,37764,2,0,P|146:352|70:357,1,116.999994644165,4|4,1:3|1:3,0:0:0:0:
18,256,38242,6,0,P|57:264|104:279,1,77.9999964294435,8|2,1:3|3:0,0:0:0:0:
170,168,38624,2,0,P|209:176|256:191,1,77.9999964294435,8|2,1:2|3:0,0:0:0:0:
295,314,39006,6,0,P|332:303|383:284,1,77.9999964294435,8|2,1:3|3:0,0:0:0:0:
389,297,39293,2,0,P|416:245|385:194,1,116.999994644165,8|8,1:3|1:3,0:0:0:0:
338,51,39771,6,0,L|323:127,1,77.9999964294435,8|2,1:3|3:0,0:0:0:0:
218,33,40153,2,0,L|203:109,1,77.9999964294435,8|2,1:2|3:0,0:0:0:0:
101,15,40535,6,0,L|86:91,1,77.9999964294435,8|2,1:3|3:0,0:0:0:0:
73,99,40822,2,0,L|107:225,1,116.999994644165,8|8,1:3|1:3,0:0:0:0:
36,302,41299,6,0,P|58:260|96:246,1,77.9999964294435,4|2,1:3|3:0,0:0:0:0:
162,308,41682,2,0,P|218:318|299:341,1,116.999994644165,8|0,1:2|0:0,0:0:0:0:
287,348,42064,5,4,1:3:0:0:
287,348,42255,1,2,1:3:0:0:
359,301,42446,6,0,P|359:275|379:267,1,38.9999982147218,8|0,1:2|0:0,0:0:0:0:
425,210,42637,2,0,P|440:211|456:232,1,38.9999982147218,4|0,1:3|0:0,0:0:0:0:
445,314,42828,6,0,P|394:243|355:200,1,116.999994644165,4|2,1:3|3:2,0:0:0:0:
374,208,43210,2,0,P|318:167|261:132,1,116.999994644165,8|2,1:2|0:0,0:0:0:0:
275,130,43592,2,0,P|224:112|157:97,1,116.999994644165,4|4,1:3|1:3,0:0:0:0:
158,90,43975,2,0,P|113:104|107:135,1,77.9999964294435,8|4,1:2|1:3,0:0:0:0:
74,211,44357,6,0,P|130:214|159:262,1,116.999994644165,8|2,1:3|3:2,0:0:0:0:
169,278,44739,2,0,P|150:332|92:341,1,116.999994644165,8|0,1:2|0:0,0:0:0:0:
86,332,45121,2,0,P|138:324|183:370,1,116.999994644165,8|8,1:3|1:3,0:0:0:0:
195,379,45503,2,0,P|236:359|284:343,1,77.9999964294435,8|8,1:2|1:3,0:0:0:0:
369,370,45885,6,0,P|353:309|330:249,1,116.999994644165,8|2,1:3|0:0,0:0:0:0:
322,258,46268,2,0,P|345:191|373:145,1,116.999994644165,8|0,1:2|0:0,0:0:0:0:
381,151,46650,2,0,P|359:102|304:68,1,116.999994644165,8|8,1:3|1:3,0:0:0:0:
297,76,47032,2,0,P|342:68|355:33,1,77.9999964294435,8|0,1:2|0:0,0:0:0:0:
235,11,47414,5,4,1:3:0:0:
158,62,47605,1,2,3:0:0:0:
69,23,47796,2,0,P|90:82|113:172,1,155.999992858887,8|4,1:2|1:3,0:0:0:0:
181,237,48369,5,2,1:3:0:0:
124,297,48561,1,8,1:2:0:0:
97,338,48752,1,4,1:3:0:0:
88,362,48943,6,0,B|103:364|103:364|190:335|190:335|208:339,3,120,2|0|0|0,1:3|0:0|0:0|0:0,0:0:0:0:
209,345,54675,5,2,3:0:0:0:
294,290,54866,1,2,3:0:0:0:
243,360,55057,6,0,P|224:286|204:230,1,135.000005149841,2|0,3:2|3:0,0:0:0:0:
134,150,55822,2,0,L|118:199,1,45.0000017166138,2|2,3:2|3:2,0:0:0:0:
40,222,56204,2,0,L|20:208,2,22.5000008583069,0|0|0,0:0|3:0|3:0,0:0:0:0:
119,157,56586,6,0,P|185:143|269:119,1,135.000005149841,2|2,3:2|3:2,0:0:0:0:
256,192,57350,12,0,59261,3:0:0:0:
348,110,59643,6,0,L|368:37,2,67.5000025749207,0|0|0,1:0|1:0|1:0,0:0:0:0:
297,177,60408,2,0,L|307:213,2,30.0000011444092,0|0|0,1:0|1:0|1:0,0:0:0:0:
258,150,60790,1,8,1:2:0:0:
215,276,60981,5,6,1:3:0:0:
217,266,61076,1,2,1:3:0:0:
225,257,61172,6,0,P|303:220|405:184,1,180.000006866455,4|2,1:2|0:0,0:0:0:0:
461,223,61745,2,0,P|449:244|418:258,1,45.0000017166138,4|0,1:3|0:0,0:0:0:0:
383,321,61936,6,0,P|227:252|119:209,1,270.000010299683,8|2,1:2|1:3,0:0:0:0:
31,248,62701,6,0,P|46:257|58:284,2,45.0000017166138,2|2|4,0:0|0:0|1:3,0:0:0:0:
61,78,63274,1,4,1:3:0:0:
144,115,63465,5,8,1:2:0:0:
136,27,63656,1,4,1:3:0:0:
160,122,63847,2,0,P|236:75|334:35,2,180.000006866455,2|8|2,0:0|1:3|0:0,0:0:0:0:
175,202,64803,2,0,P|198:208|218:229,1,45.0000017166138,8|0,1:3|0:0,0:0:0:0:
294,247,64994,6,0,P|282:279|265:342,1,90.0000034332277,2|2,1:3|1:3,0:0:0:0:
334,382,65376,1,2,0:0:0:0:
418,353,65567,1,2,1:3:0:0:
498,320,65758,1,2,0:0:0:0:
462,236,65949,6,0,L|495:93,1,135.000005149841,8|0,1:3|0:0,0:0:0:0:
469,36,66331,5,8,1:3:0:0:
465,27,66427,1,8,1:3:0:0:
456,22,66522,6,0,P|416:45|373:65,1,90.0000034332277,8|8,1:2|1:3,0:0:0:0:
315,121,66904,2,0,P|259:98|216:74,1,90.0000034332277,2|8,0:0|1:3,0:0:0:0:
181,15,67287,6,0,L|214:169,1,135.000005149841,4|0,1:3|0:0,0:0:0:0:
216,156,67669,2,0,L|244:288,1,135.000005149841,4|0,1:3|0:0,0:0:0:0:
250,296,68051,6,0,L|271:388,1,90.0000034332277,8|2,1:2|1:3,0:0:0:0:
182,363,68433,1,2,0:0:0:0:
100,335,68624,1,2,1:3:0:0:
23,372,68815,5,2,0:0:0:0:
85,316,69006,2,0,P|62:207|40:127,1,180.000006866455,4|4,1:3|1:3,0:0:0:0:
8,63,69580,5,8,1:2:0:0:
8,63,69771,1,4,1:3:0:0:
184,22,70153,1,4,1:3:0:0:
270,88,70344,5,8,1:3:0:0:
270,88,70535,2,0,P|329:80|451:44,1,180.000006866455,8|8,1:3|1:3,0:0:0:0:
512,0,71108,5,2,1:3:0:0:
451,64,71299,1,2,1:3:0:0:
469,144,71490,6,0,P|449:149|433:177,1,45.0000017166138,8|0,1:3|0:0,0:0:0:0:
407,240,71682,2,0,P|423:261|447:264,1,45.0000017166138,8|0,1:2|0:0,0:0:0:0:
506,214,71873,6,0,P|421:226|323:245,1,180.000006866455,2|2,0:0|0:0,0:0:0:0:
240,192,72446,1,8,1:3:0:0:
242,204,72541,1,8,1:3:0:0:
253,206,72637,6,0,B|276:188|276:188|271:157,1,45.0000017166138,8|0,1:2|0:0,0:0:0:0:
205,127,72828,2,0,B|181:134|181:134|177:156,1,45.0000017166138,8|2,1:3|1:3,0:0:0:0:
128,221,73019,2,0,L|156:352,1,135.000005149841,2|8,1:3|1:3,0:0:0:0:
146,369,73401,6,0,B|163:282|349:359|375:262,1,270.000010299683,4|4,1:2|1:3,0:0:0:0:
452,217,74166,2,0,P|444:174|407:153,1,90.0000034332277,8|2,1:2|1:3,0:0:0:0:
344,84,74548,2,0,P|330:128|314:194,1,90.0000034332277,2|2,0:0|1:3,0:0:0:0:
341,261,74930,5,2,0:0:0:0:
300,180,75121,2,0,P|206:202|119:225,1,180.000006866455,4|4,1:3|1:3,0:0:0:0:
36,285,75694,5,8,1:2:0:0:
36,285,75885,1,4,1:3:0:0:
117,127,76268,1,4,1:3:0:0:
62,61,76459,6,0,P|86:142|109:245,1,180.000006866455,8|2,1:3|0:0,0:0:0:0:
191,189,77032,1,8,1:3:0:0:
268,225,77223,2,0,P|303:208|318:153,1,90.0000034332277,2|2,1:3|1:3,0:0:0:0:
267,23,77605,2,0,P|254:64|239:135,2,90.0000034332277,2|2|2,0:0|1:3|0:0,0:0:0:0:
366,0,78178,1,8,1:3:0:0:
480,134,78561,5,8,1:3:0:0:
484,142,78657,1,8,1:3:0:0:
484,149,78752,6,0,P|455:161|427:177,1,45.0000017166138,8|0,1:2|0:0,0:0:0:0:
369,211,78943,2,0,P|361:233|351:270,1,45.0000017166138,8|2,1:3|0:0,0:0:0:0:
402,319,79134,2,0,P|323:266|237:218,2,180.000006866455,2|4|4,0:0|1:3|1:3,0:0:0:0:
462,254,80089,5,0,0:0:0:0:
373,225,80280,2,0,P|326:243|272:271,1,90.0000034332277,8|2,1:2|1:3,0:0:0:0:
171,322,80662,2,0,P|197:278|207:232,1,90.0000034332277,2|2,0:0|1:3,0:0:0:0:
85,150,81045,5,2,0:0:0:0:
127,215,81236,2,0,P|101:100|79:22,1,180.000006866455,4|4,1:3|1:3,0:0:0:0:
0,0,81809,5,8,1:2:0:0:
0,0,82000,1,4,1:3:0:0:
173,72,82382,1,4,1:3:0:0:
103,134,82573,5,8,1:3:0:0:
103,134,82764,2,0,P|82:204|57:327,1,180.000006866455,8|8,1:3|1:3,0:0:0:0:
141,371,83338,6,0,P|186:361|212:311,1,90.0000034332277,2|2,1:3|1:3,0:0:0:0:
267,257,83720,6,0,P|290:260|313:277,1,45.0000017166138,8|0,1:3|0:0,0:0:0:0:
380,290,83911,2,0,P|386:307|391:333,1,45.0000017166138,8|0,1:2|0:0,0:0:0:0:
454,380,84102,5,2,0:0:0:0:
495,250,84293,2,0,P|468:187|435:129,1,135.000005149841,8|0,1:3|0:0,0:0:0:0:
356,131,84675,1,8,1:3:0:0:
361,140,84771,1,8,1:3:0:0:
354,147,84866,6,0,L|296:131,1,45.0000017166138,8|0,1:2|0:0,0:0:0:0:
246,78,85057,2,0,L|193:86,1,45.0000017166138,8|2,1:3|1:3,0:0:0:0:
127,119,85248,5,2,1:3:0:0:
122,103,85344,1,2,1:3:0:0:
117,90,85440,1,6,1:3:0:0:
111,75,85535,1,6,1:3:0:0:
107,62,85631,5,6,0:0:0:0:
