osu file format v14

[General]
AudioFilename: audio.mp3
AudioLeadIn: 0
PreviewTime: 26
Countdown: 0
SampleSet: Soft
StackLeniency: 0.7
Mode: 0
LetterboxInBreaks: 0
WidescreenStoryboard: 1

[Editor]
Bookmarks: 5758,12255,24484,36713,48943,73401
DistanceSpacing: 1
BeatDivisor: 4
GridSize: 4
TimelineZoom: 1.3

[Metadata]
Title:With You (DJ Fortify "SadBooty" Flip) (Cut Ver.)
TitleUnicode:With You (DJ Fortify "SadBooty" Flip) (Cut Ver.)
Artist:Awedgoo
ArtistUnicode:Awedgoo
Creator:Fall
Version:Vanchanical's Insane
Source:
Tags:dance edm short version _tranquility future experimental electronic dance vocal chops english jasontime12345 vanchanical ancelysia ancel mimari
BeatmapID:2941367
BeatmapSetID:1181195

[Difficulty]
HPDrainRate:5
CircleSize:3.8
OverallDifficulty:8
ApproachRate:9
SliderMultiplier:1.4
SliderTickRate:1

[Events]
//Background and Video events
0,0,"890612.jpg",0,0
//Break Periods
2,49143,54457
//Storyboard Layer 0 (Background)
//Storyboard Layer 1 (Fail)
//Storyboard Layer 2 (Pass)
//Storyboard Layer 3 (Foreground)
//Storyboard Layer 4 (Overlay)
//Storyboard Sound Samples

[TimingPoints]
26,382.165605095541,4,2,0,50,1,0
1076,-100,4,2,0,5,0,0
1172,-100,4,2,0,50,0,0
2605,-100,4,2,0,5,0,0
2701,-100,4,2,0,50,0,0
4134,-100,4,2,0,5,0,0
4229,-100,4,2,0,50,0,0
5662,-100,4,2,0,5,0,0
5758,-125,4,2,0,70,0,0
11682,-125,4,2,1,50,0,0
12255,-100,4,2,0,70,0,0
23147,-100,4,2,0,60,0,0
23338,-100,4,2,0,50,0,0
23720,-100,4,2,0,40,0,0
24293,-100,4,2,1,70,0,0
24484,-66.6666666666667,4,2,0,90,0,0
30408,-66.6666666666667,4,2,1,70,0,0
30599,-66.6666666666667,4,2,0,90,0,0
36331,-66.6666666666667,4,2,1,70,0,0
36713,-66.6666666666667,4,2,0,90,0,0
48943,-66.6666666666667,4,2,1,70,0,0
48990,-66.6666666666667,4,2,1,5,0,0
49038,-66.6666666666667,4,2,0,90,0,0
49707,-66.6666666666667,4,2,0,70,0,0
50471,-66.6666666666667,4,2,0,60,0,0
51236,-66.6666666666667,4,2,0,50,0,0
59643,-66.6666666666667,4,2,0,70,0,0
60981,-66.6666666666667,4,2,1,70,0,0
61172,-45.4545454545455,4,2,0,90,0,1
72924,-45.4545454545455,4,2,1,70,0,1
73115,-45.4545454545455,4,2,0,90,0,1
85248,-45.4545454545455,4,2,1,70,0,1
85631,-45.4545454545455,4,2,0,70,0,0

[Colours]
Combo1 : 108,108,255
Combo2 : 255,128,0
Combo3 : 255,169,83
Combo4 : 85,85,255

[HitObjects]
25,202,5758,6,0,L|32:156,1,28,2|0,0:3|0:0,0:0:0:0:
34,205,5949,2,0,L|41:159,1,28,2|0,0:3|0:0,0:0:0:0:
51,280,6140,6,0,L|-11:288,3,56,2|0|2|2,3:2|3:2|0:2|3:2,0:2:0:0:
121,367,6904,2,0,L|59:359,1,56,0|0,3:2|3:2,0:0:0:0:
209,284,7287,2,0,L|147:292,1,56,0|2,3:2|3:2,0:2:0:0:
293,265,7669,6,0,P|299:293|291:325,3,56,2|0|2|2,3:2|3:2|3:2|3:2,3:2:0:0:
189,180,8433,2,0,P|183:208|191:240,1,56,0|2,3:2|3:2,0:0:0:0:
305,102,8815,2,0,P|311:130|303:162,1,56,0|2,3:2|3:2,3:2:0:0:
256,22,9197,6,0,B|267:20|267:20|280:14|280:14|314:8,3,56,2|0|2|2,3:2|3:2|3:2|3:2,3:2:0:0:
194,83,9962,2,0,B|201:91|201:91|212:99|212:99|235:126,1,56,0|2,3:2|3:2,0:0:0:0:
115,42,10344,2,0,B|111:52|111:52|109:66|109:66|98:99,1,56,2|2,3:2|3:2,3:2:0:0:
31,164,10726,6,0,P|17:135|-7:119,3,56,2|0|2|2,3:2|3:2|3:2|3:2,3:2:0:0:
125,231,11490,2,0,P|139:202|163:186,1,56,0|0,0:0|3:2,0:0:0:0:
70,335,11873,2,0,P|56:306|32:290,1,56,2|2,0:0|0:0,0:0:0:0:
176,327,12255,6,0,B|246:364|292:301|261:251|356:251,1,210,4|2,3:2|3:2,0:0:0:0:
387,384,13019,2,0,P|366:368|360:351,1,35,2|0,3:0|0:0,0:0:0:0:
354,333,13210,1,0,0:0:0:0:
492,206,13401,2,0,P|473:248|471:289,1,70,8|0,3:2|3:0,0:0:0:0:
305,76,13783,6,0,P|332:129|344:192,1,105,0|0,3:0|0:0,0:0:0:0:
328,197,14166,2,0,P|321:156|347:133,1,70,8|2,0:0|3:2,0:0:0:0:
471,87,14548,1,0,3:2:0:0:
471,87,14739,1,2,0:0:0:0:
334,0,14930,5,8,3:2:0:0:
239,135,15121,2,0,B|197:157|154:132|175:83|107:89,1,140,0|2,3:0|0:0,0:0:0:0:
64,31,15694,2,0,P|53:42|42:61,1,35,10|0,0:0|0:0,0:0:0:0:
33,84,15885,1,2,3:2:0:0:
92,240,16076,5,0,3:0:0:0:
113,165,16268,1,2,0:0:0:0:
4,255,16459,2,0,P|27:283|42:317,1,70,8|0,3:2|3:0,0:0:0:0:
135,384,16841,6,0,P|190:366|255:360,1,105,0|0,3:0|0:0,0:0:0:0:
311,334,17223,2,0,P|302:313|288:301,1,35,10|0,0:0|0:0,0:0:0:0:
268,291,17414,1,2,3:2:0:0:
365,141,17605,5,2,3:0:0:0:
349,218,17796,1,8,0:0:0:0:
168,69,17987,5,8,0:0:0:0:
190,179,18178,1,8,3:2:0:0:
295,50,18369,6,0,P|352:42|438:29,1,140,4|10,3:2|0:0,0:0:0:0:
504,116,18943,1,2,3:2:0:0:
359,197,19134,5,2,3:0:0:0:
395,118,19325,1,0,0:0:0:0:
509,229,19516,2,0,P|490:252|489:279,1,35,8|0,3:2|3:0,0:0:0:0:
495,283,19707,1,0,3:0:0:0:
406,352,19898,6,0,P|342:342|257:330,1,140,0|8,3:0|0:0,0:0:0:0:
175,379,20471,1,2,3:2:0:0:
108,238,20662,2,0,L|93:329,1,70,0|2,3:2|0:0,0:0:0:0:
191,194,21045,2,0,P|183:175|171:165,1,35,8|0,3:2|3:0,0:0:0:0:
146,153,21236,1,0,3:0:0:0:
12,62,21427,6,0,L|168:38,1,140,0|10,3:0|0:0,0:0:0:0:
294,118,22000,2,0,L|225:110,1,70,2|0,3:2|3:0,0:0:0:0:
339,17,22382,1,2,0:0:0:0:
409,196,22573,2,0,P|420:182|425:166,1,35,8|0,3:2|3:0,0:0:0:0:
424,137,22764,1,0,3:0:0:0:
305,238,22955,1,0,3:0:0:0:
256,192,23051,12,0,24293,0:0:0:0:
2,340,24484,6,0,B|11:314|11:314|81:306|54:362|156:346,1,157.500006008148,4|0,1:0|0:0,0:0:0:0:
202,175,24866,2,0,P|145:164|136:256,1,157.500006008148,4|0,1:3|0:0,0:0:0:0:
213,298,25248,2,0,P|246:279|271:285,1,52.5000020027161,4|0,1:3|0:0,0:0:0:0:
314,364,25440,1,2,3:0:0:0:
314,364,25535,2,0,P|333:331|357:323,1,52.5000020027161,4|8,1:3|1:2,0:0:0:0:
441,382,25727,1,2,0:0:0:0:
441,382,25822,2,0,P|441:343|458:325,1,52.5000020027161,4|0,1:3|0:0,0:0:0:0:
512,269,26013,6,0,B|499:215|499:215|499:199|499:199|477:100,1,157.500006008148,4|0,1:3|0:0,0:0:0:0:
409,57,26395,2,0,B|346:95|305:42|335:9|241:11,1,157.500006008148,4|0,1:3|0:0,0:0:0:0:
200,116,26777,1,4,1:3:0:0:
200,116,26873,1,2,0:0:0:0:
200,116,26968,2,0,L|251:100,1,52.5000020027161,0|4,0:0|1:3,0:0:0:0:
118,43,27159,2,0,P|147:117|158:243,1,157.500006008148,8|0,1:2|0:0,0:0:0:0:
0,280,27541,6,0,P|9:201|85:231,1,157.500006008148,8|0,1:3|0:0,0:0:0:0:
132,344,27924,2,0,B|144:296|229:381|95:394|68:316,1,157.500006008148,8|0,1:3|0:0,0:0:0:0:
196,261,28306,2,0,P|220:277|234:300,1,52.5000020027161,8|0,1:3|0:0,0:0:0:0:
333,358,28497,1,2,3:2:0:0:
333,358,28592,2,0,P|334:329|347:305,1,52.5000020027161,8|8,1:3|1:2,0:0:0:0:
348,190,28783,1,2,0:0:0:0:
348,190,28879,2,0,P|322:202|295:203,1,52.5000020027161,8|0,1:3|0:0,0:0:0:0:
459,266,29070,6,0,P|464:186|472:82,1,157.500006008148,4|2,1:3|3:2,0:0:0:0:
405,26,29452,2,0,B|342:-12|301:41|331:74|237:72,1,157.500006008148,4|0,1:3|0:0,0:0:0:0:
164,0,29834,2,0,P|185:-4|211:11,1,52.5000020027161,4|0,1:3|0:0,0:0:0:0:
269,70,30025,2,0,P|282:86|282:116,1,52.5000020027161,0|4,1:0|1:3,0:0:0:0:
260,195,30217,1,8,1:2:0:0:
260,195,30408,1,6,1:3:0:0:
110,198,30599,6,0,P|48:204|82:301,1,157.500006008148,4|0,1:0|0:0,0:0:0:0:
201,378,30981,2,0,B|178:348|178:348|62:379,1,157.500006008148,4|0,1:3|0:0,0:0:0:0:
228,276,31363,2,0,P|251:280|281:268,1,52.5000020027161,4|0,1:3|0:0,0:0:0:0:
350,335,31554,1,2,3:0:0:0:
350,335,31650,2,0,P|364:317|369:285,1,52.5000020027161,4|8,1:3|1:2,0:0:0:0:
471,250,31841,1,2,0:0:0:0:
471,250,31936,2,0,P|462:228|437:208,1,52.5000020027161,4|0,1:3|0:0,0:0:0:0:
325,151,32127,6,0,B|358:176|358:176|346:54,1,157.500006008148,4|0,1:3|0:0,0:0:0:0:
156,26,32510,2,0,B|224:-5|251:69|251:69|234:51|202:54,1,157.500006008148,4|0,1:3|0:0,0:0:0:0:
171,177,32892,1,4,1:3:0:0:
171,177,32987,1,2,0:0:0:0:
171,177,33083,2,0,P|182:142|191:119,1,52.5000020027161,0|4,0:0|1:3,0:0:0:0:
29,163,33274,2,0,P|65:217|102:314,1,157.500006008148,8|0,1:2|0:0,0:0:0:0:
204,372,33656,6,0,B|258:403|309:371|281:314|385:314,1,157.500006008148,8|0,1:3|0:0,0:0:0:0:
481,281,34038,2,0,P|412:250|434:169,1,157.500006008148,8|0,1:3|0:0,0:0:0:0:
494,77,34420,2,0,L|437:100,1,52.5000020027161,8|0,1:3|0:0,0:0:0:0:
379,18,34611,1,2,3:2:0:0:
379,18,34707,2,0,L|341:66,1,52.5000020027161,8|8,1:3|1:2,0:0:0:0:
249,24,34898,1,2,0:0:0:0:
249,24,34994,2,0,L|240:84,1,52.5000020027161,8|0,1:3|0:0,0:0:0:0:
154,185,35185,6,0,B|127:221|127:221|138:106,1,157.500006008148,4|2,1:3|3:2,0:0:0:0:
318,155,35567,2,0,B|342:206|304:239|306:222|266:264|297:314,1,157.500006008148,4|0,1:3|0:0,0:0:0:0:
403,384,35949,2,0,P|391:355|370:345,1,52.5000020027161,4|0,1:3|0:0,0:0:0:0:
290,300,36140,2,0,P|258:295|239:309,1,52.5000020027161,2|4,3:0|1:3,0:0:0:0:
160,355,36331,1,2,1:3:0:0:
0,258,36522,5,2,1:3:0:0:
0,258,36618,1,2,1:3:0:0:
0,258,36713,2,0,L|120:268,1,105.000004005432,4|2,1:0|3:0,0:0:0:0:
207,185,37096,1,8,1:2:0:0:
156,0,37287,1,2,3:2:0:0:
156,0,37383,1,2,3:2:0:0:
156,0,37478,2,0,L|146:120,1,105.000004005432,4|2,1:3|3:2,0:0:0:0:
229,207,37861,1,8,1:2:0:0:
413,130,38051,5,4,1:3:0:0:
413,130,38147,1,2,3:2:0:0:
413,130,38242,2,0,L|293:120,1,105.000004005432,8|2,1:3|3:0,0:0:0:0:
206,203,38625,1,8,1:2:0:0:
8,152,38815,1,2,3:0:0:0:
8,152,38911,1,2,3:2:0:0:
8,152,39006,2,0,L|128:142,1,105.000004005432,8|2,1:3|3:0,0:0:0:0:
215,225,39389,1,8,1:2:0:0:
215,225,39771,6,0,P|245:268|238:324,1,105.000004005432,8|2,1:3|3:0,0:0:0:0:
375,371,40153,2,0,P|371:319|400:277,1,105.000004005432,8|2,1:2|3:0,0:0:0:0:
491,241,40535,1,8,1:3:0:0:
487,93,40726,5,2,3:0:0:0:
487,93,40822,1,8,1:3:0:0:
487,93,40917,2,0,L|348:113,1,105.000004005432,8|4,1:2|1:3,0:0:0:0:
251,24,41299,5,4,1:3:0:0:
352,110,41490,1,2,3:0:0:0:
221,202,41682,2,0,P|251:156|251:100,1,105.000004005432,8|2,1:2|3:0,0:0:0:0:
163,135,42064,5,4,1:3:0:0:
310,221,42255,1,2,1:3:0:0:
222,335,42446,2,0,P|152:320|102:332,1,105.000004005432,8|4,1:2|1:3,0:0:0:0:
7,204,42828,6,0,L|120:229,1,105.000004005432,4|2,1:3|3:0,0:0:0:0:
186,71,43210,2,0,L|73:96,1,105.000004005432,8|2,1:2|3:0,0:0:0:0:
271,176,43592,1,4,1:3:0:0:
363,38,43783,1,2,3:0:0:0:
363,38,43879,1,4,1:3:0:0:
363,38,43975,2,0,L|373:158,1,105.000004005432,8|4,1:2|1:3,0:0:0:0:
446,272,44357,6,0,P|385:264|351:227,1,105.000004005432,8|2,1:3|3:0,0:0:0:0:
226,384,44739,2,0,P|265:350|316:347,1,105.000004005432,8|2,1:2|3:0,0:0:0:0:
140,297,45121,1,8,1:3:0:0:
237,201,45312,1,2,3:0:0:0:
237,201,45408,1,8,1:3:0:0:
237,201,45503,2,0,L|220:91,1,105.000004005432,8|0,1:2|0:0,0:0:0:0:
58,62,45885,6,0,P|126:47|152:17,1,105.000004005432,8|2,1:3|3:0,0:0:0:0:
90,239,46268,2,0,P|50:205|0:199,1,105.000004005432,8|2,1:2|3:0,0:0:0:0:
177,332,46650,1,8,1:3:0:0:
267,193,46841,1,2,3:0:0:0:
267,193,46936,1,8,2:3:0:0:
267,193,47032,2,0,P|317:192|374:168,1,105.000004005432,8|0,1:2|0:0,0:0:0:0:
512,269,47414,5,4,1:3:0:0:
399,170,47605,1,2,3:0:0:0:
512,43,47796,2,0,L|506:175,1,105.000004005432,8|2,1:2|3:0,0:0:0:0:
345,0,48178,5,4,1:3:0:0:
345,0,48369,1,2,1:3:0:0:
193,122,48561,2,0,L|266:114,1,52.5000020027161,8|0,1:2|0:0,0:0:0:0:
286,110,48752,1,4,1:3:0:0:
381,219,48943,1,2,1:3:0:0:
494,76,55057,6,0,L|358:63,1,105.000004005432,2|0,3:2|0:0,0:0:0:0:
295,108,55440,1,0,3:0:0:0:
295,108,55535,1,0,3:0:0:0:
295,108,55631,1,0,3:0:0:0:
210,34,55822,5,2,3:2:0:0:
352,220,56013,2,0,L|356:161,1,52.5000020027161,2|2,3:2|3:2,0:0:0:0:
188,27,56299,2,0,L|192:86,1,52.5000020027161,0|0,3:0|3:0,0:0:0:0:
21,179,56586,6,0,P|68:147|127:154,1,105.000004005432,2|2,3:2|0:0,0:0:0:0:
2,263,56968,1,0,0:0:0:0:
5,266,57064,1,0,3:0:0:0:
9,270,57159,1,2,3:2:0:0:
127,339,57350,5,2,3:0:0:0:
182,231,57541,2,0,L|240:225,1,52.5000020027161,0|0,3:0|3:0,0:0:0:0:
111,373,57828,2,0,L|53:367,1,52.5000020027161,0|0,3:0|3:0,0:0:0:0:
315,203,58115,6,0,L|307:321,1,105.000004005432,2|2,3:2|0:0,0:0:0:0:
134,160,58497,1,0,0:0:0:0:
137,163,58592,1,0,3:0:0:0:
141,167,58688,1,2,3:2:0:0:
248,100,58879,5,2,3:2:0:0:
135,261,59070,2,0,L|53:248,1,52.5000020027161,0|0,3:0|3:0,0:0:0:0:
235,75,59357,2,0,L|286:66,1,52.5000020027161,0|0,3:0|3:0,0:0:0:0:
13,39,59643,6,0,P|78:50|108:114,1,105.000004005432,0|0,1:0|0:0,0:0:0:0:
141,90,59930,2,0,P|163:151|123:209,1,105.000004005432,0|0,1:0|0:0,0:0:0:0:
151,227,60217,1,0,1:0:0:0:
0,171,60408,6,0,L|75:154,2,70.0000026702882,0|0|0,1:0|1:0|1:0,0:0:0:0:
0,285,60790,2,0,L|63:297,1,52.5000020027161,8|0,1:2|0:0,0:0:0:0:
104,373,60981,2,0,L|164:351,1,52.5000020027161,6|2,1:3|1:3,0:0:0:0:
270,256,61172,6,0,P|234:224|175:239,1,77.0000023498536,4|0,1:2|0:0,0:0:0:0:
276,356,61363,2,0,P|313:349|339:322,1,77.0000023498536,2|0,0:0|0:0,0:0:0:0:
444,163,61554,2,0,L|429:333,1,154.000004699707,2|4,0:0|1:3,0:0:0:0:
330,163,61936,5,8,1:2:0:0:
102,57,62127,1,2,1:3:0:0:
193,4,62318,2,0,P|207:98|219:190,1,154.000004699707,2|2,0:0|1:3,0:0:0:0:
28,245,62701,5,2,0:0:0:0:
31,248,62796,1,2,0:0:0:0:
35,252,62892,2,0,L|124:259,1,77.0000023498536,4|2,1:3|0:0,0:0:0:0:
164,357,63083,1,2,0:0:0:0:
164,357,63178,1,2,0:0:0:0:
164,357,63274,1,4,1:3:0:0:
314,193,63465,6,0,L|304:299,1,77.0000023498536,8|0,1:2|0:0,0:0:0:0:
375,340,63656,1,4,1:3:0:0:
512,243,63847,2,0,L|505:167,1,77.0000023498536,2|0,0:0|0:0,0:0:0:0:
428,120,64038,1,4,1:3:0:0:
252,21,64229,6,0,P|295:17|335:-8,1,77.0000023498536,8|0,1:3|0:0,0:0:0:0:
155,134,64420,2,0,P|130:98|88:76,1,77.0000023498536,2|0,0:0|0:0,0:0:0:0:
236,260,64611,2,0,P|249:154|257:93,1,154.000004699707,2|8,0:0|1:3,0:0:0:0:
27,236,64994,5,2,1:3:0:0:
241,348,65185,1,2,1:3:0:0:
164,384,65376,2,0,P|151:303|138:224,1,154.000004699707,2|2,0:0|1:3,0:0:0:0:
137,109,65758,5,2,0:0:0:0:
231,23,65949,2,0,L|290:28,4,38.5000011749268,8|0|0|0|0,1:3|0:0|0:0|0:0|0:0,0:0:0:0:
422,117,66331,5,8,1:3:0:0:
422,117,66427,1,8,1:3:0:0:
422,117,66522,2,0,L|507:107,1,77.0000023498536,8|0,1:2|0:0,0:0:0:0:
348,179,66713,1,8,1:3:0:0:
457,321,66904,6,0,P|436:280|394:259,1,77.0000023498536,2|2,0:0|0:0,0:0:0:0:
348,179,67096,1,8,1:3:0:0:
164,343,67287,6,0,L|264:311,1,77.0000023498536,4|0,1:3|0:0,0:0:0:0:
78,254,67478,2,0,L|54:356,1,77.0000023498536,2|0,0:0|0:0,0:0:0:0:
192,221,67669,2,0,L|77:109,1,154.000004699707,4|2,1:3|0:0,0:0:0:0:
5,197,68051,5,8,1:2:0:0:
167,86,68242,1,0,1:3:0:0:
167,86,68338,1,0,0:0:0:0:
167,86,68433,1,2,0:0:0:0:
181,207,68624,6,0,P|215:226|267:209,1,77.0000023498536,2|0,1:3|0:0,0:0:0:0:
332,244,68815,2,0,P|365:224|378:169,1,77.0000023498536,2|2,0:0|0:0,0:0:0:0:
271,12,69006,2,0,P|289:110|306:199,1,154.000004699707,4|2,1:3|0:0,0:0:0:0:
414,22,69389,1,4,1:3:0:0:
145,126,69580,6,0,P|177:120|224:156,1,77.0000023498536,8|0,1:2|0:0,0:0:0:0:
304,170,69771,2,0,P|325:194|317:253,1,77.0000023498536,4|0,1:3|0:0,0:0:0:0:
345,329,69962,1,0,0:0:0:0:
345,329,70153,1,4,1:3:0:0:
134,179,70344,6,0,L|50:123,1,77.0000023498536,8|0,1:3|0:0,0:0:0:0:
167,325,70535,2,0,L|257:280,1,77.0000023498536,8|0,1:3|0:0,0:0:0:0:
36,231,70726,2,0,L|20:418,1,154.000004699707,2|8,0:0|1:3,0:0:0:0:
210,90,71108,5,2,1:3:0:0:
224,210,71299,1,2,1:3:0:0:
7,9,71490,6,0,L|98:-2,1,77.0000023498536,8|0,1:3|0:0,0:0:0:0:
210,90,71682,2,0,L|119:79,1,77.0000023498536,8|0,1:2|0:0,0:0:0:0:
281,12,71873,1,2,0:0:0:0:
358,104,72064,2,0,L|353:172,4,38.5000011749268,8|0|0|0|0,1:3|0:0|0:0|0:0|0:0,0:0:0:0:
512,199,72446,5,8,1:3:0:0:
512,199,72541,1,8,1:3:0:0:
512,199,72637,2,0,P|472:172|428:180,1,77.0000023498536,8|0,1:2|0:0,0:0:0:0:
364,273,72828,1,8,1:3:0:0:
364,273,72924,1,2,1:3:0:0:
364,273,73019,1,2,1:3:0:0:
226,279,73210,6,0,L|138:258,1,77.0000023498536,8|8,1:3|1:3,0:0:0:0:
15,166,73401,6,0,P|51:198|110:183,1,77.0000023498536,4|0,1:2|0:0,0:0:0:0:
191,141,73592,2,0,P|201:94|159:51,1,77.0000023498536
106,0,73783,2,0,P|75:65|-16:71,1,154.000004699707,2|4,0:0|1:3,0:0:0:0:
271,235,74165,5,8,1:2:0:0:
109,355,74357,1,0,1:3:0:0:
197,384,74547,2,0,P|182:307|161:202,1,154.000004699707,2|2,0:0|1:3,0:0:0:0:
67,114,74930,5,2,0:0:0:0:
67,114,75025,1,2,0:0:0:0:
67,114,75121,2,0,L|165:105,1,77.0000023498536,4|2,1:3|0:0,0:0:0:0:
255,31,75312,1,2,0:0:0:0:
255,31,75407,1,2,0:0:0:0:
255,31,75503,1,4,1:3:0:0:
380,77,75694,6,0,P|366:118|375:160,1,77.0000023498536,8|0,1:2|0:0,0:0:0:0:
493,219,75885,1,4,1:3:0:0:
341,234,76076,2,0,P|327:275|336:317,1,77.0000023498536,2|0,0:0|0:0,0:0:0:0:
456,339,76267,1,4,1:3:0:0:
197,194,76458,6,0,P|154:198|114:223,1,77.0000023498536,8|0,1:3|0:0,0:0:0:0:
95,321,76649,2,0,P|120:357|162:379,1,77.0000023498536,2|0,0:0|0:0,0:0:0:0:
245,378,76840,2,0,P|232:302|281:238,1,154.000004699707,2|8,0:0|1:3,0:0:0:0:
368,170,77223,5,2,1:3:0:0:
206,50,77415,1,2,1:3:0:0:
294,21,77605,2,0,P|279:98|258:203,1,154.000004699707,2|2,0:0|1:3,0:0:0:0:
5,207,77987,5,2,0:0:0:0:
67,100,78178,2,0,L|127:96,4,38.5000011749268,8|2|0|0|0,1:3|0:0|0:0|0:0|0:0,0:0:0:0:
194,222,78560,5,8,1:3:0:0:
194,222,78656,1,8,1:3:0:0:
194,222,78751,2,0,L|284:232,1,77.0000023498536,8|0,1:2|0:0,0:0:0:0:
420,246,78942,1,8,1:3:0:0:
322,11,79133,6,0,P|296:49|302:98,1,77.0000023498536,2|2,0:0|0:0,0:0:0:0:
249,147,79325,1,8,1:3:0:0:
439,165,79516,6,0,L|342:196,1,77.0000023498536,4|0,1:3|0:0,0:0:0:0:
491,328,79707,2,0,L|514:229,1,77.0000023498536
309,263,79898,2,0,L|438:385,1,154.000004699707,4|0,1:3|0:0,0:0:0:0:
425,240,80280,5,8,1:2:0:0:
336,68,80471,1,0,1:3:0:0:
336,68,80567,1,0,0:0:0:0:
336,68,80662,1,2,0:0:0:0:
252,174,80853,6,0,P|218:193|162:176,1,77.0000023498536,2|0,1:3|0:0,0:0:0:0:
91,200,81044,2,0,P|58:180|45:123,1,77.0000023498536,2|2,0:0|0:0,0:0:0:0:
149,61,81235,2,0,P|162:133|179:232,1,154.000004699707,4|2,1:3|0:0,0:0:0:0:
64,297,81618,1,4,1:3:0:0:
186,367,81809,6,0,P|218:373|265:337,1,77.0000023498536,8|0,1:2|0:0,0:0:0:0:
345,323,82000,2,0,P|366:299|358:240,1,77.0000023498536,4|0,1:3|0:0,0:0:0:0:
386,164,82191,1,2,0:0:0:0:
386,164,82382,1,4,1:3:0:0:
116,168,82573,6,0,L|200:224,1,77.0000023498536,8|0,1:3|0:0,0:0:0:0:
184,11,82764,2,0,L|93:55,1,77.0000023498536,8|0,1:3|0:0,0:0:0:0:
278,182,82955,2,0,L|286:25,1,154.000004699707,2|8,0:0|1:3,0:0:0:0:
334,302,83337,5,2,1:3:0:0:
408,196,83528,1,2,1:3:0:0:
507,363,83719,6,0,L|416:374,1,77.0000023498536,8|0,1:3|0:0,0:0:0:0:
293,280,83911,2,0,L|384:291,1,77.0000023498536,8|0,1:2|0:0,0:0:0:0:
223,383,84102,1,2,0:0:0:0:
120,288,84293,2,0,L|125:220,4,38.5000011749268,8|0|0|0|0,1:3|0:0|0:0|0:0|0:0,0:0:0:0:
28,127,84675,5,8,1:3:0:0:
28,127,84770,1,8,1:3:0:0:
28,127,84866,2,0,P|68:154|112:146,1,77.0000023498536,8|0,1:2|0:0,0:0:0:0:
186,179,85057,2,0,P|229:157|244:115,1,77.0000023498536,8|2,1:3|1:3,0:0:0:0:
155,19,85248,5,2,1:3:0:0:
150,71,85344,1,2,1:3:0:0:
145,123,85440,1,6,1:3:0:0:
141,175,85535,1,6,1:3:0:0:
137,227,85631,1,6,0:0:0:0:
