osu file format v14

[General]
AudioFilename: awaken-the-giant-i-fooled-you.mp3
AudioLeadIn: 0
PreviewTime: 99511
Countdown: 0
SampleSet: Normal
StackLeniency: 0.5
Mode: 0
LetterboxInBreaks: 0
WidescreenStoryboard: 0

[Editor]
Bookmarks: 7617,11406,191090,201196,207511
DistanceSpacing: 0.5
BeatDivisor: 4
GridSize: 8
TimelineZoom: 4.199998

[Metadata]
Title:I Fooled You
TitleUnicode:I Fooled You
Artist:Awaken The Giant
ArtistUnicode:Awaken The Giant
Creator:DanielMagical
Version:Deceived
Source:
Tags:rock punk hardcore metal single
BeatmapID:1955578
BeatmapSetID:936062

[Difficulty]
HPDrainRate:5
CircleSize:4.2
OverallDifficulty:9
ApproachRate:9.5
SliderMultiplier:2
SliderTickRate:1

[Events]
//Background and Video events
0,0,"awaken the giant bg.jpg",0,0
//Break Periods
2,121817,126115
2,142027,151378
//Storyboard Layer 0 (Background)
//Storyboard Layer 1 (Fail)
//Storyboard Layer 2 (Pass)
//Storyboard Layer 3 (Foreground)
//Storyboard Layer 4 (Overlay)
//Storyboard Sound Samples

[TimingPoints]
354.027027027027,315.789473684211,4,1,0,60,1,0
7932,-133.333333333333,4,1,0,60,0,0
10459,-100,4,1,0,60,0,0
20564,-100,4,1,0,60,0,0
45827,-83.3333333333333,4,1,0,60,0,1
60985,-100,4,1,0,60,0,0
64775,-200,4,1,0,60,0,0
66038,-100,4,1,0,60,0,0
76143,-100,4,1,0,60,0,0
101406,-83.3333333333333,4,1,0,60,0,1
116564,-100,4,1,0,60,0,0
120354,-200,4,1,0,60,0,0
126669,-100,4,1,0,60,0,0
131722,-83.3333333333333,4,1,0,60,0,1
141827,-83.3333333333333,4,1,0,60,0,0
151932,-200,4,1,0,60,0,0
159511,-100,4,1,0,60,0,0
161406,-200,4,1,0,60,0,0
162038,-83.3333333333333,4,1,0,60,0,1
177196,-100,4,1,0,60,0,0
182248,-111.111111111111,4,1,0,60,0,0
192354,-83.3333333333333,4,1,0,60,0,1
197406,-100,4,1,0,60,0,0
201196,-100,4,1,0,60,0,0

[Colours]
Combo1 : 138,163,244
Combo2 : 0,255,255
Combo3 : 128,128,255
Combo4 : 0,128,128

[HitObjects]
244,257,7775,5,0,0:0:0:0:
244,257,7854,1,0,0:0:0:0:
244,257,7932,2,0,L|144:265,1,75.0000028610231
50,272,8248,1,0,0:0:0:0:
135,97,8406,2,0,L|102:164,1,75.0000028610231
44,286,8722,1,0,0:0:0:0:
203,163,8880,2,0,P|253:152|295:153,1,75.0000028610231
442,293,9196,5,0,0:0:0:0:
405,299,9275,1,0,0:0:0:0:
368,305,9354,1,0,0:0:0:0:
331,312,9432,1,0,0:0:0:0:
302,288,9511,5,0,0:0:0:0:
265,281,9590,1,0,0:0:0:0:
228,275,9669,1,0,0:0:0:0:
191,269,9748,1,0,0:0:0:0:
154,263,9827,6,0,P|133:257|109:254,1,37.5000014305115,0|0,0:0|2:0,0:0:0:0:
289,195,9985,2,0,P|307:184|330:174,1,37.5000014305115,0|0,0:0|2:0,0:0:0:0:
151,127,10143,6,0,P|136:112|116:97,1,37.5000014305115,0|0,0:0|2:0,0:0:0:0:
294,33,10301,2,0,P|304:14|319:-6,1,37.5000014305115,0|0,0:0|2:0,0:0:0:0:
92,17,10459,5,0,0:0:0:0:
44,239,10617,1,0,0:0:0:0:
224,120,10775,2,0,P|272:108|325:109,1,100
169,303,11090,6,0,L|157:192,1,100
136,23,11406,1,0,0:0:0:0:
266,208,11564,1,0,0:0:0:0:
34,188,11722,6,0,P|29:151|63:95,1,100
215,29,12038,1,0,0:0:0:0:
79,271,12196,2,0,L|131:266,1,50,0|0,0:0|2:0,0:0:0:0:
366,219,12354,5,0,0:0:0:0:
255,101,12511,1,0,0:0:0:0:
214,250,12669,5,0,0:0:0:0:
406,69,12827,1,0,0:0:0:0:
472,269,12985,6,0,P|434:312|366:350,1,100
255,101,13301,1,0,0:0:0:0:
283,284,13459,1,0,0:0:0:0:
330,78,13617,6,0,P|290:30|219:28,1,100
209,203,13932,2,0,B|265:203|265:203|329:193,1,100
437,62,14248,5,0,0:0:0:0:
408,324,14406,1,0,0:0:0:0:
260,125,14564,1,0,0:0:0:0:
505,208,14722,1,0,0:0:0:0:
245,120,14880,2,0,P|188:115|124:128,1,100
51,253,15196,1,0,0:0:0:0:
88,53,15354,1,0,0:0:0:0:
179,226,15511,6,0,B|206:236|231:237|231:237|256:243|275:261|275:261|298:268|323:269,1,150,0|0,0:0|2:0,0:0:0:0:
404,277,15827,1,0,0:0:0:0:
318,68,15985,1,0,0:0:0:0:
409,289,16143,6,0,P|378:339|330:361,1,100
250,148,16459,1,0,0:0:0:0:
173,345,16617,1,0,0:0:0:0:
98,160,16775,6,0,L|81:50,1,100
16,198,17090,1,0,0:0:0:0:
164,23,17248,1,0,0:0:0:0:
210,215,17406,5,0,0:0:0:0:
402,66,17564,1,0,0:0:0:0:
203,220,17722,2,0,B|158:253|158:253|106:279,1,100
38,303,18038,5,0,0:0:0:0:
116,47,18196,1,0,0:0:0:0:
299,242,18354,1,0,0:0:0:0:
2,152,18511,5,0,0:0:0:0:
263,91,18669,1,0,0:0:0:0:
186,347,18827,1,0,0:0:0:0:
199,45,18985,2,0,P|243:15|332:50,1,150,0|0,0:0|2:0,0:0:0:0:
380,121,19301,5,0,0:0:0:0:
299,242,19459,1,0,0:0:0:0:
297,254,19538,1,0,0:0:0:0:
295,266,19617,1,0,0:0:0:0:
383,116,19775,1,0,0:0:0:0:
396,219,19932,6,0,L|457:243,1,50,0|0,0:0|2:0,0:0:0:0:
251,103,20090,2,0,L|188:80,1,50,0|0,0:0|2:0,0:0:0:0:
405,231,20248,2,0,L|466:255,1,50,0|0,0:0|2:0,0:0:0:0:
242,91,20406,2,0,L|181:67,1,50,0|0,0:0|2:0,0:0:0:0:
239,271,20564,5,0,0:0:0:0:
239,271,20722,2,0,B|186:277|186:277|142:292|142:292|88:300,1,150,0|0,0:0|2:0,0:0:0:0:
1,313,21038,1,0,0:0:0:0:
212,179,21196,2,0,P|261:178|304:203,1,100
215,352,21511,1,0,0:0:0:0:
76,236,21669,6,0,B|73:200|85:173|85:173|77:138|77:138|86:117|84:88,1,150,0|0,0:0|2:0,0:0:0:0:
83,7,21985,1,0,0:0:0:0:
313,105,22143,2,0,P|315:159|296:218,1,100
215,352,22459,1,0,0:0:0:0:
317,95,22617,1,0,0:0:0:0:
425,234,22775,2,0,L|398:342,1,100
170,81,23090,5,0,0:0:0:0:
170,81,23248,2,0,B|270:63|225:117|361:87,1,150,0|0,0:0|2:0,0:0:0:0:
418,44,23564,1,0,0:0:0:0:
233,252,23722,2,0,P|218:193|219:146,1,100
343,269,24038,1,0,0:0:0:0:
127,169,24196,2,0,P|140:121|169:80,1,100
401,154,24511,5,0,0:0:0:0:
233,252,24669,1,0,0:0:0:0:
471,261,24827,2,0,B|441:307|441:307|404:333,1,100
304,133,25143,2,0,B|358:135|358:135|400:153,1,100
277,342,25459,2,0,B|252:293,1,50,0|0,0:0|2:0,0:0:0:0:
183,151,25617,5,0,0:0:0:0:
113,323,25775,1,0,0:0:0:0:
187,130,25932,2,0,L|90:84,1,100
6,10,26248,1,0,0:0:0:0:
64,215,26406,1,0,0:0:0:0:
214,32,26564,1,0,0:0:0:0:
195,240,26722,2,0,L|204:347,1,100
187,130,27038,5,0,0:0:0:0:
357,240,27196,1,0,0:0:0:0:
368,38,27354,2,0,P|336:84|333:140,1,100
319,328,27669,1,0,0:0:0:0:
319,328,27827,2,0,P|351:282|354:226,1,100
279,42,28143,6,0,B|238:44|238:44|213:51|213:51|168:53,1,100
55,211,28459,2,0,B|154:206,1,100
291,202,28775,1,0,0:0:0:0:
105,71,28932,1,0,0:0:0:0:
322,125,29090,1,0,0:0:0:0:
220,281,29248,6,0,P|224:334|247:378,1,100
389,221,29564,2,0,L|290:201,1,100
134,140,29880,2,0,L|232:120,1,100
65,100,30196,2,0,P|56:151|90:207,1,100
208,272,30511,1,0,0:0:0:0:
185,42,30669,5,0,0:0:0:0:
211,287,30827,1,0,0:0:0:0:
303,136,30985,2,0,L|327:31,1,100
411,202,31301,2,0,B|376:225|376:225|312:239,1,100
122,257,31617,1,0,0:0:0:0:
287,327,31775,6,0,P|335:330|383:308,1,100
154,167,32090,2,0,P|106:164|58:186,1,100
122,257,32406,1,0,0:0:0:0:
87,56,32564,1,0,0:0:0:0:
279,127,32722,1,0,0:0:0:0:
170,18,32880,2,0,B|216:9|216:9|277:14,1,100
403,90,33196,5,0,0:0:0:0:
341,249,33354,1,0,0:0:0:0:
321,63,33511,1,0,0:0:0:0:
452,233,33669,1,0,0:0:0:0:
289,329,33827,2,0,P|252:277|248:230,1,100
417,324,34143,1,0,0:0:0:0:
189,323,34301,6,0,L|83:285,1,100
8,193,34617,2,0,L|102:159,1,100
257,110,34932,1,0,0:0:0:0:
150,29,35090,1,0,0:0:0:0:
219,225,35248,1,0,0:0:0:0:
276,30,35406,2,0,P|326:27|377:30,1,100
320,186,35722,5,0,0:0:0:0:
460,89,35880,1,0,0:0:0:0:
447,247,36038,2,0,L|412:352,1,100
320,186,36354,2,0,P|371:162|429:161,1,100
415,341,36669,1,0,0:0:0:0:
241,168,36827,6,0,P|195:136|129:121,1,100
154,334,37143,2,0,P|204:310|250:260,1,100
52,176,37459,2,0,P|47:231|67:296,1,100
342,279,37775,2,0,P|346:223|326:158,1,100
237,32,38090,1,0,0:0:0:0:
154,229,38248,5,0,0:0:0:0:
76,58,38406,1,0,0:0:0:0:
158,237,38564,2,0,L|209:328,1,100
106,129,38880,1,0,0:0:0:0:
291,111,39038,2,0,P|335:135|369:174,1,100
441,301,39354,6,0,P|451:249|454:183,1,100
318,18,39669,1,0,0:0:0:0:
447,130,39827,1,0,0:0:0:0:
291,111,39985,2,0,P|243:125|202:157,1,100
150,342,40301,1,0,0:0:0:0:
326,222,40459,1,0,0:0:0:0:
78,181,40617,1,0,0:0:0:0:
317,314,40775,5,0,0:0:0:0:
331,328,41090,1,0,0:0:0:0:
345,342,41406,1,0,0:0:0:0:
359,356,41722,1,0,0:0:0:0:
195,70,42038,5,0,0:0:0:0:
181,56,42354,1,0,0:0:0:0:
167,42,42669,1,0,0:0:0:0:
153,28,42985,1,0,0:0:0:0:
277,82,43301,5,0,0:0:0:0:
195,184,43459,1,0,0:0:0:0:
197,196,43538,1,0,0:0:0:0:
199,208,43617,1,0,0:0:0:0:
153,28,43775,1,0,0:0:0:0:
337,194,43932,5,0,0:0:0:0:
86,157,44090,1,0,0:0:0:0:
315,82,44248,5,0,0:0:0:0:
137,278,44406,1,0,0:0:0:0:
57,26,44564,5,0,0:0:0:0:
57,26,45196,6,0,L|108:42,1,50,0|0,0:0|2:0,0:0:0:0:
215,217,45354,2,0,L|164:201,1,50,0|0,0:0|2:0,0:0:0:0:
47,14,45511,2,0,L|104:32,1,50,0|0,0:0|2:0,0:0:0:0:
224,228,45669,2,0,L|167:210,1,50,0|0,0:0|2:0,0:0:0:0:
222,39,45827,6,0,B|257:35|257:35|293:41|293:41|352:30|323:50|405:39,1,179.999994506836,0|0,0:0|2:0,0:0:0:0:
474,19,46143,1,0,0:0:0:0:
343,158,46301,1,0,0:0:0:0:
498,108,46459,1,0,0:0:0:0:
411,291,46617,1,0,0:0:0:0:
274,112,46775,2,0,L|229:223,1,119.999996337891
85,373,47090,6,0,B|74:311|74:311|77:249,1,119.999996337891
146,124,47406,2,0,B|157:186|157:186|154:248,1,119.999996337891
61,50,47722,2,0,B|172:31|135:74|239:52,1,179.999994506836,0|0,0:0|2:0,0:0:0:0:
330,13,48038,1,0,0:0:0:0:
302,269,48196,1,0,0:0:0:0:
460,108,48354,5,0,0:0:0:0:
219,199,48511,1,0,0:0:0:0:
363,340,48669,2,0,P|392:291|385:227,1,119.999996337891
238,52,48985,1,0,0:0:0:0:
302,269,49143,1,0,0:0:0:0:
157,149,49301,1,0,0:0:0:0:
374,52,49459,1,0,0:0:0:0:
144,156,49617,6,0,B|119:188|119:188|135:226|135:226|132:264,1,119.999996337891
367,170,49932,2,0,P|377:111|373:51,1,119.999996337891
184,319,50248,2,0,B|221:359|265:368|265:368|299:347|299:347|345:344,1,179.999994506836,0|0,0:0|2:0,0:0:0:0:
471,307,50564,2,0,B|474:367,1,59.9999981689454
491,210,50722,2,0,B|488:150,1,59.9999981689454
367,170,50880,6,0,B|268:203|292:120|190:150,1,179.999994506836,0|0,0:0|2:0,0:0:0:0:
140,232,51196,1,0,0:0:0:0:
141,34,51354,1,0,0:0:0:0:
166,317,51511,2,0,P|223:326|267:288,1,119.999996337891
57,119,51827,2,0,B|48:185|48:185|59:237,1,119.999996337891
104,367,52143,5,0,0:0:0:0:
196,148,52301,1,0,0:0:0:0:
267,287,52459,2,0,P|324:324|378:324,1,119.999996337891
405,132,52775,1,0,0:0:0:0:
506,334,52932,1,0,0:0:0:0:
313,172,53090,1,0,0:0:0:0:
497,92,53248,1,0,0:0:0:0:
302,177,53406,6,0,B|247:204|247:204|174:209,1,119.999996337891
80,33,53722,1,0,0:0:0:0:
95,205,53880,2,0,P|112:262|159:296,1,119.999996337891
347,251,54196,1,0,0:0:0:0:
291,41,54354,2,0,B|260:55|231:51|231:51|216:70|196:80|196:80|159:77|124:96,1,179.999994506836,0|0,0:0|2:0,0:0:0:0:
45,144,54669,5,0,0:0:0:0:
110,341,54827,1,0,0:0:0:0:
159,194,54985,1,0,0:0:0:0:
208,341,55143,1,0,0:0:0:0:
289,171,55301,5,0,0:0:0:0:
344,190,55379,1,0,0:0:0:0:
380,237,55458,1,0,0:0:0:0:
385,296,55537,1,0,0:0:0:0:
356,348,55617,5,0,0:0:0:0:
401,349,55695,1,0,0:0:0:0:
445,338,55774,1,0,0:0:0:0:
483,315,55853,1,0,0:0:0:0:
512,281,55932,6,0,B|515:237|515:237|536:203|536:203|527:159|487:122,1,179.999994506836,0|0,0:0|2:0,0:0:0:0:
443,93,56248,1,0,0:0:0:0:
208,244,56406,1,0,0:0:0:0:
284,17,56564,2,0,P|322:61|321:119,1,119.999996337891
102,186,56880,1,0,0:0:0:0:
248,88,57038,1,0,0:0:0:0:
93,193,57196,6,0,P|85:226|86:314,1,119.999996337891
176,85,57511,1,0,0:0:0:0:
149,355,57669,1,0,0:0:0:0:
267,183,57827,2,0,B|378:164|341:207|445:185,1,179.999994506836,0|0,0:0|2:0,0:0:0:0:
483,81,58143,1,0,0:0:0:0:
419,345,58301,1,0,0:0:0:0:
264,103,58459,6,0,P|211:126|187:180,1,119.999996337891
303,361,58775,1,0,0:0:0:0:
338,92,58932,1,0,0:0:0:0:
188,260,59090,1,0,0:0:0:0:
451,236,59248,1,0,0:0:0:0:
173,262,59406,2,0,P|113:265|54:262,1,119.999996337891
41,69,59722,5,0,0:0:0:0:
258,180,59880,1,0,0:0:0:0:
145,0,60038,1,0,0:0:0:0:
105,195,60196,1,0,0:0:0:0:
266,30,60354,2,0,P|323:44|369:82,1,119.999996337891
274,298,60669,2,0,P|262:239|257:179,1,119.999996337891
439,125,60985,6,0,P|383:161|325:153,1,100
189,117,61301,2,0,B|71:105|115:151|-11:132,2,200
366,241,62090,1,0,0:0:0:0:
366,241,62248,2,0,L|371:345,1,100
141,340,62564,2,0,L|146:241,1,100
263,111,62880,1,0,0:0:0:0:
233,276,63038,1,0,0:0:0:0:
227,37,63196,1,0,0:0:0:0:
326,170,63354,1,0,0:0:0:0:
85,187,63511,5,0,0:0:0:0:
326,170,63669,1,0,0:0:0:0:
141,324,63827,1,0,0:0:0:0:
290,314,63985,1,0,0:0:0:0:
66,177,64143,5,0,0:0:0:0:
343,158,64301,1,0,0:0:0:0:
130,335,64459,1,0,0:0:0:0:
301,323,64617,1,0,0:0:0:0:
197,68,64775,6,0,B|110:59|142:92|50:79,2,150
256,192,66038,5,0,0:0:0:0:
281,12,66196,1,0,0:0:0:0:
253,214,66354,2,0,P|232:260|192:288,1,100
27,247,66669,5,0,0:0:0:0:
310,262,66827,1,0,0:0:0:0:
164,142,66985,1,0,0:0:0:0:
89,354,67143,1,0,0:0:0:0:
239,83,67301,6,0,P|193:53|135:50,1,100
296,185,67617,1,0,0:0:0:0:
426,101,67775,2,0,L|432:150,1,50
457,347,67932,5,0,0:0:0:0:
296,185,68090,1,0,0:0:0:0:
265,358,68248,5,0,0:0:0:0:
433,151,68406,1,0,0:0:0:0:
211,228,68564,6,0,P|146:228|91:217,1,100
18,114,68880,1,0,0:0:0:0:
170,44,69038,1,0,0:0:0:0:
58,287,69196,5,0,0:0:0:0:
141,142,69354,1,0,0:0:0:0:
182,342,69511,1,0,0:0:0:0:
15,206,69669,1,0,0:0:0:0:
247,283,69827,6,0,B|302:279|302:279|343:262,1,100
285,63,70143,1,0,0:0:0:0:
285,63,70301,2,0,B|260:112|260:112|253:156,1,100
456,205,70617,1,0,0:0:0:0:
456,205,70775,2,0,B|425:159|425:159|390:131,1,100
247,283,71090,6,0,B|337:292|302:254|391:261,1,150,0|0,0:0|2:0,0:0:0:0:
436,356,71406,2,0,L|331:352,1,100
101,327,71722,1,0,0:0:0:0:
260,374,71880,1,0,0:0:0:0:
239,154,72038,2,0,P|190:143|140:140,1,100
4,240,72354,5,0,0:0:0:0:
123,14,72511,1,0,0:0:0:0:
162,254,72669,1,0,0:0:0:0:
4,95,72827,1,0,0:0:0:0:
245,58,72985,2,0,P|298:78|324:126,1,100
305,317,73301,2,0,B|296:275|296:275|290:193,1,100
442,45,73617,5,0,0:0:0:0:
462,181,73775,1,0,0:0:0:0:
320,112,73932,2,0,P|270:113|225:132,1,100
462,181,74248,5,0,0:0:0:0:
482,317,74406,1,0,0:0:0:0:
341,248,74564,2,0,P|291:248|245:268,1,100
68,350,74880,5,0,0:0:0:0:
145,124,75038,1,0,0:0:0:0:
145,124,75117,1,0,0:0:0:0:
145,124,75196,1,0,0:0:0:0:
64,365,75354,1,0,0:0:0:0:
46,97,75511,5,0,0:0:0:0:
168,368,75669,1,0,0:0:0:0:
46,97,75827,1,0,0:0:0:0:
168,368,75985,1,0,0:0:0:0:
228,206,76143,5,0,0:0:0:0:
22,272,76301,2,0,B|116:290|81:248|169:263,1,150,0|0,0:0|2:0,0:0:0:0:
261,346,76617,1,0,0:0:0:0:
155,174,76775,2,0,B|161:119|161:119|187:82,1,100
288,16,77090,1,0,0:0:0:0:
97,247,77248,6,0,P|61:183|83:113,1,150,0|0,0:0|2:0,0:0:0:0:
149,17,77564,1,0,0:0:0:0:
253,219,77722,2,0,L|196:315,1,100
195,145,78038,2,0,P|241:125|290:132,1,100
453,327,78354,2,0,P|407:346|358:339,1,100
494,250,78669,5,0,0:0:0:0:
289,131,78827,2,0,B|270:193|270:193|276:231|276:231|273:286,1,150,0|0,0:0|2:0,0:0:0:0:
270,371,79143,1,0,0:0:0:0:
192,209,79301,2,0,P|145:187|90:189,1,100
120,309,79617,1,0,0:0:0:0:
172,107,79775,6,0,P|217:76|266:59,1,100
192,209,80090,1,0,0:0:0:0:
98,42,80248,1,0,0:0:0:0:
41,261,80406,1,0,0:0:0:0:
255,162,80564,2,0,P|309:157|360:167,1,100
113,286,80880,2,0,B|124:178,1,100
248,289,81196,5,0,0:0:0:0:
48,144,81354,2,0,P|92:107|142:102,1,100
344,132,81669,1,0,0:0:0:0:
221,205,81827,2,0,L|121:186,1,100
11,246,82143,1,0,0:0:0:0:
161,330,82301,6,0,P|217:316|248:286,1,100
217,39,82617,2,0,P|201:94|211:136,1,100
441,232,82932,2,0,P|400:190|359:178,1,100
196,213,83248,1,0,0:0:0:0:
310,309,83406,1,0,0:0:0:0:
315,65,83564,1,0,0:0:0:0:
105,283,83722,6,0,B|96:233|96:233|103:184,1,100
205,48,84038,1,0,0:0:0:0:
220,164,84196,1,0,0:0:0:0:
95,86,84354,1,0,0:0:0:0:
300,30,84511,1,0,0:0:0:0:
86,89,84669,1,0,0:0:0:0:
296,138,84827,6,0,P|286:207|235:248,1,100
70,191,85143,1,0,0:0:0:0:
204,91,85301,1,0,0:0:0:0:
175,329,85459,2,0,P|127:314|84:289,1,100
267,228,85775,2,0,P|314:242|357:267,1,100
431,357,86090,1,0,0:0:0:0:
412,120,86248,5,0,0:0:0:0:
194,175,86406,1,0,0:0:0:0:
419,119,86564,2,0,P|423:62|406:22,1,100
187,176,86880,2,0,P|183:233|200:273,1,100
305,342,87196,1,0,0:0:0:0:
95,179,87354,6,0,B|90:140|90:140|96:56,1,100
199,270,87669,2,0,P|166:308|119:324,1,100
0,224,87985,1,0,0:0:0:0:
49,361,88143,1,0,0:0:0:0:
187,176,88301,1,0,0:0:0:0:
233,352,88459,2,0,P|289:351|336:339,1,100
280,124,88775,6,0,B|264:167|264:167|271:235,1,100
385,288,89090,1,0,0:0:0:0:
188,256,89248,1,0,0:0:0:0:
391,213,89406,2,0,P|420:170|441:119,1,100
261,28,89722,1,0,0:0:0:0:
261,28,89880,6,0,L|372:38,1,100
497,75,90196,1,0,0:0:0:0:
280,124,90354,2,0,L|180:132,1,100
36,233,90669,2,0,B|19:285|19:285|41:324,1,100
186,224,90985,2,0,B|203:172|203:172|180:132,1,100
65,64,91301,5,0,0:0:0:0:
123,285,91459,1,0,0:0:0:0:
185,56,91617,1,0,0:0:0:0:
71,177,91775,1,0,0:0:0:0:
323,113,91932,2,0,P|373:111|415:137,1,100
456,280,92248,1,0,0:0:0:0:
274,176,92406,6,0,P|247:133|249:83,1,100
460,16,92722,2,0,P|402:34|348:37,1,100
177,24,93038,1,0,0:0:0:0:
323,113,93196,1,0,0:0:0:0:
120,100,93354,1,0,0:0:0:0:
162,251,93511,2,0,P|220:276|259:280,1,100
420,248,93827,5,0,0:0:0:0:
366,355,93985,1,0,0:0:0:0:
304,204,94143,1,0,0:0:0:0:
464,356,94301,1,0,0:0:0:0:
294,195,94459,2,0,P|236:170|197:166,1,100
95,333,94775,1,0,0:0:0:0:
84,177,94932,6,0,L|101:78,1,100
199,166,95248,2,0,L|293:131,1,100
264,261,95564,2,0,L|340:325,1,100
178,342,95880,1,0,0:0:0:0:
387,143,96038,1,0,0:0:0:0:
398,354,96196,1,0,0:0:0:0:
195,70,96354,5,0,0:0:0:0:
181,56,96669,1,0,0:0:0:0:
167,42,96985,1,0,0:0:0:0:
153,28,97301,1,0,0:0:0:0:
317,314,97617,5,0,0:0:0:0:
331,328,97932,1,0,0:0:0:0:
345,342,98248,1,0,0:0:0:0:
359,356,98564,1,0,0:0:0:0:
411,166,98880,5,0,0:0:0:0:
261,59,99038,1,0,0:0:0:0:
263,71,99117,1,0,0:0:0:0:
265,83,99196,1,0,0:0:0:0:
360,228,99354,1,0,0:0:0:0:
356,65,99511,5,0,0:0:0:0:
284,289,99669,1,0,0:0:0:0:
480,110,99827,5,0,0:0:0:0:
206,206,99985,1,0,0:0:0:0:
472,245,100143,5,0,0:0:0:0:
472,245,100775,6,0,L|481:318,1,50,0|0,0:0|2:0,0:0:0:0:
362,168,100932,2,0,L|353:95,1,50,0|0,0:0|2:0,0:0:0:0:
477,248,101090,6,0,L|487:329,1,50,0|0,0:0|2:0,0:0:0:0:
356,164,101248,2,0,L|346:83,1,50,0|0,0:0|2:0,0:0:0:0:
334,326,101406,6,0,B|292:324|292:324|261:335|261:335|219:316|219:316|195:325|147:321,1,179.999994506836,0|0,0:0|2:0,0:0:0:0:
67,350,101722,1,0,0:0:0:0:
196,132,101880,1,0,0:0:0:0:
20,162,102038,1,0,0:0:0:0:
271,244,102196,1,0,0:0:0:0:
146,71,102354,2,0,P|205:53|261:89,1,119.999996337891
67,350,102669,6,0,P|60:290|58:230,1,119.999996337891
93,17,102985,1,0,0:0:0:0:
171,257,103143,1,0,0:0:0:0:
253,79,103301,2,0,B|319:75|319:75|366:89|366:89|430:82,1,179.999994506836
465,16,103617,1,0,0:0:0:0:
490,257,103775,1,0,0:0:0:0:
238,211,103932,6,0,P|295:164|358:158,1,119.999996337891
382,308,104248,1,0,0:0:0:0:
141,250,104406,1,0,0:0:0:0:
390,312,104564,2,0,P|447:297|490:257,1,119.999996337891
394,116,104880,1,0,0:0:0:0:
293,358,105038,1,0,0:0:0:0:
175,131,105196,6,0,B|139:107|139:107|60:100,1,119.999996337891
141,250,105511,1,0,0:0:0:0:
194,37,105669,1,0,0:0:0:0:
67,307,105827,2,0,P|146:343|221:299,1,179.999994506836,0|0,0:0|2:0,0:0:0:0:
252,208,106143,2,0,P|311:212|373:239,1,119.999996337891
141,250,106459,5,0,0:0:0:0:
263,62,106617,1,0,0:0:0:0:
436,157,106775,2,0,L|314:140,1,119.999996337891
81,104,107090,1,0,0:0:0:0:
200,7,107248,1,0,0:0:0:0:
64,211,107406,1,0,0:0:0:0:
270,72,107564,1,0,0:0:0:0:
225,239,107722,6,0,L|238:371,1,119.999996337891
424,276,108038,2,0,P|446:222|437:144,1,119.999996337891
351,18,108354,2,0,B|327:135|371:79|347:211,1,179.999994506836,0|0,0:0|2:0,0:0:0:0:
321,291,108669,1,0,0:0:0:0:
249,90,108827,1,0,0:0:0:0:
126,210,108985,5,0,0:0:0:0:
321,291,109143,1,0,0:0:0:0:
145,347,109301,1,0,0:0:0:0:
390,338,109459,5,0,0:0:0:0:
87,278,109617,1,0,0:0:0:0:
372,231,109775,1,0,0:0:0:0:
253,78,109932,2,0,P|328:83|437:76,1,179.999994506836,0|0,0:0|2:0,0:0:0:0:
492,21,110248,5,0,0:0:0:0:
462,260,110406,1,0,0:0:0:0:
317,152,110564,1,0,0:0:0:0:
340,338,110722,2,0,L|332:273,1,59.9999981689454
317,152,110880,5,0,0:0:0:0:
266,121,110959,1,0,0:0:0:0:
209,134,111038,1,0,0:0:0:0:
176,183,111117,1,0,0:0:0:0:
185,241,111196,5,0,0:0:0:0:
141,244,111275,1,0,0:0:0:0:
98,232,111354,1,0,0:0:0:0:
60,207,111432,1,0,0:0:0:0:
36,164,111511,6,0,B|50:108|50:108|37:51|37:51|64:72|101:68,1,179.999994506836,0|0,0:0|2:0,0:0:0:0:
149,11,111827,2,0,P|221:18|270:35,1,119.999996337891
464,176,112143,1,0,0:0:0:0:
345,10,112301,1,0,0:0:0:0:
380,252,112459,1,0,0:0:0:0:
473,46,112617,1,0,0:0:0:0:
277,225,112775,6,0,L|306:341,1,119.999996337891
464,176,113090,2,0,P|393:164|332:183,1,119.999996337891
81,288,113406,1,0,0:0:0:0:
214,158,113564,1,0,0:0:0:0:
193,333,113722,1,0,0:0:0:0:
193,333,113880,1,0,0:0:0:0:
216,148,114038,6,0,P|221:88|271:42,1,119.999996337891
443,133,114354,1,0,0:0:0:0:
294,254,114511,1,0,0:0:0:0:
438,53,114669,2,0,P|475:60|520:152,1,119.999996337891
385,343,114985,1,0,0:0:0:0:
443,133,115143,1,0,0:0:0:0:
165,45,115301,6,0,P|181:112|223:152,1,119.999996337891
372,167,115617,1,0,0:0:0:0:
273,55,115775,1,0,0:0:0:0:
236,327,115932,1,0,0:0:0:0:
366,88,116090,1,0,0:0:0:0:
415,271,116248,1,0,0:0:0:0:
176,237,116406,1,0,0:0:0:0:
442,64,116564,6,0,P|412:24|366:6,1,100
189,117,116880,2,0,B|71:105|115:151|-11:132,2,200
337,207,117669,1,0,0:0:0:0:
171,254,117827,2,0,L|64:243,1,100
73,26,118143,2,0,L|180:15,1,100
358,124,118459,1,0,0:0:0:0:
189,117,118617,1,0,0:0:0:0:
399,4,118775,1,0,0:0:0:0:
376,216,118932,1,0,0:0:0:0:
299,74,119090,5,0,0:0:0:0:
319,313,119248,1,0,0:0:0:0:
392,35,119406,1,0,0:0:0:0:
418,333,119564,1,0,0:0:0:0:
288,51,119722,5,0,0:0:0:0:
312,337,119880,1,0,0:0:0:0:
399,4,120038,1,0,0:0:0:0:
430,362,120196,1,0,0:0:0:0:
197,68,120354,6,0,B|110:59|142:92|50:79,2,150
256,192,121617,5,0,0:0:0:0:
109,143,126669,5,0,0:0:0:0:
112,167,126748,1,0,0:0:0:0:
116,192,126827,1,0,0:0:0:0:
277,98,126985,2,0,P|237:54|177:45,1,100
66,26,127301,1,0,0:0:0:0:
341,11,127459,1,0,0:0:0:0:
221,229,127617,1,0,0:0:0:0:
212,205,127696,1,0,0:0:0:0:
205,181,127775,1,0,0:0:0:0:
200,157,127854,1,0,0:0:0:0:
196,132,127932,5,0,0:0:0:0:
411,176,128090,1,0,0:0:0:0:
280,304,128248,1,0,0:0:0:0:
337,101,128406,1,0,0:0:0:0:
104,336,128564,2,0,P|103:286|108:236,1,100
352,336,128880,2,0,P|352:286|347:236,1,100
35,202,129196,5,0,0:0:0:0:
27,238,129275,1,0,0:0:0:0:
22,276,129354,1,0,0:0:0:0:
22,313,129432,1,0,0:0:0:0:
25,351,129511,1,0,0:0:0:0:
196,172,129669,1,0,0:0:0:0:
137,56,129827,6,0,P|110:104|107:169,1,100
107,248,130064,2,0,B|110:193|110:193|105:148,1,100
27,57,130301,2,0,L|62:9,1,50
227,25,130459,5,0,0:0:0:0:
266,55,130538,1,0,0:0:0:0:
313,70,130617,1,0,0:0:0:0:
363,69,130696,1,0,0:0:0:0:
409,51,130775,5,0,0:0:0:0:
431,76,130854,1,0,0:0:0:0:
442,107,130932,1,0,0:0:0:0:
441,140,131011,1,0,0:0:0:0:
417,184,131090,5,0,0:0:0:0:
417,184,131722,5,0,0:0:0:0:
252,114,131880,2,0,L|272:212,1,59.9999981689454
226,0,132038,5,0,0:0:0:0:
39,188,132196,1,0,0:0:0:0:
31,23,132354,5,0,0:0:0:0:
215,219,132512,1,0,0:0:0:0:
304,9,132669,5,0,0:0:0:0:
116,239,132827,1,0,0:0:0:0:
126,91,132985,6,0,B|129:34|129:34|162:44|197:66,1,119.999996337891
246,331,133301,2,0,P|217:275|216:215,1,119.999996337891
472,338,133617,2,0,P|382:309|317:246,1,179.999994506836
286,180,133932,1,0,0:0:0:0:
331,17,134090,1,0,0:0:0:0:
187,140,134248,6,0,P|136:110|73:95,1,119.999996337891
254,31,134564,5,0,0:0:0:0:
277,260,134722,1,0,0:0:0:0:
414,12,134880,5,0,0:0:0:0:
380,281,135038,1,0,0:0:0:0:
251,9,135196,5,0,0:0:0:0:
279,281,135354,1,0,0:0:0:0:
452,113,135511,6,0,B|444:168|444:168|426:200|396:212,1,119.999996337891
206,313,135827,2,0,P|265:359|323:348,1,119.999996337891
324,77,136143,2,0,B|268:78|268:78|233:84|233:84|197:77|197:77|163:85|132:83,1,179.999994506836,0|0,0:0|2:0,0:0:0:0:
40,45,136459,1,0,0:0:0:0:
83,276,136617,1,0,0:0:0:0:
208,151,136775,5,0,0:0:0:0:
8,225,136932,1,0,0:0:0:0:
363,274,137090,5,0,0:0:0:0:
125,198,137248,1,0,0:0:0:0:
397,204,137406,5,0,0:0:0:0:
120,192,137564,1,0,0:0:0:0:
423,128,137722,1,0,0:0:0:0:
458,154,137800,1,0,0:0:0:0:
475,195,137879,1,0,0:0:0:0:
467,239,137958,1,0,0:0:0:0:
437,272,138038,6,0,B|435:307|435:307|442:344|442:344|381:333|401:365|328:338,1,179.999994506836,0|0,0:0|2:0,0:0:0:0:
266,325,138354,1,0,0:0:0:0:
287,100,138511,1,0,0:0:0:0:
134,332,138669,2,0,P|117:271|120:211,1,119.999996337891
361,265,138985,2,0,P|377:204|375:144,1,119.999996337891
180,55,139301,5,0,0:0:0:0:
228,89,139379,1,0,0:0:0:0:
287,100,139458,1,0,0:0:0:0:
344,85,139537,1,0,0:0:0:0:
390,47,139616,1,0,0:0:0:0:
274,279,139775,1,0,0:0:0:0:
311,0,139932,1,0,0:0:0:0:
273,288,140090,1,0,0:0:0:0:
114,14,140248,2,0,B|102:53|102:53|101:83|114:113|114:113|112:143|118:192,1,179.999994506836,0|0,0:0|2:0,0:0:0:0:
132,278,140564,5,0,0:0:0:0:
356,180,140722,1,0,0:0:0:0:
356,180,140880,1,0,0:0:0:0:
222,317,141038,5,0,0:0:0:0:
242,144,141196,1,0,0:0:0:0:
242,144,141354,1,0,0:0:0:0:
289,253,141511,1,0,0:0:0:0:
406,276,141669,1,0,0:0:0:0:
493,193,141827,1,0,0:0:0:0:
76,93,151932,6,0,B|205:64|146:122|284:94,1,200
369,36,153038,5,0,0:0:0:0:
369,36,153196,2,0,P|381:67|383:102,1,50
303,248,153669,5,0,0:0:0:0:
303,248,153827,2,0,L|312:144,1,100
391,321,154459,6,0,B|324:317|324:317|274:328|274:328|191:319,1,200
89,192,155564,5,0,0:0:0:0:
89,192,155722,2,0,P|81:221|84:248,1,50
216,166,156354,5,0,0:0:0:0:
216,166,156669,5,0,0:0:0:0:
172,87,156827,1,0,0:0:0:0:
262,88,156985,5,0,0:0:0:0:
270,92,157301,1,0,0:0:0:0:
278,96,157617,1,0,0:0:0:0:
286,100,157932,1,0,0:0:0:0:
250,296,158248,5,0,0:0:0:0:
242,292,158564,1,0,0:0:0:0:
234,288,158880,1,0,0:0:0:0:
226,284,159195,1,0,0:0:0:0:
318,187,159354,1,0,0:0:0:0:
268,369,159511,5,0,0:0:0:0:
173,152,159669,1,0,0:0:0:0:
173,152,159748,1,0,0:0:0:0:
173,152,159827,1,0,0:0:0:0:
33,343,159985,1,0,0:0:0:0:
312,236,160143,5,0,0:0:0:0:
18,204,160301,1,0,0:0:0:0:
296,316,160459,5,0,0:0:0:0:
34,123,160617,1,0,0:0:0:0:
190,308,160775,5,0,0:0:0:0:
224,58,160932,1,0,0:0:0:0:
190,308,161090,1,0,0:0:0:0:
168,320,161168,1,0,0:0:0:0:
143,325,161247,1,0,0:0:0:0:
119,324,161326,1,0,0:0:0:0:
95,315,161406,6,0,B|78:206|120:262|110:144,1,175,0|0,0:0|2:0,0:0:0:0:
52,24,162038,6,0,B|110:34|110:34|135:55|135:55|182:64|223:57,1,179.999994506836,0|0,0:0|2:0,0:0:0:0:
351,9,162354,1,0,0:0:0:0:
281,214,162511,1,0,0:0:0:0:
480,90,162669,1,0,0:0:0:0:
229,146,162827,1,0,0:0:0:0:
439,266,162985,2,0,B|319:285,1,119.999996337891
122,247,163301,6,0,P|168:284|188:340,1,119.999996337891
30,253,163617,1,0,0:0:0:0:
123,64,163775,1,0,0:0:0:0:
281,214,163932,2,0,B|309:144|309:144|277:42,1,179.999994506836
201,112,164248,2,0,L|204:241,1,119.999996337891
386,80,164564,5,0,0:0:0:0:
357,303,164722,1,0,0:0:0:0:
123,159,164880,2,0,P|48:148|-11:154,1,119.999996337891
203,231,165196,2,0,P|155:290|131:344,1,119.999996337891
305,197,165511,2,0,P|332:267|367:315,1,119.999996337891
382,118,165827,6,0,P|354:47|319:0,1,119.999996337891
268,118,166143,1,0,0:0:0:0:
474,33,166301,1,0,0:0:0:0:
259,123,166459,2,0,B|226:113|226:113|190:125|163:112|163:112|125:110|125:110|75:98,1,179.999994506836,0|0,0:0|2:0,0:0:0:0:
17,26,166775,1,0,0:0:0:0:
117,211,166932,1,0,0:0:0:0:
282,31,167090,6,0,P|341:78|316:196,1,179.999994506836,0|0,0:0|2:0,0:0:0:0:
305,288,167406,2,0,P|343:300|423:297,1,119.999996337891
474,125,167722,1,0,0:0:0:0:
236,209,167880,1,0,0:0:0:0:
483,232,168038,1,0,0:0:0:0:
259,123,168196,1,0,0:0:0:0:
155,363,168354,6,0,L|134:245,1,119.999996337891
356,363,168669,2,0,L|378:245,1,119.999996337891
232,31,168985,2,0,B|211:142|255:101|234:221,1,179.999994506836,0|0,0:0|2:0,0:0:0:0:
215,305,169301,1,0,0:0:0:0:
118,113,169459,1,0,0:0:0:0:
357,68,169617,5,0,0:0:0:0:
118,113,169775,1,0,0:0:0:0:
339,163,169932,1,0,0:0:0:0:
118,113,170090,2,0,L|-10:101,1,119.999996337891
76,271,170406,1,0,0:0:0:0:
76,271,170564,2,0,L|196:261,1,119.999996337891
426,244,170880,5,0,0:0:0:0:
274,92,171038,1,0,0:0:0:0:
432,248,171196,1,0,0:0:0:0:
268,88,171354,6,0,P|253:127|254:161,1,59.9999981689454
273,316,171511,1,0,0:0:0:0:
328,296,171589,1,0,0:0:0:0:
362,247,171668,1,0,0:0:0:0:
361,188,171747,1,0,0:0:0:0:
326,141,171827,5,0,0:0:0:0:
348,102,171905,1,0,0:0:0:0:
388,85,171984,1,0,0:0:0:0:
431,98,172063,1,0,0:0:0:0:
455,135,172143,6,0,B|449:62|464:16|464:16|436:23|396:26,1,179.999994506836,0|0,0:0|2:0,0:0:0:0:
288,10,172459,1,0,0:0:0:0:
362,247,172617,1,0,0:0:0:0:
288,10,172775,2,0,P|254:64|243:120,1,119.999996337891
281,314,173090,2,0,B|291:247|291:247|292:194,1,119.999996337891
104,126,173406,5,0,0:0:0:0:
194,255,173564,1,0,0:0:0:0:
329,89,173722,1,0,0:0:0:0:
180,147,173880,1,0,0:0:0:0:
470,198,174038,2,0,B|364:169|399:220|292:194,1,179.999994506836,0|0,0:0|2:0,0:0:0:0:
230,23,174354,2,0,P|256:85|250:141,1,119.999996337891
193,339,174669,5,0,0:0:0:0:
180,147,174827,1,0,0:0:0:0:
288,321,174985,2,0,L|413:327,1,119.999996337891
230,217,175301,2,0,L|105:223,1,119.999996337891
71,40,175617,2,0,P|106:99|99:155,1,119.999996337891
48,312,175932,5,0,0:0:0:0:
190,142,176090,1,0,0:0:0:0:
149,338,176248,1,0,0:0:0:0:
24,144,176406,1,0,0:0:0:0:
214,263,176564,2,0,B|279:265|279:265|339:261,1,119.999996337891
410,97,176880,2,0,B|345:95|345:95|285:99,1,119.999996337891
75,198,177196,6,0,P|123:210|172:207,1,100
312,180,177511,2,0,B|385:184|385:184|428:173|428:173|512:178,2,200
148,112,178301,1,0,0:0:0:0:
148,112,178459,2,0,P|148:50|159:-2,1,100
358,112,178775,2,0,P|358:50|347:-2,1,100
256,64,179090,1,0,0:0:0:0:
220,199,179248,1,0,0:0:0:0:
345,183,179406,1,0,0:0:0:0:
309,318,179564,1,0,0:0:0:0:
126,286,179722,5,0,0:0:0:0:
309,318,179880,1,0,0:0:0:0:
115,212,180038,1,0,0:0:0:0:
343,252,180196,1,0,0:0:0:0:
101,290,180354,5,0,0:0:0:0:
330,330,180512,1,0,0:0:0:0:
88,198,180670,1,0,0:0:0:0:
373,248,180828,1,0,0:0:0:0:
231,61,180985,6,0,B|209:121|209:121|217:166|217:166|201:213|218:261,1,200
440,363,181459,2,0,B|462:303|462:303|454:258|454:258|470:211|453:163,1,200
274,309,181932,2,0,P|221:334|142:286,1,150,0|0,0:0|2:0,0:0:0:0:
83,239,182248,6,0,B|88:170|88:170|81:138|81:138|89:55,1,179.999994506836
191,117,182722,1,0,0:0:0:0:
191,117,182880,2,0,P|244:125|293:108,1,89.9999972534181
324,191,183196,2,0,P|357:149|367:98,1,89.9999972534181
269,6,183511,5,0,0:0:0:0:
484,131,183827,1,0,0:0:0:0:
269,255,184143,2,0,P|325:272|400:244,1,134.999995880127
462,201,184459,1,0,0:0:0:0:
441,345,184617,1,0,0:0:0:0:
308,162,184775,6,0,B|239:165|239:165|201:179|201:179|130:182,1,179.999994506836
3,124,185248,1,0,0:0:0:0:
3,124,185406,2,0,L|14:213,1,89.9999972534181
182,22,185722,2,0,L|170:111,1,89.9999972534181
151,285,186038,6,0,P|229:241|327:301,1,179.999994506836
391,328,186669,2,0,P|313:372|215:312,1,179.999994506836
86,251,187143,1,0,0:0:0:0:
86,251,187301,6,0,B|99:185|99:185|96:137|96:137|112:74,1,179.999994506836
233,14,187775,1,0,0:0:0:0:
319,136,187932,2,0,P|280:166|214:160,1,89.9999972534181
335,45,188248,2,0,P|374:15|440:21,1,89.9999972534181
401,154,188564,5,0,0:0:0:0:
196,230,188880,1,0,0:0:0:0:
233,14,189196,1,0,0:0:0:0:
196,230,189511,2,0,L|189:323,1,89.9999972534181
118,223,189827,6,0,P|161:159|272:210,1,179.999994506836
306,320,190301,2,0,P|221:310|196:228,1,179.999994506836
352,79,190775,2,0,B|345:126|345:126|330:179,1,89.9999972534181
306,320,191090,5,0,0:0:0:0:
320,334,191405,1,0,0:0:0:0:
334,348,191721,1,0,0:0:0:0:
348,362,192037,1,0,0:0:0:0:
394,175,192196,1,0,0:0:0:0:
348,362,192354,5,0,0:0:0:0:
304,90,192511,1,0,0:0:0:0:
473,282,192669,5,0,0:0:0:0:
231,243,192827,1,0,0:0:0:0:
444,159,192985,5,0,0:0:0:0:
221,248,193143,1,0,0:0:0:0:
384,47,193301,5,0,0:0:0:0:
211,253,193459,1,0,0:0:0:0:
163,28,193617,5,0,0:0:0:0:
104,293,193775,1,0,0:0:0:0:
276,18,193932,5,0,0:0:0:0:
304,330,194090,1,0,0:0:0:0:
384,47,194248,5,0,0:0:0:0:
147,236,194406,1,0,0:0:0:0:
444,159,194564,5,0,0:0:0:0:
129,88,194722,1,0,0:0:0:0:
134,117,194801,1,0,0:0:0:0:
140,146,194880,5,0,0:0:0:0:
357,31,195038,1,0,0:0:0:0:
288,212,195196,2,0,P|289:271|306:335,1,119.999996337891
411,234,195511,1,0,0:0:0:0:
187,337,195669,1,0,0:0:0:0:
407,124,195827,2,0,P|354:103|281:105,1,119.999996337891
147,265,196143,6,0,L|139:140,1,119.999996337891
326,296,196459,2,0,L|334:171,1,119.999996337891
157,29,196775,1,0,0:0:0:0:
209,206,196932,1,0,0:0:0:0:
337,73,197090,1,0,0:0:0:0:
72,151,197248,1,0,0:0:0:0:
337,73,197406,6,0,P|337:127|332:182,1,100
253,275,197722,2,0,B|371:263|327:309|453:290,2,200
96,296,198511,1,0,0:0:0:0:
96,296,198669,2,0,P|139:331|195:336,1,100
162,140,198985,2,0,P|108:160|77:206,1,100,0|0,0:0|3:0,3:0:0:0:
263,199,199301,5,0,0:0:0:0:
258,18,199459,1,0,0:0:0:0:
369,148,199617,1,0,0:0:0:0:
177,68,199775,1,0,0:0:0:0:
177,316,199932,5,0,0:0:0:0:
177,68,200090,1,0,0:0:0:0:
94,328,200248,1,0,0:0:0:0:
94,55,200405,1,0,0:0:0:0:
181,328,200564,5,0,0:0:0:0:
181,55,200722,1,0,0:0:0:0:
89,342,200880,1,0,0:0:0:0:
89,41,201037,1,0,0:0:0:0:
221,180,201196,6,0,B|402:147|320:228|530:190,2,300
