osu file format v14

[General]
AudioFilename: audio (3).mp3
AudioLeadIn: 0
PreviewTime: 61022
Countdown: 1
SampleSet: Normal
StackLeniency: 0.7
Mode: 3
LetterboxInBreaks: 0
SpecialStyle: 0
WidescreenStoryboard: 1

[Editor]
DistanceSpacing: 0.8
BeatDivisor: 4
GridSize: 8
TimelineZoom: 1.7

[Metadata]
Title:Supernova
TitleUnicode:Supernova
Artist:Awake
ArtistUnicode:Awake
Creator:8230
Version:
Source:
Tags:
BeatmapID:2162718
BeatmapSetID:1034424

[Difficulty]
HPDrainRate:8
CircleSize:4
OverallDifficulty:9
ApproachRate:5
SliderMultiplier:1.4
SliderTickRate:1

[Events]
//Background and Video events
0,0,"5977ac9d422d8cdcbbbccbb0d055963b408bfaeb7c83a-XzvLcX.jpg",0,0
//Break Periods
2,83643,87296
2,144275,152980
//Storyboard Layer 0 (Background)
//Storyboard Layer 1 (Fail)
//Storyboard Layer 2 (Pass)
//Storyboard Layer 3 (Foreground)
//Storyboard Layer 4 (Overlay)
//Storyboard Sound Samples

[TimingPoints]
75,315.789473684211,4,1,0,21,1,0

[HitObjects]
64,192,75,5,0,0:0:0:0:
320,192,75,1,0,0:0:0:0:
448,192,75,1,0,0:0:0:0:
192,192,232,1,0,0:0:0:0:
320,192,390,1,0,0:0:0:0:
64,192,548,1,0,0:0:0:0:
448,192,706,1,0,0:0:0:0:
192,192,864,1,0,0:0:0:0:
320,192,1022,1,0,0:0:0:0:
64,192,1180,1,0,0:0:0:0:
64,192,1496,1,0,0:0:0:0:
192,192,1653,1,0,0:0:0:0:
320,192,1811,1,0,0:0:0:0:
64,192,1969,1,0,0:0:0:0:
448,192,2127,1,0,0:0:0:0:
192,192,2285,1,0,0:0:0:0:
320,192,2443,1,0,0:0:0:0:
64,192,2601,1,0,0:0:0:0:
192,192,2759,1,0,0:0:0:0:
320,192,2917,1,0,0:0:0:0:
64,192,3075,1,0,0:0:0:0:
448,192,3232,1,0,0:0:0:0:
192,192,3390,1,0,0:0:0:0:
320,192,3548,1,0,0:0:0:0:
64,192,3706,1,0,0:0:0:0:
64,192,4022,1,0,0:0:0:0:
192,192,4180,1,0,0:0:0:0:
320,192,4338,1,0,0:0:0:0:
64,192,4496,1,0,0:0:0:0:
448,192,4653,1,0,0:0:0:0:
192,192,4811,1,0,0:0:0:0:
320,192,4969,1,0,0:0:0:0:
64,192,5127,1,0,0:0:0:0:
448,192,5127,1,0,0:0:0:0:
192,192,5285,1,0,0:0:0:0:
320,192,5443,1,0,0:0:0:0:
64,192,5601,1,0,0:0:0:0:
448,192,5759,1,0,0:0:0:0:
192,192,5917,1,0,0:0:0:0:
320,192,6075,1,0,0:0:0:0:
64,192,6232,1,0,0:0:0:0:
64,192,6548,1,0,0:0:0:0:
192,192,6706,1,0,0:0:0:0:
320,192,6864,1,0,0:0:0:0:
64,192,7022,1,0,0:0:0:0:
448,192,7180,1,0,0:0:0:0:
192,192,7338,1,0,0:0:0:0:
320,192,7496,1,0,0:0:0:0:
64,192,7653,128,0,10022:0:0:0:0:
192,192,7811,1,0,0:0:0:0:
320,192,7969,1,0,0:0:0:0:
192,192,8127,1,0,0:0:0:0:
448,192,8285,1,0,0:0:0:0:
192,192,8443,1,0,0:0:0:0:
320,192,8601,1,0,0:0:0:0:
448,192,8759,1,0,0:0:0:0:
320,192,9075,1,0,0:0:0:0:
192,192,9232,1,0,0:0:0:0:
320,192,9390,1,0,0:0:0:0:
192,192,9548,1,0,0:0:0:0:
448,192,9706,1,0,0:0:0:0:
192,192,9864,1,0,0:0:0:0:
320,192,10022,1,0,0:0:0:0:
448,192,10180,1,0,0:0:0:0:
320,192,10180,1,0,0:0:0:0:
64,192,10180,1,0,0:0:0:0:
192,192,10338,1,0,0:0:0:0:
320,192,10496,1,0,0:0:0:0:
64,192,10653,1,0,0:0:0:0:
448,192,10811,1,0,0:0:0:0:
192,192,10969,1,0,0:0:0:0:
320,192,11127,1,0,0:0:0:0:
64,192,11285,1,0,0:0:0:0:
64,192,11601,1,0,0:0:0:0:
192,192,11759,1,0,0:0:0:0:
320,192,11917,1,0,0:0:0:0:
64,192,12075,1,0,0:0:0:0:
448,192,12232,1,0,0:0:0:0:
192,192,12390,1,0,0:0:0:0:
320,192,12548,1,0,0:0:0:0:
64,192,12706,1,0,0:0:0:0:
192,192,12864,1,0,0:0:0:0:
320,192,13022,1,0,0:0:0:0:
64,192,13180,1,0,0:0:0:0:
448,192,13338,1,0,0:0:0:0:
192,192,13496,1,0,0:0:0:0:
320,192,13653,1,0,0:0:0:0:
64,192,13811,1,0,0:0:0:0:
64,192,14127,1,0,0:0:0:0:
192,192,14285,1,0,0:0:0:0:
320,192,14443,1,0,0:0:0:0:
64,192,14601,1,0,0:0:0:0:
448,192,14759,1,0,0:0:0:0:
192,192,14917,1,0,0:0:0:0:
320,192,15075,1,0,0:0:0:0:
64,192,15232,1,0,0:0:0:0:
448,192,15232,128,0,17601:0:0:0:0:
192,192,15390,1,0,0:0:0:0:
320,192,15548,1,0,0:0:0:0:
64,192,15706,1,0,0:0:0:0:
320,192,15864,1,0,0:0:0:0:
192,192,16022,1,0,0:0:0:0:
320,192,16180,1,0,0:0:0:0:
64,192,16338,1,0,0:0:0:0:
64,192,16653,1,0,0:0:0:0:
192,192,16811,1,0,0:0:0:0:
320,192,16969,1,0,0:0:0:0:
64,192,17127,1,0,0:0:0:0:
320,192,17285,1,0,0:0:0:0:
192,192,17443,1,0,0:0:0:0:
320,192,17601,1,0,0:0:0:0:
64,192,17759,1,0,0:0:0:0:
448,192,17759,1,0,0:0:0:0:
192,192,17917,1,0,0:0:0:0:
320,192,18075,1,0,0:0:0:0:
448,192,18075,1,0,0:0:0:0:
64,192,18232,1,0,0:0:0:0:
448,192,18390,1,0,0:0:0:0:
192,192,18390,1,0,0:0:0:0:
320,192,18548,1,0,0:0:0:0:
448,192,18706,1,0,0:0:0:0:
192,192,18706,1,0,0:0:0:0:
64,192,18864,1,0,0:0:0:0:
448,192,19022,1,0,0:0:0:0:
64,192,19180,1,0,0:0:0:0:
192,192,19338,1,0,0:0:0:0:
448,192,19338,1,0,0:0:0:0:
320,192,19496,1,0,0:0:0:0:
448,192,19653,1,0,0:0:0:0:
320,192,19653,1,0,0:0:0:0:
64,192,19732,1,0,0:0:0:0:
192,192,19732,1,0,0:0:0:0:
448,192,19811,1,0,0:0:0:0:
320,192,19811,1,0,0:0:0:0:
192,192,19890,1,0,0:0:0:0:
64,192,19890,1,0,0:0:0:0:
448,192,19969,1,0,0:0:0:0:
320,192,19969,1,0,0:0:0:0:
64,192,19969,1,0,0:0:0:0:
192,192,20127,1,0,0:0:0:0:
64,192,20285,1,0,0:0:0:0:
320,192,20285,1,0,0:0:0:0:
448,192,20285,1,0,0:0:0:0:
320,192,20364,1,0,0:0:0:0:
192,192,20364,1,0,0:0:0:0:
64,192,20443,1,0,0:0:0:0:
192,192,20443,1,0,0:0:0:0:
64,192,20601,1,0,0:0:0:0:
448,192,20601,1,0,0:0:0:0:
192,192,20601,1,0,0:0:0:0:
320,192,20759,1,0,0:0:0:0:
64,192,20838,1,0,0:0:0:0:
448,192,20838,1,0,0:0:0:0:
320,192,20917,1,0,0:0:0:0:
192,192,20917,1,0,0:0:0:0:
192,192,20996,1,0,0:0:0:0:
64,192,20996,1,0,0:0:0:0:
448,192,21075,1,0,0:0:0:0:
64,192,21075,1,0,0:0:0:0:
64,192,21232,1,0,0:0:0:0:
320,192,21232,1,0,0:0:0:0:
448,192,21232,1,0,0:0:0:0:
192,192,21390,1,0,0:0:0:0:
448,192,21469,1,0,0:0:0:0:
320,192,21469,1,0,0:0:0:0:
192,192,21548,1,0,0:0:0:0:
64,192,21548,1,0,0:0:0:0:
320,192,21627,1,0,0:0:0:0:
192,192,21627,1,0,0:0:0:0:
320,192,21706,1,0,0:0:0:0:
448,192,21706,1,0,0:0:0:0:
64,192,21864,1,0,0:0:0:0:
320,192,21864,1,0,0:0:0:0:
448,192,21864,1,0,0:0:0:0:
448,192,22022,1,0,0:0:0:0:
320,192,22101,1,0,0:0:0:0:
192,192,22101,1,0,0:0:0:0:
64,192,22180,1,0,0:0:0:0:
448,192,22180,1,0,0:0:0:0:
192,192,22259,1,0,0:0:0:0:
64,192,22259,1,0,0:0:0:0:
320,192,22338,1,0,0:0:0:0:
192,192,22338,1,0,0:0:0:0:
64,192,22496,1,0,0:0:0:0:
192,192,22496,1,0,0:0:0:0:
448,192,22496,1,0,0:0:0:0:
448,192,22653,1,0,0:0:0:0:
64,192,22732,1,0,0:0:0:0:
192,192,22732,1,0,0:0:0:0:
320,192,22811,1,0,0:0:0:0:
448,192,22811,1,0,0:0:0:0:
320,192,22890,1,0,0:0:0:0:
192,192,22890,1,0,0:0:0:0:
192,192,22969,1,0,0:0:0:0:
64,192,22969,1,0,0:0:0:0:
64,192,23127,1,0,0:0:0:0:
448,192,23127,1,0,0:0:0:0:
320,192,23127,1,0,0:0:0:0:
192,192,23285,1,0,0:0:0:0:
448,192,23364,1,0,0:0:0:0:
64,192,23364,1,0,0:0:0:0:
320,192,23443,1,0,0:0:0:0:
192,192,23443,1,0,0:0:0:0:
320,192,23522,1,0,0:0:0:0:
448,192,23522,1,0,0:0:0:0:
64,192,23601,1,0,0:0:0:0:
448,192,23601,1,0,0:0:0:0:
64,192,23759,1,0,0:0:0:0:
320,192,23759,1,0,0:0:0:0:
448,192,23759,1,0,0:0:0:0:
192,192,23917,1,0,0:0:0:0:
64,192,23996,1,0,0:0:0:0:
320,192,23996,1,0,0:0:0:0:
192,192,24075,1,0,0:0:0:0:
448,192,24075,1,0,0:0:0:0:
64,192,24153,1,0,0:0:0:0:
448,192,24153,1,0,0:0:0:0:
320,192,24232,1,0,0:0:0:0:
64,192,24232,1,0,0:0:0:0:
64,192,24390,1,0,0:0:0:0:
320,192,24390,1,0,0:0:0:0:
448,192,24390,1,0,0:0:0:0:
192,192,24548,1,0,0:0:0:0:
64,192,24548,1,0,0:0:0:0:
192,192,24627,1,0,0:0:0:0:
320,192,24627,1,0,0:0:0:0:
448,192,24706,1,0,0:0:0:0:
320,192,24706,1,0,0:0:0:0:
192,192,24785,1,0,0:0:0:0:
64,192,24864,1,0,0:0:0:0:
448,192,24864,1,0,0:0:0:0:
192,192,24864,1,0,0:0:0:0:
448,192,25022,128,0,25180:0:0:0:0:
320,192,25022,128,0,25180:0:0:0:0:
192,192,25022,128,0,25180:0:0:0:0:
64,192,25022,128,0,25180:0:0:0:0:
448,192,25338,1,0,0:0:0:0:
192,192,25338,1,0,0:0:0:0:
64,192,25338,1,0,0:0:0:0:
192,192,25417,1,0,0:0:0:0:
320,192,25417,1,0,0:0:0:0:
448,192,25496,1,0,0:0:0:0:
320,192,25496,1,0,0:0:0:0:
448,192,25653,1,0,0:0:0:0:
64,192,25653,1,0,0:0:0:0:
320,192,25653,1,0,0:0:0:0:
192,192,25811,1,0,0:0:0:0:
448,192,25890,1,0,0:0:0:0:
64,192,25890,1,0,0:0:0:0:
192,192,25969,1,0,0:0:0:0:
320,192,25969,1,0,0:0:0:0:
320,192,26048,1,0,0:0:0:0:
448,192,26048,1,0,0:0:0:0:
64,192,26127,1,0,0:0:0:0:
448,192,26127,1,0,0:0:0:0:
448,192,26285,1,0,0:0:0:0:
192,192,26285,1,0,0:0:0:0:
64,192,26285,1,0,0:0:0:0:
320,192,26443,1,0,0:0:0:0:
64,192,26522,1,0,0:0:0:0:
192,192,26522,1,0,0:0:0:0:
320,192,26601,1,0,0:0:0:0:
448,192,26601,1,0,0:0:0:0:
192,192,26680,1,0,0:0:0:0:
320,192,26680,1,0,0:0:0:0:
192,192,26759,1,0,0:0:0:0:
64,192,26759,1,0,0:0:0:0:
448,192,26917,1,0,0:0:0:0:
192,192,26917,1,0,0:0:0:0:
64,192,26917,1,0,0:0:0:0:
64,192,27075,1,0,0:0:0:0:
192,192,27153,1,0,0:0:0:0:
320,192,27153,1,0,0:0:0:0:
448,192,27232,1,0,0:0:0:0:
64,192,27232,1,0,0:0:0:0:
320,192,27311,1,0,0:0:0:0:
448,192,27311,1,0,0:0:0:0:
192,192,27390,1,0,0:0:0:0:
320,192,27390,1,0,0:0:0:0:
448,192,27548,1,0,0:0:0:0:
320,192,27548,1,0,0:0:0:0:
64,192,27548,1,0,0:0:0:0:
64,192,27706,1,0,0:0:0:0:
448,192,27785,1,0,0:0:0:0:
320,192,27785,1,0,0:0:0:0:
192,192,27864,1,0,0:0:0:0:
64,192,27864,1,0,0:0:0:0:
192,192,27943,1,0,0:0:0:0:
320,192,27943,1,0,0:0:0:0:
320,192,28022,1,0,0:0:0:0:
448,192,28022,1,0,0:0:0:0:
448,192,28180,1,0,0:0:0:0:
64,192,28180,1,0,0:0:0:0:
192,192,28180,1,0,0:0:0:0:
320,192,28338,1,0,0:0:0:0:
64,192,28417,1,0,0:0:0:0:
448,192,28417,1,0,0:0:0:0:
192,192,28496,1,0,0:0:0:0:
320,192,28496,1,0,0:0:0:0:
192,192,28575,1,0,0:0:0:0:
64,192,28575,1,0,0:0:0:0:
448,192,28653,1,0,0:0:0:0:
64,192,28653,1,0,0:0:0:0:
448,192,28811,1,0,0:0:0:0:
192,192,28811,1,0,0:0:0:0:
64,192,28811,1,0,0:0:0:0:
320,192,28969,1,0,0:0:0:0:
448,192,29048,1,0,0:0:0:0:
192,192,29048,1,0,0:0:0:0:
320,192,29127,1,0,0:0:0:0:
64,192,29127,1,0,0:0:0:0:
448,192,29206,1,0,0:0:0:0:
64,192,29206,1,0,0:0:0:0:
192,192,29285,1,0,0:0:0:0:
448,192,29285,1,0,0:0:0:0:
448,192,29443,1,0,0:0:0:0:
192,192,29443,1,0,0:0:0:0:
64,192,29443,1,0,0:0:0:0:
320,192,29601,1,0,0:0:0:0:
448,192,29601,1,0,0:0:0:0:
320,192,29680,1,0,0:0:0:0:
192,192,29680,1,0,0:0:0:0:
64,192,29759,1,0,0:0:0:0:
192,192,29759,1,0,0:0:0:0:
320,192,29838,1,0,0:0:0:0:
448,192,29917,1,0,0:0:0:0:
64,192,29917,1,0,0:0:0:0:
320,192,29917,1,0,0:0:0:0:
64,192,30075,128,0,30232:0:0:0:0:
192,192,30075,128,0,30232:0:0:0:0:
320,192,30075,128,0,30232:0:0:0:0:
448,192,30075,128,0,30232:0:0:0:0:
448,192,30390,1,0,0:0:0:0:
320,192,30390,1,0,0:0:0:0:
64,192,30390,1,0,0:0:0:0:
192,192,30469,1,0,0:0:0:0:
320,192,30469,1,0,0:0:0:0:
192,192,30548,1,0,0:0:0:0:
64,192,30548,1,0,0:0:0:0:
192,192,30706,1,0,0:0:0:0:
448,192,30706,1,0,0:0:0:0:
64,192,30706,1,0,0:0:0:0:
320,192,30864,1,0,0:0:0:0:
448,192,30943,1,0,0:0:0:0:
64,192,30943,1,0,0:0:0:0:
192,192,31022,1,0,0:0:0:0:
320,192,31022,1,0,0:0:0:0:
64,192,31101,1,0,0:0:0:0:
192,192,31101,1,0,0:0:0:0:
64,192,31180,1,0,0:0:0:0:
448,192,31180,1,0,0:0:0:0:
448,192,31338,1,0,0:0:0:0:
320,192,31338,1,0,0:0:0:0:
64,192,31338,1,0,0:0:0:0:
192,192,31496,1,0,0:0:0:0:
320,192,31575,1,0,0:0:0:0:
448,192,31575,1,0,0:0:0:0:
64,192,31653,1,0,0:0:0:0:
192,192,31653,1,0,0:0:0:0:
192,192,31732,1,0,0:0:0:0:
320,192,31732,1,0,0:0:0:0:
448,192,31811,1,0,0:0:0:0:
320,192,31811,1,0,0:0:0:0:
448,192,31969,1,0,0:0:0:0:
320,192,31969,1,0,0:0:0:0:
64,192,31969,1,0,0:0:0:0:
448,192,32127,1,0,0:0:0:0:
192,192,32206,1,0,0:0:0:0:
320,192,32206,1,0,0:0:0:0:
448,192,32285,1,0,0:0:0:0:
64,192,32285,1,0,0:0:0:0:
64,192,32364,1,0,0:0:0:0:
192,192,32364,1,0,0:0:0:0:
192,192,32443,1,0,0:0:0:0:
320,192,32443,1,0,0:0:0:0:
448,192,32601,1,0,0:0:0:0:
192,192,32601,1,0,0:0:0:0:
64,192,32601,1,0,0:0:0:0:
448,192,32759,1,0,0:0:0:0:
192,192,32838,1,0,0:0:0:0:
64,192,32838,1,0,0:0:0:0:
448,192,32917,1,0,0:0:0:0:
320,192,32917,1,0,0:0:0:0:
192,192,32996,1,0,0:0:0:0:
320,192,32996,1,0,0:0:0:0:
64,192,33075,1,0,0:0:0:0:
192,192,33075,1,0,0:0:0:0:
320,192,33232,1,0,0:0:0:0:
448,192,33232,1,0,0:0:0:0:
64,192,33232,1,0,0:0:0:0:
192,192,33390,1,0,0:0:0:0:
64,192,33469,1,0,0:0:0:0:
448,192,33469,1,0,0:0:0:0:
192,192,33548,1,0,0:0:0:0:
320,192,33548,1,0,0:0:0:0:
448,192,33627,1,0,0:0:0:0:
320,192,33627,1,0,0:0:0:0:
448,192,33706,1,0,0:0:0:0:
64,192,33706,1,0,0:0:0:0:
448,192,33864,1,0,0:0:0:0:
320,192,33864,1,0,0:0:0:0:
64,192,33864,1,0,0:0:0:0:
192,192,34022,1,0,0:0:0:0:
320,192,34101,1,0,0:0:0:0:
64,192,34101,1,0,0:0:0:0:
448,192,34180,1,0,0:0:0:0:
192,192,34180,1,0,0:0:0:0:
448,192,34259,1,0,0:0:0:0:
64,192,34259,1,0,0:0:0:0:
64,192,34338,1,0,0:0:0:0:
320,192,34338,1,0,0:0:0:0:
448,192,34496,1,0,0:0:0:0:
320,192,34496,1,0,0:0:0:0:
64,192,34496,1,0,0:0:0:0:
64,192,34653,1,0,0:0:0:0:
192,192,34653,1,0,0:0:0:0:
320,192,34732,1,0,0:0:0:0:
192,192,34732,1,0,0:0:0:0:
320,192,34811,1,0,0:0:0:0:
448,192,34811,1,0,0:0:0:0:
192,192,34890,1,0,0:0:0:0:
192,192,34969,1,0,0:0:0:0:
448,192,34969,1,0,0:0:0:0:
64,192,34969,1,0,0:0:0:0:
192,192,35127,128,0,35285:0:0:0:0:
64,192,35127,128,0,35285:0:0:0:0:
448,192,35127,128,0,35285:0:0:0:0:
320,192,35127,128,0,35285:0:0:0:0:
64,192,35443,1,0,0:0:0:0:
320,192,35443,1,0,0:0:0:0:
448,192,35443,1,0,0:0:0:0:
320,192,35522,1,0,0:0:0:0:
192,192,35522,1,0,0:0:0:0:
64,192,35601,1,0,0:0:0:0:
192,192,35601,1,0,0:0:0:0:
320,192,35680,1,0,0:0:0:0:
64,192,35759,1,0,0:0:0:0:
448,192,35759,1,0,0:0:0:0:
192,192,35759,1,0,0:0:0:0:
320,192,35838,1,0,0:0:0:0:
448,192,35917,1,0,0:0:0:0:
64,192,35996,1,0,0:0:0:0:
192,192,35996,1,0,0:0:0:0:
320,192,36075,1,0,0:0:0:0:
448,192,36075,1,0,0:0:0:0:
448,192,36153,1,0,0:0:0:0:
192,192,36153,1,0,0:0:0:0:
192,192,36232,1,0,0:0:0:0:
64,192,36232,1,0,0:0:0:0:
320,192,36311,1,0,0:0:0:0:
64,192,36390,1,0,0:0:0:0:
448,192,36390,1,0,0:0:0:0:
192,192,36390,1,0,0:0:0:0:
320,192,36469,1,0,0:0:0:0:
64,192,36548,1,0,0:0:0:0:
448,192,36627,1,0,0:0:0:0:
320,192,36627,1,0,0:0:0:0:
192,192,36706,1,0,0:0:0:0:
64,192,36706,1,0,0:0:0:0:
320,192,36785,1,0,0:0:0:0:
192,192,36785,1,0,0:0:0:0:
320,192,36864,1,0,0:0:0:0:
448,192,36864,1,0,0:0:0:0:
64,192,36943,1,0,0:0:0:0:
320,192,37022,1,0,0:0:0:0:
448,192,37022,1,0,0:0:0:0:
192,192,37022,1,0,0:0:0:0:
64,192,37101,1,0,0:0:0:0:
448,192,37180,1,0,0:0:0:0:
320,192,37259,1,0,0:0:0:0:
192,192,37259,1,0,0:0:0:0:
64,192,37338,1,0,0:0:0:0:
448,192,37338,1,0,0:0:0:0:
192,192,37417,1,0,0:0:0:0:
64,192,37417,1,0,0:0:0:0:
320,192,37496,1,0,0:0:0:0:
192,192,37496,1,0,0:0:0:0:
448,192,37575,1,0,0:0:0:0:
64,192,37653,1,0,0:0:0:0:
192,192,37653,1,0,0:0:0:0:
320,192,37653,1,0,0:0:0:0:
448,192,37732,1,0,0:0:0:0:
64,192,37811,1,0,0:0:0:0:
192,192,37890,1,0,0:0:0:0:
320,192,37890,1,0,0:0:0:0:
448,192,37969,1,0,0:0:0:0:
64,192,37969,1,0,0:0:0:0:
448,192,38048,1,0,0:0:0:0:
192,192,38048,1,0,0:0:0:0:
192,192,38127,1,0,0:0:0:0:
64,192,38127,1,0,0:0:0:0:
320,192,38206,1,0,0:0:0:0:
64,192,38285,1,0,0:0:0:0:
448,192,38285,1,0,0:0:0:0:
192,192,38285,1,0,0:0:0:0:
320,192,38364,1,0,0:0:0:0:
192,192,38443,1,0,0:0:0:0:
448,192,38522,1,0,0:0:0:0:
64,192,38522,1,0,0:0:0:0:
320,192,38601,1,0,0:0:0:0:
192,192,38601,1,0,0:0:0:0:
320,192,38680,1,0,0:0:0:0:
448,192,38680,1,0,0:0:0:0:
64,192,38759,1,0,0:0:0:0:
448,192,38759,1,0,0:0:0:0:
192,192,38838,1,0,0:0:0:0:
64,192,38917,1,0,0:0:0:0:
320,192,38917,1,0,0:0:0:0:
448,192,38917,1,0,0:0:0:0:
192,192,38996,1,0,0:0:0:0:
448,192,39075,1,0,0:0:0:0:
64,192,39153,1,0,0:0:0:0:
192,192,39153,1,0,0:0:0:0:
320,192,39193,1,0,0:0:0:0:
448,192,39232,1,0,0:0:0:0:
64,192,39232,1,0,0:0:0:0:
448,192,39311,1,0,0:0:0:0:
192,192,39311,1,0,0:0:0:0:
64,192,39390,1,0,0:0:0:0:
192,192,39390,1,0,0:0:0:0:
320,192,39469,1,0,0:0:0:0:
64,192,39548,1,0,0:0:0:0:
448,192,39548,1,0,0:0:0:0:
192,192,39548,1,0,0:0:0:0:
320,192,39627,1,0,0:0:0:0:
192,192,39706,1,0,0:0:0:0:
64,192,39706,1,0,0:0:0:0:
192,192,39785,1,0,0:0:0:0:
64,192,39785,1,0,0:0:0:0:
448,192,39864,1,0,0:0:0:0:
320,192,39864,1,0,0:0:0:0:
320,192,39943,1,0,0:0:0:0:
448,192,39943,1,0,0:0:0:0:
64,192,40022,1,0,0:0:0:0:
448,192,40022,1,0,0:0:0:0:
192,192,40022,1,0,0:0:0:0:
64,192,40180,128,0,40338:0:0:0:0:
320,192,40180,128,0,40338:0:0:0:0:
448,192,40180,128,0,40338:0:0:0:0:
192,192,40338,128,0,40496:0:0:0:0:
320,192,40496,128,0,41285:0:0:0:0:
64,192,40496,1,0,0:0:0:0:
448,192,40496,1,0,0:0:0:0:
448,192,41285,128,0,41601:0:0:0:0:
320,192,41601,128,0,42075:0:0:0:0:
192,192,42075,128,0,42548:0:0:0:0:
64,192,42548,128,0,43022:0:0:0:0:
192,192,43022,128,0,44285:0:0:0:0:
320,192,44285,128,0,44759:0:0:0:0:
448,192,44759,128,0,45232:0:0:0:0:
64,192,45232,128,0,45390:0:0:0:0:
192,192,45390,128,0,45548:0:0:0:0:
320,192,45548,128,0,46338:0:0:0:0:
448,192,46338,128,0,46653:0:0:0:0:
64,192,46653,128,0,46969:0:0:0:0:
448,192,46969,128,0,47285:0:0:0:0:
320,192,47285,128,0,47601:0:0:0:0:
192,192,47601,128,0,48075:0:0:0:0:
64,192,48075,128,0,48548:0:0:0:0:
448,192,48548,128,0,49338:0:0:0:0:
64,192,49338,128,0,49496:0:0:0:0:
64,192,49653,128,0,49811:0:0:0:0:
448,192,49811,128,0,49969:0:0:0:0:
448,192,50127,128,0,50285:0:0:0:0:
64,192,50285,128,0,50443:0:0:0:0:
192,192,50443,128,0,50601:0:0:0:0:
320,192,50601,128,0,51390:0:0:0:0:
448,192,51390,128,0,51706:0:0:0:0:
320,192,51706,128,0,52180:0:0:0:0:
192,192,52180,128,0,52653:0:0:0:0:
64,192,52653,128,0,53127:0:0:0:0:
192,192,53127,128,0,54390:0:0:0:0:
320,192,54390,128,0,54864:0:0:0:0:
448,192,54864,128,0,55338:0:0:0:0:
64,192,55338,128,0,55496:0:0:0:0:
192,192,55496,128,0,55653:0:0:0:0:
320,192,55653,128,0,56443:0:0:0:0:
448,192,56443,128,0,56759:0:0:0:0:
64,192,56759,128,0,57075:0:0:0:0:
448,192,57075,128,0,57390:0:0:0:0:
320,192,57390,128,0,57706:0:0:0:0:
192,192,57706,128,0,58180:0:0:0:0:
448,192,58180,1,0,0:0:0:0:
64,192,58180,1,0,0:0:0:0:
320,192,58259,1,0,0:0:0:0:
192,192,58259,1,0,0:0:0:0:
448,192,58338,1,0,0:0:0:0:
64,192,58338,1,0,0:0:0:0:
192,192,58417,1,0,0:0:0:0:
320,192,58417,1,0,0:0:0:0:
64,192,58496,1,0,0:0:0:0:
448,192,58496,1,0,0:0:0:0:
192,192,58496,1,0,0:0:0:0:
320,192,58575,1,0,0:0:0:0:
448,192,58575,1,0,0:0:0:0:
192,192,58653,1,0,0:0:0:0:
64,192,58653,1,0,0:0:0:0:
320,192,58732,1,0,0:0:0:0:
448,192,58732,1,0,0:0:0:0:
192,192,58811,1,0,0:0:0:0:
64,192,58811,1,0,0:0:0:0:
320,192,58890,1,0,0:0:0:0:
448,192,58890,1,0,0:0:0:0:
192,192,58969,1,0,0:0:0:0:
64,192,58969,1,0,0:0:0:0:
320,192,59048,1,0,0:0:0:0:
448,192,59048,1,0,0:0:0:0:
192,192,59127,1,0,0:0:0:0:
64,192,59127,1,0,0:0:0:0:
320,192,59127,1,0,0:0:0:0:
64,192,59206,1,0,0:0:0:0:
448,192,59206,1,0,0:0:0:0:
192,192,59285,1,0,0:0:0:0:
320,192,59285,1,0,0:0:0:0:
64,192,59364,1,0,0:0:0:0:
448,192,59364,1,0,0:0:0:0:
192,192,59403,1,0,0:0:0:0:
320,192,59443,1,0,0:0:0:0:
448,192,59443,1,0,0:0:0:0:
320,192,59522,1,0,0:0:0:0:
192,192,59522,1,0,0:0:0:0:
192,192,59601,1,0,0:0:0:0:
64,192,59601,1,0,0:0:0:0:
448,192,59680,1,0,0:0:0:0:
64,192,59680,1,0,0:0:0:0:
448,192,59759,1,0,0:0:0:0:
192,192,59759,1,0,0:0:0:0:
192,192,59838,1,0,0:0:0:0:
320,192,59838,1,0,0:0:0:0:
64,192,59917,1,0,0:0:0:0:
448,192,59917,1,0,0:0:0:0:
320,192,59996,1,0,0:0:0:0:
192,192,59996,1,0,0:0:0:0:
64,192,60075,1,0,0:0:0:0:
448,192,60075,1,0,0:0:0:0:
320,192,60075,1,0,0:0:0:0:
192,192,60075,1,0,0:0:0:0:
64,192,60153,1,0,0:0:0:0:
448,192,60232,1,0,0:0:0:0:
192,192,60232,1,0,0:0:0:0:
192,192,60311,1,0,0:0:0:0:
64,192,60390,1,0,0:0:0:0:
320,192,60390,1,0,0:0:0:0:
448,192,60390,1,0,0:0:0:0:
320,192,60469,1,0,0:0:0:0:
448,192,60548,1,0,0:0:0:0:
64,192,60548,1,0,0:0:0:0:
448,192,60627,1,0,0:0:0:0:
64,192,60706,5,0,0:0:0:0:
192,192,60706,1,0,0:0:0:0:
320,192,60706,1,0,0:0:0:0:
448,192,60706,1,0,0:0:0:0:
64,192,61022,1,0,0:0:0:0:
320,192,61022,1,0,0:0:0:0:
448,192,61022,1,0,0:0:0:0:
64,192,61180,1,0,0:0:0:0:
192,192,61180,1,0,0:0:0:0:
192,192,61259,1,0,0:0:0:0:
320,192,61259,1,0,0:0:0:0:
320,192,61338,1,0,0:0:0:0:
448,192,61338,1,0,0:0:0:0:
64,192,61496,1,0,0:0:0:0:
192,192,61496,1,0,0:0:0:0:
192,192,61575,1,0,0:0:0:0:
320,192,61575,1,0,0:0:0:0:
320,192,61653,1,0,0:0:0:0:
448,192,61653,1,0,0:0:0:0:
64,192,61653,1,0,0:0:0:0:
192,192,61732,1,0,0:0:0:0:
320,192,61732,1,0,0:0:0:0:
192,192,61811,1,0,0:0:0:0:
64,192,61811,1,0,0:0:0:0:
448,192,61969,1,0,0:0:0:0:
320,192,61969,1,0,0:0:0:0:
320,192,62048,1,0,0:0:0:0:
192,192,62048,1,0,0:0:0:0:
192,192,62127,1,0,0:0:0:0:
64,192,62127,1,0,0:0:0:0:
192,192,62206,1,0,0:0:0:0:
320,192,62206,1,0,0:0:0:0:
320,192,62285,1,0,0:0:0:0:
448,192,62285,1,0,0:0:0:0:
64,192,62285,1,0,0:0:0:0:
448,192,62443,1,0,0:0:0:0:
64,192,62443,1,0,0:0:0:0:
448,192,62522,1,0,0:0:0:0:
64,192,62522,1,0,0:0:0:0:
192,192,62601,1,0,0:0:0:0:
320,192,62601,1,0,0:0:0:0:
64,192,62680,1,0,0:0:0:0:
448,192,62680,1,0,0:0:0:0:
64,192,62759,1,0,0:0:0:0:
448,192,62759,1,0,0:0:0:0:
192,192,62917,1,0,0:0:0:0:
448,192,62917,1,0,0:0:0:0:
64,192,62917,1,0,0:0:0:0:
192,192,62996,1,0,0:0:0:0:
64,192,62996,1,0,0:0:0:0:
320,192,63075,1,0,0:0:0:0:
448,192,63075,1,0,0:0:0:0:
320,192,63153,1,0,0:0:0:0:
448,192,63153,1,0,0:0:0:0:
64,192,63232,1,0,0:0:0:0:
192,192,63232,1,0,0:0:0:0:
192,192,63311,1,0,0:0:0:0:
320,192,63311,1,0,0:0:0:0:
320,192,63390,1,0,0:0:0:0:
448,192,63390,1,0,0:0:0:0:
192,192,63469,1,0,0:0:0:0:
320,192,63469,1,0,0:0:0:0:
64,192,63548,1,0,0:0:0:0:
192,192,63548,1,0,0:0:0:0:
448,192,63548,1,0,0:0:0:0:
320,192,63706,1,0,0:0:0:0:
192,192,63706,1,0,0:0:0:0:
64,192,63785,1,0,0:0:0:0:
192,192,63785,1,0,0:0:0:0:
64,192,63864,1,0,0:0:0:0:
448,192,63864,1,0,0:0:0:0:
320,192,63943,1,0,0:0:0:0:
448,192,63943,1,0,0:0:0:0:
192,192,64022,1,0,0:0:0:0:
320,192,64022,1,0,0:0:0:0:
64,192,64101,1,0,0:0:0:0:
192,192,64101,1,0,0:0:0:0:
64,192,64180,1,0,0:0:0:0:
320,192,64180,1,0,0:0:0:0:
448,192,64180,1,0,0:0:0:0:
320,192,64259,1,0,0:0:0:0:
448,192,64259,1,0,0:0:0:0:
64,192,64338,1,0,0:0:0:0:
192,192,64338,1,0,0:0:0:0:
64,192,64417,1,0,0:0:0:0:
192,192,64417,1,0,0:0:0:0:
320,192,64496,1,0,0:0:0:0:
448,192,64496,1,0,0:0:0:0:
192,192,64575,1,0,0:0:0:0:
320,192,64575,1,0,0:0:0:0:
64,192,64653,1,0,0:0:0:0:
192,192,64653,1,0,0:0:0:0:
192,192,64732,1,0,0:0:0:0:
320,192,64732,1,0,0:0:0:0:
320,192,64811,1,0,0:0:0:0:
448,192,64811,1,0,0:0:0:0:
64,192,64811,1,0,0:0:0:0:
64,192,64969,1,0,0:0:0:0:
192,192,64969,1,0,0:0:0:0:
192,192,65048,1,0,0:0:0:0:
320,192,65048,1,0,0:0:0:0:
320,192,65127,1,0,0:0:0:0:
448,192,65127,1,0,0:0:0:0:
192,192,65206,1,0,0:0:0:0:
320,192,65206,1,0,0:0:0:0:
192,192,65285,1,0,0:0:0:0:
64,192,65285,1,0,0:0:0:0:
320,192,65443,1,0,0:0:0:0:
448,192,65443,1,0,0:0:0:0:
64,192,65443,1,0,0:0:0:0:
448,192,65522,1,0,0:0:0:0:
320,192,65522,1,0,0:0:0:0:
64,192,65601,1,0,0:0:0:0:
192,192,65601,1,0,0:0:0:0:
64,192,65680,1,0,0:0:0:0:
192,192,65680,1,0,0:0:0:0:
320,192,65759,1,0,0:0:0:0:
448,192,65759,1,0,0:0:0:0:
192,192,65838,1,0,0:0:0:0:
448,192,65838,1,0,0:0:0:0:
192,192,65917,1,0,0:0:0:0:
320,192,65917,1,0,0:0:0:0:
64,192,65996,1,0,0:0:0:0:
320,192,65996,1,0,0:0:0:0:
64,192,66075,1,0,0:0:0:0:
192,192,66075,1,0,0:0:0:0:
448,192,66075,1,0,0:0:0:0:
64,192,66232,1,0,0:0:0:0:
192,192,66232,1,0,0:0:0:0:
64,192,66311,1,0,0:0:0:0:
320,192,66311,1,0,0:0:0:0:
320,192,66390,1,0,0:0:0:0:
192,192,66390,1,0,0:0:0:0:
192,192,66469,1,0,0:0:0:0:
448,192,66469,1,0,0:0:0:0:
320,192,66548,1,0,0:0:0:0:
448,192,66548,1,0,0:0:0:0:
192,192,66627,1,0,0:0:0:0:
320,192,66627,1,0,0:0:0:0:
192,192,66706,1,0,0:0:0:0:
64,192,66706,1,0,0:0:0:0:
448,192,66706,1,0,0:0:0:0:
64,192,66785,1,0,0:0:0:0:
448,192,66785,1,0,0:0:0:0:
192,192,66864,1,0,0:0:0:0:
320,192,66864,1,0,0:0:0:0:
320,192,66943,1,0,0:0:0:0:
192,192,66943,1,0,0:0:0:0:
64,192,67022,1,0,0:0:0:0:
448,192,67022,1,0,0:0:0:0:
448,192,67101,1,0,0:0:0:0:
192,192,67101,1,0,0:0:0:0:
320,192,67180,1,0,0:0:0:0:
64,192,67180,1,0,0:0:0:0:
320,192,67259,1,0,0:0:0:0:
192,192,67259,1,0,0:0:0:0:
448,192,67338,1,0,0:0:0:0:
64,192,67338,1,0,0:0:0:0:
192,192,67338,1,0,0:0:0:0:
64,192,67496,1,0,0:0:0:0:
448,192,67496,1,0,0:0:0:0:
64,192,67575,1,0,0:0:0:0:
320,192,67575,1,0,0:0:0:0:
192,192,67653,1,0,0:0:0:0:
448,192,67653,1,0,0:0:0:0:
192,192,67732,1,0,0:0:0:0:
320,192,67732,1,0,0:0:0:0:
64,192,67811,1,0,0:0:0:0:
448,192,67811,1,0,0:0:0:0:
320,192,67969,1,0,0:0:0:0:
192,192,67969,1,0,0:0:0:0:
64,192,67969,1,0,0:0:0:0:
448,192,68048,1,0,0:0:0:0:
320,192,68048,1,0,0:0:0:0:
192,192,68127,1,0,0:0:0:0:
320,192,68127,1,0,0:0:0:0:
192,192,68206,1,0,0:0:0:0:
64,192,68206,1,0,0:0:0:0:
448,192,68285,1,0,0:0:0:0:
192,192,68285,1,0,0:0:0:0:
320,192,68364,1,0,0:0:0:0:
448,192,68364,1,0,0:0:0:0:
192,192,68443,1,0,0:0:0:0:
320,192,68443,1,0,0:0:0:0:
64,192,68522,1,0,0:0:0:0:
192,192,68522,1,0,0:0:0:0:
64,192,68601,1,0,0:0:0:0:
320,192,68601,1,0,0:0:0:0:
448,192,68601,1,0,0:0:0:0:
64,192,68759,1,0,0:0:0:0:
448,192,68759,1,0,0:0:0:0:
192,192,68838,1,0,0:0:0:0:
64,192,68838,1,0,0:0:0:0:
192,192,68917,1,0,0:0:0:0:
320,192,68917,1,0,0:0:0:0:
448,192,68996,1,0,0:0:0:0:
320,192,68996,1,0,0:0:0:0:
64,192,69075,1,0,0:0:0:0:
448,192,69075,1,0,0:0:0:0:
64,192,69232,1,0,0:0:0:0:
448,192,69232,1,0,0:0:0:0:
320,192,69232,1,0,0:0:0:0:
448,192,69311,1,0,0:0:0:0:
192,192,69311,1,0,0:0:0:0:
320,192,69390,1,0,0:0:0:0:
64,192,69390,1,0,0:0:0:0:
320,192,69469,1,0,0:0:0:0:
192,192,69469,1,0,0:0:0:0:
64,192,69548,1,0,0:0:0:0:
448,192,69548,1,0,0:0:0:0:
64,192,69706,1,0,0:0:0:0:
448,192,69706,1,0,0:0:0:0:
64,192,69785,1,0,0:0:0:0:
320,192,69785,1,0,0:0:0:0:
192,192,69864,1,0,0:0:0:0:
448,192,69864,1,0,0:0:0:0:
320,192,69864,1,0,0:0:0:0:
192,192,69943,1,0,0:0:0:0:
64,192,69943,1,0,0:0:0:0:
448,192,70022,1,0,0:0:0:0:
320,192,70022,1,0,0:0:0:0:
192,192,70180,1,0,0:0:0:0:
64,192,70180,1,0,0:0:0:0:
192,192,70259,1,0,0:0:0:0:
320,192,70259,1,0,0:0:0:0:
192,192,70338,1,0,0:0:0:0:
64,192,70338,1,0,0:0:0:0:
448,192,70417,1,0,0:0:0:0:
64,192,70417,1,0,0:0:0:0:
448,192,70496,1,0,0:0:0:0:
320,192,70496,1,0,0:0:0:0:
192,192,70496,1,0,0:0:0:0:
320,192,70575,1,0,0:0:0:0:
64,192,70575,1,0,0:0:0:0:
320,192,70653,1,0,0:0:0:0:
192,192,70653,1,0,0:0:0:0:
64,192,70732,1,0,0:0:0:0:
448,192,70732,1,0,0:0:0:0:
64,192,70811,1,0,0:0:0:0:
448,192,70811,1,0,0:0:0:0:
320,192,70890,1,0,0:0:0:0:
192,192,70890,1,0,0:0:0:0:
64,192,70969,1,0,0:0:0:0:
448,192,70969,1,0,0:0:0:0:
64,192,71127,1,0,0:0:0:0:
320,192,71127,1,0,0:0:0:0:
448,192,71127,1,0,0:0:0:0:
448,192,71285,1,0,0:0:0:0:
320,192,71285,1,0,0:0:0:0:
320,192,71364,1,0,0:0:0:0:
192,192,71364,1,0,0:0:0:0:
192,192,71443,1,0,0:0:0:0:
64,192,71443,1,0,0:0:0:0:
448,192,71601,1,0,0:0:0:0:
320,192,71601,1,0,0:0:0:0:
320,192,71680,1,0,0:0:0:0:
192,192,71680,1,0,0:0:0:0:
192,192,71759,1,0,0:0:0:0:
64,192,71759,1,0,0:0:0:0:
448,192,71759,1,0,0:0:0:0:
320,192,71838,1,0,0:0:0:0:
192,192,71838,1,0,0:0:0:0:
320,192,71917,1,0,0:0:0:0:
448,192,71917,1,0,0:0:0:0:
64,192,72075,1,0,0:0:0:0:
192,192,72075,1,0,0:0:0:0:
192,192,72153,1,0,0:0:0:0:
320,192,72153,1,0,0:0:0:0:
320,192,72232,1,0,0:0:0:0:
448,192,72232,1,0,0:0:0:0:
320,192,72311,1,0,0:0:0:0:
192,192,72311,1,0,0:0:0:0:
192,192,72390,1,0,0:0:0:0:
64,192,72390,1,0,0:0:0:0:
448,192,72390,1,0,0:0:0:0:
64,192,72548,1,0,0:0:0:0:
448,192,72548,1,0,0:0:0:0:
64,192,72627,1,0,0:0:0:0:
448,192,72627,1,0,0:0:0:0:
320,192,72706,1,0,0:0:0:0:
192,192,72706,1,0,0:0:0:0:
448,192,72785,1,0,0:0:0:0:
64,192,72785,1,0,0:0:0:0:
448,192,72864,1,0,0:0:0:0:
64,192,72864,1,0,0:0:0:0:
320,192,73022,1,0,0:0:0:0:
64,192,73022,1,0,0:0:0:0:
448,192,73022,1,0,0:0:0:0:
320,192,73101,1,0,0:0:0:0:
448,192,73101,1,0,0:0:0:0:
192,192,73180,1,0,0:0:0:0:
64,192,73180,1,0,0:0:0:0:
192,192,73259,1,0,0:0:0:0:
64,192,73259,1,0,0:0:0:0:
448,192,73338,1,0,0:0:0:0:
320,192,73338,1,0,0:0:0:0:
320,192,73417,1,0,0:0:0:0:
192,192,73417,1,0,0:0:0:0:
192,192,73496,1,0,0:0:0:0:
64,192,73496,1,0,0:0:0:0:
320,192,73575,1,0,0:0:0:0:
192,192,73575,1,0,0:0:0:0:
448,192,73653,1,0,0:0:0:0:
320,192,73653,1,0,0:0:0:0:
64,192,73653,1,0,0:0:0:0:
192,192,73811,1,0,0:0:0:0:
320,192,73811,1,0,0:0:0:0:
448,192,73890,1,0,0:0:0:0:
320,192,73890,1,0,0:0:0:0:
448,192,73969,1,0,0:0:0:0:
64,192,73969,1,0,0:0:0:0:
192,192,74048,1,0,0:0:0:0:
64,192,74048,1,0,0:0:0:0:
320,192,74127,1,0,0:0:0:0:
192,192,74127,1,0,0:0:0:0:
448,192,74206,1,0,0:0:0:0:
320,192,74206,1,0,0:0:0:0:
448,192,74285,1,0,0:0:0:0:
192,192,74285,1,0,0:0:0:0:
64,192,74285,1,0,0:0:0:0:
192,192,74364,1,0,0:0:0:0:
64,192,74364,1,0,0:0:0:0:
448,192,74443,1,0,0:0:0:0:
320,192,74443,1,0,0:0:0:0:
448,192,74522,1,0,0:0:0:0:
320,192,74522,1,0,0:0:0:0:
192,192,74601,1,0,0:0:0:0:
64,192,74601,1,0,0:0:0:0:
320,192,74680,1,0,0:0:0:0:
192,192,74680,1,0,0:0:0:0:
448,192,74759,1,0,0:0:0:0:
320,192,74759,1,0,0:0:0:0:
320,192,74838,1,0,0:0:0:0:
192,192,74838,1,0,0:0:0:0:
192,192,74917,1,0,0:0:0:0:
64,192,74917,1,0,0:0:0:0:
448,192,74917,1,0,0:0:0:0:
448,192,75075,1,0,0:0:0:0:
320,192,75075,1,0,0:0:0:0:
320,192,75153,1,0,0:0:0:0:
192,192,75153,1,0,0:0:0:0:
192,192,75232,1,0,0:0:0:0:
64,192,75232,1,0,0:0:0:0:
320,192,75311,1,0,0:0:0:0:
192,192,75311,1,0,0:0:0:0:
320,192,75390,1,0,0:0:0:0:
448,192,75390,1,0,0:0:0:0:
192,192,75548,1,0,0:0:0:0:
64,192,75548,1,0,0:0:0:0:
448,192,75548,1,0,0:0:0:0:
64,192,75627,1,0,0:0:0:0:
192,192,75627,1,0,0:0:0:0:
448,192,75706,1,0,0:0:0:0:
320,192,75706,1,0,0:0:0:0:
448,192,75785,1,0,0:0:0:0:
320,192,75785,1,0,0:0:0:0:
192,192,75864,1,0,0:0:0:0:
64,192,75864,1,0,0:0:0:0:
320,192,75943,1,0,0:0:0:0:
64,192,75943,1,0,0:0:0:0:
320,192,76022,1,0,0:0:0:0:
192,192,76022,1,0,0:0:0:0:
448,192,76101,1,0,0:0:0:0:
192,192,76101,1,0,0:0:0:0:
448,192,76180,1,0,0:0:0:0:
320,192,76180,1,0,0:0:0:0:
64,192,76180,1,0,0:0:0:0:
448,192,76338,1,0,0:0:0:0:
320,192,76338,1,0,0:0:0:0:
448,192,76417,1,0,0:0:0:0:
192,192,76417,1,0,0:0:0:0:
192,192,76496,1,0,0:0:0:0:
320,192,76496,1,0,0:0:0:0:
320,192,76575,1,0,0:0:0:0:
64,192,76575,1,0,0:0:0:0:
192,192,76653,1,0,0:0:0:0:
64,192,76653,1,0,0:0:0:0:
320,192,76732,1,0,0:0:0:0:
192,192,76732,1,0,0:0:0:0:
320,192,76811,1,0,0:0:0:0:
448,192,76811,1,0,0:0:0:0:
64,192,76811,1,0,0:0:0:0:
448,192,76890,1,0,0:0:0:0:
64,192,76890,1,0,0:0:0:0:
320,192,76969,1,0,0:0:0:0:
192,192,76969,1,0,0:0:0:0:
192,192,77048,1,0,0:0:0:0:
320,192,77048,1,0,0:0:0:0:
448,192,77127,1,0,0:0:0:0:
64,192,77127,1,0,0:0:0:0:
64,192,77206,1,0,0:0:0:0:
320,192,77206,1,0,0:0:0:0:
192,192,77285,1,0,0:0:0:0:
448,192,77285,1,0,0:0:0:0:
192,192,77364,1,0,0:0:0:0:
320,192,77364,1,0,0:0:0:0:
64,192,77443,1,0,0:0:0:0:
448,192,77443,1,0,0:0:0:0:
320,192,77443,1,0,0:0:0:0:
192,192,77522,1,0,0:0:0:0:
448,192,77601,1,0,0:0:0:0:
64,192,77601,1,0,0:0:0:0:
448,192,77680,1,0,0:0:0:0:
192,192,77680,1,0,0:0:0:0:
320,192,77759,1,0,0:0:0:0:
64,192,77759,1,0,0:0:0:0:
320,192,77838,1,0,0:0:0:0:
192,192,77838,1,0,0:0:0:0:
448,192,77917,1,0,0:0:0:0:
64,192,77917,1,0,0:0:0:0:
320,192,77996,1,0,0:0:0:0:
448,192,78075,1,0,0:0:0:0:
192,192,78075,1,0,0:0:0:0:
64,192,78075,1,0,0:0:0:0:
320,192,78153,1,0,0:0:0:0:
192,192,78153,1,0,0:0:0:0:
448,192,78232,1,0,0:0:0:0:
64,192,78232,1,0,0:0:0:0:
64,192,78311,1,0,0:0:0:0:
320,192,78311,1,0,0:0:0:0:
192,192,78390,1,0,0:0:0:0:
320,192,78390,1,0,0:0:0:0:
448,192,78390,1,0,0:0:0:0:
64,192,78469,1,0,0:0:0:0:
192,192,78469,1,0,0:0:0:0:
64,192,78548,1,0,0:0:0:0:
448,192,78548,1,0,0:0:0:0:
448,192,78627,1,0,0:0:0:0:
320,192,78627,1,0,0:0:0:0:
192,192,78706,1,0,0:0:0:0:
320,192,78706,1,0,0:0:0:0:
64,192,78785,1,0,0:0:0:0:
448,192,78785,1,0,0:0:0:0:
192,192,78864,1,0,0:0:0:0:
320,192,78864,1,0,0:0:0:0:
64,192,78943,1,0,0:0:0:0:
192,192,78943,1,0,0:0:0:0:
64,192,79022,1,0,0:0:0:0:
448,192,79022,1,0,0:0:0:0:
320,192,79101,1,0,0:0:0:0:
448,192,79101,1,0,0:0:0:0:
192,192,79180,1,0,0:0:0:0:
320,192,79180,1,0,0:0:0:0:
64,192,79259,1,0,0:0:0:0:
448,192,79259,1,0,0:0:0:0:
192,192,79338,1,0,0:0:0:0:
320,192,79338,1,0,0:0:0:0:
192,192,79417,1,0,0:0:0:0:
320,192,79417,1,0,0:0:0:0:
64,192,79496,1,0,0:0:0:0:
448,192,79496,1,0,0:0:0:0:
448,192,79575,1,0,0:0:0:0:
64,192,79575,1,0,0:0:0:0:
192,192,79653,1,0,0:0:0:0:
320,192,79653,1,0,0:0:0:0:
448,192,79653,1,0,0:0:0:0:
192,192,79732,1,0,0:0:0:0:
64,192,79732,1,0,0:0:0:0:
64,192,79811,1,0,0:0:0:0:
448,192,79811,1,0,0:0:0:0:
320,192,79890,1,0,0:0:0:0:
448,192,79890,1,0,0:0:0:0:
192,192,79969,1,0,0:0:0:0:
320,192,79969,1,0,0:0:0:0:
64,192,80048,1,0,0:0:0:0:
448,192,80048,1,0,0:0:0:0:
320,192,80127,1,0,0:0:0:0:
192,192,80127,1,0,0:0:0:0:
192,192,80206,1,0,0:0:0:0:
64,192,80206,1,0,0:0:0:0:
64,192,80285,1,0,0:0:0:0:
448,192,80285,1,0,0:0:0:0:
320,192,80364,1,0,0:0:0:0:
192,192,80364,1,0,0:0:0:0:
64,192,80443,1,0,0:0:0:0:
448,192,80443,1,0,0:0:0:0:
64,192,80601,1,0,0:0:0:0:
448,192,80601,1,0,0:0:0:0:
192,192,80640,1,0,0:0:0:0:
64,192,80680,1,0,0:0:0:0:
448,192,80680,1,0,0:0:0:0:
192,192,80719,1,0,0:0:0:0:
64,192,80759,1,0,0:0:0:0:
320,192,80759,1,0,0:0:0:0:
192,192,80798,1,0,0:0:0:0:
448,192,80838,1,0,0:0:0:0:
320,192,80838,1,0,0:0:0:0:
192,192,80917,1,0,0:0:0:0:
64,192,80917,1,0,0:0:0:0:
448,192,80917,1,0,0:0:0:0:
192,192,80996,1,0,0:0:0:0:
320,192,80996,1,0,0:0:0:0:
320,192,81075,1,0,0:0:0:0:
448,192,81075,1,0,0:0:0:0:
320,192,81153,1,0,0:0:0:0:
192,192,81153,1,0,0:0:0:0:
192,192,81232,1,0,0:0:0:0:
64,192,81232,1,0,0:0:0:0:
448,192,81390,1,0,0:0:0:0:
320,192,81390,1,0,0:0:0:0:
320,192,81469,1,0,0:0:0:0:
192,192,81469,1,0,0:0:0:0:
192,192,81548,1,0,0:0:0:0:
64,192,81548,1,0,0:0:0:0:
192,192,81627,1,0,0:0:0:0:
320,192,81627,1,0,0:0:0:0:
320,192,81706,1,0,0:0:0:0:
448,192,81706,1,0,0:0:0:0:
64,192,81864,1,0,0:0:0:0:
192,192,81864,1,0,0:0:0:0:
64,192,81943,1,0,0:0:0:0:
192,192,81943,1,0,0:0:0:0:
320,192,82022,1,0,0:0:0:0:
448,192,82022,1,0,0:0:0:0:
320,192,82101,1,0,0:0:0:0:
448,192,82101,1,0,0:0:0:0:
64,192,82180,1,0,0:0:0:0:
192,192,82180,1,0,0:0:0:0:
448,192,82180,1,0,0:0:0:0:
64,192,82338,1,0,0:0:0:0:
448,192,82338,1,0,0:0:0:0:
64,192,82417,1,0,0:0:0:0:
448,192,82417,1,0,0:0:0:0:
320,192,82496,1,0,0:0:0:0:
192,192,82496,1,0,0:0:0:0:
64,192,82575,1,0,0:0:0:0:
448,192,82575,1,0,0:0:0:0:
448,192,82653,1,0,0:0:0:0:
64,192,82653,1,0,0:0:0:0:
64,192,82811,1,0,0:0:0:0:
448,192,82811,1,0,0:0:0:0:
64,192,82890,1,0,0:0:0:0:
320,192,82890,1,0,0:0:0:0:
192,192,82969,1,0,0:0:0:0:
448,192,82969,1,0,0:0:0:0:
192,192,83048,1,0,0:0:0:0:
320,192,83048,1,0,0:0:0:0:
448,192,83127,1,0,0:0:0:0:
64,192,83127,1,0,0:0:0:0:
320,192,83167,1,0,0:0:0:0:
448,192,83206,1,0,0:0:0:0:
64,192,83206,1,0,0:0:0:0:
320,192,83246,1,0,0:0:0:0:
448,192,83285,1,0,0:0:0:0:
192,192,83285,1,0,0:0:0:0:
320,192,83325,1,0,0:0:0:0:
192,192,83364,1,0,0:0:0:0:
64,192,83364,1,0,0:0:0:0:
64,192,83443,1,0,0:0:0:0:
320,192,83443,1,0,0:0:0:0:
448,192,83443,1,0,0:0:0:0:
64,192,88496,5,0,0:0:0:0:
192,192,88653,1,0,0:0:0:0:
320,192,88811,1,0,0:0:0:0:
192,192,89127,1,0,0:0:0:0:
320,192,89285,1,0,0:0:0:0:
448,192,89601,1,0,0:0:0:0:
192,192,89917,5,0,0:0:0:0:
320,192,90075,1,0,0:0:0:0:
192,192,90390,1,0,0:0:0:0:
320,192,90548,1,0,0:0:0:0:
448,192,90864,1,0,0:0:0:0:
192,192,91180,1,0,0:0:0:0:
320,192,91338,1,0,0:0:0:0:
192,192,91653,1,0,0:0:0:0:
320,192,91811,1,0,0:0:0:0:
192,192,92127,1,0,0:0:0:0:
64,192,92285,1,0,0:0:0:0:
448,192,92285,1,0,0:0:0:0:
320,192,92285,1,0,0:0:0:0:
64,192,92443,1,0,0:0:0:0:
448,192,92443,1,0,0:0:0:0:
192,192,92443,1,0,0:0:0:0:
64,192,92601,1,0,0:0:0:0:
448,192,92601,1,0,0:0:0:0:
320,192,92601,1,0,0:0:0:0:
448,192,92759,1,0,0:0:0:0:
64,192,92759,1,0,0:0:0:0:
192,192,92759,1,0,0:0:0:0:
320,192,92838,1,0,0:0:0:0:
448,192,92917,1,0,0:0:0:0:
192,192,92917,1,0,0:0:0:0:
64,192,92917,1,0,0:0:0:0:
320,192,92996,1,0,0:0:0:0:
448,192,93075,1,0,0:0:0:0:
192,192,93075,1,0,0:0:0:0:
448,192,93232,1,0,0:0:0:0:
64,192,93232,1,0,0:0:0:0:
320,192,93232,1,0,0:0:0:0:
192,192,93311,1,0,0:0:0:0:
64,192,93390,1,0,0:0:0:0:
320,192,93390,1,0,0:0:0:0:
192,192,93469,1,0,0:0:0:0:
64,192,93548,1,0,0:0:0:0:
448,192,93548,1,0,0:0:0:0:
320,192,93548,1,0,0:0:0:0:
448,192,93627,1,0,0:0:0:0:
192,192,93627,1,0,0:0:0:0:
192,192,93706,1,0,0:0:0:0:
320,192,93706,1,0,0:0:0:0:
64,192,93706,1,0,0:0:0:0:
320,192,93785,1,0,0:0:0:0:
64,192,93864,1,0,0:0:0:0:
192,192,93864,1,0,0:0:0:0:
448,192,93864,1,0,0:0:0:0:
192,192,93943,1,0,0:0:0:0:
320,192,93943,1,0,0:0:0:0:
64,192,94022,1,0,0:0:0:0:
448,192,94022,1,0,0:0:0:0:
64,192,94101,1,0,0:0:0:0:
192,192,94180,1,0,0:0:0:0:
320,192,94180,1,0,0:0:0:0:
448,192,94180,1,0,0:0:0:0:
64,192,94259,1,0,0:0:0:0:
448,192,94259,1,0,0:0:0:0:
320,192,94338,1,0,0:0:0:0:
192,192,94338,1,0,0:0:0:0:
64,192,94338,1,0,0:0:0:0:
320,192,94417,1,0,0:0:0:0:
192,192,94496,1,0,0:0:0:0:
448,192,94496,1,0,0:0:0:0:
192,192,94575,1,0,0:0:0:0:
320,192,94575,1,0,0:0:0:0:
64,192,94653,1,0,0:0:0:0:
320,192,94653,1,0,0:0:0:0:
448,192,94653,1,0,0:0:0:0:
64,192,94732,1,0,0:0:0:0:
448,192,94811,1,0,0:0:0:0:
320,192,94811,1,0,0:0:0:0:
64,192,94890,1,0,0:0:0:0:
320,192,94890,1,0,0:0:0:0:
192,192,94969,1,0,0:0:0:0:
448,192,94969,1,0,0:0:0:0:
64,192,94969,1,0,0:0:0:0:
192,192,95048,1,0,0:0:0:0:
64,192,95127,1,0,0:0:0:0:
320,192,95127,1,0,0:0:0:0:
448,192,95127,1,0,0:0:0:0:
192,192,95206,1,0,0:0:0:0:
448,192,95206,1,0,0:0:0:0:
64,192,95285,1,0,0:0:0:0:
320,192,95285,1,0,0:0:0:0:
64,192,95364,1,0,0:0:0:0:
192,192,95443,1,0,0:0:0:0:
320,192,95443,1,0,0:0:0:0:
448,192,95443,1,0,0:0:0:0:
64,192,95522,1,0,0:0:0:0:
320,192,95522,1,0,0:0:0:0:
448,192,95601,1,0,0:0:0:0:
192,192,95601,1,0,0:0:0:0:
64,192,95601,1,0,0:0:0:0:
192,192,95680,1,0,0:0:0:0:
320,192,95759,1,0,0:0:0:0:
448,192,95759,1,0,0:0:0:0:
192,192,95838,1,0,0:0:0:0:
448,192,95838,1,0,0:0:0:0:
64,192,95917,1,0,0:0:0:0:
320,192,95917,1,0,0:0:0:0:
192,192,95917,1,0,0:0:0:0:
64,192,95996,1,0,0:0:0:0:
320,192,96075,1,0,0:0:0:0:
448,192,96075,1,0,0:0:0:0:
64,192,96153,1,0,0:0:0:0:
448,192,96153,1,0,0:0:0:0:
64,192,96232,1,0,0:0:0:0:
320,192,96232,1,0,0:0:0:0:
192,192,96232,1,0,0:0:0:0:
320,192,96311,1,0,0:0:0:0:
448,192,96390,1,0,0:0:0:0:
192,192,96390,1,0,0:0:0:0:
64,192,96390,1,0,0:0:0:0:
320,192,96469,1,0,0:0:0:0:
64,192,96469,1,0,0:0:0:0:
448,192,96548,1,0,0:0:0:0:
192,192,96548,1,0,0:0:0:0:
192,192,96627,1,0,0:0:0:0:
448,192,96706,1,0,0:0:0:0:
320,192,96706,1,0,0:0:0:0:
64,192,96706,1,0,0:0:0:0:
448,192,96785,1,0,0:0:0:0:
192,192,96785,1,0,0:0:0:0:
64,192,96864,1,0,0:0:0:0:
192,192,96864,1,0,0:0:0:0:
320,192,96864,1,0,0:0:0:0:
320,192,96943,1,0,0:0:0:0:
448,192,97022,1,0,0:0:0:0:
64,192,97022,1,0,0:0:0:0:
320,192,97101,1,0,0:0:0:0:
64,192,97101,1,0,0:0:0:0:
448,192,97180,1,0,0:0:0:0:
320,192,97180,1,0,0:0:0:0:
192,192,97180,1,0,0:0:0:0:
192,192,97259,1,0,0:0:0:0:
448,192,97338,1,0,0:0:0:0:
64,192,97338,1,0,0:0:0:0:
64,192,97417,1,0,0:0:0:0:
320,192,97417,1,0,0:0:0:0:
320,192,97496,1,0,0:0:0:0:
192,192,97496,1,0,0:0:0:0:
448,192,97496,1,0,0:0:0:0:
192,192,97575,1,0,0:0:0:0:
448,192,97653,1,0,0:0:0:0:
320,192,97653,1,0,0:0:0:0:
64,192,97653,1,0,0:0:0:0:
320,192,97732,1,0,0:0:0:0:
192,192,97732,1,0,0:0:0:0:
448,192,97811,1,0,0:0:0:0:
64,192,97811,1,0,0:0:0:0:
448,192,97890,1,0,0:0:0:0:
320,192,97969,1,0,0:0:0:0:
192,192,97969,1,0,0:0:0:0:
64,192,97969,1,0,0:0:0:0:
448,192,98048,1,0,0:0:0:0:
64,192,98048,1,0,0:0:0:0:
192,192,98127,1,0,0:0:0:0:
320,192,98127,1,0,0:0:0:0:
448,192,98127,1,0,0:0:0:0:
192,192,98206,1,0,0:0:0:0:
320,192,98285,1,0,0:0:0:0:
64,192,98285,1,0,0:0:0:0:
320,192,98364,1,0,0:0:0:0:
192,192,98364,1,0,0:0:0:0:
448,192,98443,1,0,0:0:0:0:
192,192,98443,1,0,0:0:0:0:
64,192,98443,1,0,0:0:0:0:
64,192,98522,1,0,0:0:0:0:
320,192,98601,1,0,0:0:0:0:
448,192,98601,1,0,0:0:0:0:
448,192,98680,1,0,0:0:0:0:
192,192,98680,1,0,0:0:0:0:
192,192,98759,1,0,0:0:0:0:
320,192,98759,1,0,0:0:0:0:
64,192,98759,1,0,0:0:0:0:
320,192,98838,1,0,0:0:0:0:
64,192,98917,1,0,0:0:0:0:
192,192,98917,1,0,0:0:0:0:
448,192,98917,1,0,0:0:0:0:
192,192,98996,1,0,0:0:0:0:
320,192,98996,1,0,0:0:0:0:
64,192,99075,1,0,0:0:0:0:
448,192,99075,1,0,0:0:0:0:
64,192,99153,1,0,0:0:0:0:
192,192,99232,1,0,0:0:0:0:
320,192,99232,1,0,0:0:0:0:
448,192,99232,1,0,0:0:0:0:
64,192,99311,1,0,0:0:0:0:
448,192,99311,1,0,0:0:0:0:
320,192,99390,1,0,0:0:0:0:
192,192,99390,1,0,0:0:0:0:
64,192,99390,1,0,0:0:0:0:
320,192,99469,1,0,0:0:0:0:
192,192,99548,1,0,0:0:0:0:
448,192,99548,1,0,0:0:0:0:
192,192,99627,1,0,0:0:0:0:
320,192,99627,1,0,0:0:0:0:
64,192,99706,1,0,0:0:0:0:
320,192,99706,1,0,0:0:0:0:
448,192,99706,1,0,0:0:0:0:
64,192,99785,1,0,0:0:0:0:
448,192,99864,1,0,0:0:0:0:
320,192,99864,1,0,0:0:0:0:
64,192,99943,1,0,0:0:0:0:
320,192,99943,1,0,0:0:0:0:
192,192,100022,1,0,0:0:0:0:
448,192,100022,1,0,0:0:0:0:
64,192,100022,1,0,0:0:0:0:
192,192,100101,1,0,0:0:0:0:
64,192,100180,1,0,0:0:0:0:
320,192,100180,1,0,0:0:0:0:
448,192,100180,1,0,0:0:0:0:
192,192,100259,1,0,0:0:0:0:
448,192,100259,1,0,0:0:0:0:
64,192,100338,1,0,0:0:0:0:
320,192,100338,1,0,0:0:0:0:
64,192,100417,1,0,0:0:0:0:
192,192,100496,1,0,0:0:0:0:
320,192,100496,1,0,0:0:0:0:
448,192,100496,1,0,0:0:0:0:
64,192,100575,1,0,0:0:0:0:
320,192,100575,1,0,0:0:0:0:
448,192,100653,1,0,0:0:0:0:
192,192,100653,1,0,0:0:0:0:
64,192,100653,1,0,0:0:0:0:
192,192,100732,1,0,0:0:0:0:
320,192,100811,1,0,0:0:0:0:
448,192,100811,1,0,0:0:0:0:
192,192,100890,1,0,0:0:0:0:
448,192,100890,1,0,0:0:0:0:
64,192,100969,1,0,0:0:0:0:
320,192,100969,1,0,0:0:0:0:
192,192,100969,1,0,0:0:0:0:
64,192,101048,1,0,0:0:0:0:
448,192,101127,1,0,0:0:0:0:
192,192,101127,1,0,0:0:0:0:
64,192,101206,1,0,0:0:0:0:
448,192,101206,1,0,0:0:0:0:
64,192,101285,1,0,0:0:0:0:
320,192,101285,1,0,0:0:0:0:
192,192,101285,1,0,0:0:0:0:
320,192,101364,1,0,0:0:0:0:
448,192,101443,1,0,0:0:0:0:
192,192,101443,1,0,0:0:0:0:
64,192,101443,1,0,0:0:0:0:
320,192,101522,1,0,0:0:0:0:
64,192,101522,1,0,0:0:0:0:
448,192,101601,1,0,0:0:0:0:
192,192,101601,1,0,0:0:0:0:
192,192,101680,1,0,0:0:0:0:
448,192,101759,1,0,0:0:0:0:
320,192,101759,1,0,0:0:0:0:
64,192,101759,1,0,0:0:0:0:
448,192,101838,1,0,0:0:0:0:
192,192,101838,1,0,0:0:0:0:
64,192,101917,1,0,0:0:0:0:
192,192,101917,1,0,0:0:0:0:
320,192,101917,1,0,0:0:0:0:
320,192,101996,1,0,0:0:0:0:
448,192,102075,1,0,0:0:0:0:
64,192,102075,1,0,0:0:0:0:
320,192,102153,1,0,0:0:0:0:
64,192,102153,1,0,0:0:0:0:
448,192,102232,1,0,0:0:0:0:
320,192,102232,1,0,0:0:0:0:
192,192,102232,1,0,0:0:0:0:
192,192,102311,1,0,0:0:0:0:
448,192,102390,1,0,0:0:0:0:
64,192,102390,1,0,0:0:0:0:
64,192,102469,1,0,0:0:0:0:
320,192,102469,1,0,0:0:0:0:
320,192,102548,1,0,0:0:0:0:
192,192,102548,1,0,0:0:0:0:
448,192,102548,1,0,0:0:0:0:
448,192,102627,1,0,0:0:0:0:
192,192,102706,1,0,0:0:0:0:
320,192,102706,1,0,0:0:0:0:
64,192,102706,1,0,0:0:0:0:
320,192,102785,1,0,0:0:0:0:
192,192,102785,1,0,0:0:0:0:
448,192,102864,1,0,0:0:0:0:
64,192,102864,1,0,0:0:0:0:
448,192,102943,1,0,0:0:0:0:
320,192,103022,1,0,0:0:0:0:
192,192,103022,1,0,0:0:0:0:
64,192,103022,1,0,0:0:0:0:
448,192,103101,1,0,0:0:0:0:
64,192,103101,1,0,0:0:0:0:
192,192,103180,1,0,0:0:0:0:
320,192,103180,1,0,0:0:0:0:
448,192,103180,1,0,0:0:0:0:
192,192,103259,1,0,0:0:0:0:
320,192,103338,1,0,0:0:0:0:
64,192,103338,1,0,0:0:0:0:
64,192,103417,1,0,0:0:0:0:
192,192,103417,1,0,0:0:0:0:
448,192,103496,1,0,0:0:0:0:
192,192,103496,1,0,0:0:0:0:
320,192,103496,1,0,0:0:0:0:
320,192,103575,1,0,0:0:0:0:
448,192,103653,1,0,0:0:0:0:
64,192,103653,1,0,0:0:0:0:
192,192,103732,1,0,0:0:0:0:
448,192,103732,1,0,0:0:0:0:
64,192,103811,1,0,0:0:0:0:
320,192,103811,1,0,0:0:0:0:
192,192,103811,1,0,0:0:0:0:
320,192,103890,1,0,0:0:0:0:
448,192,103969,1,0,0:0:0:0:
192,192,103969,1,0,0:0:0:0:
64,192,103969,1,0,0:0:0:0:
320,192,104048,1,0,0:0:0:0:
192,192,104048,1,0,0:0:0:0:
448,192,104127,1,0,0:0:0:0:
64,192,104127,1,0,0:0:0:0:
64,192,104206,1,0,0:0:0:0:
448,192,104285,1,0,0:0:0:0:
320,192,104285,1,0,0:0:0:0:
192,192,104285,1,0,0:0:0:0:
448,192,104364,1,0,0:0:0:0:
64,192,104364,1,0,0:0:0:0:
64,192,104443,1,0,0:0:0:0:
192,192,104443,1,0,0:0:0:0:
320,192,104443,1,0,0:0:0:0:
320,192,104522,1,0,0:0:0:0:
448,192,104601,1,0,0:0:0:0:
192,192,104601,1,0,0:0:0:0:
320,192,104680,1,0,0:0:0:0:
192,192,104680,1,0,0:0:0:0:
448,192,104759,1,0,0:0:0:0:
320,192,104759,1,0,0:0:0:0:
64,192,104759,1,0,0:0:0:0:
64,192,104838,1,0,0:0:0:0:
320,192,104917,1,0,0:0:0:0:
448,192,104917,1,0,0:0:0:0:
320,192,104996,1,0,0:0:0:0:
64,192,104996,1,0,0:0:0:0:
64,192,105075,1,0,0:0:0:0:
448,192,105075,1,0,0:0:0:0:
192,192,105075,1,0,0:0:0:0:
192,192,105153,1,0,0:0:0:0:
448,192,105232,1,0,0:0:0:0:
320,192,105232,1,0,0:0:0:0:
64,192,105232,1,0,0:0:0:0:
448,192,105311,1,0,0:0:0:0:
192,192,105311,1,0,0:0:0:0:
320,192,105390,1,0,0:0:0:0:
64,192,105390,1,0,0:0:0:0:
64,192,105469,1,0,0:0:0:0:
448,192,105548,1,0,0:0:0:0:
320,192,105548,1,0,0:0:0:0:
192,192,105548,1,0,0:0:0:0:
320,192,105627,1,0,0:0:0:0:
64,192,105627,1,0,0:0:0:0:
64,192,105706,1,0,0:0:0:0:
192,192,105706,1,0,0:0:0:0:
448,192,105706,1,0,0:0:0:0:
192,192,105785,1,0,0:0:0:0:
448,192,105864,1,0,0:0:0:0:
320,192,105864,1,0,0:0:0:0:
448,192,105943,1,0,0:0:0:0:
192,192,105943,1,0,0:0:0:0:
192,192,106022,1,0,0:0:0:0:
320,192,106022,1,0,0:0:0:0:
64,192,106022,1,0,0:0:0:0:
64,192,106101,1,0,0:0:0:0:
320,192,106180,1,0,0:0:0:0:
448,192,106180,1,0,0:0:0:0:
448,192,106259,1,0,0:0:0:0:
192,192,106259,1,0,0:0:0:0:
192,192,106338,1,0,0:0:0:0:
320,192,106338,1,0,0:0:0:0:
64,192,106338,1,0,0:0:0:0:
320,192,106417,1,0,0:0:0:0:
64,192,106496,1,0,0:0:0:0:
192,192,106496,1,0,0:0:0:0:
448,192,106496,1,0,0:0:0:0:
64,192,106575,1,0,0:0:0:0:
320,192,106575,1,0,0:0:0:0:
192,192,106653,1,0,0:0:0:0:
448,192,106653,1,0,0:0:0:0:
192,192,106732,1,0,0:0:0:0:
64,192,106811,1,0,0:0:0:0:
320,192,106811,1,0,0:0:0:0:
448,192,106811,1,0,0:0:0:0:
192,192,106890,1,0,0:0:0:0:
448,192,106890,1,0,0:0:0:0:
320,192,106969,1,0,0:0:0:0:
192,192,106969,1,0,0:0:0:0:
64,192,106969,1,0,0:0:0:0:
320,192,107048,1,0,0:0:0:0:
64,192,107127,1,0,0:0:0:0:
448,192,107127,1,0,0:0:0:0:
64,192,107206,1,0,0:0:0:0:
320,192,107206,1,0,0:0:0:0:
192,192,107285,1,0,0:0:0:0:
320,192,107285,1,0,0:0:0:0:
448,192,107285,1,0,0:0:0:0:
192,192,107364,1,0,0:0:0:0:
64,192,107443,1,0,0:0:0:0:
448,192,107443,1,0,0:0:0:0:
320,192,107522,1,0,0:0:0:0:
64,192,107522,1,0,0:0:0:0:
448,192,107601,1,0,0:0:0:0:
192,192,107601,1,0,0:0:0:0:
320,192,107601,1,0,0:0:0:0:
192,192,107680,1,0,0:0:0:0:
64,192,107759,1,0,0:0:0:0:
320,192,107759,1,0,0:0:0:0:
448,192,107759,1,0,0:0:0:0:
192,192,107838,1,0,0:0:0:0:
320,192,107838,1,0,0:0:0:0:
64,192,107917,1,0,0:0:0:0:
448,192,107917,1,0,0:0:0:0:
448,192,107996,1,0,0:0:0:0:
64,192,108075,1,0,0:0:0:0:
192,192,108075,1,0,0:0:0:0:
320,192,108075,1,0,0:0:0:0:
64,192,108153,1,0,0:0:0:0:
448,192,108153,1,0,0:0:0:0:
448,192,108232,1,0,0:0:0:0:
320,192,108232,1,0,0:0:0:0:
192,192,108232,1,0,0:0:0:0:
192,192,108311,1,0,0:0:0:0:
64,192,108390,1,0,0:0:0:0:
320,192,108390,1,0,0:0:0:0:
192,192,108469,1,0,0:0:0:0:
320,192,108469,1,0,0:0:0:0:
64,192,108548,1,0,0:0:0:0:
192,192,108548,1,0,0:0:0:0:
448,192,108548,1,0,0:0:0:0:
64,192,108627,1,0,0:0:0:0:
192,192,108706,1,0,0:0:0:0:
320,192,108706,1,0,0:0:0:0:
448,192,108706,1,0,0:0:0:0:
192,192,108785,1,0,0:0:0:0:
64,192,108785,1,0,0:0:0:0:
64,192,108864,1,0,0:0:0:0:
448,192,108864,1,0,0:0:0:0:
192,192,108943,1,0,0:0:0:0:
320,192,108943,1,0,0:0:0:0:
64,192,109022,1,0,0:0:0:0:
448,192,109022,1,0,0:0:0:0:
320,192,109101,1,0,0:0:0:0:
448,192,109101,1,0,0:0:0:0:
192,192,109180,1,0,0:0:0:0:
320,192,109180,1,0,0:0:0:0:
64,192,109259,1,0,0:0:0:0:
448,192,109259,1,0,0:0:0:0:
192,192,109338,1,0,0:0:0:0:
320,192,109338,1,0,0:0:0:0:
192,192,109417,1,0,0:0:0:0:
448,192,109417,1,0,0:0:0:0:
64,192,109496,1,0,0:0:0:0:
448,192,109496,1,0,0:0:0:0:
192,192,109575,1,0,0:0:0:0:
320,192,109575,1,0,0:0:0:0:
64,192,109653,1,0,0:0:0:0:
448,192,109653,1,0,0:0:0:0:
320,192,109732,1,0,0:0:0:0:
448,192,109732,1,0,0:0:0:0:
64,192,109811,1,0,0:0:0:0:
320,192,109811,1,0,0:0:0:0:
192,192,109890,1,0,0:0:0:0:
448,192,109890,1,0,0:0:0:0:
64,192,109969,1,0,0:0:0:0:
320,192,109969,1,0,0:0:0:0:
64,192,110048,1,0,0:0:0:0:
192,192,110048,1,0,0:0:0:0:
192,192,110127,1,0,0:0:0:0:
448,192,110127,1,0,0:0:0:0:
320,192,110206,1,0,0:0:0:0:
64,192,110206,1,0,0:0:0:0:
192,192,110285,1,0,0:0:0:0:
448,192,110285,1,0,0:0:0:0:
192,192,110364,1,0,0:0:0:0:
320,192,110364,1,0,0:0:0:0:
320,192,110443,1,0,0:0:0:0:
448,192,110443,1,0,0:0:0:0:
192,192,110522,1,0,0:0:0:0:
64,192,110522,1,0,0:0:0:0:
320,192,110601,1,0,0:0:0:0:
448,192,110601,1,0,0:0:0:0:
64,192,110680,1,0,0:0:0:0:
448,192,110680,1,0,0:0:0:0:
192,192,110759,1,0,0:0:0:0:
64,192,110759,1,0,0:0:0:0:
320,192,110838,1,0,0:0:0:0:
448,192,110838,1,0,0:0:0:0:
64,192,110917,1,0,0:0:0:0:
192,192,110917,1,0,0:0:0:0:
64,192,110996,1,0,0:0:0:0:
448,192,110996,1,0,0:0:0:0:
192,192,111075,1,0,0:0:0:0:
448,192,111075,1,0,0:0:0:0:
320,192,111153,1,0,0:0:0:0:
64,192,111153,1,0,0:0:0:0:
320,192,111232,1,0,0:0:0:0:
448,192,111232,1,0,0:0:0:0:
192,192,111232,1,0,0:0:0:0:
64,192,111311,1,0,0:0:0:0:
448,192,111311,1,0,0:0:0:0:
64,192,111390,1,0,0:0:0:0:
192,192,111390,1,0,0:0:0:0:
192,192,111469,1,0,0:0:0:0:
448,192,111469,1,0,0:0:0:0:
64,192,111548,1,0,0:0:0:0:
448,192,111548,1,0,0:0:0:0:
320,192,111627,1,0,0:0:0:0:
64,192,111627,1,0,0:0:0:0:
192,192,111706,1,0,0:0:0:0:
320,192,111706,1,0,0:0:0:0:
192,192,111785,1,0,0:0:0:0:
448,192,111785,1,0,0:0:0:0:
64,192,111864,1,0,0:0:0:0:
448,192,111864,1,0,0:0:0:0:
64,192,111943,1,0,0:0:0:0:
192,192,111943,1,0,0:0:0:0:
192,192,112022,1,0,0:0:0:0:
320,192,112022,1,0,0:0:0:0:
320,192,112101,1,0,0:0:0:0:
448,192,112101,1,0,0:0:0:0:
64,192,112180,1,0,0:0:0:0:
448,192,112180,1,0,0:0:0:0:
320,192,112259,1,0,0:0:0:0:
64,192,112259,1,0,0:0:0:0:
192,192,112338,1,0,0:0:0:0:
320,192,112338,1,0,0:0:0:0:
448,192,112417,1,0,0:0:0:0:
192,192,112417,1,0,0:0:0:0:
64,192,112496,1,0,0:0:0:0:
320,192,112496,1,0,0:0:0:0:
64,192,112575,1,0,0:0:0:0:
448,192,112575,1,0,0:0:0:0:
192,192,112653,1,0,0:0:0:0:
320,192,112653,1,0,0:0:0:0:
448,192,112732,1,0,0:0:0:0:
192,192,112732,1,0,0:0:0:0:
320,192,112811,1,0,0:0:0:0:
64,192,112811,1,0,0:0:0:0:
320,192,112890,1,0,0:0:0:0:
192,192,112890,1,0,0:0:0:0:
64,192,112969,1,0,0:0:0:0:
448,192,112969,1,0,0:0:0:0:
448,192,113048,1,0,0:0:0:0:
192,192,113048,1,0,0:0:0:0:
64,192,113127,1,0,0:0:0:0:
320,192,113127,1,0,0:0:0:0:
320,192,113285,1,0,0:0:0:0:
448,192,113285,1,0,0:0:0:0:
64,192,113443,128,0,113601:0:0:0:0:
192,192,113443,1,0,0:0:0:0:
448,192,113443,1,0,0:0:0:0:
448,192,113601,1,0,0:0:0:0:
192,192,113601,128,0,113759:0:0:0:0:
64,192,113759,1,0,0:0:0:0:
448,192,113759,1,0,0:0:0:0:
320,192,113759,128,0,114548:0:0:0:0:
448,192,114548,128,0,114864:0:0:0:0:
320,192,114864,128,0,115338:0:0:0:0:
192,192,115338,128,0,115811:0:0:0:0:
64,192,115811,128,0,116285:0:0:0:0:
192,192,116285,128,0,117548:0:0:0:0:
320,192,117548,128,0,118022:0:0:0:0:
448,192,118022,128,0,118496:0:0:0:0:
64,192,118496,128,0,118653:0:0:0:0:
192,192,118653,128,0,118811:0:0:0:0:
320,192,118811,128,0,119601:0:0:0:0:
448,192,119601,128,0,119917:0:0:0:0:
64,192,119917,128,0,120232:0:0:0:0:
448,192,120232,128,0,120548:0:0:0:0:
320,192,120548,128,0,120864:0:0:0:0:
192,192,120864,128,0,121338:0:0:0:0:
64,192,121338,128,0,121811:0:0:0:0:
448,192,121811,128,0,123548:0:0:0:0:
64,192,123548,128,0,123706:0:0:0:0:
192,192,123706,128,0,123864:0:0:0:0:
320,192,123864,128,0,124653:0:0:0:0:
448,192,124653,128,0,124969:0:0:0:0:
320,192,124969,128,0,125443:0:0:0:0:
192,192,125443,128,0,125917:0:0:0:0:
64,192,125917,128,0,126390:0:0:0:0:
192,192,126390,128,0,127653:0:0:0:0:
320,192,127653,128,0,128127:0:0:0:0:
448,192,128127,128,0,128601:0:0:0:0:
64,192,128601,128,0,128759:0:0:0:0:
192,192,128759,128,0,128917:0:0:0:0:
320,192,128917,128,0,129706:0:0:0:0:
448,192,129706,128,0,130022:0:0:0:0:
64,192,130022,128,0,130338:0:0:0:0:
448,192,130338,128,0,130653:0:0:0:0:
320,192,130653,128,0,130969:0:0:0:0:
192,192,130969,128,0,131443:0:0:0:0:
448,192,131443,1,0,0:0:0:0:
64,192,131443,1,0,0:0:0:0:
320,192,131601,1,0,0:0:0:0:
192,192,131601,1,0,0:0:0:0:
64,192,131680,1,0,0:0:0:0:
448,192,131680,1,0,0:0:0:0:
192,192,131759,1,0,0:0:0:0:
320,192,131759,1,0,0:0:0:0:
64,192,131838,1,0,0:0:0:0:
448,192,131838,1,0,0:0:0:0:
320,192,131917,1,0,0:0:0:0:
192,192,131917,1,0,0:0:0:0:
64,192,132075,1,0,0:0:0:0:
192,192,132075,1,0,0:0:0:0:
448,192,132075,1,0,0:0:0:0:
192,192,132311,1,0,0:0:0:0:
320,192,132311,1,0,0:0:0:0:
448,192,132311,1,0,0:0:0:0:
64,192,132548,1,0,0:0:0:0:
192,192,132548,1,0,0:0:0:0:
448,192,132548,1,0,0:0:0:0:
320,192,132706,1,0,0:0:0:0:
448,192,132706,1,0,0:0:0:0:
64,192,132706,1,0,0:0:0:0:
192,192,132785,1,0,0:0:0:0:
320,192,132864,1,0,0:0:0:0:
448,192,132864,1,0,0:0:0:0:
64,192,132864,1,0,0:0:0:0:
192,192,132943,1,0,0:0:0:0:
448,192,133022,1,0,0:0:0:0:
320,192,133022,1,0,0:0:0:0:
64,192,133022,1,0,0:0:0:0:
192,192,133101,1,0,0:0:0:0:
320,192,133180,1,0,0:0:0:0:
448,192,133180,1,0,0:0:0:0:
192,192,133259,1,0,0:0:0:0:
64,192,133259,1,0,0:0:0:0:
320,192,133338,1,0,0:0:0:0:
448,192,133338,1,0,0:0:0:0:
192,192,133417,1,0,0:0:0:0:
64,192,133417,1,0,0:0:0:0:
320,192,133496,1,0,0:0:0:0:
448,192,133496,1,0,0:0:0:0:
192,192,133575,1,0,0:0:0:0:
64,192,133575,1,0,0:0:0:0:
64,192,133653,1,0,0:0:0:0:
448,192,133653,1,0,0:0:0:0:
320,192,133653,1,0,0:0:0:0:
320,192,133732,1,0,0:0:0:0:
448,192,133732,1,0,0:0:0:0:
192,192,133811,1,0,0:0:0:0:
64,192,133811,1,0,0:0:0:0:
64,192,133890,1,0,0:0:0:0:
192,192,133890,1,0,0:0:0:0:
64,192,133969,5,0,0:0:0:0:
320,192,133969,1,0,0:0:0:0:
448,192,133969,1,0,0:0:0:0:
192,192,134127,1,0,0:0:0:0:
320,192,134285,1,0,0:0:0:0:
192,192,134601,1,0,0:0:0:0:
320,192,134759,1,0,0:0:0:0:
448,192,135075,1,0,0:0:0:0:
192,192,135390,5,0,0:0:0:0:
320,192,135548,1,0,0:0:0:0:
192,192,135864,1,0,0:0:0:0:
320,192,136022,1,0,0:0:0:0:
448,192,136338,1,0,0:0:0:0:
192,192,136653,1,0,0:0:0:0:
320,192,136811,1,0,0:0:0:0:
192,192,137127,1,0,0:0:0:0:
320,192,137285,1,0,0:0:0:0:
64,192,137601,1,0,0:0:0:0:
192,192,137917,1,0,0:0:0:0:
320,192,138075,1,0,0:0:0:0:
192,192,138390,1,0,0:0:0:0:
320,192,138548,1,0,0:0:0:0:
448,192,138864,1,0,0:0:0:0:
64,192,139022,5,0,0:0:0:0:
192,192,139180,1,0,0:0:0:0:
320,192,139338,1,0,0:0:0:0:
192,192,139653,1,0,0:0:0:0:
320,192,139811,1,0,0:0:0:0:
448,192,140127,1,0,0:0:0:0:
192,192,140443,5,0,0:0:0:0:
320,192,140601,1,0,0:0:0:0:
192,192,140917,1,0,0:0:0:0:
320,192,141075,1,0,0:0:0:0:
448,192,141390,1,0,0:0:0:0:
192,192,141706,1,0,0:0:0:0:
320,192,141864,1,0,0:0:0:0:
192,192,142180,1,0,0:0:0:0:
320,192,142338,1,0,0:0:0:0:
64,192,142653,1,0,0:0:0:0:
192,192,142969,1,0,0:0:0:0:
448,192,143127,1,0,0:0:0:0:
448,192,143443,1,0,0:0:0:0:
320,192,143601,1,0,0:0:0:0:
192,192,143917,1,0,0:0:0:0:
64,192,144075,1,0,0:0:0:0:
448,192,144075,1,0,0:0:0:0:
64,192,154180,5,0,0:0:0:0:
448,192,154180,1,0,0:0:0:0:
320,192,154496,1,0,0:0:0:0:
192,192,154969,1,0,0:0:0:0:
64,192,155443,1,0,0:0:0:0:
448,192,155917,1,0,0:0:0:0:
64,192,156390,1,0,0:0:0:0:
448,192,156706,1,0,0:0:0:0:
320,192,157653,1,0,0:0:0:0:
320,192,157969,1,0,0:0:0:0:
192,192,158443,1,0,0:0:0:0:
64,192,158917,1,0,0:0:0:0:
448,192,159232,1,0,0:0:0:0:
192,192,160180,1,0,0:0:0:0:
64,192,160496,1,0,0:0:0:0:
448,192,160969,1,0,0:0:0:0:
64,192,161443,1,0,0:0:0:0:
192,192,161759,1,0,0:0:0:0:
64,192,162232,1,0,0:0:0:0:
64,192,162706,1,0,0:0:0:0:
448,192,163180,1,0,0:0:0:0:
192,192,163496,1,0,0:0:0:0:
320,192,163575,1,0,0:0:0:0:
192,192,163653,1,0,0:0:0:0:
64,192,163653,1,0,0:0:0:0:
320,192,163732,1,0,0:0:0:0:
448,192,163732,1,0,0:0:0:0:
192,192,163811,1,0,0:0:0:0:
320,192,163890,1,0,0:0:0:0:
448,192,163890,1,0,0:0:0:0:
192,192,163969,1,0,0:0:0:0:
64,192,163969,1,0,0:0:0:0:
448,192,163969,1,0,0:0:0:0:
320,192,164048,1,0,0:0:0:0:
64,192,164127,1,0,0:0:0:0:
448,192,164127,1,0,0:0:0:0:
320,192,164206,1,0,0:0:0:0:
192,192,164206,1,0,0:0:0:0:
64,192,164285,1,0,0:0:0:0:
192,192,164285,1,0,0:0:0:0:
448,192,164285,1,0,0:0:0:0:
64,192,164601,1,0,0:0:0:0:
448,192,164601,1,0,0:0:0:0:
64,192,164917,1,0,0:0:0:0:
192,192,164917,1,0,0:0:0:0:
320,192,164917,1,0,0:0:0:0:
192,192,165075,1,0,0:0:0:0:
64,192,165232,1,0,0:0:0:0:
448,192,165232,1,0,0:0:0:0:
64,192,165548,1,0,0:0:0:0:
320,192,165548,1,0,0:0:0:0:
64,192,165864,1,0,0:0:0:0:
192,192,165864,1,0,0:0:0:0:
448,192,166022,1,0,0:0:0:0:
64,192,166180,1,0,0:0:0:0:
192,192,166180,1,0,0:0:0:0:
448,192,166180,1,0,0:0:0:0:
64,192,166496,1,0,0:0:0:0:
448,192,166496,1,0,0:0:0:0:
192,192,166653,1,0,0:0:0:0:
320,192,166653,1,0,0:0:0:0:
64,192,166811,1,0,0:0:0:0:
448,192,166811,1,0,0:0:0:0:
64,192,167127,1,0,0:0:0:0:
64,192,167443,1,0,0:0:0:0:
192,192,167443,1,0,0:0:0:0:
320,192,167443,1,0,0:0:0:0:
64,192,167759,1,0,0:0:0:0:
448,192,167759,1,0,0:0:0:0:
448,192,168075,1,0,0:0:0:0:
64,192,168075,1,0,0:0:0:0:
64,192,168390,1,0,0:0:0:0:
192,192,168390,1,0,0:0:0:0:
320,192,168548,1,0,0:0:0:0:
448,192,168548,1,0,0:0:0:0:
64,192,168706,1,0,0:0:0:0:
192,192,168706,1,0,0:0:0:0:
448,192,168706,1,0,0:0:0:0:
64,192,169022,1,0,0:0:0:0:
448,192,169022,1,0,0:0:0:0:
64,192,169180,1,0,0:0:0:0:
192,192,169180,1,0,0:0:0:0:
320,192,169219,1,0,0:0:0:0:
448,192,169219,1,0,0:0:0:0:
192,192,169259,1,0,0:0:0:0:
64,192,169259,1,0,0:0:0:0:
320,192,169298,1,0,0:0:0:0:
448,192,169298,1,0,0:0:0:0:
192,192,169338,1,0,0:0:0:0:
64,192,169338,1,0,0:0:0:0:
64,192,169653,1,0,0:0:0:0:
64,192,169969,1,0,0:0:0:0:
448,192,169969,1,0,0:0:0:0:
320,192,169969,1,0,0:0:0:0:
320,192,170127,1,0,0:0:0:0:
64,192,170285,1,0,0:0:0:0:
192,192,170285,1,0,0:0:0:0:
64,192,170601,1,0,0:0:0:0:
448,192,170601,1,0,0:0:0:0:
64,192,170917,1,0,0:0:0:0:
320,192,170917,1,0,0:0:0:0:
192,192,171075,1,0,0:0:0:0:
64,192,171232,1,0,0:0:0:0:
192,192,171232,1,0,0:0:0:0:
448,192,171232,1,0,0:0:0:0:
64,192,171548,1,0,0:0:0:0:
320,192,171548,1,0,0:0:0:0:
192,192,171706,1,0,0:0:0:0:
448,192,171706,1,0,0:0:0:0:
64,192,171864,1,0,0:0:0:0:
192,192,171864,1,0,0:0:0:0:
320,192,171864,1,0,0:0:0:0:
448,192,171864,1,0,0:0:0:0:
64,192,172180,1,0,0:0:0:0:
448,192,172338,1,0,0:0:0:0:
64,192,172496,1,0,0:0:0:0:
320,192,172496,1,0,0:0:0:0:
448,192,172496,1,0,0:0:0:0:
64,192,172811,1,0,0:0:0:0:
320,192,172811,1,0,0:0:0:0:
64,192,173127,1,0,0:0:0:0:
448,192,173285,1,0,0:0:0:0:
64,192,173443,1,0,0:0:0:0:
448,192,173443,1,0,0:0:0:0:
64,192,173759,1,0,0:0:0:0:
192,192,173759,1,0,0:0:0:0:
448,192,173759,1,0,0:0:0:0:
64,192,174075,1,0,0:0:0:0:
320,192,174075,1,0,0:0:0:0:
64,192,174390,1,0,0:0:0:0:
448,192,174390,1,0,0:0:0:0:
192,192,174390,1,0,0:0:0:0:
320,192,174390,1,0,0:0:0:0:
448,192,174548,1,0,0:0:0:0:
448,192,174627,1,0,0:0:0:0:
192,192,174706,1,0,0:0:0:0:
64,192,174706,1,0,0:0:0:0:
64,192,174864,1,0,0:0:0:0:
192,192,174864,1,0,0:0:0:0:
192,192,175022,1,0,0:0:0:0:
64,192,175022,1,0,0:0:0:0:
448,192,175022,1,0,0:0:0:0:
192,192,175180,1,0,0:0:0:0:
320,192,175180,1,0,0:0:0:0:
448,192,175180,1,0,0:0:0:0:
320,192,175338,1,0,0:0:0:0:
448,192,175338,1,0,0:0:0:0:
192,192,175377,1,0,0:0:0:0:
64,192,175377,1,0,0:0:0:0:
320,192,175417,1,0,0:0:0:0:
448,192,175417,1,0,0:0:0:0:
192,192,175496,1,0,0:0:0:0:
64,192,175496,1,0,0:0:0:0:
448,192,175496,1,0,0:0:0:0:
64,192,175653,1,0,0:0:0:0:
64,192,175732,1,0,0:0:0:0:
192,192,175811,1,0,0:0:0:0:
320,192,175811,1,0,0:0:0:0:
448,192,175811,1,0,0:0:0:0:
448,192,175969,1,0,0:0:0:0:
448,192,176048,1,0,0:0:0:0:
320,192,176048,1,0,0:0:0:0:
64,192,176127,1,0,0:0:0:0:
192,192,176127,1,0,0:0:0:0:
192,192,176285,1,0,0:0:0:0:
64,192,176285,1,0,0:0:0:0:
448,192,176285,1,0,0:0:0:0:
192,192,176601,1,0,0:0:0:0:
64,192,176917,1,0,0:0:0:0:
320,192,176917,1,0,0:0:0:0:
64,192,176996,1,0,0:0:0:0:
448,192,177075,1,0,0:0:0:0:
192,192,177075,1,0,0:0:0:0:
448,192,177153,1,0,0:0:0:0:
64,192,177232,1,0,0:0:0:0:
320,192,177232,1,0,0:0:0:0:
192,192,177232,1,0,0:0:0:0:
64,192,177390,1,0,0:0:0:0:
192,192,177430,1,0,0:0:0:0:
320,192,177469,1,0,0:0:0:0:
448,192,177509,1,0,0:0:0:0:
192,192,177548,1,0,0:0:0:0:
64,192,177588,1,0,0:0:0:0:
320,192,177627,1,0,0:0:0:0:
192,192,177667,1,0,0:0:0:0:
64,192,177706,1,0,0:0:0:0:
320,192,177746,1,0,0:0:0:0:
192,192,177785,1,0,0:0:0:0:
64,192,177825,1,0,0:0:0:0:
320,192,177864,1,0,0:0:0:0:
448,192,177864,1,0,0:0:0:0:
64,192,178022,1,0,0:0:0:0:
320,192,178022,1,0,0:0:0:0:
448,192,178022,1,0,0:0:0:0:
448,192,178180,1,0,0:0:0:0:
64,192,178496,1,0,0:0:0:0:
448,192,178496,1,0,0:0:0:0:
192,192,178653,1,0,0:0:0:0:
320,192,178653,1,0,0:0:0:0:
192,192,178811,1,0,0:0:0:0:
64,192,178811,1,0,0:0:0:0:
448,192,178811,1,0,0:0:0:0:
64,192,178969,1,0,0:0:0:0:
320,192,178969,1,0,0:0:0:0:
448,192,178969,1,0,0:0:0:0:
448,192,179127,1,0,0:0:0:0:
320,192,179153,1,0,0:0:0:0:
192,192,179180,1,0,0:0:0:0:
64,192,179206,1,0,0:0:0:0:
448,192,179206,1,0,0:0:0:0:
320,192,179232,1,0,0:0:0:0:
192,192,179259,1,0,0:0:0:0:
64,192,179285,1,0,0:0:0:0:
64,192,179443,1,0,0:0:0:0:
448,192,179443,1,0,0:0:0:0:
192,192,179522,1,0,0:0:0:0:
448,192,179548,1,0,0:0:0:0:
320,192,179601,1,0,0:0:0:0:
448,192,179653,1,0,0:0:0:0:
64,192,179653,1,0,0:0:0:0:
192,192,179680,1,0,0:0:0:0:
448,192,179759,1,0,0:0:0:0:
64,192,179759,1,0,0:0:0:0:
192,192,179838,1,0,0:0:0:0:
320,192,179917,1,0,0:0:0:0:
448,192,179996,1,0,0:0:0:0:
192,192,179996,1,0,0:0:0:0:
320,192,180035,1,0,0:0:0:0:
448,192,180075,1,0,0:0:0:0:
192,192,180075,1,0,0:0:0:0:
64,192,180075,1,0,0:0:0:0:
64,192,180153,1,0,0:0:0:0:
320,192,180153,1,0,0:0:0:0:
192,192,180232,1,0,0:0:0:0:
448,192,180232,1,0,0:0:0:0:
192,192,180311,1,0,0:0:0:0:
320,192,180311,1,0,0:0:0:0:
448,192,180390,1,0,0:0:0:0:
64,192,180390,1,0,0:0:0:0:
448,192,180469,1,0,0:0:0:0:
192,192,180469,1,0,0:0:0:0:
448,192,180548,1,0,0:0:0:0:
64,192,180548,1,0,0:0:0:0:
448,192,180627,1,0,0:0:0:0:
192,192,180627,1,0,0:0:0:0:
64,192,180706,1,0,0:0:0:0:
320,192,180706,1,0,0:0:0:0:
192,192,180785,1,0,0:0:0:0:
64,192,180864,1,0,0:0:0:0:
320,192,180864,1,0,0:0:0:0:
192,192,180943,1,0,0:0:0:0:
64,192,181022,1,0,0:0:0:0:
320,192,181022,1,0,0:0:0:0:
192,192,181101,1,0,0:0:0:0:
64,192,181180,1,0,0:0:0:0:
448,192,181180,1,0,0:0:0:0:
320,192,181259,1,0,0:0:0:0:
64,192,181338,1,0,0:0:0:0:
448,192,181338,1,0,0:0:0:0:
192,192,181338,1,0,0:0:0:0:
320,192,181417,1,0,0:0:0:0:
448,192,181496,1,0,0:0:0:0:
64,192,181496,1,0,0:0:0:0:
192,192,181496,1,0,0:0:0:0:
320,192,181575,1,0,0:0:0:0:
64,192,181653,1,0,0:0:0:0:
448,192,181653,1,0,0:0:0:0:
192,192,181653,1,0,0:0:0:0:
64,192,181732,1,0,0:0:0:0:
192,192,181732,1,0,0:0:0:0:
320,192,181811,1,0,0:0:0:0:
448,192,181811,1,0,0:0:0:0:
320,192,181890,1,0,0:0:0:0:
448,192,181890,1,0,0:0:0:0:
64,192,181969,1,0,0:0:0:0:
192,192,181969,1,0,0:0:0:0:
448,192,181969,1,0,0:0:0:0:
320,192,182048,1,0,0:0:0:0:
192,192,182048,1,0,0:0:0:0:
64,192,182127,1,0,0:0:0:0:
448,192,182127,1,0,0:0:0:0:
320,192,182206,1,0,0:0:0:0:
192,192,182206,1,0,0:0:0:0:
64,192,182285,1,0,0:0:0:0:
192,192,182285,1,0,0:0:0:0:
320,192,182364,1,0,0:0:0:0:
448,192,182364,1,0,0:0:0:0:
64,192,182443,1,0,0:0:0:0:
192,192,182443,1,0,0:0:0:0:
320,192,182522,1,0,0:0:0:0:
448,192,182522,1,0,0:0:0:0:
192,192,182561,1,0,0:0:0:0:
64,192,182601,1,0,0:0:0:0:
448,192,182601,1,0,0:0:0:0:
320,192,182601,1,0,0:0:0:0:
192,192,182680,1,0,0:0:0:0:
64,192,182680,1,0,0:0:0:0:
192,192,182759,1,0,0:0:0:0:
448,192,182759,1,0,0:0:0:0:
320,192,182838,1,0,0:0:0:0:
448,192,182838,1,0,0:0:0:0:
64,192,182917,1,0,0:0:0:0:
320,192,182917,1,0,0:0:0:0:
192,192,182996,1,0,0:0:0:0:
64,192,182996,1,0,0:0:0:0:
192,192,183075,1,0,0:0:0:0:
448,192,183075,1,0,0:0:0:0:
320,192,183153,1,0,0:0:0:0:
448,192,183153,1,0,0:0:0:0:
64,192,183232,1,0,0:0:0:0:
192,192,183232,1,0,0:0:0:0:
320,192,183232,1,0,0:0:0:0:
64,192,183548,1,0,0:0:0:0:
320,192,183548,1,0,0:0:0:0:
448,192,183548,1,0,0:0:0:0:
192,192,183864,1,0,0:0:0:0:
64,192,183864,1,0,0:0:0:0:
448,192,183864,1,0,0:0:0:0:
320,192,184180,1,0,0:0:0:0:
192,192,184180,1,0,0:0:0:0:
64,192,184811,1,0,0:0:0:0:
448,192,185285,1,0,0:0:0:0:
320,192,185759,1,0,0:0:0:0:
192,192,186232,1,0,0:0:0:0:
64,192,186706,1,0,0:0:0:0:
192,192,187022,1,0,0:0:0:0:
320,192,187969,1,0,0:0:0:0:
320,192,188285,1,0,0:0:0:0:
192,192,188759,1,0,0:0:0:0:
64,192,189232,1,0,0:0:0:0:
448,192,189548,1,0,0:0:0:0:
320,192,190496,1,0,0:0:0:0:
448,192,190811,1,0,0:0:0:0:
192,192,191285,1,0,0:0:0:0:
64,192,191759,1,0,0:0:0:0:
448,192,192075,1,0,0:0:0:0:
320,192,192548,1,0,0:0:0:0:
320,192,193022,1,0,0:0:0:0:
320,192,193496,1,0,0:0:0:0:
192,192,193969,1,0,0:0:0:0:
320,192,194285,1,0,0:0:0:0:
