osu file format v14

[General]
AudioFilename: audio.mp3
AudioLeadIn: 0
PreviewTime: 40024
Countdown: 0
SampleSet: Drum
StackLeniency: 0.7
Mode: 0
LetterboxInBreaks: 0
WidescreenStoryboard: 1

[Editor]
Bookmarks: 8267,24262
DistanceSpacing: 0.8
BeatDivisor: 4
GridSize: 32
TimelineZoom: 0.5

[Metadata]
Title:Reklama lar'ka TTT
TitleUnicode:Реклама ларька ТТТ
Artist:Avtor
ArtistUnicode:Автор
Creator:M a r v o l l o
Version:fergas' Simple Megamall Adventure
Source:
Tags:laryok larek laryek boney m. m rasputin cover russian parody ad 90s девяностые ларек хей хэй паренек отправляйся-ка отправляйся в ларёк оренбург реклама 90е распутин кавер пародия pop русский поп fergas marvollo m_a_r_v_o_l_l_o shmiklak ларьков novelty hey hi parenek parenyok parenyek паренёк
BeatmapID:4072456
BeatmapSetID:1964190

[Difficulty]
HPDrainRate:2
CircleSize:3
OverallDifficulty:2
ApproachRate:3
SliderMultiplier:1.3
SliderTickRate:2

[Events]
//Background and Video events
0,0,"TTT_OP.jpg",0,0
Video,0,"6ac72a18e774ba1e.mp4"
//Break Periods
//Storyboard Layer 0 (Background)
//Storyboard Layer 1 (Fail)
//Storyboard Layer 2 (Pass)
//Storyboard Layer 3 (Foreground)
//Storyboard Layer 4 (Overlay)
//Storyboard Sound Samples

[TimingPoints]
163,499.833388870377,4,3,1,50,1,0
40149,-100,4,3,1,50,0,1
48022,-100,4,3,1,50,0,0
48147,-100,4,3,1,50,0,1
56144,-100,4,3,1,50,0,0

[Colours]
Combo1 : 213,51,55
Combo2 : 64,177,10
Combo3 : 244,167,23

[HitObjects]
63,319,163,5,4,0:3:0:0:
143,253,662,1,4,0:3:0:0:
216,326,1162,2,0,P|244:268|233:205,1,130,4|4,0:3|0:3,0:0:0:0:
181,115,2162,1,4,0:3:0:0:
271,64,2662,1,4,0:3:0:0:
374,58,3162,2,0,P|435:75|476:125,1,130,4|4,0:3|0:3,0:0:0:0:
482,229,4161,5,4,0:3:0:0:
413,307,4661,1,4,0:3:0:0:
314,279,5161,2,0,P|295:228|323:148,1,130,4|4,0:3|0:3,0:0:0:0:
390,85,6161,2,0,L|462:93,2,65,4|8|4,0:3|0:2|0:3,0:0:0:0:
289,112,7160,2,0,P|235:120|162:82,1,130,4|4,0:3|0:3,0:0:0:0:
65,71,8160,5,4,0:2:0:0:
3,154,8660,2,0,B|-7:285|-7:285|127:293,1,260,8|8,0:2|0:2,0:0:0:0:
185,374,10159,1,4,0:3:0:0:
269,313,10659,2,0,P|250:241|263:173,1,130,8|4,0:2|0:3,0:0:0:0:
443,93,12159,5,4,0:3:0:0:
502,178,12658,2,0,P|501:242|466:295,1,130,8|4,0:2|0:3,0:0:0:0:
377,349,13658,1,8,0:2:0:0:
273,356,14158,1,4,0:3:0:0:
169,346,14658,1,8,0:2:0:0:
75,299,15158,1,4,0:3:0:0:
54,92,16157,6,0,P|93:54|167:46,1,130,4|8,0:3|0:2,0:0:0:0:
257,93,17157,2,0,L|401:104,1,130,4|8,0:3|0:2,0:0:0:0:
448,186,18157,1,4,0:3:0:0:
350,220,18656,2,0,B|234:211|234:211|245:358,1,260,8|8,0:2|0:2,0:0:0:0:
345,380,20156,5,4,0:3:0:0:
439,336,20656,1,8,0:2:0:0:
473,238,21156,2,0,P|466:173|431:119,1,130,4|8,0:3|0:2,0:0:0:0:
333,86,22155,1,4,0:3:0:0:
232,112,22655,1,8,0:2:0:0:
165,192,23155,1,4,0:3:0:0:
367,241,24155,6,0,L|496:228,1,130,4|8,0:2|0:2,0:0:0:0:
485,331,25154,2,0,L|355:343,1,130,4|8,0:3|0:2,0:0:0:0:
257,378,26154,2,0,P|192:373|141:335,1,130,4|8,0:3|0:2,0:0:0:0:
82,249,27154,1,4,0:3:0:0:
80,145,27653,1,8,0:2:0:0:
130,54,28153,6,0,B|257:47|257:47|213:188,1,260,4|4,0:3|0:3,0:0:0:0:
135,238,29653,1,8,0:2:0:0:
147,341,30153,2,0,P|193:371|292:365,1,130,4|8,0:3|0:2,0:0:0:0:
366,346,31152,1,4,0:3:0:0:
379,138,32152,6,0,P|345:106|254:88,1,130,4|8,0:3|0:2,0:0:0:0:
167,125,33152,2,0,P|102:107|51:65,1,130,4|8,0:3|0:2,0:0:0:0:
4,160,34151,2,0,L|29:291,1,130,4|8,0:3|0:2,0:0:0:0:
123,329,35151,1,4,0:3:0:0:
207,268,35651,1,8,0:2:0:0:
308,244,36151,5,4,0:3:0:0:
412,232,36650,2,0,L|434:96,2,130,8|4|8,0:2|0:3|0:2,0:0:0:0:
378,329,38150,2,0,B|314:304|307:230|307:230|259:171|189:176,1,260,4|4,0:3|0:3,0:0:0:0:
137,263,39649,1,8,0:2:0:0:
165,363,40149,5,4,0:2:0:0:
272,356,40649,1,4,0:2:0:0:
375,350,41149,2,0,P|357:299|294:254,1,130,4|8,0:3|0:2,0:0:0:0:
193,264,42149,1,4,0:3:0:0:
98,221,42648,1,8,0:2:0:0:
77,117,43148,2,0,P|147:104|205:134,1,130,4|8,0:3|0:2,0:0:0:0:
268,203,44148,6,0,P|392:196|452:87,1,260,4|4,0:3|0:3,0:0:0:0:
358,41,45647,1,8,0:2:0:0:
257,69,46147,2,0,L|61:42,2,195,4|0|8,0:3|0:0|0:2,0:0:0:0:
358,41,48147,5,4,0:2:0:0:
452,85,48646,1,4,0:2:0:0:
483,184,49146,2,0,P|465:245|413:281,1,130,4|8,0:3|0:2,0:0:0:0:
320,232,50146,1,4,0:3:0:0:
216,230,50646,2,0,L|80:248,2,130,8|4|8,0:2|0:3|0:2,0:0:0:0:
271,141,52145,6,0,P|256:73|198:38,1,130,4|8,0:3|0:2,0:0:0:0:
105,51,53145,1,4,0:3:0:0:
42,134,53645,1,8,0:2:0:0:
256,192,54145,12,4,57643,0:1:0:0:
