osu file format v14

[General]
AudioFilename: audio.mp3
AudioLeadIn: 0
PreviewTime: 40024
Countdown: 0
SampleSet: Drum
StackLeniency: 0.7
Mode: 0
LetterboxInBreaks: 0
WidescreenStoryboard: 1

[Editor]
DistanceSpacing: 1.4
BeatDivisor: 4
GridSize: 32
TimelineZoom: 1

[Metadata]
Title:Reklama lar'ka TTT
TitleUnicode:Реклама ларька ТТТ
Artist:Avtor
ArtistUnicode:Автор
Creator:M a r v o l l o
Version:fergas' Larek TTT
Source:
Tags:laryok larek laryek boney m. m rasputin cover russian parody ad 90s девяностые ларек хей хэй паренек отправляйся-ка отправляйся в ларёк оренбург реклама 90е распутин кавер пародия pop русский поп fergas marvollo m_a_r_v_o_l_l_o shmiklak ларьков novelty hey hi parenek parenyok parenyek паренёк
BeatmapID:4072457
BeatmapSetID:1964190

[Difficulty]
HPDrainRate:6
CircleSize:5
OverallDifficulty:6.5
ApproachRate:7.5
SliderMultiplier:1.9
SliderTickRate:2

[Events]
//Background and Video events
0,0,"TTT_OP.jpg",0,0
Video,0,"6ac72a18e774ba1e.mp4"
//Break Periods
//Storyboard Layer 0 (Background)
//Storyboard Layer 1 (Fail)
//Storyboard Layer 2 (Pass)
//Storyboard Layer 3 (Foreground)
//Storyboard Layer 4 (Overlay)
//Storyboard Sound Samples

[TimingPoints]
163,499.833388870377,4,3,1,50,1,0
40149,-100,4,3,1,50,0,1
48022,-100,4,3,1,50,0,0
48147,-100,4,3,1,50,0,1
56144,-100,4,3,1,50,0,0

[Colours]
Combo1 : 213,51,55
Combo2 : 64,177,10
Combo3 : 244,167,23

[HitObjects]
340,137,163,6,0,P|304:117|231:124,1,95,4|8,0:3|0:2,0:0:0:0:
91,243,662,2,0,P|138:241|178:216,1,95,4|8,0:3|0:2,0:0:0:0:
294,254,1162,2,0,P|318:256|341:251,1,47.5,4|0,0:3|0:0,0:0:0:0:
263,185,1412,2,0,P|243:171|221:163,1,47.5,8|0,0:2|0:0,0:0:0:0:
339,178,1662,1,4,0:3:0:0:
307,58,1912,5,8,0:2:0:0:
307,58,2037,1,8,0:2:0:0:
307,58,2162,1,4,0:3:0:0:
158,100,2412,1,8,0:2:0:0:
249,17,2662,1,4,0:3:0:0:
184,190,2912,1,8,0:2:0:0:
82,73,3162,2,0,P|57:93|38:125,1,47.5,4|0,0:3|0:0,0:0:0:0:
78,175,3411,2,0,P|74:206|83:242,1,47.5,8|0,0:2|0:0,0:0:0:0:
138,268,3661,1,4,0:3:0:0:
322,247,3911,5,8,0:2:0:0:
202,217,4161,2,0,P|254:194|282:152,1,95,4|8,0:3|0:2,0:0:0:0:
452,71,4661,2,0,P|416:101|398:145,1,95,4|8,0:3|0:2,0:0:0:0:
418,326,5161,2,0,P|406:306|388:291,1,47.5,4|0,0:3|0:0,0:0:0:0:
446,242,5411,2,0,P|445:218|437:196,1,47.5,8|0,0:2|0:0,0:0:0:0:
512,180,5661,1,4,0:3:0:0:
363,199,5911,5,8,0:2:0:0:
401,49,6161,1,4,0:3:0:0:
363,199,6410,1,8,0:2:0:0:
298,93,6660,1,4,0:3:0:0:
234,233,6910,1,8,0:2:0:0:
197,114,7160,2,0,P|164:123|136:119,1,47.5,4|0,0:3|0:0,0:0:0:0:
106,185,7410,2,0,P|76:168|59:145,1,47.5,8|0,0:2|0:0,0:0:0:0:
0,193,7660,1,4,0:3:0:0:
184,210,7910,5,8,0:2:0:0:
210,219,8035,1,8,0:2:0:0:
233,232,8160,2,0,P|264:269|274:315,1,95,4|0,0:2|0:0,0:0:0:0:
378,200,8660,1,8,0:2:0:0:
350,320,8910,1,0,0:0:0:0:
296,175,9160,2,0,P|321:92|416:52,1,190,4|8,0:3|0:2,0:0:0:0:
293,11,9909,1,0,0:0:0:0:
198,91,10159,6,0,P|151:100|105:89,1,95,4|0,0:3|0:0,0:0:0:0:
139,240,10659,1,8,0:2:0:0:
59,145,10909,1,0,0:0:0:0:
127,315,11159,2,0,P|166:311|209:268,1,95,4|0,0:3|0:0,0:0:0:0:
267,167,11659,5,8,0:2:0:0:
327,274,11909,1,0,0:0:0:0:
391,168,12159,2,0,L|378:73,1,95,4|0,0:3|0:0,0:0:0:0:
267,167,12658,2,0,L|254:261,1,95,8|0,0:2|0:0,0:0:0:0:
144,151,13158,2,0,L|131:56,1,95,4|0,0:3|0:0,0:0:0:0:
20,146,13658,5,8,0:2:0:0:
134,191,13908,1,0,0:0:0:0:
246,139,14158,1,4,0:3:0:0:
358,186,14408,2,0,P|404:200|450:192,1,95,0|8,0:0|0:2,0:0:0:0:
260,262,14908,1,0,0:0:0:0:
314,131,15158,2,0,P|315:84|281:32,1,95,4|2,0:3|0:1,0:0:0:0:
260,51,15532,1,2,0:1:0:0:
226,48,15657,1,8,0:2:0:0:
104,26,15907,5,2,0:1:0:0:
75,42,16032,1,2,0:1:0:0:
57,70,16157,2,0,P|81:110|77:177,1,95,4|0,0:3|0:0,0:0:0:0:
34,270,16657,1,8,0:2:0:0:
163,187,16907,1,0,0:0:0:0:
202,304,17157,1,4,0:3:0:0:
231,321,17282,1,2,0:1:0:0:
263,328,17407,2,0,P|322:308|343:271,1,95,2|8,0:1|0:2,0:0:0:0:
435,204,17907,6,0,P|490:230|518:274,1,95,0|4,0:0|0:3,0:0:0:0:
422,342,18406,1,0,0:0:0:0:
281,224,18656,1,8,0:2:0:0:
383,154,18906,1,0,0:0:0:0:
259,154,19156,2,0,P|226:116|228:60,1,95,4|0,0:3|0:0,3:0:0:0:
99,73,19656,5,8,0:2:0:0:
27,173,19906,1,0,0:0:0:0:
88,279,20156,2,0,L|191:273,1,95,4|0,0:3|0:0,0:0:0:0:
392,234,20656,2,0,L|298:229,1,95,8|0,0:2|0:0,0:0:0:0:
111,151,21156,2,0,L|206:146,1,95,4|0,0:3|0:0,0:0:0:0:
291,56,21655,5,8,0:2:0:0:
392,160,21905,1,0,0:0:0:0:
257,204,22155,1,4,0:3:0:0:
334,298,22405,2,0,P|380:311|426:303,1,95,0|8,0:0|0:2,0:0:0:0:
297,144,22905,1,0,0:0:0:0:
266,274,23155,2,0,P|214:297|169:289,1,95,4|2,0:3|0:1,3:0:0:0:
148,274,23530,1,2,3:1:0:0:
132,244,23655,1,8,3:2:0:0:
221,159,23905,5,2,0:1:0:0:
219,125,24030,1,2,0:1:0:0:
203,95,24155,2,0,P|120:54|33:85,1,190,4|8,0:2|0:2,0:0:0:0:
90,194,24904,1,0,0:0:0:0:
226,211,25154,2,0,P|272:203|310:156,1,95,4|0,0:3|0:0,0:0:0:0:
409,79,25654,2,0,P|455:88|490:120,1,95,8|0,0:2|0:0,0:0:0:0:
463,302,26154,5,4,0:3:0:0:
417,187,26404,1,0,0:0:0:0:
376,335,26654,1,8,0:2:0:0:
417,187,26904,1,0,0:0:0:0:
286,315,27154,2,0,P|238:319|194:302,1,95,4|0,0:3|0:0,0:0:0:0:
315,196,27653,2,0,P|355:222|377:264,1,95,8|0,0:2|0:0,0:0:0:0:
196,231,28153,6,0,P|183:167|254:58,1,190,4|8,0:3|0:2,0:0:0:0:
333,148,28903,2,0,L|444:143,2,95,0|4|0,0:0|0:3|0:0,0:0:0:0:
227,212,29653,1,8,0:2:0:0:
350,220,29903,1,0,0:0:0:0:
244,284,30153,6,0,P|162:287|73:217,1,190,4|8,0:3|0:2,0:0:0:0:
50,104,30902,1,0,0:0:0:0:
168,139,31152,1,4,0:3:0:0:
201,138,31277,1,0,0:0:0:0:
232,127,31402,1,2,0:2:0:0:
257,107,31527,1,0,0:0:0:0:
269,76,31652,1,8,0:2:0:0:
270,47,31777,1,0,0:0:0:0:
301,34,31902,1,2,0:2:0:0:
334,33,32027,1,0,0:0:0:0:
366,38,32152,6,0,P|440:92|448:185,1,190,4|8,0:3|0:2,0:0:0:0:
379,287,32902,1,0,0:0:0:0:
275,219,33152,2,0,P|217:215|173:234,1,95,4|0,0:3|0:0,0:0:0:0:
81,367,33651,2,0,P|85:320|70:276,1,95,8|0,0:2|0:0,0:0:0:0:
178,334,34151,5,4,0:3:0:0:
130,220,34401,1,0,0:0:0:0:
266,345,34651,1,8,0:2:0:0:
249,222,34901,1,0,0:0:0:0:
362,269,35151,1,4,0:3:0:0:
41,157,35651,1,8,0:2:0:0:
377,115,36151,6,0,P|341:98|312:53,1,95,4|0,0:3|0:0,0:0:0:0:
249,160,36650,2,0,P|203:161|162:138,1,95,8|0,0:2|0:0,0:0:0:0:
151,260,37150,2,0,P|110:285|63:286,1,95,4|0,0:3|0:0,0:0:0:0:
4,177,37650,1,8,0:2:0:0:
323,290,38150,5,4,0:3:0:0:
341,262,38275,1,0,0:0:0:0:
351,230,38400,1,2,0:2:0:0:
347,197,38525,1,0,0:0:0:0:
330,169,38650,1,8,0:2:0:0:
309,144,38775,1,0,0:0:0:0:
296,113,38900,1,2,0:2:0:0:
299,80,39025,1,0,0:0:0:0:
312,50,39150,2,0,P|356:66|403:59,1,95,4|0,0:3|0:0,0:0:0:0:
237,148,39649,1,8,0:2:0:0:
401,138,39899,1,8,0:2:0:0:
401,138,40024,1,0,0:0:0:0:
401,138,40149,6,0,P|443:160|470:199,1,95,4|0,0:2|0:3,0:0:0:0:
346,292,40649,2,0,P|324:332|285:359,1,95,4|0,0:2|0:0,0:0:0:0:
273,170,41149,1,4,0:3:0:0:
420,211,41399,1,2,0:3:0:0:
292,244,41649,2,0,P|249:242|206:207,1,95,8|0,0:2|0:0,0:0:0:0:
180,110,42149,5,4,0:3:0:0:
144,235,42398,1,2,0:3:0:0:
52,58,42648,1,8,0:2:0:0:
82,183,42898,1,0,3:0:0:0:
207,46,43148,2,0,P|241:80|244:135,1,95,4|2,0:3|0:3,0:0:0:0:
144,235,43648,2,0,P|106:274|65:285,2,95,8|0|4,0:2|0:3|0:3,0:0:0:0:
151,144,44398,5,2,0:3:0:0:
184,294,44648,1,8,0:2:0:0:
226,178,44898,1,0,0:0:0:0:
305,270,45148,2,0,P|350:289|398:286,1,95,4|2,0:3|0:3,0:0:0:0:
402,162,45647,2,0,P|445:143|477:107,1,95,8|0,0:2|0:0,0:0:0:0:
368,50,46147,5,4,0:3:0:0:
195,118,46397,1,2,0:3:0:0:
287,35,46647,1,8,0:2:0:0:
235,212,46897,2,0,P|144:207|93:128,1,190,0|2,0:0|0:3,0:0:0:0:
54,247,47647,1,8,0:2:0:0:
168,294,47897,1,8,0:2:0:0:
168,294,48022,1,8,0:2:0:0:
168,294,48147,6,0,P|219:318|240:360,1,95,4|0,0:2|0:3,0:0:0:0:
344,238,48646,2,8,P|391:231|433:251,1,95,4|0,0:2|0:0,0:2:0:0:
262,158,49146,1,4,0:3:0:0:
251,281,49396,1,2,0:3:0:0:
325,111,49646,2,0,P|287:83|240:81,1,95,8|0,0:2|0:0,0:0:0:0:
152,168,50146,5,4,0:3:0:0:
164,45,50396,2,0,P|120:27|68:37,2,95,2|8|0,0:3|0:2|0:0,0:0:0:0:
216,189,51146,1,4,0:3:0:0:
234,66,51395,1,2,0:3:0:0:
284,243,51645,2,0,P|322:269|369:276,1,95,8|0,0:2|0:0,0:0:0:0:
182,313,52145,5,4,0:3:0:0:
71,258,52395,1,2,0:3:0:0:
173,189,52645,1,8,0:2:0:0:
110,317,52895,1,0,0:0:0:0:
102,194,53145,2,0,P|77:146|39:123,1,95,4|2,0:3|0:3,0:0:0:0:
213,248,53645,2,0,P|259:255|303:239,1,95,8|0,0:2|0:0,0:0:0:0:
256,192,54145,12,8,55644,0:2:0:0:
344,251,56144,5,4,0:3:0:0:
320,130,56394,1,0,0:0:0:0:
298,105,56519,1,0,0:0:0:0:
270,86,56644,1,8,0:2:0:0:
239,76,56769,1,0,0:0:0:0:
205,74,56894,1,0,0:0:0:0:
173,82,57019,1,0,0:0:0:0:
144,97,57144,1,4,0:3:0:0:
144,97,57643,5,4,0:1:0:0:
