osu file format v14

[General]
AudioFilename: audio.mp3
AudioLeadIn: 0
PreviewTime: 40024
Countdown: 0
SampleSet: Drum
StackLeniency: 0.7
Mode: 0
LetterboxInBreaks: 0
WidescreenStoryboard: 0

[Editor]
DistanceSpacing: 0.3
BeatDivisor: 4
GridSize: 32
TimelineZoom: 1

[Metadata]
Title:Reklama lar'ka TTT
TitleUnicode:Реклама ларька ТТТ
Artist:Avtor
ArtistUnicode:Автор
Creator:M a r v o l l o
Version:HEY HEY PARENYOK
Source:
Tags:laryok larek laryek boney m. m rasputin cover russian parody ad 90s девяностые ларек хей хэй паренек отправляйся-ка отправляйся в ларёк оренбург реклама 90е распутин кавер пародия pop русский поп fergas marvollo m_a_r_v_o_l_l_o shmiklak ларьков novelty hey hi parenek parenyok parenyek паренёк
BeatmapID:4072459
BeatmapSetID:1964190

[Difficulty]
HPDrainRate:5.5
CircleSize:4
OverallDifficulty:7.5
ApproachRate:8
SliderMultiplier:2
SliderTickRate:1

[Events]
//Background and Video events
0,0,"TTT_OP.jpg",0,0
Video,0,"6ac72a18e774ba1e.mp4"
//Break Periods
//Storyboard Layer 0 (Background)
//Storyboard Layer 1 (Fail)
//Storyboard Layer 2 (Pass)
//Storyboard Layer 3 (Foreground)
//Storyboard Layer 4 (Overlay)
//Storyboard Sound Samples

[TimingPoints]
163,499.833388870377,4,3,1,50,1,0
8160,-125,4,3,1,50,0,0
39150,-100,4,3,1,50,0,0
40149,-100,4,3,1,50,0,1
48022,-100,4,3,1,50,0,0
48147,-100,4,3,1,50,0,1
57643,-100,4,3,1,50,0,0

[Colours]
Combo1 : 213,51,55
Combo2 : 64,177,10
Combo3 : 244,167,23

[HitObjects]
17,92,7910,5,8,0:2:0:0:
17,92,8035,1,8,0:2:0:0:
17,92,8160,2,0,P|63:77|106:76,1,80,4|0,0:2|0:0,0:0:0:0:
268,123,8660,1,8,0:2:0:0:
190,10,8910,1,0,0:0:0:0:
65,184,9160,2,0,P|133:195|217:248,1,160,4|8,0:3|0:2,0:0:0:0:
306,384,9909,5,0,0:0:0:0:
469,303,10159,2,0,P|426:312|386:315,1,80,4|0,0:3|0:0,0:0:0:0:
236,241,10659,1,8,0:2:0:0:
333,148,10909,1,0,0:0:0:0:
185,18,11159,2,0,L|177:199,1,160,4|8,0:3|0:2,0:0:0:0:
170,359,11909,5,0,0:0:0:0:
76,259,12159,2,0,P|33:242|-6:236,1,80,4|0,0:3|0:0,0:0:0:0:
175,234,12658,2,0,P|146:197|115:173,1,80,8|0,0:2|0:0,0:0:0:0:
269,265,13158,2,0,P|262:219|247:182,1,80,4|0,0:3|0:0,0:0:0:0:
366,337,13658,1,8,0:2:0:0:
422,205,13908,1,0,0:0:0:0:
283,341,14158,5,4,0:3:0:0:
458,282,14408,1,0,0:0:0:0:
278,244,14658,1,8,0:2:0:0:
423,368,14908,1,0,0:0:0:0:
509,204,15158,2,0,L|495:112,1,80,4|2,0:3|0:1,0:0:0:0:
493,113,15532,1,2,0:1:0:0:
486,103,15657,2,0,P|433:105|381:89,1,80,8|2,0:2|0:1,0:0:0:0:
396,93,16032,1,2,0:1:0:0:
386,85,16157,6,0,P|346:81|306:88,1,80,4|0,0:3|0:0,0:0:0:0:
183,200,16657,1,8,0:2:0:0:
81,51,16907,1,0,0:0:0:0:
9,190,17157,1,4,0:3:0:0:
9,190,17282,1,2,0:1:0:0:
9,190,17407,2,0,P|10:240|26:282,1,80,2|8,0:1|0:2,0:0:0:0:
175,380,17907,5,0,0:0:0:0:
236,266,18157,2,0,P|229:224|220:163,1,80,4|0,0:3|0:0,0:0:0:0:
285,58,18656,1,8,0:2:0:0:
370,163,18906,1,0,0:0:0:0:
463,45,19156,2,0,L|303:31,1,160,4|8,0:3|0:2,3:0:0:0:
140,110,19906,5,0,0:0:0:0:
279,164,20156,2,0,P|324:158|362:145,1,80,4|0,0:3|0:0,0:0:0:0:
203,232,20655,2,0,P|245:251|284:257,1,80,8|0,0:2|0:0,0:0:0:0:
105,249,21155,2,0,P|132:286|163:311,1,80,4|0,0:3|0:0,0:0:0:0:
10,176,21655,1,8,0:2:0:0:
170,187,21905,1,0,0:0:0:0:
14,278,22155,5,4,0:3:0:0:
103,111,22405,1,0,0:0:0:0:
178,317,22655,1,8,0:2:0:0:
29,191,22905,1,0,0:0:0:0:
222,90,23155,2,0,L|310:103,1,80,4|2,0:3|0:1,3:0:0:0:
315,115,23530,1,2,3:1:0:0:
328,125,23655,1,8,3:2:0:0:
482,37,23905,1,2,0:1:0:0:
482,37,24030,1,2,0:1:0:0:
482,37,24155,6,0,L|468:213,1,160,4|8,0:2|0:2,0:0:0:0:
410,313,24904,1,0,0:0:0:0:
316,266,25154,2,0,P|276:258|224:278,1,80,4|0,0:3|0:0,0:0:0:0:
410,313,25654,2,0,P|448:323|487:315,1,80,8|0,0:2|0:0,0:0:0:0:
449,156,26154,5,4,0:3:0:0:
348,126,26404,1,0,0:0:0:0:
272,196,26654,2,0,L|187:187,1,80,8|0,0:2|0:0,0:0:0:0:
43,283,27154,2,0,P|93:263|172:263,1,120,4|0,0:3|0:0,0:0:0:0:
179,272,27653,2,0,L|171:365,1,80,8|0,0:2|0:0,0:0:0:0:
344,250,28153,6,0,P|330:208|310:88,1,160,4|8,0:3|0:2,0:0:0:0:
467,46,28903,2,0,P|459:85|446:123,1,80,0|4,0:0|0:3,0:0:0:0:
344,250,29403,1,0,0:0:0:0:
255,123,29653,1,8,0:2:0:0:
139,215,29903,1,0,0:0:0:0:
11,140,30153,6,0,B|98:162|69:95|163:115,1,160,4|8,0:3|0:2,0:0:0:0:
252,198,30902,1,0,0:0:0:0:
139,318,31152,1,4,0:3:0:0:
123,307,31276,1,0,0:0:0:0:
113,289,31402,2,0,L|126:237,1,40,2|0,0:2|0:0,0:0:0:0:
216,331,31652,2,0,L|201:279,1,40,8|0,0:2|0:0,0:0:0:0:
325,331,31902,2,0,L|286:293,1,40,2|0,0:2|0:0,0:0:0:0:
435,312,32152,6,0,P|393:284|355:172,1,160,4|8,0:3|0:2,0:0:0:0:
406,95,32902,1,0,0:0:0:0:
271,24,33152,2,0,P|284:67|290:123,1,80,4|0,0:3|0:0,0:0:0:0:
181,241,33651,2,0,P|194:198|200:142,1,80,8|0,0:2|0:0,0:0:0:0:
0,45,34151,5,4,0:3:0:0:
96,196,34401,1,0,0:0:0:0:
144,68,34651,1,8,0:2:0:0:
84,216,34901,1,0,0:0:0:0:
0,61,35151,5,4,0:3:0:0:
370,113,35651,1,8,0:2:0:0:
79,347,36151,6,0,L|92:250,1,80,4|0,0:3|0:0,0:0:0:0:
177,49,36650,2,0,L|190:146,1,80,8|0,0:2|0:0,0:0:0:0:
304,238,37150,6,0,L|224:248,1,80,4|0,0:3|0:0,0:0:0:0:
0,135,37649,2,0,L|79:145,1,80,8|0,0:2|0:0,0:0:0:0:
259,50,38150,6,0,L|312:39,1,40,4|0,0:3|0:0,0:0:0:0:
249,129,38400,6,0,L|302:118,1,40,2|0,0:2|0:0,0:0:0:0:
230,211,38650,6,0,L|283:200,1,40,8|0,0:2|0:0,0:0:0:0:
220,290,38900,6,0,L|273:279,1,40,2|0,0:2|0:0,0:0:0:0:
205,370,39150,6,0,L|326:352,1,100,4|0,0:3|0:0,0:0:0:0:
494,269,39649,1,8,0:2:0:0:
366,114,39899,1,8,0:2:0:0:
366,114,40024,1,0,0:0:0:0:
366,114,40149,6,0,P|351:203|350:225,1,100,4|0,0:2|0:3,0:0:0:0:
216,371,40649,2,0,P|210:321|200:272,1,100,4|0,0:2|0:0,0:0:0:0:
21,144,41149,1,4,0:3:0:0:
118,310,41399,1,2,0:3:0:0:
244,162,41649,2,0,P|254:133|258:54,1,100,8|0,0:2|0:0,0:0:0:0:
129,291,42149,5,4,0:3:0:0:
347,222,42398,1,2,0:3:0:0:
163,112,42648,1,8,0:2:0:0:
258,333,42898,1,0,3:0:0:0:
353,90,43148,1,4,0:3:0:0:
133,190,43398,1,2,0:3:0:0:
391,295,43648,1,8,0:2:0:0:
133,190,43898,2,0,L|27:211,1,100,0|4,0:3|0:3,0:0:0:0:
204,72,44398,5,2,0:3:0:0:
271,317,44648,1,8,0:2:0:0:
34,209,44898,1,0,0:0:0:0:
277,150,45148,1,4,0:3:0:0:
162,351,45398,1,2,0:3:0:0:
21,195,45648,2,0,L|36:84,1,100,8|0,0:2|0:0,0:0:0:0:
249,52,46147,5,4,0:3:0:0:
117,205,46396,1,2,0:3:0:0:
340,155,46646,1,8,0:2:0:0:
134,75,46896,1,0,0:0:0:0:
221,279,47146,1,0,0:0:0:0:
287,29,47396,5,2,0:3:0:0:
61,203,47646,1,8,0:2:0:0:
333,354,47896,1,8,0:2:0:0:
333,354,48022,1,8,0:2:0:0:
333,354,48147,6,0,P|324:287|306:226,1,100,4|0,0:2|0:3,0:0:0:0:
424,96,48646,2,8,P|418:145|405:194,1,100,4|0,0:2|0:0,0:2:0:0:
309,23,49146,1,4,0:3:0:0:
512,124,49396,1,2,0:3:0:0:
326,265,49646,2,0,L|210:251,1,100,8|0,0:2|0:0,0:0:0:0:
11,150,50146,5,4,0:3:0:0:
111,362,50396,1,2,0:3:0:0:
143,111,50646,1,8,0:2:0:0:
2,284,50896,1,0,0:0:0:0:
236,236,51146,1,4,0:3:0:0:
0,148,51395,1,2,0:3:0:0:
129,343,51645,2,0,P|123:296|118:229,2,100,8|0|4,0:2|0:0|0:3,0:0:0:0:
203,151,52395,5,2,0:3:0:0:
11,232,52645,1,8,0:2:0:0:
271,276,52895,1,0,0:0:0:0:
22,357,53145,2,0,P|29:306|31:243,1,100,4|2,0:3|0:3,0:0:0:0:
119,27,53645,2,0,P|121:76|128:126,1,100,8|0,0:2|0:0,0:0:0:0:
256,330,54145,5,4,0:3:0:0:
359,114,54394,1,2,0:3:0:0:
437,384,54644,1,8,0:2:0:0:
216,200,54894,1,0,0:0:0:0:
510,103,55144,1,4,0:3:0:0:
345,338,55394,1,2,0:3:0:0:
233,56,55644,1,8,0:2:0:0:
487,196,55894,1,0,0:0:0:0:
233,328,56144,1,4,0:3:0:0:
233,328,56394,5,0,0:0:0:0:
231,288,56518,1,0,0:0:0:0:
213,252,56643,1,8,0:2:0:0:
183,227,56768,1,0,0:0:0:0:
145,215,56893,1,0,0:0:0:0:
105,220,57018,1,0,0:0:0:0:
71,240,57143,1,4,0:3:0:0:
509,351,57643,5,4,0:1:0:0:
