osu file format v14

[General]
AudioFilename: audio.mp3
AudioLeadIn: 0
PreviewTime: 40024
Countdown: 0
SampleSet: Drum
StackLeniency: 0.7
Mode: 0
LetterboxInBreaks: 0
WidescreenStoryboard: 1

[Editor]
Bookmarks: 8160,24155
DistanceSpacing: 1.2
BeatDivisor: 4
GridSize: 32
TimelineZoom: 0.8

[Metadata]
Title:Reklama lar'ka TTT
TitleUnicode:Реклама ларька ТТТ
Artist:Avtor
ArtistUnicode:Автор
Creator:M a r v o l l o
Version:Challenging Minimarket Visit
Source:
Tags:laryok larek laryek boney m. m rasputin cover russian parody ad 90s девяностые ларек хей хэй паренек отправляйся-ка отправляйся в ларёк оренбург реклама 90е распутин кавер пародия pop русский поп fergas marvollo m_a_r_v_o_l_l_o shmiklak ларьков novelty hey hi parenek parenyok parenyek паренёк
BeatmapID:4072458
BeatmapSetID:1964190

[Difficulty]
HPDrainRate:4.5
CircleSize:4
OverallDifficulty:6
ApproachRate:6.5
SliderMultiplier:1.8
SliderTickRate:1

[Events]
//Background and Video events
0,0,"TTT_OP.jpg",0,0
Video,0,"6ac72a18e774ba1e.mp4"
//Break Periods
//Storyboard Layer 0 (Background)
//Storyboard Layer 1 (Fail)
//Storyboard Layer 2 (Pass)
//Storyboard Layer 3 (Foreground)
//Storyboard Layer 4 (Overlay)
//Storyboard Sound Samples

[TimingPoints]
163,499.833388870377,4,3,1,50,1,0
8160,-125,4,3,1,50,0,0
39150,-100,4,3,1,50,0,0
40149,-100,4,3,1,50,0,1
48022,-100,4,3,1,50,0,0
48147,-100,4,3,1,50,0,1
57643,-100,4,3,1,50,0,0

[Colours]
Combo1 : 213,51,55
Combo2 : 64,177,10
Combo3 : 244,167,23

[HitObjects]
410,308,7910,5,8,0:2:0:0:
410,308,8035,1,8,0:2:0:0:
410,308,8160,2,0,P|443:261|453:233,1,72,4|0,0:2|0:0,0:0:0:0:
512,189,8660,2,0,P|479:142|469:114,1,72,8|0,0:2|0:0,0:0:0:0:
490,43,9160,2,0,L|337:68,1,144,4|8,0:3|0:2,0:0:0:0:
268,31,9909,5,0,0:0:0:0:
217,100,10159,2,0,L|242:189,1,72,4|0,0:3|0:0,0:0:0:0:
192,244,10659,1,8,0:2:0:0:
248,309,10909,1,0,0:0:0:0:
176,358,11159,2,0,P|120:312|31:308,1,144,4|8,0:3|0:2,0:0:0:0:
0,182,11909,5,0,0:0:0:0:
64,124,12159,2,0,P|97:133|134:137,1,72,4|0,0:3|0:0,0:0:0:0:
197,77,12658,2,0,P|262:47|343:47,2,144,8|4|8,0:2|0:3|0:2,0:0:0:0:
134,137,13908,1,0,0:0:0:0:
162,218,14158,6,0,L|150:316,2,72,4|0|8,0:3|0:0|0:2,0:0:0:0:
244,192,14908,1,0,0:0:0:0:
328,171,15158,2,0,L|340:73,1,72,4|2,0:3|0:1,0:0:0:0:
323,73,15532,1,2,0:1:0:0:
323,73,15657,2,0,P|273:83|236:76,1,72,8|2,0:2|0:1,0:0:0:0:
176,39,16157,6,0,P|115:23|41:77,1,144,4|8,0:3|0:2,0:0:0:0:
29,147,16907,1,0,0:0:0:0:
90,208,17157,2,0,P|101:236|102:255,4,36,4|2|2|0|8,0:3|0:1|0:1|0:0|0:2,0:0:0:0:
60,327,17907,5,0,0:0:0:0:
136,368,18157,2,0,P|189:337|226:331,1,72,4|0,0:3|0:0,0:0:0:0:
273,290,18656,2,0,P|326:321|363:327,1,72,8|0,0:2|0:0,0:0:0:0:
418,298,19156,2,0,L|399:143,1,144,4|8,0:3|0:2,3:0:0:0:
300,71,19906,5,0,0:0:0:0:
237,131,20156,2,0,P|177:125|95:88,2,144,4|8|4,0:3|0:2|0:3,0:0:0:0:
395,61,21655,6,0,L|380:149,1,72,8|0,0:2|0:0,0:0:0:0:
329,200,22155,1,4,0:3:0:0:
375,272,22405,1,0,0:0:0:0:
318,208,22655,1,8,0:2:0:0:
366,278,22905,1,0,0:0:0:0:
293,324,23155,2,0,P|255:310|216:306,1,72,4|2,0:3|0:1,3:0:0:0:
197,317,23530,1,2,3:1:0:0:
197,317,23655,1,8,3:2:0:0:
123,362,23905,1,2,0:1:0:0:
52,253,24155,6,0,P|91:208|122:123,1,144,4|8,0:2|0:2,0:0:0:0:
81,42,24904,1,0,0:0:0:0:
36,127,25154,2,0,P|111:116|198:104,1,144,4|8,0:3|0:2,0:0:0:0:
272,252,26154,6,0,P|235:239|206:220,1,72,4|0,0:3|0:0,0:0:0:0:
291,333,26654,2,0,P|321:313|355:302,1,72,8|0,0:2|0:0,0:0:0:0:
437,330,27154,2,0,P|447:265|463:189,1,144,4|8,0:3|0:2,0:0:0:0:
405,25,28153,6,0,P|380:57|278:85,1,144,4|8,0:3|0:2,0:0:0:0:
204,53,28903,1,0,0:0:0:0:
139,110,29153,2,0,P|159:164|166:190,1,72,4|0,0:3|0:0,0:0:0:0:
118,252,29653,1,8,0:2:0:0:
171,319,29903,1,0,0:0:0:0:
238,265,30153,6,0,P|286:256|389:245,1,144,4|8,0:3|0:2,0:0:0:0:
501,368,31152,2,0,P|490:345|489:326,3,36,4|0|2|0,0:3|0:0|0:2|0:0,0:0:0:0:
488,305,31652,2,0,P|499:282|500:263,3,36,8|0|2|0,0:2|0:0|0:2|0:0,0:0:0:0:
493,243,32152,6,0,P|469:194|451:79,1,144,4|8,0:3|0:2,0:0:0:0:
496,32,32902,1,0,0:0:0:0:
412,10,33152,2,0,P|342:17|314:26,1,72,4|0,0:3|0:0,0:0:0:0:
270,67,33651,2,0,P|200:60|172:51,1,72,8|0,0:2|0:0,0:0:0:0:
137,121,34151,5,4,0:3:0:0:
189,189,34401,1,0,0:0:0:0:
267,224,34651,1,8,0:2:0:0:
351,207,34901,1,0,0:0:0:0:
423,160,35151,1,4,0:3:0:0:
266,224,35651,1,8,0:2:0:0:
266,224,36151,6,0,B|180:206|218:276|113:250,3,144,4|8|4|8,0:3|0:2|0:3|0:2,0:0:0:0:
61,203,37900,1,0,0:0:0:0:
107,130,38150,2,0,P|143:121|156:121,3,36,4|0|2|0,0:3|0:0|0:2|0:0,0:0:0:0:
168,109,38650,2,0,P|204:118|217:118,3,36,8|0|2|0,0:2|0:0|0:2|0:0,0:0:0:0:
237,107,39150,1,4,0:3:0:0:
365,280,39649,1,8,0:2:0:0:
304,369,39899,1,8,0:2:0:0:
304,369,40024,1,0,0:0:0:0:
304,369,40149,6,0,P|242:343|188:334,1,90,4|0,0:2|0:3,0:0:0:0:
149,255,40649,2,0,P|215:246|266:227,1,90,4|0,0:2|0:0,0:0:0:0:
308,158,41149,1,4,0:3:0:0:
243,71,41399,1,2,0:3:0:0:
330,7,41649,2,0,P|377:28|465:40,1,135,8|0,0:2|0:0,0:0:0:0:
487,63,42149,5,4,0:3:0:0:
410,138,42398,1,2,0:3:0:0:
480,219,42648,2,0,P|493:265|498:322,1,90,8|0,0:2|3:0,0:0:0:0:
414,375,43148,1,4,0:3:0:0:
338,298,43398,1,2,0:3:0:0:
241,345,43648,2,0,B|196:357|196:357|131:331,2,90,8|0|4,0:2|0:3|0:3,0:0:0:0:
338,298,44398,5,2,0:3:0:0:
388,202,44648,1,8,0:2:0:0:
362,96,44898,1,0,0:0:0:0:
271,37,45148,2,0,P|233:40|182:54,1,90,4|2,0:3|0:3,0:0:0:0:
132,150,45647,2,0,L|147:298,1,135,8|0,0:2|0:0,0:0:0:0:
127,315,46147,5,4,0:3:0:0:
27,271,46397,1,2,0:3:0:0:
120,325,46647,1,8,0:2:0:0:
224,353,46897,2,0,B|329:375|283:288|400:314,1,180,0|2,0:0|0:3,0:0:0:0:
481,369,47647,1,8,0:2:0:0:
511,265,47897,1,8,0:2:0:0:
511,265,48022,1,8,0:2:0:0:
511,265,48147,6,0,P|486:215|484:170,1,90,4|0,0:2|0:3,0:0:0:0:
406,105,48646,2,8,P|399:149|377:188,1,90,4|0,0:2|0:0,0:2:0:0:
288,249,49146,1,4,0:3:0:0:
211,172,49396,1,2,0:3:0:0:
147,259,49646,2,0,P|94:272|53:198,1,135,8|0,0:2|0:0,0:0:0:0:
64,180,50146,5,4,0:3:0:0:
114,84,50396,2,0,P|75:62|30:55,2,90,2|8|0,0:3|0:2|0:0,0:0:0:0:
197,153,51146,1,4,0:3:0:0:
260,66,51395,1,2,0:3:0:0:
353,119,51645,2,0,L|453:93,1,90,8|0,0:2|0:0,0:0:0:0:
512,165,52145,5,4,0:3:0:0:
443,248,52395,1,2,0:3:0:0:
510,328,52645,1,8,0:2:0:0:
430,255,52895,1,0,0:0:0:0:
339,314,53145,2,0,L|237:303,1,90,4|2,0:3|0:3,0:0:0:0:
178,222,53645,2,0,L|280:211,1,90,8|0,0:2|0:0,0:0:0:0:
373,191,54145,5,4,0:3:0:0:
469,143,54395,1,2,0:3:0:0:
368,181,54645,1,8,0:2:0:0:
427,271,54895,1,0,0:0:0:0:
346,342,55145,2,0,L|256:332,1,90,4|2,0:3|0:3,0:0:0:0:
167,270,55645,2,0,L|65:281,1,90,8|0,0:2|0:0,0:0:0:0:
11,194,56144,5,4,0:3:0:0:
69,102,56394,2,0,P|97:94|127:90,3,45,0|0|8|0,0:0|0:0|0:2|0:0,0:0:0:0:
146,104,56894,1,0,0:0:0:0:
146,104,57019,1,0,0:0:0:0:
146,104,57144,1,4,0:3:0:0:
258,193,57643,5,4,0:1:0:0:
