osu file format v14

[General]
AudioFilename: audio.mp3
AudioLeadIn: 0
PreviewTime: 40024
Countdown: 0
SampleSet: Drum
StackLeniency: 0.7
Mode: 0
LetterboxInBreaks: 0
WidescreenStoryboard: 1

[Editor]
Bookmarks: 8160,24155
DistanceSpacing: 1.3
BeatDivisor: 4
GridSize: 32
TimelineZoom: 0.7

[Metadata]
Title:Reklama lar'ka TTT
TitleUnicode:Реклама ларька ТТТ
Artist:Avtor
ArtistUnicode:Автор
Creator:M a r v o l l o
Version:Average Supermarket Shopping
Source:
Tags:laryok larek laryek boney m. m rasputin cover russian parody ad 90s девяностые ларек хей хэй паренек отправляйся-ка отправляйся в ларёк оренбург реклама 90е распутин кавер пародия pop русский поп fergas marvollo m_a_r_v_o_l_l_o shmiklak ларьков novelty hey hi parenek parenyok parenyek паренёк
BeatmapID:4072460
BeatmapSetID:1964190

[Difficulty]
HPDrainRate:3
CircleSize:3.5
OverallDifficulty:4
ApproachRate:5
SliderMultiplier:1.4
SliderTickRate:1

[Events]
//Background and Video events
0,0,"TTT_OP.jpg",0,0
Video,0,"6ac72a18e774ba1e.mp4"
//Break Periods
//Storyboard Layer 0 (Background)
//Storyboard Layer 1 (Fail)
//Storyboard Layer 2 (Pass)
//Storyboard Layer 3 (Foreground)
//Storyboard Layer 4 (Overlay)
//Storyboard Sound Samples

[TimingPoints]
163,499.833388870377,4,3,1,50,1,0
8160,-111.111111111111,4,3,1,50,0,0
39150,-100,4,3,1,50,0,0
40149,-100,4,3,1,50,0,1
48022,-100,4,3,1,50,0,0
48147,-100,4,3,1,50,0,1
57643,-100,4,3,1,50,0,0

[Colours]
Combo1 : 213,51,55
Combo2 : 64,177,10
Combo3 : 244,167,23

[HitObjects]
82,237,8160,6,0,P|118:233|206:201,1,125.999996154785,4|8,0:2|0:2,0:0:0:0:
273,160,8910,1,0,0:0:0:0:
273,160,9160,2,0,P|259:216|249:288,1,125.999996154785,4|8,0:3|0:2,0:0:0:0:
296,356,9909,1,0,0:0:0:0:
296,356,10159,2,0,B|353:378|353:378|430:350,2,125.999996154785,4|8|4,0:3|0:2|0:3,0:0:0:0:
160,282,11659,5,8,0:2:0:0:
160,282,11909,1,0,0:0:0:0:
160,282,12159,2,0,P|98:269|30:281,2,125.999996154785,4|8|4,0:3|0:2|0:3,0:0:0:0:
294,375,13658,2,0,P|302:347|306:302,1,62.9999980773926,8|0,0:2|0:0,0:0:0:0:
276,236,14158,2,0,P|263:188|278:101,1,125.999996154785,4|8,0:3|0:2,0:0:0:0:
333,58,14908,1,0,0:0:0:0:
333,58,15158,2,0,P|269:62|191:53,1,125.999996154785,4|8,0:3|0:2,0:0:0:0:
44,38,16157,6,0,L|57:163,1,125.999996154785,4|8,0:3|0:2,0:0:0:0:
117,219,16907,1,0,0:0:0:0:
117,219,17157,2,0,P|97:257|89:302,2,62.9999980773926,4|2|8,0:3|0:1|0:2,0:0:0:0:
194,192,17907,1,0,0:0:0:0:
194,192,18157,2,0,P|211:263|217:323,2,125.999996154785,4|8|4,0:3|0:2|0:3,0:0:0:0:
326,93,19656,5,8,0:2:0:0:
326,93,19906,1,0,0:0:0:0:
326,93,20156,2,0,P|382:74|465:44,2,125.999996154785,4|8|4,0:3|0:2|0:3,0:0:0:0:
287,252,21655,2,0,P|246:244|217:250,1,62.9999980773926,8|0,0:2|0:0,0:0:0:0:
169,307,22155,2,0,P|127:313|41:260,1,125.999996154785,4|8,0:3|0:2,0:0:0:0:
16,210,22905,1,0,0:0:0:0:
16,210,23155,2,0,P|54:188|109:114,1,125.999996154785,4|8,0:3|3:2,3:0:0:0:
226,17,24155,6,0,P|258:43|357:60,1,125.999996154785,4|8,0:2|0:2,0:0:0:0:
484,137,25154,2,0,P|422:146|370:182,1,125.999996154785,4|8,0:3|0:2,0:0:0:0:
316,337,26154,2,0,L|389:316,1,62.9999980773926,4|0,0:3|0:0,0:0:0:0:
441,268,26654,1,8,0:2:0:0:
441,268,26904,1,0,0:0:0:0:
441,268,27154,2,0,L|422:127,1,125.999996154785,4|8,0:3|0:2,0:0:0:0:
281,61,28153,6,0,P|246:119|201:165,1,125.999996154785,4|8,0:3|0:2,0:0:0:0:
157,227,28903,2,0,P|218:212|281:211,1,125.999996154785
346,261,29653,2,0,P|353:311|339:345,1,62.9999980773926,8|0,0:2|0:0,0:0:0:0:
278,362,30153,2,0,P|215:361|153:346,1,125.999996154785,4|8,0:3|0:2,0:0:0:0:
67,207,31152,2,0,B|117:198|117:198|133:185|133:185|191:174,1,125.999996154785,4|8,0:3|0:2,0:0:0:0:
263,202,31902,5,2,0:2:0:0:
263,202,32152,2,0,P|319:181|391:199,1,125.999996154785,4|8,0:3|0:2,0:0:0:0:
459,235,32902,1,0,0:0:0:0:
459,235,33152,2,0,P|463:140|469:83,1,125.999996154785,4|8,0:3|0:2,0:0:0:0:
319,35,34151,2,0,P|268:56|252:60,1,62.9999980773926,4|0,0:3|0:0,0:0:0:0:
184,49,34651,1,8,0:2:0:0:
184,49,34901,1,0,0:0:0:0:
184,49,35151,1,4,0:3:0:0:
262,194,35651,1,8,0:2:0:0:
174,332,36151,6,0,P|111:328|42:311,1,125.999996154785,4|8,0:3|0:2,0:0:0:0:
0,159,37150,2,0,P|63:155|132:138,1,125.999996154785,4|8,0:3|0:2,0:0:0:0:
255,42,38150,2,0,P|243:90|240:114,1,62.9999980773926,4|2,0:3|0:2,0:0:0:0:
283,173,38650,2,0,P|295:221|298:245,1,62.9999980773926,8|2,0:2|0:2,0:0:0:0:
253,314,39150,1,4,0:3:0:0:
428,361,39649,1,8,0:2:0:0:
486,188,40149,6,0,P|473:149|461:44,1,140,4|4,0:2|0:2,0:0:0:0:
332,159,41149,1,4,0:3:0:0:
332,159,41399,1,2,0:3:0:0:
332,159,41649,1,8,0:2:0:0:
208,45,42149,2,0,L|200:125,1,70,4|2,0:3|0:3,0:0:0:0:
151,182,42648,2,0,L|159:262,1,70,8|0,0:2|3:0,0:0:0:0:
107,319,43148,2,0,P|66:320|38:306,2,70,4|2|8,0:3|0:3|0:2,0:0:0:0:
259,246,44148,5,4,0:3:0:0:
259,246,44398,2,0,P|315:231|341:230,1,70,2|8,0:3|0:2,0:0:0:0:
406,258,44898,1,0,0:0:0:0:
406,258,45148,2,0,P|379:231|333:120,1,140,4|8,0:3|0:2,0:0:0:0:
222,15,46147,2,0,P|198:73|177:96,1,70,4|2,0:3|0:3,0:0:0:0:
147,149,46647,1,8,0:2:0:0:
147,149,46897,2,0,P|171:207|192:230,1,70
217,285,47397,2,0,P|193:343|172:366,2,70,2|8|8,0:3|0:2|0:2,0:0:0:0:
262,213,48147,5,4,0:2:0:0:
406,298,48646,1,4,0:2:0:0:
497,160,49146,1,4,0:3:0:0:
497,160,49396,1,2,0:3:0:0:
497,160,49646,1,8,0:2:0:0:
368,51,50146,2,0,L|288:59,1,70,4|2,0:3|0:3,0:0:0:0:
231,108,50645,2,0,L|151:100,1,70,8|0,0:2|0:0,0:0:0:0:
94,152,51145,2,0,P|93:193|107:221,2,70,4|2|8,0:3|0:3|0:2,0:0:0:0:
198,20,52145,5,4,0:3:0:0:
198,20,52395,2,0,P|254:5|280:4,1,70,2|8,0:3|0:2,0:0:0:0:
340,53,52895,1,0,0:0:0:0:
340,53,53145,2,0,L|325:205,1,140,4|8,0:3|0:2,0:0:0:0:
220,323,54144,2,0,P|162:299|139:278,1,70,4|2,0:3|0:3,0:0:0:0:
108,224,54644,1,8,0:2:0:0:
108,224,54894,2,0,P|132:166|153:143,1,70,0|4,0:0|0:3,0:0:0:0:
213,128,55394,2,0,P|243:144|268:168,1,70,2|8,0:3|0:2,0:0:0:0:
294,249,55894,5,0,0:0:0:0:
294,249,56144,2,0,P|317:298|386:186,1,280,4|4,0:3|0:3,0:0:0:0:
259,85,57643,1,4,0:1:0:0:
