osu file format v14

[General]
AudioFilename: audio.mp3
AudioLeadIn: 0
PreviewTime: 115320
Countdown: 0
SampleSet: Soft
StackLeniency: 0.7
Mode: 0
LetterboxInBreaks: 0
EpilepsyWarning: 1
WidescreenStoryboard: 1

[Editor]
Bookmarks: 166850,176150
DistanceSpacing: 1
BeatDivisor: 4
GridSize: 4
TimelineZoom: 1.4

[Metadata]
Title:What The Hell
TitleUnicode:What The Hell
Artist:Avril Lavigne
ArtistUnicode:Avril Lavigne
Creator:5Atarox
Version:Normal
Source:
Tags:English,Pop,goodbye lullaby
BeatmapID:1352821
BeatmapSetID:634451

[Difficulty]
HPDrainRate:3.5
CircleSize:3.5
OverallDifficulty:4
ApproachRate:5
SliderMultiplier:1.1
SliderTickRate:1

[Events]
//Background and Video events
0,0,"Whatthehellok.jpg",0,0
//Break Periods
2,70520,75920
2,141320,142920
2,144520,146320
//Storyboard Layer 0 (Background)
//Storyboard Layer 1 (Fail)
//Storyboard Layer 2 (Pass)
//Storyboard Layer 3 (Foreground)
//Storyboard Sound Samples

[TimingPoints]
320,400,4,2,2,100,1,0
5120,-100,4,2,1,100,0,0
6720,-100,4,2,1,75,0,0
19920,-100,4,2,0,75,0,0
20320,-100,4,2,1,75,0,0
26320,-100,4,2,0,75,0,0
26520,-100,4,2,1,75,0,0
32720,-100,4,2,0,75,0,0
32920,-100,4,2,1,75,0,0
39120,-100,4,2,0,75,0,0
39320,-100,4,2,1,75,0,0
43320,-100,4,2,1,80,0,0
43520,-100,4,2,1,85,0,0
43720,-100,4,2,1,90,0,0
43920,-100,4,2,1,95,0,0
44120,-100,4,2,1,100,0,0
45120,-100,4,2,2,75,0,1
45520,-100,4,2,1,75,0,1
51520,-100,4,2,2,75,0,1
51920,-100,4,2,1,75,0,1
52320,-100,4,2,1,75,0,1
57920,-100,4,2,2,75,0,1
58320,-100,4,2,1,75,0,1
59120,-100,4,2,1,75,0,1
64320,-100,4,2,2,75,0,1
64720,-100,4,2,1,75,0,1
65120,-100,4,2,1,75,0,1
70320,-100,4,2,1,75,0,0
77520,-100,4,2,2,75,0,0
77720,-100,4,2,1,75,0,0
83920,-100,4,2,2,75,0,0
84120,-100,4,2,1,75,0,0
90320,-100,4,2,2,75,0,0
90520,-100,4,2,1,75,0,0
96720,-100,4,2,2,75,0,0
96920,-100,4,2,1,75,0,0
103120,-100,4,1,0,75,0,0
103220,-100,4,2,1,75,0,0
109520,-100,4,2,2,75,0,0
109720,-100,4,2,1,75,0,0
113520,-100,4,2,1,85,0,0
113720,-100,4,2,1,95,0,0
113920,-100,4,2,1,100,0,0
115520,-100,4,2,2,75,0,1
115920,-100,4,2,1,75,0,1
116720,-100,4,2,1,75,0,1
121920,-100,4,2,2,75,0,1
122320,-100,4,2,1,75,0,1
122720,-100,4,2,1,75,0,1
123520,-100,4,2,2,75,0,1
123920,-100,4,2,1,75,0,1
128320,-100,4,2,2,75,0,1
128720,-100,4,2,1,75,0,1
129520,-100,4,2,1,75,0,1
134720,-100,4,2,2,75,0,1
135120,-100,4,2,1,75,0,1
141120,-100,4,1,1,75,0,0
144120,-100,4,2,1,59,0,0
144320,-100,4,2,1,75,0,0
147520,-100,4,2,4,75,0,0
171120,-100,4,2,2,75,0,0
173120,-100,4,2,4,75,0,1
173720,-100,4,2,1,75,0,1
174320,-100,4,2,1,75,0,1
179520,-100,4,2,2,75,0,1
180320,-100,4,2,1,75,0,1
192320,-100,4,2,2,75,0,1
192720,-100,4,2,1,75,0,1
198720,-100,4,2,2,75,0,1
199320,-100,4,2,1,75,0,1
199920,-100,4,2,1,75,0,1
205120,-100,4,2,2,75,0,1
205520,-100,4,2,1,75,0,1
205920,-100,4,2,1,75,0,1
211120,-100,4,2,4,75,0,0

[Colours]
Combo1 : 160,131,152
Combo2 : 248,228,97
Combo3 : 219,149,4
Combo4 : 129,82,124

[HitObjects]
144,124,5120,5,4,0:0:0:0:
196,104,5320,2,0,L|256:92,1,55,4|4,0:0|0:0,0:0:0:0:
300,120,5720,2,0,L|356:160,1,55,4|4,0:0|0:0,0:0:0:0:
360,204,6120,2,0,L|384:280,1,55,4|4,0:0|0:0,0:0:0:0:
288,324,6720,6,0,P|248:320|192:264,1,110,2|8,0:0|0:0,0:0:0:0:
172,228,7320,2,0,P|132:172|76:172,1,110,2|2,0:0|0:0,0:0:0:0:
56,196,7920,1,8,0:0:0:0:
56,96,8320,6,0,P|84:84|128:92,1,55,2|2,0:0|0:0,0:0:0:0:
160,96,8720,2,0,P|208:100|232:92,1,55,8|2,0:0|0:0,0:0:0:0:
320,76,9320,1,2,0:0:0:0:
332,128,9520,2,0,L|348:248,2,110,8|2|8,0:0|0:0|0:0,0:0:0:0:
320,76,10520,1,2,0:0:0:0:
428,96,10920,5,2,0:0:0:0:
428,96,11120,1,8,0:0:0:0:
404,148,11320,2,0,L|420:212,1,55,0|6,0:0|0:0,0:0:0:0:
420,256,11720,2,0,L|392:312,1,55,6|12,0:0|0:0,0:0:0:0:
348,332,12120,2,0,P|312:336|288:328,1,55,6|6,0:0|0:0,0:0:0:0:
252,296,12520,2,0,P|220:288|180:300,1,55,6|8,0:0|0:0,0:0:0:0:
88,312,13120,6,0,L|64:188,1,110,2|8,0:0|0:0,0:0:0:0:
60,148,13720,1,2,0:0:0:0:
156,92,14120,2,0,P|168:132|160:160,1,55,2|8,0:0|0:0,0:0:0:0:
148,252,14720,2,0,P|140:300|152:324,2,55,2|2|8,0:0|0:0|0:0,0:0:0:0:
192,216,15320,2,0,L|320:200,1,110,2|2,0:0|0:0,0:0:0:0:
356,196,15920,1,8,0:0:0:0:
376,88,16320,6,0,B|344:84|316:100|316:100|292:112|260:104,1,110,2|8,0:0|0:0,0:0:0:0:
216,92,16920,1,2,0:0:0:0:
124,156,17320,2,0,P|104:108|108:88,1,55,2|8,0:0|0:0,0:0:0:0:
128,56,17720,6,0,P|192:28|192:28,1,55,0|6,0:0|0:0,0:0:0:0:
216,76,18120,2,0,L|280:108,1,55,6|12,0:0|0:0,0:0:0:0:
316,76,18520,2,4,L|380:56,1,55,6|6,0:0|0:0,0:0:0:0:
408,100,18920,2,4,L|468:120,1,55,6|12,0:0|0:0,0:0:0:0:
424,220,19520,6,0,P|392:260|312:268,1,110,2|12,0:0|0:0,0:0:0:0:
256,200,20320,2,0,P|200:208|156:256,1,110,0|8,0:0|0:0,0:0:0:0:
156,132,21120,6,0,L|84:136,2,55,2|0|8,0:0|0:0|0:0,0:0:0:0:
208,112,21720,1,2,0:0:0:0:
256,84,21920,2,0,L|320:96,1,55,0|2,0:0|0:0,0:0:0:0:
352,128,22320,2,0,L|412:112,1,55,8|0,0:0|0:0,0:0:0:0:
440,156,22720,6,0,P|464:220|308:196,1,330,2|8,0:0|0:0,0:0:0:0:
272,156,24120,6,0,P|236:164|208:160,1,55,0|6,0:0|0:0,0:0:0:0:
188,116,24520,2,0,P|144:120|112:136,1,55,6|12,0:0|0:0,0:0:0:0:
84,100,24920,2,0,P|68:64|68:40,1,55,6|6,0:0|0:0,0:0:0:0:
108,12,25320,2,0,P|140:4|176:20,1,55,6|12,0:0|0:0,0:0:0:0:
188,116,25920,6,0,L|216:228,1,110,2|8,0:0|0:0,0:0:0:0:
320,256,26720,2,0,L|288:132,1,110,0|8,0:0|0:0,0:0:0:0:
212,76,27520,1,2,0:0:0:0:
212,76,27720,1,2,0:0:0:0:
188,128,27920,2,0,L|160:192,1,55,8|2,0:0|0:0,0:0:0:0:
160,288,28520,5,2,0:0:0:0:
208,316,28720,2,0,B|236:328|236:328|268:328,1,55,8|0,0:0|0:0,0:0:0:0:
316,316,29120,2,0,B|348:268|348:268|340:152,2,165,2|2|8,0:0|0:0|0:0,0:0:0:0:
260,312,30520,6,0,P|224:320|200:344,1,55,0|6,0:0|0:0,0:0:0:0:
156,332,30920,2,0,P|136:316|96:316,1,55,6|12,0:0|0:0,0:0:0:0:
100,260,31320,2,0,P|108:248|112:196,1,55,6|6,0:0|0:0,0:0:0:0:
156,176,31720,2,0,P|188:200|220:200,1,55,6|12,0:0|0:0,0:0:0:0:
236,96,32320,6,0,P|268:56|336:56,1,110,2|8,0:0|0:0,0:0:0:0:
372,80,32920,1,2,0:0:0:0:
304,164,33320,2,0,P|328:188|360:204,1,55,2|8,0:0|0:0,0:0:0:0:
328,308,33920,6,0,P|304:272|280:256,1,55,2|2,0:0|0:0,0:0:0:0:
244,248,34320,1,8,0:0:0:0:
192,260,34520,2,0,P|120:276|76:264,1,110,2|2,0:0|0:0,0:0:0:0:
44,232,35120,1,8,0:0:0:0:
92,132,35520,6,0,L|208:96,1,110,2|8,0:0|0:0,0:0:0:0:
252,84,36120,1,2,0:0:0:0:
304,72,36320,2,0,P|388:92|268:168,1,330,0|8,0:0|0:0,0:0:0:0:
216,180,37720,1,2,0:0:0:0:
224,236,37920,2,0,P|260:268|284:276,1,55,2|2,0:0|0:0,0:0:0:0:
320,280,38320,1,8,0:0:0:0:
324,284,38720,6,0,P|396:272|436:240,1,110,2|8,0:0|0:0,0:0:0:0:
452,204,39320,1,2,0:0:0:0:
404,180,39520,2,0,P|356:184|296:220,1,110,0|8,0:0|0:0,0:0:0:0:
268,256,40120,1,0,0:0:0:0:
216,244,40320,2,0,B|200:224|204:196|204:196|200:144|168:136,1,110,2|8,0:0|0:0,0:0:0:0:
132,120,40920,5,0,0:0:0:0:
64,208,41320,2,0,L|136:200,1,55,2|8,0:0|0:0,0:0:0:0:
256,192,41920,12,0,44720,0:0:0:0:
64,72,45120,6,0,B|92:60|120:72|120:72|148:88|188:64,1,110,6|8,0:0|0:0,0:0:0:0:
224,56,45720,1,2,0:0:0:0:
236,164,46120,2,0,P|272:152|292:132,1,55,2|8,0:0|0:0,0:0:0:0:
388,100,46720,2,0,L|408:232,1,110,2|8,0:0|0:0,0:0:0:0:
416,264,47320,5,2,0:0:0:0:
360,272,47520,2,0,P|320:264|240:268,1,110,0|8,0:0|0:0,0:0:0:0:
160,204,48320,6,0,B|128:152|128:152|136:96|136:96|176:56|176:56|248:56|248:56|288:104|288:104|288:148,1,330,2|8,0:0|0:0,0:0:0:0:
288,236,49920,2,0,P|316:272|392:268,1,110,2|8,0:0|0:0,0:0:0:0:
412,232,50520,1,2,0:0:0:0:
452,268,50720,2,0,L|460:344,1,55,2|2,0:0|0:0,0:0:0:0:
412,352,51120,2,0,P|363:355|288:364,1,110,8|6,0:0|0:0,0:0:0:0:
220,228,51920,5,8,0:0:0:0:
216,172,52120,2,0,L|276:148,2,55,2|0|2,0:0|0:0|0:0,0:0:0:0:
164,192,52720,2,0,P|152:248|196:292,1,110,8|2,0:0|0:0,0:0:0:0:
284,240,53520,2,0,L|224:228,2,55,8|2|0,0:0|0:0|0:0,0:0:0:0:
312,192,54120,2,0,L|380:168,1,55,2|8,0:0|0:0,0:0:0:0:
280,104,54720,6,0,P|248:64|96:196,1,330,2|8,0:0|0:0,0:0:0:0:
140,296,56320,6,0,B|176:276|176:276|196:244|196:244|236:216,1,110,2|8,0:0|0:0,0:0:0:0:
264,192,56920,1,2,0:0:0:0:
320,196,57120,2,0,P|376:184|392:116,1,110,2|8,0:0|0:0,0:0:0:0:
304,84,57920,6,0,B|264:84|232:100|232:100|200:112|176:104,1,110,6|8,0:0|0:0,0:0:0:0:
144,92,58520,1,2,0:0:0:0:
116,200,58920,2,0,L|140:272,1,55,2|8,0:0|0:0,0:0:0:0:
228,312,59520,5,2,0:0:0:0:
308,236,59920,2,0,L|332:184,1,55,8|2,0:0|0:0,0:0:0:0:
428,132,60520,2,0,L|404:76,1,55,2|8,0:0|0:0,0:0:0:0:
300,48,61120,6,0,P|252:44|176:56,1,110,2|8,0:0|0:0,0:0:0:0:
140,76,61720,1,2,0:0:0:0:
116,184,62120,2,0,B|112:212|112:212|116:240,1,55,2|8,0:0|0:0,0:0:0:0:
204,308,62720,2,0,P|248:312|304:248,1,110,2|8,0:0|0:0,0:0:0:0:
316,220,63320,2,0,P|344:168|400:156,1,110,2|2,0:0|0:0,0:0:0:0:
444,160,63920,1,8,0:0:0:0:
384,68,64320,6,0,B|356:64|356:64|316:80|316:80|260:72,2,110,6|8|0,0:0|0:0|0:0,0:0:0:0:
436,80,65320,1,2,0:0:0:0:
452,132,65520,2,0,B|464:188|464:188|448:240,1,110,8|2,0:0|0:0,0:0:0:0:
352,288,66320,2,0,P|228:292|148:220,1,220,8|8,0:0|0:0,0:0:0:0:
176,104,67520,6,0,L|120:96,1,55,2|0,0:0|0:0,0:0:0:0:
84,56,67920,2,0,L|16:40,2,55,8|2|0,0:0|0:0|0:0,0:0:0:0:
132,32,68520,2,0,L|188:40,1,55,2|8,0:0|0:0,0:0:0:0:
220,84,68920,1,0,0:0:0:0:
276,76,69120,6,0,P|336:68|388:92,1,110,2|8,0:0|0:0,0:0:0:0:
416,132,69720,1,2,0:0:0:0:
404,184,69920,2,0,L|388:248,1,55,2|2,0:0|0:0,0:0:0:0:
380,292,70320,1,8,0:0:0:0:
408,64,77120,6,0,B|380:92|348:76|348:76|296:96,1,110,2|12,0:0|0:0,0:0:0:0:
256,112,77720,1,2,0:0:0:0:
204,208,78120,1,2,0:0:0:0:
248,240,78320,2,0,P|288:256|312:248,1,55,8|0,0:0|0:0,0:0:0:0:
340,220,78720,2,0,P|376:220|404:232,2,55,2|2|8,0:0|0:0|0:0,0:0:0:0:
296,188,79320,5,2,0:0:0:0:
248,160,79520,2,0,L|180:172,1,55,0|2,0:0|0:0,0:0:0:0:
172,220,79920,2,0,L|64:192,1,110,8|2,0:0|0:0,0:0:0:0:
112,92,80720,2,0,L|180:88,1,55,8|2,0:0|0:0,0:0:0:0:
248,160,81320,2,0,L|192:188,1,55,2|8,0:0|0:0,0:0:0:0:
276,260,81920,6,4,L|268:320,2,55,6|6|12,0:0|0:0|0:0,0:0:0:0:
328,248,82520,1,6,0:0:0:0:
368,208,82720,2,4,L|376:140,1,55,6|6,0:0|0:0,0:0:0:0:
416,112,83120,1,12,0:0:0:0:
404,60,83320,6,0,P|372:72|336:60,1,55,0|2,0:0|0:0,0:0:0:0:
244,44,83920,2,0,P|200:32|168:40,1,55,12|2,0:0|0:0,0:0:0:0:
148,68,84320,2,0,P|112:72|80:60,1,55,0|2,0:0|0:0,0:0:0:0:
48,36,84720,1,8,0:0:0:0:
64,144,85120,6,0,L|80:208,1,55,2|2,0:0|0:0,0:0:0:0:
124,228,85520,2,0,L|104:288,1,55,8|2,0:0|0:0,0:0:0:0:
208,320,86120,1,2,0:0:0:0:
244,280,86320,2,0,P|284:256|320:184,2,110,8|2|8,0:0|0:0|0:0,0:0:0:0:
208,320,87320,1,2,0:0:0:0:
156,224,87720,2,0,L|152:152,1,55,2|8,0:0|0:0,0:0:0:0:
236,96,88320,6,4,L|296:92,1,55,6|6,0:0|0:0,0:0:0:0:
316,144,88720,2,4,L|376:140,1,55,12|6,0:0|0:0,0:0:0:0:
388,192,89120,2,4,L|460:188,1,55,6|6,0:0|0:0,0:0:0:0:
488,220,89520,1,12,0:0:0:0:
420,308,89920,6,0,P|368:308|292:328,1,110,2|12,0:0|0:0,0:0:0:0:
264,344,90520,1,2,0:0:0:0:
212,360,90720,2,0,P|156:360|96:328,1,110,0|8,0:0|0:0,0:0:0:0:
88,228,91520,6,0,L|24:216,2,55,2|2|8,0:0|0:0|0:0,0:0:0:0:
144,236,92120,1,2,0:0:0:0:
208,144,92520,2,0,L|272:160,1,55,2|8,0:0|0:0,0:0:0:0:
368,188,93120,2,0,B|356:212|372:236|372:236|388:260|368:304,1,110,2|8,0:0|0:0,0:0:0:0:
340,336,93720,2,0,B|304:352|272:324|272:324|212:332,1,110,2|2,0:0|0:0,0:0:0:0:
180,336,94320,1,8,0:0:0:0:
104,256,94720,6,4,L|76:204,1,55,6|6,0:0|0:0,0:0:0:0:
120,172,95120,2,4,L|100:104,1,55,12|6,0:0|0:0,0:0:0:0:
160,108,95520,2,4,L|168:44,1,55,6|6,0:0|0:0,0:0:0:0:
220,40,95920,1,12,0:0:0:0:
312,80,96320,6,0,P|352:120|352:184,1,110,2|12,0:0|0:0,0:0:0:0:
340,224,96920,1,2,0:0:0:0:
236,252,97320,2,0,P|204:264|184:288,1,55,2|8,0:0|0:0,0:0:0:0:
88,236,97920,6,0,L|72:164,1,55,2|2,0:0|0:0,0:0:0:0:
68,128,98320,1,8,0:0:0:0:
84,76,98520,2,0,P|148:76|200:100,1,110,2|2,0:0|0:0,0:0:0:0:
220,140,99120,1,8,0:0:0:0:
320,100,99520,5,2,0:0:0:0:
376,192,99920,2,0,L|356:248,1,55,8|8,0:0|0:0,0:0:0:0:
332,292,100320,1,2,0:0:0:0:
284,316,100520,2,0,P|248:328|208:320,1,55,2|8,0:0|0:0,0:0:0:0:
140,264,101120,6,0,L|112:212,2,55,2|2|8,0:0|0:0|0:0,0:0:0:0:
176,308,101720,1,8,0:0:0:0:
208,264,101920,2,0,L|244:216,1,55,2|2,0:0|0:0,0:0:0:0:
276,176,102320,2,0,P|304:184|400:172,1,110,8|2,0:0|0:0,0:0:0:0:
360,72,103120,5,8,0:0:0:0:
308,52,103320,2,0,B|252:36|252:36|184:44,1,110,2|2,0:0|0:0,0:0:0:0:
172,88,103920,2,0,B|156:120|156:120|172:172|172:172|152:208,1,110,8|2,0:0|0:0,0:0:0:0:
140,240,104520,1,2,0:0:0:0:
172,284,104720,2,0,L|208:328,1,55,8|2,0:0|0:0,0:0:0:0:
304,276,105320,5,2,0:0:0:0:
324,224,105520,2,0,L|344:164,1,55,8|0,0:0|0:0,0:0:0:0:
348,116,105920,2,0,B|312:128|288:116|288:116|256:96|224:108,1,110,2|8,0:0|0:0,0:0:0:0:
196,136,106520,1,2,0:0:0:0:
156,176,106720,2,0,P|140:232|244:204,1,220,0|6,0:0|0:0,0:0:0:0:
268,160,107720,5,6,0:0:0:0:
320,140,107920,2,4,L|376:120,1,55,12|6,0:0|0:0,0:0:0:0:
424,104,108320,1,6,0:0:0:0:
452,56,108520,2,4,P|456:16|444:-16,1,55,6|12,0:0|0:0,0:0:0:0:
352,48,109120,6,0,P|280:60|236:36,1,110,2|12,0:0|0:0,0:0:0:0:
200,20,109720,2,0,P|152:16|128:24,1,55,2|2,0:0|0:0,0:0:0:0:
104,52,110120,1,2,0:0:0:0:
84,104,110320,2,0,B|64:128|72:152|72:152|84:188|60:212,1,110,8|2,0:0|0:0,0:0:0:0:
52,260,110920,2,0,L|56:320,1,55,2|8,0:0|0:0,0:0:0:0:
92,356,111320,1,2,0:0:0:0:
184,296,111720,6,0,L|244:284,1,55,2|8,0:0|0:0,0:0:0:0:
256,192,112320,12,0,115120,0:0:0:0:
144,196,115520,6,0,L|108:84,2,110,6|8|0,0:0|0:0|0:0,0:0:0:0:
228,268,116720,2,0,L|296:268,1,55,8|0,0:0|0:0,0:0:0:0:
332,288,117120,2,0,L|432:220,1,110,2|8,0:0|0:0,0:0:0:0:
432,172,117720,1,2,0:0:0:0:
408,64,118120,2,0,L|344:52,1,55,2|8,0:0|0:0,0:0:0:0:
256,104,118720,6,0,B|204:104|204:104|164:152|164:152|192:220|192:220|168:260,1,220
220,348,119920,6,0,L|288:356,1,55,8|0,0:0|0:0,0:0:0:0:
316,316,120320,2,0,L|416:272,1,110,2|8,0:0|0:0,0:0:0:0:
428,216,120920,1,2,0:0:0:0:
448,164,121120,2,0,L|476:112,2,55,2|2|8,0:0|0:0|0:0,0:0:0:0:
376,80,121920,6,0,B|336:92|296:80|296:80|316:112,1,110,6|8,0:0|0:0,0:0:0:0:
332,156,122520,1,2,0:0:0:0:
408,236,122920,2,0,L|388:300,1,55,2|8,0:0|0:0,0:0:0:0:
352,328,123320,1,0,0:0:0:0:
300,312,123520,2,0,P|264:288|192:292,1,110,6|8,0:0|0:0,0:0:0:0:
144,280,124120,2,0,L|176:212,1,55,2|0,0:0|0:0,0:0:0:0:
208,128,124720,5,8,0:0:0:0:
272,216,125120,2,0,P|324:200|292:332,1,275,2|2,0:0|0:0,0:0:0:0:
252,356,126320,6,0,L|196:360,1,55,8|0,0:0|0:0,0:0:0:0:
144,356,126720,2,0,B|92:344|92:344|52:288,1,110,2|8,0:0|0:0,0:0:0:0:
68,244,127320,1,2,0:0:0:0:
68,244,127520,1,2,0:0:0:0:
68,192,127720,2,0,L|84:132,1,55,2|8,0:0|0:0,0:0:0:0:
168,60,128320,6,0,B|208:60|240:100|240:100|260:104|276:84,1,110,6|8,0:0|0:0,0:0:0:0:
316,84,128920,1,2,0:0:0:0:
360,184,129320,1,2,0:0:0:0:
308,196,129520,2,0,B|260:196|244:232|244:232|216:240|200:212,1,110,8|2,0:0|0:0,0:0:0:0:
104,204,130320,6,0,L|76:144,2,55,8|2|0,0:0|0:0|0:0,0:0:0:0:
124,256,130920,1,2,0:0:0:0:
156,300,131120,2,0,B|196:336|196:336|272:336,1,110,8|2,0:0|0:0,0:0:0:0:
304,236,131920,6,0,L|328:172,1,55,8|2,0:0|0:0,0:0:0:0:
412,120,132520,2,0,L|404:40,1,55,2|8,0:0|0:0,0:0:0:0:
296,68,133120,6,0,L|320:8,2,55,2|0|8,0:0|0:0|0:0,0:0:0:0:
276,120,133720,2,0,P|236:148|164:120,1,110,2|2,0:0|0:0,0:0:0:0:
132,104,134320,1,8,0:0:0:0:
144,212,134720,6,0,B|172:240|172:240|176:272|176:272|204:304,2,110,6|8|0,0:0|0:0|0:0,0:0:0:0:
104,176,135720,2,0,B|88:152|88:152|80:112,1,55,2|8,0:0|0:0,0:0:0:0:
172,64,136320,2,0,P|208:80|292:52,1,110,2|8,0:0|0:0,0:0:0:0:
268,232,137320,2,0,L|292:168,1,55,2|8,0:0|0:0,0:0:0:0:
371,113,137920,2,0,P|335:85|259:65,1,110,2|8,0:0|0:0,0:0:0:0:
276,120,138520,2,0,P|216:104|168:112,1,110,2|2,0:0|0:0,0:0:0:0:
132,152,139120,1,8,0:0:0:0:
128,272,139520,6,0,B|156:256|192:280|192:280|216:288|248:264,1,110,2|8,0:0|0:0,0:0:0:0:
276,244,140120,2,0,P|304:224|328:220,1,55,2|2,0:0|0:0,0:0:0:0:
332,112,140720,2,0,B|276:124|244:108|244:108|260:136,1,110,8|4,0:0|0:0,0:0:0:0:
252,188,144120,5,2,0:0:0:0:
256,192,144320,1,2,0:0:0:0:
112,112,147520,5,2,0:0:0:0:
256,192,148120,2,0,L|256:252,1,55,2|2,0:0|0:0,0:0:0:0:
404,84,149120,1,2,0:0:0:0:
404,84,149720,2,0,L|404:144,1,55,2|2,0:0|0:0,0:0:0:0:
244,288,150720,6,0,B|204:280|144:308|144:308|68:328|32:260,1,220,2|2,0:0|0:0,0:0:0:0:
220,144,152320,2,0,B|256:124|320:160|320:160|380:184|440:128,2,220,2|2|2,0:0|0:0|0:0,0:0:0:0:
128,204,154320,6,0,L|72:224,2,55,8|2|2,0:0|0:0|0:0,0:0:0:0:
208,280,155120,2,0,L|328:252,1,110,8|2,0:0|0:0,0:0:0:0:
408,316,155920,2,0,L|476:328,2,55,8|2|2,0:0|0:0|0:0,0:0:0:0:
412,204,156720,2,0,B|404:168|404:168|424:132|424:132|412:80,2,110,8|2|8,0:0|0:0|0:0,0:0:0:0:
328,276,157920,6,0,B|280:296|280:296|204:280,1,110,2|8,0:0|0:0,0:0:0:0:
116,256,158720,1,2,0:0:0:0:
176,164,159120,2,0,L|236:180,2,55,8|2|2,0:0|0:0|0:0,0:0:0:0:
116,256,159920,1,8,0:0:0:0:
204,320,160320,6,0,P|240:312|328:336,1,110,2|8,0:0|0:0,0:0:0:0:
312,216,161120,2,0,P|260:224|200:212,1,110,2|8,0:0|0:0,0:0:0:0:
160,112,161920,1,2,0:0:0:0:
236,32,162320,2,0,P|260:28|304:40,2,55,8|2|2,0:0|0:0|0:0,0:0:0:0:
160,108,163120,6,0,L|156:220,1,110,8|2,0:0|0:0,0:0:0:0:
264,228,163920,2,0,L|280:300,2,55,8|2|2,0:0|0:0|0:0,0:0:0:0:
248,120,164720,2,0,B|276:104|304:120|304:120|336:132|372:96,1,110,8|2,0:0|0:0,0:0:0:0:
360,220,165520,2,0,L|376:280,2,55,8|2|2,0:0|0:0|0:0,0:0:0:0:
284,300,166320,6,0,L|176:276,1,110,8|2,0:0|0:0,0:0:0:0:
156,168,167120,2,0,L|116:120,2,55,8|2|2,0:0|0:0|0:0,0:0:0:0:
252,112,167920,1,8,0:0:0:0:
356,148,168320,1,2,0:0:0:0:
428,232,168720,2,0,L|488:204,2,55,8|2|2,0:0|0:0|0:0,0:0:0:0:
328,276,169520,6,0,B|292:292|292:292|248:276|248:276|204:288,1,110,8|2,0:0|0:0,0:0:0:0:
216,172,170320,2,0,L|240:116,2,55,8|2|2,0:0|0:0|0:0,0:0:0:0:
208,336,171320,6,0,P|248:340|268:332,2,55,2|2|2,0:0|0:0|0:0,0:0:0:0:
200,280,171920,1,2,0:0:0:0:
100,236,172320,2,0,P|92:172|120:124,1,110,2|2,0:0|0:0,0:0:0:0:
208,80,173120,6,0,P|268:64|332:60,1,110,6|8,0:0|0:0,0:0:0:0:
372,64,173720,1,2,0:0:0:0:
320,160,174120,2,0,P|288:176|268:208,1,55,2|8,0:0|0:0,0:0:0:0:
204,272,174720,6,0,P|252:272|300:328,1,110,2|8,0:0|0:0,0:0:0:0:
312,364,175320,1,2,0:0:0:0:
204,360,175720,2,0,P|156:352|140:328,1,55,2|8,0:0|0:0,0:0:0:0:
128,244,176320,6,0,B|100:200|100:200|124:176|124:176|96:132|96:132|132:104|132:104|104:52,1,220,2|0,0:0|0:0,0:0:0:0:
224,76,177520,1,8,0:0:0:0:
224,76,177720,1,0,0:0:0:0:
236,128,177920,2,0,B|220:168|220:168|232:200|232:200|212:244,1,110,2|8,0:0|0:0,0:0:0:0:
204,284,178520,2,0,L|224:340,2,55,2|2|2,0:0|0:0|0:0,0:0:0:0:
260,284,179120,1,8,0:0:0:0:
268,176,179520,6,0,B|256:72|352:76|352:76|376:140|464:140|492:84,1,330,6|8,0:0|0:0,0:0:0:0:
480,196,181120,2,0,P|468:236|480:328,1,110,2|8,0:0|0:0,0:0:0:0:
424,332,181720,2,0,P|380:312|264:324,1,165,2|8,0:0|0:0,0:0:0:0:
184,248,182720,5,2,0:0:0:0:
144,212,182920,2,0,B|111:180|115:140|115:140|68:128|72:76|72:76,1,165
104,32,183720,2,0,P|132:24|172:32,1,55,2|8,0:0|0:0,0:0:0:0:
264,48,184320,2,0,B|312:88|376:64,1,110,2|8,0:0|0:0,0:0:0:0:
256,192,185120,12,0,189520,0:0:0:0:
108,92,190320,6,0,L|176:64,1,55,8|0,0:0|0:0,0:0:0:0:
208,96,190720,2,0,P|220:120|312:132,1,110,2|8,0:0|0:0,0:0:0:0:
348,124,191320,1,2,0:0:0:0:
368,176,191520,2,0,L|400:288,1,110,2|8,0:0|0:0,0:0:0:0:
292,308,192320,6,0,P|340:288|400:280,2,110,6|8|0,0:0|0:0|0:0,0:0:0:0:
240,328,193320,2,0,P|204:324|180:308,1,55,2|8,0:0|0:0,0:0:0:0:
176,204,193920,2,0,B|208:208|228:228|228:228|252:200|288:192,1,110,2|8,0:0|0:0,0:0:0:0:
324,200,194520,1,2,0:0:0:0:
308,92,194920,2,0,L|232:72,1,55,2|8,0:0|0:0,0:0:0:0:
152,116,195520,6,0,B|104:128|104:128|112:172|112:172|68:200|68:200|76:244|76:244|64:292,1,220,2|8,0:0|0:0,0:0:0:0:
180,256,196720,1,0,0:0:0:0:
276,312,197120,2,0,B|304:276|288:236|288:236|320:248,1,110,2|8,0:0|0:0,0:0:0:0:
368,260,197720,2,0,L|432:280,1,55,2|2,0:0|0:0,0:0:0:0:
424,332,198120,2,0,L|488:324,1,55,2|8,0:0|0:0,0:0:0:0:
468,216,198720,6,0,B|444:164|472:104|472:104|416:132,1,165,6|2,0:0|0:0,0:0:0:0:
328,172,199720,2,0,L|316:100,1,55,2|8,0:0|0:0,0:0:0:0:
220,72,200320,5,2,0:0:0:0:
216,180,200720,2,0,L|208:236,1,55,8|2,0:0|0:0,0:0:0:0:
128,312,201320,2,0,L|96:260,1,55,2|8,0:0|0:0,0:0:0:0:
100,156,201920,6,0,B|92:128|92:128|140:132|172:104,1,110,2|8,0:0|0:0,0:0:0:0:
216,84,202520,2,0,P|272:68|328:92,1,110,2|2,0:0|0:0,0:0:0:0:
360,120,203120,1,8,0:0:0:0:
360,232,203520,6,0,L|352:288,1,55,2|2,0:0|0:0,0:0:0:0:
252,328,204120,2,0,P|200:344|144:304,1,110,2|2,0:0|0:0,0:0:0:0:
128,268,204720,1,8,0:0:0:0:
80,168,205120,6,0,B|80:136|48:88|48:88|84:92,1,110,6|8,0:0|0:0,0:0:0:0:
124,96,205720,1,2,0:0:0:0:
184,188,206120,2,0,L|236:156,1,55,2|8,0:0|0:0,0:0:0:0:
328,108,206720,6,0,P|372:96|432:128,1,110,2|8,0:0|0:0,0:0:0:0:
448,176,207320,1,2,0:0:0:0:
364,244,207720,2,0,L|368:184,1,55,2|8,0:0|0:0,0:0:0:0:
288,116,208320,2,0,B|240:144|240:144|200:116|200:116|156:128|156:128|124:100|124:100|84:116,1,220,2|2,0:0|0:0,0:0:0:0:
140,212,209520,1,8,0:0:0:0:
36,176,209920,6,0,P|16:244|16:300,1,110,2|8,0:0|0:0,0:0:0:0:
48,324,210520,1,2,0:0:0:0:
100,348,210720,2,0,P|132:324|212:320,1,110,2|8,0:0|0:0,0:0:0:0:
