osu file format v14

[General]
AudioFilename: audio.mp3
AudioLeadIn: 0
PreviewTime: 115320
Countdown: 0
SampleSet: Soft
StackLeniency: 0.7
Mode: 0
LetterboxInBreaks: 0
EpilepsyWarning: 1
WidescreenStoryboard: 1

[Editor]
Bookmarks: 166850
DistanceSpacing: 1
BeatDivisor: 4
GridSize: 4
TimelineZoom: 1.4

[Metadata]
Title:What The Hell
TitleUnicode:What The Hell
Artist:Avril Lavigne
ArtistUnicode:Avril Lavigne
Creator:5Atarox
Version:Insane
Source:
Tags:English,Pop,goodbye lullaby
BeatmapID:1346193
BeatmapSetID:634451

[Difficulty]
HPDrainRate:7
CircleSize:4
OverallDifficulty:7
ApproachRate:8
SliderMultiplier:1.8
SliderTickRate:1

[Events]
//Background and Video events
0,0,"Whatthehellok.jpg",0,0
//Break Periods
2,70520,75550
2,141320,142950
2,144520,146350
//Storyboard Layer 0 (Background)
//Storyboard Layer 1 (Fail)
//Storyboard Layer 2 (Pass)
//Storyboard Layer 3 (Foreground)
//Storyboard Sound Samples

[TimingPoints]
320,400,4,2,2,100,1,0
4990,-125,4,2,2,75,0,0
5040,-125,4,2,2,75,0,0
5090,-125,4,2,1,75,0,0
6690,-125,4,2,1,75,0,0
9890,-142.857142857143,4,2,1,75,0,0
11290,-111.111111111111,4,2,1,75,0,0
16120,-142.857142857143,4,2,1,75,0,0
17320,-111.111111111111,4,2,1,75,0,0
43320,-111.111111111111,4,2,1,80,0,0
43520,-111.111111111111,4,2,1,85,0,0
43720,-111.111111111111,4,2,1,90,0,0
43920,-111.111111111111,4,2,1,100,0,0
45120,-99.9999999999999,4,2,3,75,0,1
45520,-99.9999999999999,4,2,1,75,0,1
49920,-142.857142857143,4,2,1,75,0,1
50520,-100,4,2,1,75,0,1
51120,-100,4,2,1,75,0,1
51520,-100,4,2,3,75,0,1
51720,-100,4,2,1,75,0,1
57920,-100,4,2,3,75,0,1
58520,-100,4,2,1,75,0,1
64320,-100,4,2,3,75,0,1
64920,-100,4,2,1,75,0,1
70320,-100,4,2,1,75,0,0
76720,-125,4,2,1,75,0,0
100320,-200,4,2,1,75,0,0
102320,-200,4,2,2,75,0,0
103120,-125,4,2,1,75,0,0
113520,-125,4,2,1,80,0,0
113720,-125,4,2,1,85,0,0
113920,-125,4,2,1,90,0,0
114120,-125,4,2,1,95,0,0
114320,-125,4,2,1,100,0,0
115520,-100,4,2,3,75,0,1
115920,-100,4,2,1,75,0,1
121920,-100,4,2,3,75,0,1
122320,-100,4,2,1,75,0,1
128320,-100,4,2,3,75,0,1
128720,-100,4,2,1,75,0,1
134720,-100,4,2,3,75,0,1
135320,-100,4,2,1,75,0,1
141120,-100,4,2,2,75,0,0
143920,-100,4,2,1,75,0,0
144720,-100,4,2,1,75,0,0
147520,-166.666666666667,4,2,4,75,0,0
160320,-142.857142857143,4,2,4,75,0,0
171320,-142.857142857143,4,2,0,75,0,0
172320,-100,4,2,2,75,0,0
173120,-100,4,2,3,75,0,1
173520,-100,4,2,1,75,0,1
179520,-100,4,2,2,75,0,1
179920,-100,4,2,1,75,0,1
185120,-100,4,2,5,75,0,1
185920,-100,4,2,2,75,0,1
186290,-100,4,2,1,75,0,1
192320,-100,4,2,2,75,0,1
192720,-100,4,2,1,75,0,1
198720,-100,4,2,2,75,0,1
199120,-100,4,2,1,75,0,1
205120,-100,4,2,2,75,0,1
205520,-100,4,2,1,75,0,1
211520,-100,4,2,1,75,0,0

[Colours]
Combo1 : 160,131,152
Combo2 : 248,228,97
Combo3 : 219,149,4
Combo4 : 129,82,124

[HitObjects]
248,184,5120,5,4,0:0:0:0:
181,210,5320,2,4,P|175:174|183:139,1,72
200,64,5720,1,4,0:0:0:0:
266,37,5920,2,4,P|271:72|263:107,1,72
263,107,6320,1,4,0:0:0:0:
400,56,6720,6,0,B|368:88|384:124|384:124|408:172|372:212,1,144,2|8,0:0|0:0,0:0:0:0:
316,156,7320,1,2,0:0:0:0:
212,56,7720,1,2,0:0:0:0:
140,56,7920,2,0,P|112:60|68:104,1,72,8|0,0:0|0:0,0:0:0:0:
140,128,8320,5,2,0:0:0:0:
204,224,8520,1,2,0:0:0:0:
136,200,8720,1,8,0:0:0:0:
208,108,8920,1,2,0:0:0:0:
248,169,9120,1,0,0:0:0:0:
272,72,9320,2,0,L|320:140,1,72,2|8,0:0|0:0,0:0:0:0:
340,196,9720,1,0,0:0:0:0:
238,206,9920,6,0,P|226:258|326:186,1,314.999990386963,2|2,0:0|0:0,0:0:0:0:
336,124,11120,1,8,0:0:0:0:
408,100,11320,5,0,0:0:0:0:
408,100,11520,1,6,0:0:0:0:
460,160,11720,2,4,P|476:216|476:256,1,80.9999975280763,6|12,0:0|0:0,0:0:0:0:
400,216,12120,1,6,0:0:0:0:
324,192,12320,1,6,0:0:0:0:
248,224,12520,2,4,P|180:244|152:240,2,80.9999975280763,6|12|0,0:0|0:0|0:0,0:0:0:0:
144,120,13120,6,0,P|116:72|192:88,1,161.999995056153,2|8,0:0|0:0,0:0:0:0:
244,132,13720,1,2,0:0:0:0:
320,164,13920,1,0,0:0:0:0:
396,136,14120,1,2,0:0:0:0:
388,248,14320,6,0,L|496:236,2,80.9999975280763,8|0|2,0:0|0:0|0:0,0:0:0:0:
308,268,14920,1,2,0:0:0:0:
252,208,15120,1,8,0:0:0:0:
276,132,15320,2,0,P|212:124|152:36,1,161.999995056153,2|2,0:0|0:0,0:0:0:0:
88,96,15920,1,8,0:0:0:0:
88,96,16120,1,0,0:0:0:0:
92,168,16320,6,0,P|104:236|132:312,1,125.999996154785,2|8,0:0|0:0,0:0:0:0:
208,316,16920,2,0,P|248:284|260:252,1,62.9999980773926
264,196,17320,1,2,0:0:0:0:
264,196,17520,2,0,P|312:200|344:236,1,80.9999975280763,8|0,0:0|0:0,0:0:0:0:
335,220,17920,5,6,0:0:0:0:
483,304,18120,1,6,0:0:0:0:
395,180,18320,1,12,0:0:0:0:
423,352,18520,1,6,0:0:0:0:
467,200,18720,1,6,0:0:0:0:
355,324,18920,1,6,0:0:0:0:
411,264,19120,5,12,0:0:0:0:
248,272,19520,6,0,B|200:256|160:268|160:268|112:288|60:260,1,161.999995056153,2|8,0:0|0:0,0:0:0:0:
128,196,20120,1,2,0:0:0:0:
148,352,20320,1,0,0:0:0:0:
228,352,20520,2,0,P|280:348|316:312,1,80.9999975280763,2|8,0:0|0:0,0:0:0:0:
288,252,20920,5,0,0:0:0:0:
288,252,21120,2,0,L|236:176,1,80.9999975280763,2|2,0:0|0:0,0:0:0:0:
320,156,21520,2,0,L|296:68,1,80.9999975280763,8|2,0:0|0:0,0:0:0:0:
224,52,21920,1,0,0:0:0:0:
140,40,22120,2,0,P|88:32|36:40,1,80.9999975280763,2|8,0:0|0:0,0:0:0:0:
256,192,22520,12,8,23920,0:0:0:0:
128,92,24320,5,6,0:0:0:0:
128,92,24520,2,4,L|168:168,1,80.9999975280763,4|12,0:0|0:0,0:0:0:0:
312,232,24920,2,4,L|256:140,1,80.9999975280763,6|6,0:0|0:0,0:0:0:0:
304,8,25320,2,4,L|356:96,1,80.9999975280763,6|12,0:0|0:0,0:0:0:0:
388,144,25720,5,0,0:0:0:0:
324,320,25920,1,2,0:0:0:0:
324,320,26320,2,0,L|244:292,1,80.9999975280763,8|2,0:0|0:0,0:0:0:0:
276,216,26720,1,0,0:0:0:0:
312,144,26920,1,2,0:0:0:0:
256,84,27120,1,8,0:0:0:0:
76,52,27520,5,2,0:0:0:0:
224,152,27720,1,0,0:0:0:0:
48,140,27920,1,8,0:0:0:0:
200,40,28120,1,2,0:0:0:0:
116,180,28320,2,0,P|80:220|48:216,1,80.9999975280763,0|2,0:0|0:0,0:0:0:0:
64,308,28720,2,0,L|228:280,1,161.999995056153,8|2,0:0|0:0,0:0:0:0:
304,264,29320,1,0,0:0:0:0:
148,176,29520,5,8,0:0:0:0:
204,128,29720,2,0,P|248:120|296:144,1,80.9999975280763,2|0,0:0|0:0,0:0:0:0:
240,200,30120,1,2,0:0:0:0:
392,100,30320,1,8,0:0:0:0:
428,240,30520,6,0,P|380:252|348:236,1,80.9999975280763,0|6,0:0|0:0,0:0:0:0:
204,128,30920,2,4,P|236:116|288:136,1,80.9999975280763,6|12,0:0|0:0,0:0:0:0:
248,292,31320,2,4,P|232:244|256:208,1,80.9999975280763,6|6,0:0|0:0,0:0:0:0:
372,84,31720,2,0,P|384:140|364:172,1,80.9999975280763,6|12,0:0|0:0,0:0:0:0:
140,324,32320,6,0,L|232:292,1,80.9999975280763,2|0,0:0|0:0,0:0:0:0:
320,164,32720,2,0,L|224:172,1,80.9999975280763,8|2,0:0|0:0,0:0:0:0:
380,228,33120,1,0,0:0:0:0:
460,208,33320,2,0,L|472:96,1,80.9999975280763,2|8,0:0|0:0,0:0:0:0:
404,72,33920,6,0,B|360:60|328:76|328:76|276:100|228:72,1,161.999995056153,2|8,0:0|0:0,0:0:0:0:
176,44,34520,1,2,0:0:0:0:
124,104,34720,2,0,P|104:168|148:256,1,161.999995056153,0|8,0:0|0:0,0:0:0:0:
188,184,35320,5,0,0:0:0:0:
252,136,35520,2,0,B|284:168|272:212|272:212|316:184|364:192,1,161.999995056153,2|8,0:0|0:0,0:0:0:0:
344,272,36120,1,2,0:0:0:0:
344,116,36320,2,0,P|404:136|412:232,2,161.999995056153,0|8|6,0:0|0:0|0:0,0:0:0:0:
340,196,37320,5,6,0:0:0:0:
148,164,37520,1,12,0:0:0:0:
316,60,37720,1,6,0:0:0:0:
240,248,37920,1,6,0:0:0:0:
192,52,38120,1,6,0:0:0:0:
340,196,38320,1,12,0:0:0:0:
300,268,38520,5,0,0:0:0:0:
256,336,38720,2,0,P|224:292|224:244,1,80.9999975280763,2|0,0:0|0:0,0:0:0:0:
160,104,39120,2,0,P|184:72|224:52,1,80.9999975280763,8|2,0:0|0:0,0:0:0:0:
292,36,39520,1,0,0:0:0:0:
368,60,39720,5,2,0:0:0:0:
368,60,39920,2,0,B|380:112|380:112|424:144|424:144|444:204,1,161.999995056153,8|2,0:0|0:0,0:0:0:0:
220,272,40520,1,2,0:0:0:0:
280,216,40720,2,0,B|312:192|312:192|388:196,1,80.9999975280763,8|2,0:0|0:0,0:0:0:0:
288,320,41120,2,0,B|256:352|256:352|204:352,1,80.9999975280763,0|2,0:0|0:0,0:0:0:0:
148,312,41520,2,0,B|124:232|124:232|144:156,1,161.999995056153,8|2,0:0|0:0,0:0:0:0:
176,80,42120,1,0,0:0:0:0:
256,192,42320,12,0,44720,0:0:0:0:
200,156,45120,6,0,P|176:112|252:140,1,180,6|0,0:0|0:0,0:0:0:0:
400,116,45720,2,0,P|384:176|356:204,1,90,2|0,0:0|0:0,0:0:0:0:
200,156,46120,1,2,0:0:0:0:
248,288,46320,2,0,B|292:268|340:292|340:292|384:308|424:268,1,180,8|2,0:0|0:0,0:0:0:0:
360,204,46920,1,0,0:0:0:0:
272,368,47120,6,0,B|196:384|168:316|168:316,1,90,8|2,0:0|0:0,0:0:0:0:
116,132,47520,2,0,P|148:100|152:184,1,180,0|8,0:0|0:0,0:0:0:0:
100,244,48120,1,0,0:0:0:0:
184,272,48320,2,0,P|256:288|276:272,1,90,2|0,0:0|0:0,0:0:0:0:
404,232,48720,2,0,P|364:212|316:224,2,90,8|2|0,0:0|0:0|0:0,0:0:0:0:
440,120,49320,6,0,L|368:60,1,90,2|8,0:0|0:0,0:0:0:0:
284,84,49720,1,0,0:0:0:0:
196,76,49920,2,0,P|208:132|264:168,1,125.999996154785,2|8,0:0|0:0,0:0:0:0:
352,180,50520,1,2,0:0:0:0:
408,60,50720,1,0,0:0:0:0:
408,60,50920,1,2,0:0:0:0:
444,140,51120,2,0,P|460:184|440:244,1,90,8|0,0:0|0:0,0:0:0:0:
316,152,51520,6,0,P|296:196|372:164,1,180,6|8,0:0|0:0,0:0:0:0:
380,92,52120,1,2,0:0:0:0:
292,76,52320,1,0,0:0:0:0:
292,76,52520,1,2,0:0:0:0:
60,96,52720,6,0,B|60:152|60:152|96:208|96:208|96:268,1,180,8|2,0:0|0:0,0:0:0:0:
148,132,53320,1,0,0:0:0:0:
164,320,53520,1,8,0:0:0:0:
208,192,53720,2,0,P|252:176|216:252,1,180,2|2,0:0|0:0,0:0:0:0:
344,124,54320,2,0,B|368:160|368:160|436:176|436:176|472:240,1,180,8|2,0:0|0:0,0:0:0:0:
380,256,54920,5,0,0:0:0:0:
432,88,55120,1,8,0:0:0:0:
292,188,55320,1,2,0:0:0:0:
324,24,55520,1,0,0:0:0:0:
200,140,55720,1,0,0:0:0:0:
176,224,55920,6,0,P|128:200|124:156,1,90,8|0,0:0|0:0,0:0:0:0:
296,240,56320,2,0,B|344:224|384:256|384:256|440:284|476:252,1,180,2|8,0:0|0:0,0:0:0:0:
448,36,56920,1,2,0:0:0:0:
448,36,57120,1,2,0:0:0:0:
312,160,57320,1,2,0:0:0:0:
496,132,57520,1,8,0:0:0:0:
164,96,57920,6,0,P|124:160|100:84,1,180,6|8,0:0|0:0,0:0:0:0:
272,128,58520,1,2,0:0:0:0:
180,244,58720,1,0,0:0:0:0:
272,128,58920,1,2,0:0:0:0:
272,276,59120,6,0,B|360:288|376:212|376:212|420:264,1,180,8|2,0:0|0:0,0:0:0:0:
392,336,59720,1,0,0:0:0:0:
292,196,59920,1,8,0:0:0:0:
292,196,60120,2,0,P|232:132|216:184,1,180,2|2,0:0|0:0,0:0:0:0:
328,56,60720,2,0,P|364:92|376:224,1,180,8|2,0:0|0:0,0:0:0:0:
320,284,61320,5,2,0:0:0:0:
156,248,61520,1,8,0:0:0:0:
292,196,61720,2,0,P|284:132|220:192,1,180,2|2,0:0|0:0,0:0:0:0:
136,128,62320,2,0,P|180:64|212:48,1,90,8|0,0:0|0:0,0:0:0:0:
276,36,62720,5,2,0:0:0:0:
276,36,62920,1,2,0:0:0:0:
416,76,63320,2,0,P|392:136|448:232,1,180,2|2,0:0|0:0,0:0:0:0:
428,320,63920,2,0,P|376:316|308:332,1,90,8|0,0:0|0:0,0:0:0:0:
224,276,64320,6,0,B|176:240|196:188|196:188|216:136|160:108,1,180,6|8,0:0|0:0,0:0:0:0:
284,216,64920,1,2,0:0:0:0:
112,168,65120,1,0,0:0:0:0:
284,216,65320,1,2,0:0:0:0:
112,168,65520,2,0,P|100:100|128:64,1,90,8|0,0:0|0:0,0:0:0:0:
332,36,65920,2,0,P|228:76|212:156,1,180,2|8,0:0|0:0,0:0:0:0:
300,120,66520,6,0,P|292:172|260:200,1,90,2|0,0:0|0:0,0:0:0:0:
220,272,66920,1,2,0:0:0:0:
276,344,67120,2,0,P|328:340|376:284,1,90,8|0,0:0|0:0,0:0:0:0:
368,232,67520,5,2,0:0:0:0:
218,53,67720,1,0,0:0:0:0:
296,272,67920,1,8,0:0:0:0:
297,39,68120,1,2,0:0:0:0:
218,258,68320,1,0,0:0:0:0:
368,79,68520,1,2,0:0:0:0:
166,196,68720,1,8,0:0:0:0:
395,155,68920,1,0,0:0:0:0:
165,115,69120,1,2,0:0:0:0:
312,320,69520,6,0,P|368:328|420:292,1,90,8|2,0:0|0:0,0:0:0:0:
184,256,69920,2,0,P|140:246|98:260,1,90,2|2,0:0|0:0,0:0:0:0:
348,248,70320,1,8,0:0:0:0:
268,204,76720,6,0,P|244:148|208:208,1,144,0|2,0:0|0:0,0:0:0:0:
216,260,77320,1,0,0:0:0:0:
284,280,77520,2,0,L|344:340,1,72,8|0,0:0|0:0,0:0:0:0:
368,224,77920,2,0,L|464:188,1,72,0|2,0:0|0:0,0:0:0:0:
417,59,78320,6,0,B|441:127|441:127|433:227,1,144,8|2,0:0|0:0,0:0:0:0:
264,232,78920,1,0,0:0:0:0:
408,288,79120,1,8,0:0:0:0:
264,232,79320,1,0,0:0:0:0:
248,160,79520,2,0,P|300:168|328:200,1,72,0|2,0:0|0:0,0:0:0:0:
416,368,79920,2,0,P|368:356|340:324,1,72,8|0,0:0|0:0,0:0:0:0:
444,216,80320,6,0,P|420:288|388:244,1,144,2|8,0:0|0:0,0:0:0:0:
364,200,80920,1,2,0:0:0:0:
364,128,81120,2,0,P|356:80|328:56,1,72,0|2,0:0|0:0,0:0:0:0:
288,116,81520,1,8,0:0:0:0:
252,256,81920,5,6,0:0:0:0:
96,188,82120,2,4,L|20:212,1,72,6|12,0:0|0:0,0:0:0:0:
220,80,82520,2,4,L|296:52,1,72,6|6,0:0|0:0,0:0:0:0:
72,48,82920,2,4,L|-12:72,1,72,6|12,0:0|0:0,0:0:0:0:
208,44,83320,5,0,0:0:0:0:
372,112,83520,1,2,0:0:0:0:
372,112,83920,2,0,L|376:188,1,72,8|2,0:0|0:0,0:0:0:0:
380,256,84320,1,0,0:0:0:0:
224,216,84520,1,2,0:0:0:0:
204,312,84720,6,0,B|260:320|296:288|296:288|304:312|336:328,1,144,8|2,0:0|0:0,0:0:0:0:
224,216,85320,1,2,0:0:0:0:
224,216,85520,2,0,B|172:216|144:256,1,72,8|2,0:0|0:0,0:0:0:0:
128,304,85920,1,0,0:0:0:0:
216,144,86120,1,2,0:0:0:0:
272,96,86320,2,0,P|324:84|296:152,1,144,8|2,0:0|0:0,0:0:0:0:
248,180,86920,5,0,0:0:0:0:
136,80,87120,1,8,0:0:0:0:
56,120,87320,2,0,B|76:160|116:168|116:168|160:176|184:224,1,144,0|2,0:0|0:0,0:0:0:0:
112,244,87920,1,8,0:0:0:0:
248,276,88120,6,0,B|220:292|220:292|164:276,1,72,0|6,0:0|0:0,0:0:0:0:
200,152,88520,2,4,B|232:132|232:132|263:146,1,72,6|12,0:0|0:0,0:0:0:0:
396,232,88920,2,4,B|428:236|428:236|480:200,1,72,6|6,0:0|0:0,0:0:0:0:
468,52,89320,2,4,B|436:46|436:46|404:70,1,72,6|12,0:0|0:0,0:0:0:0:
352,120,89720,5,0,0:0:0:0:
452,284,89920,1,2,0:0:0:0:
452,284,90320,2,0,L|452:356,1,72,8|2,0:0|0:0,0:0:0:0:
372,324,90720,2,0,P|332:308|232:328,1,144,0|8,0:0|0:0,0:0:0:0:
168,296,91320,5,0,0:0:0:0:
112,248,91520,2,0,P|84:204|92:176,1,72,2|0,0:0|0:0,0:0:0:0:
160,192,91920,2,0,B|200:168|208:140|208:140,1,72,8|2,0:0|0:0,0:0:0:0:
340,64,92320,5,0,0:0:0:0:
428,204,92520,1,0,0:0:0:0:
380,136,92720,2,0,B|344:164|344:164|332:220|332:220|288:252,1,144,8|2,0:0|0:0,0:0:0:0:
256,164,93320,1,0,0:0:0:0:
424,208,93520,1,8,0:0:0:0:
348,300,93720,2,0,B|300:340|240:308|240:308|200:332,1,144,0|2,0:0|0:0,0:0:0:0:
215,322,94320,1,8,0:0:0:0:
360,144,94720,5,6,0:0:0:0:
360,144,94920,1,6,0:0:0:0:
200,112,95120,2,0,L|244:188,1,72,12|6,0:0|0:0,0:0:0:0:
192,28,95520,1,6,0:0:0:0:
192,28,95720,1,6,0:0:0:0:
312,36,95920,2,0,L|280:128,1,72,12|0,0:0|0:0,0:0:0:0:
280,264,96320,6,0,B|336:256|336:256|368:280|368:280|432:272,1,144,2|8,0:0|0:0,0:0:0:0:
320,104,96920,1,2,0:0:0:0:
284,168,97120,1,0,0:0:0:0:
304,340,97320,1,2,0:0:0:0:
192,248,97520,1,8,0:0:0:0:
192,248,97920,6,0,P|168:176|176:168,1,72,2|0,0:0|0:0,0:0:0:0:
272,224,98320,2,0,P|288:272|256:296,1,72,8|2,0:0|0:0,0:0:0:0:
232,160,98720,2,0,P|264:136|304:160,1,72,0|2,0:0|0:0,0:0:0:0:
376,96,99120,1,8,0:0:0:0:
392,128,99520,1,2,0:0:0:0:
416,240,99920,5,8,0:0:0:0:
416,240,100120,1,8,0:0:0:0:
464,304,100320,2,0,L|424:344,1,45,2|2,0:0|0:0,0:0:0:0:
360,320,100720,2,0,L|256:304,1,90,8|2,0:0|0:0,0:0:0:0:
200,288,101320,1,2,0:0:0:0:
212,212,101520,6,0,L|164:188,1,45,8|8,0:0|0:0,0:0:0:0:
104,156,101920,1,2,0:0:0:0:
104,156,102120,1,2,0:0:0:0:
60,88,102320,2,0,P|92:72|148:96,1,90,6|0,0:0|0:0,0:0:0:0:
279,46,103120,5,8,0:0:0:0:
432,64,103320,1,2,0:0:0:0:
432,136,103520,2,0,L|344:168,1,72,0|2,0:0|0:0,0:0:0:0:
236,236,103920,2,0,L|372:304,1,144,8|2,0:0|0:0,0:0:0:0:
244,340,104520,5,2,0:0:0:0:
164,280,104720,2,0,P|148:236|164:204,1,72,8|2,0:0|0:0,0:0:0:0:
116,148,105120,2,0,B|168:116|212:156|212:156|260:116,1,144,0|8,0:0|0:0,0:0:0:0:
284,72,105720,1,0,0:0:0:0:
356,68,105920,6,0,B|368:112|328:140|328:140|344:204,1,144,2|8,0:0|0:0,0:0:0:0:
416,272,106520,2,0,L|436:200,2,72,2|0|2,0:0|0:0|0:0,0:0:0:0:
296,328,107120,2,0,B|252:320|252:320|220:280|220:280|164:272,1,144,8|6,0:0|0:0,0:0:0:0:
168,356,107720,5,6,0:0:0:0:
304,252,107920,1,12,0:0:0:0:
168,356,108120,1,6,0:0:0:0:
184,204,108320,1,6,0:0:0:0:
168,356,108520,1,6,0:0:0:0:
100,224,108720,2,0,B|80:192|104:152|104:152|76:112|108:80,1,144,8|2,0:0|0:0,0:0:0:0:
244,96,109520,6,0,L|324:72,1,72,8|2,0:0|0:0,0:0:0:0:
412,108,109920,1,0,0:0:0:0:
296,188,110120,1,2,0:0:0:0:
352,260,110320,2,0,B|396:240|404:204|404:204|452:208|484:168,1,144,8|2,0:0|0:0,0:0:0:0:
460,296,110920,5,2,0:0:0:0:
304,352,111120,2,0,L|388:340,1,72,8|2,0:0|0:0,0:0:0:0:
220,276,111520,2,0,L|148:232,1,72,0|2,0:0|0:0,0:0:0:0:
96,296,111920,1,8,0:0:0:0:
276,196,112120,1,0,0:0:0:0:
256,192,112320,12,0,115120,0:0:0:0:
120,80,115520,6,0,P|172:80|208:48,1,90,6|0,0:0|0:0,0:0:0:0:
108,232,115920,2,0,P|136:300|168:320,1,90,8|2,0:0|0:0,0:0:0:0:
300,148,116320,2,0,P|236:188|224:212,1,90,0|2,0:0|0:0,0:0:0:0:
316,228,116720,2,0,P|340:276|396:204,2,180,8|2|8,0:0|0:0|0:0,0:0:0:0:
300,60,117720,5,2,0:0:0:0:
228,192,117920,1,2,0:0:0:0:
300,60,118120,1,2,0:0:0:0:
300,60,118320,2,0,B|212:80|212:80|120:48,1,180,8|2,0:0|0:0,0:0:0:0:
96,160,118920,6,0,P|104:216|136:240,1,90,0|8,0:0|0:0,0:0:0:0:
292,292,119320,2,0,P|283:248|252:210,1,90,2|0,0:0|0:0,0:0:0:0:
204,280,119720,1,2,0:0:0:0:
184,168,119920,2,0,P|232:128|284:132,1,90,8|0,0:0|0:0,0:0:0:0:
328,72,120320,2,0,B|364:120|344:168|344:168|332:220|372:244,1,180,2|8,0:0|0:0,0:0:0:0:
432,204,120920,5,2,0:0:0:0:
448,292,121120,2,0,L|376:352,1,90,2|2,0:0|0:0,0:0:0:0:
207,293,121520,2,0,L|296:312,1,90,8|0,0:0|0:0,0:0:0:0:
144,232,121920,6,0,P|104:176|184:200,1,180,6|8,0:0|0:0,0:0:0:0:
256,228,122520,1,2,0:0:0:0:
292,144,122720,1,0,0:0:0:0:
340,220,122920,1,2,0:0:0:0:
224,96,123120,2,0,B|192:72|192:72|112:64,2,90,8|0|2,0:0|0:0|0:0,0:0:0:0:
300,148,123720,5,0,0:0:0:0:
300,148,123920,2,0,P|356:160|392:148,1,90,8|2,0:0|0:0,0:0:0:0:
424,68,124320,1,0,0:0:0:0:
376,4,124520,2,0,P|352:32|352:96,1,90,2|8,0:0|0:0,0:0:0:0:
368,164,124920,1,0,0:0:0:0:
368,164,125120,5,2,0:0:0:0:
432,344,125320,1,0,0:0:0:0:
264,248,125520,1,8,0:0:0:0:
468,264,125720,1,2,0:0:0:0:
336,120,125920,1,0,0:0:0:0:
240,264,126120,5,2,0:0:0:0:
240,264,126320,2,0,L|160:208,1,90,8|0,0:0|0:0,0:0:0:0:
292,180,126720,2,0,B|340:212|340:212|368:268|368:268|424:304,1,180,2|8,0:0|0:0,0:0:0:0:
436,212,127320,1,2,0:0:0:0:
436,212,127520,1,2,0:0:0:0:
240,264,127720,2,0,L|156:204,1,90,2|8,0:0|0:0,0:0:0:0:
304,96,128320,6,2,P|348:64|356:148,1,180,6|8,0:0|0:0,0:0:0:0:
204,160,128920,2,0,P|180:204|188:252,1,90,2|0,0:0|0:0,0:0:0:0:
212,320,129320,2,0,P|140:312|120:288,2,90,2|8|0,0:0|0:0|0:0,0:0:0:0:
324,220,129920,5,2,0:0:0:0:
240,172,130120,1,0,0:0:0:0:
384,164,130320,1,8,0:0:0:0:
164,124,130520,2,0,P|156:68|228:116,1,180,2|2,0:0|0:0,0:0:0:0:
76,32,131120,2,0,P|64:96|112:200,1,180,8|2,0:0|0:0,0:0:0:0:
320,176,131720,5,0,0:0:0:0:
172,292,131920,1,8,0:0:0:0:
328,336,132120,2,0,P|352:280|268:288,1,180,2|2,0:0|0:0,0:0:0:0:
420,244,132720,2,0,P|364:188|332:180,1,90,8|0,0:0|0:0,0:0:0:0:
272,136,133120,5,2,0:0:0:0:
272,136,133320,1,2,0:0:0:0:
96,152,133520,2,0,L|108:244,1,90,8|2,0:0|0:0,0:0:0:0:
184,112,133920,1,2,0:0:0:0:
220,288,134120,2,0,L|236:164,1,90,2|8,0:0|0:0,0:0:0:0:
448,116,134720,6,0,B|404:88|360:104|360:104|320:132|256:88,1,180,6|8,0:0|0:0,0:0:0:0:
204,44,135320,1,2,0:0:0:0:
204,44,135520,1,0,0:0:0:0:
296,208,135720,1,2,0:0:0:0:
120,164,135920,2,0,P|184:160|224:192,1,90,8|0,0:0|0:0,0:0:0:0:
152,240,136320,2,0,L|188:64,1,180,2|8,0:0|0:0,0:0:0:0:
268,20,136920,5,2,0:0:0:0:
340,120,137120,1,0,0:0:0:0:
196,180,137320,1,2,0:0:0:0:
372,32,137520,2,0,B|420:80|420:80|476:84|476:84|520:136,1,180,8|2,0:0|0:0,0:0:0:0:
432,172,138120,5,0,0:0:0:0:
300,136,138320,1,8,0:0:0:0:
452,300,138520,5,2,0:0:0:0:
352,380,138720,1,0,0:0:0:0:
212,224,138920,5,2,0:0:0:0:
248,344,139120,1,8,0:0:0:0:
168,304,139320,5,0,0:0:0:0:
168,304,139520,2,0,B|124:260|124:260|124:204|124:204|72:160,1,180,2|8,0:0|0:0,0:0:0:0:
240,60,140120,1,2,0:0:0:0:
240,60,140320,2,0,L|324:136,1,90,2|2,0:0|0:0,0:0:0:0:
272,300,140720,2,0,L|188:224,1,90,8|0,0:0|0:0,0:0:0:0:
408,212,141120,5,6,0:0:0:0:
256,192,144120,5,2,0:0:0:0:
256,192,144320,1,2,0:0:0:0:
140,124,147520,6,0,L|204:92,1,53.9999983520508,2|0,0:0|0:0,0:0:0:0:
292,64,148120,1,2,0:0:0:0:
292,64,148320,1,2,0:0:0:0:
408,244,149120,6,0,L|352:280,1,53.9999983520508,2|0,0:0|0:0,0:0:0:0:
268,324,149720,1,2,0:0:0:0:
268,324,149920,1,2,0:0:0:0:
180,128,150720,5,2,0:0:0:0:
180,128,150920,2,0,B|236:96|276:128|276:128|332:164|384:116,1,215.999993408203
400,280,152320,1,2,0:0:0:0:
400,280,152520,2,0,B|360:316|272:280|272:280|192:252|140:288,1,269.999991760254
104,80,153920,5,2,0:0:0:0:
104,80,154320,2,0,L|164:52,2,53.9999983520508,8|2|2,0:0|0:0|0:0,0:0:0:0:
200,128,155120,1,8,0:0:0:0:
200,128,155520,2,0,L|244:168,1,53.9999983520508,2|0,0:0|0:0,0:0:0:0:
76,208,155920,2,0,L|136:180,2,53.9999983520508,8|2|2,0:0|0:0|0:0,0:0:0:0:
164,272,156720,5,8,0:0:0:0:
164,272,157120,2,0,L|240:260,1,53.9999983520508,2|0,0:0|0:0,0:0:0:0:
304,308,157520,2,0,L|268:356,2,53.9999983520508,8|2|2,0:0|0:0|0:0,0:0:0:0:
380,232,158320,5,8,0:0:0:0:
380,232,158720,2,0,P|336:236|308:220,1,53.9999983520508,2|0,0:0|0:0,0:0:0:0:
216,184,159120,2,0,P|241:175|268:180,2,53.9999983520508,8|2|2,0:0|0:0|0:0,0:0:0:0:
216,184,159920,1,8,0:0:0:0:
148,76,160320,6,0,P|120:52|100:120,1,125.999996154785,2|8,0:0|0:0,0:0:0:0:
152,248,160920,1,2,0:0:0:0:
152,248,161120,1,2,0:0:0:0:
264,180,161320,1,0,0:0:0:0:
283,310,161520,2,0,L|252:256,1,62.9999980773926,8|0,0:0|0:0,0:0:0:0:
336,232,161920,5,2,0:0:0:0:
256,92,162120,1,0,0:0:0:0:
408,192,162320,1,8,0:0:0:0:
360,40,162520,1,2,0:0:0:0:
264,188,162720,1,2,0:0:0:0:
440,116,162920,1,0,0:0:0:0:
212,128,163120,6,0,P|184:172|224:248,1,125.999996154785,8|2,0:0|0:0,0:0:0:0:
332,180,163720,1,0,0:0:0:0:
332,180,163920,2,0,L|252:188,2,62.9999980773926,8|2|2,0:0|0:0|0:0,0:0:0:0:
428,172,164520,1,0,0:0:0:0:
260,288,164720,6,0,B|312:296|312:296|336:320|336:320|400:336,2,125.999996154785,8|2|8,0:0|0:0|0:0,0:0:0:0:
196,136,165720,1,2,0:0:0:0:
164,276,165920,1,2,0:0:0:0:
312,184,166120,1,0,0:0:0:0:
132,88,166320,6,0,P|116:128|156:208,2,125.999996154785,8|2|8,0:0|0:0|0:0,0:0:0:0:
196,136,167320,1,0,0:0:0:0:
300,32,167520,2,0,B|260:88|260:88|288:128|264:164,1,125.999996154785,2|8,0:0|0:0,0:0:0:0:
268,224,168120,5,0,0:0:0:0:
268,224,168320,1,2,0:0:0:0:
336,184,168520,1,0,0:0:0:0:
178,110,168720,2,0,P|170:166|162:182,1,62.9999980773926,8|2,0:0|0:0,0:0:0:0:
184,252,169120,1,2,0:0:0:0:
128,300,169320,1,0,0:0:0:0:
104,116,169520,6,0,P|84:160|128:236,1,125.999996154785,8|2,0:0|0:0,0:0:0:0:
164,168,170120,1,0,0:0:0:0:
240,196,170320,1,8,0:0:0:0:
220,120,170520,1,2,0:0:0:0:
220,120,170720,2,0,B|248:88|280:84|280:84|316:84|332:48,1,125.999996154785,2|8,0:0|0:0,0:0:0:0:
304,160,171320,5,2,0:0:0:0:
304,160,171520,1,2,0:0:0:0:
224,256,171720,1,2,0:0:0:0:
384,256,171920,1,2,0:0:0:0:
340,328,172320,2,0,P|392:340|464:236,1,180,2|2,0:0|0:0,0:0:0:0:
336,128,173120,6,0,P|368:92|284:96,1,180,6|8,0:0|0:0,0:0:0:0:
200,48,173720,2,0,P|204:112|232:140,1,90,2|0,0:0|0:0,0:0:0:0:
244,296,174120,2,0,P|260:252|240:188,1,90,2|8,0:0|0:0,0:0:0:0:
168,244,174520,1,0,0:0:0:0:
168,244,174720,2,0,L|368:268,1,180,2|8,0:0|0:0,0:0:0:0:
436,264,175320,5,2,0:0:0:0:
436,176,175520,1,2,0:0:0:0:
360,128,175720,1,2,0:0:0:0:
244,280,175920,1,8,0:0:0:0:
224,192,176120,1,0,0:0:0:0:
160,240,176320,6,0,P|140:200|168:144,1,90,2|0,0:0|0:0,0:0:0:0:
244,280,176720,2,0,P|224:312|148:324,1,90,8|2,0:0|0:0,0:0:0:0:
224,196,177120,2,0,P|276:200|312:228,1,90,0|2,0:0|0:0,0:0:0:0:
296,60,177520,5,8,0:0:0:0:
373,248,177720,1,0,0:0:0:0:
373,248,177920,2,0,P|341:296|313:216,1,180,2|8,0:0|0:0,0:0:0:0:
320,132,178520,1,2,0:0:0:0:
276,52,178720,1,0,0:0:0:0:
180,64,178920,5,2,0:0:0:0:
180,64,179120,2,0,L|224:160,1,90,8|0,0:0|0:0,0:0:0:0:
260,224,179520,2,0,B|216:248|168:232|168:232|120:216|80:244,1,180,6|8,0:0|0:0,0:0:0:0:
136,316,180120,1,0,0:0:0:0:
204,160,180320,1,2,0:0:0:0:
264,96,180520,1,2,0:0:0:0:
348,68,180720,6,0,P|400:92|424:148,1,90,8|0,0:0|0:0,0:0:0:0:
444,204,181120,2,0,P|444:256|312:284,1,180,2|8,0:0|0:0,0:0:0:0:
332,144,181720,2,0,L|368:228,2,90,2|0|2,0:0|0:0|0:0,0:0:0:0:
225,329,182320,2,0,L|216:240,1,90,8|0,0:0|0:0,0:0:0:0:
248,132,182720,5,2,0:0:0:0:
452,136,182920,1,0,0:0:0:0:
288,268,183120,1,8,0:0:0:0:
384,104,183320,1,2,0:0:0:0:
372,296,183520,1,0,0:0:0:0:
496,264,183720,1,2,0:0:0:0:
240,320,183920,2,0,L|268:220,1,90,8|0,0:0|0:0,0:0:0:0:
336,184,184320,2,0,B|296:144|244:152|244:152|188:168|144:120,1,180,2|8,0:0|0:0,0:0:0:0:
220,72,184920,5,2,0:0:0:0:
264,248,185120,1,8,0:0:0:0:
287,269,185220,1,8,0:0:0:0:
316,281,185320,1,8,0:0:0:0:
347,283,185420,1,8,0:0:0:0:
377,276,185520,1,8,0:0:0:0:
403,258,185620,1,8,0:0:0:0:
423,234,185720,1,8,0:0:0:0:
433,204,185820,1,8,0:0:0:0:
436,176,185920,6,0,B|416:96|340:72|340:72|344:116,1,180,6|8,0:0|0:0,0:0:0:0:
340,192,186520,1,2,0:0:0:0:
256,128,186720,1,0,0:0:0:0:
256,128,186920,2,0,L|216:208,1,90,2|8,0:0|0:0,0:0:0:0:
144,152,187320,1,0,0:0:0:0:
124,240,187520,1,2,0:0:0:0:
76,304,187720,5,0,0:0:0:0:
76,304,187920,2,0,P|128:328|176:304,1,90,8|2,0:0|0:0,0:0:0:0:
364,256,188320,2,0,P|312:236|248:268,1,90,2|2,0:0|0:0,0:0:0:0:
372,332,188720,2,0,P|432:292|408:192,1,180,8|2,0:0|0:0,0:0:0:0:
184,140,189320,6,0,P|164:72|168:36,1,90,0|8,0:0|0:0,0:0:0:0:
292,196,189720,2,0,P|344:228|368:276,1,90,2|0,0:0|0:0,0:0:0:0:
268,116,190120,2,0,P|288:76|332:40,1,90,2|8,0:0|0:0,0:0:0:0:
384,112,190520,1,0,0:0:0:0:
384,112,190720,6,0,P|416:152|444:68,1,180,2|8,0:0|0:0,0:0:0:0:
388,228,191320,1,2,0:0:0:0:
272,328,191520,2,0,B|332:292|372:348|448:304,1,180,2|8,0:0|0:0,0:0:0:0:
308,120,192320,6,0,B|356:116|420:104|420:104|436:124|496:124,1,180,6|8,0:0|0:0,0:0:0:0:
460,212,192920,2,0,L|368:240,1,90,2|0,0:0|0:0,0:0:0:0:
240,288,193320,1,2,0:0:0:0:
448,316,193520,2,0,B|412:272|412:272|420:200|420:200|384:152,1,180,8|2,0:0|0:0,0:0:0:0:
416,72,194120,1,0,0:0:0:0:
324,216,194320,6,0,P|252:244|224:236,1,90,8|2,0:0|0:0,0:0:0:0:
80,168,194720,1,0,0:0:0:0:
80,168,194920,1,2,0:0:0:0:
180,296,195120,2,0,B|148:248|164:212|164:212|188:156|148:108,1,180,8|2,0:0|0:0,0:0:0:0:
242,242,195720,6,0,P|266:286|306:298,1,90,0|8,0:0|0:0,0:0:0:0:
368,152,196120,2,0,P|320:184|312:216,1,90,2|0,0:0|0:0,0:0:0:0:
392,244,196520,2,0,P|400:320|380:340,2,90,2|8|0,0:0|0:0|0:0,0:0:0:0:
408,16,197120,2,0,B|400:68|420:96|420:96|460:136|444:208,1,180,2|8,0:0|0:0,0:0:0:0:
364,156,197720,1,2,0:0:0:0:
364,156,197920,1,2,0:0:0:0:
300,220,198120,5,2,0:0:0:0:
388,244,198320,1,8,0:0:0:0:
232,164,198520,1,0,0:0:0:0:
444,184,198720,2,0,P|468:228|396:328,1,180,6|8,0:0|0:0,0:0:0:0:
384,240,199320,2,0,P|332:256|356:172,1,180,2|2,0:0|0:0,0:0:0:0:
220,196,199920,2,0,P|244:140|356:96,1,180,8|2,0:0|0:0,0:0:0:0:
216,272,200520,6,0,P|164:256|152:208,1,90,0|8,0:0|0:0,0:0:0:0:
72,184,200920,2,0,P|92:104|128:168,1,180,2|2,0:0|0:0,0:0:0:0:
32,40,201520,2,0,P|92:24|200:96,1,180,8|2,0:0|0:0,0:0:0:0:
236,156,202120,1,0,0:0:0:0:
276,304,202320,5,8,0:0:0:0:
276,304,202520,2,0,B|264:248|300:216|300:216|336:172|308:128,1,180,2|2,0:0|0:0,0:0:0:0:
360,284,203120,2,0,P|412:332|452:320,1,90,8|0,0:0|0:0,0:0:0:0:
432,168,203520,5,2,0:0:0:0:
432,168,203720,1,2,0:0:0:0:
264,64,204120,2,0,P|196:48|96:92,1,180,2|2,0:0|0:0,0:0:0:0:
184,268,204720,1,8,0:0:0:0:
184,268,205120,6,0,B|252:288|252:288|304:264|304:264|388:288,1,180,6|8,0:0|0:0,0:0:0:0:
236,200,205720,1,2,0:0:0:0:
416,348,205920,2,2,L|304:360,1,90
244,324,206320,1,8,0:0:0:0:
188,256,206520,1,0,0:0:0:0:
384,248,206720,5,2,0:0:0:0:
428,172,206920,1,0,0:0:0:0:
396,88,207120,2,0,P|344:60|300:72,1,90,8|2,0:0|0:0,0:0:0:0:
328,152,207520,1,0,0:0:0:0:
248,112,207720,2,0,L|144:124,1,90,2|8,0:0|0:0,0:0:0:0:
332,176,208320,5,2,0:0:0:0:
468,271,208520,1,0,0:0:0:0:
317,341,208720,1,8,0:0:0:0:
468,271,208920,1,2,0:0:0:0:
472,108,209120,1,0,0:0:0:0:
468,271,209320,1,2,0:0:0:0:
316,52,209520,2,8,P|384:72|412:92,1,90,8|0,0:0|0:0,0:0:0:0:
322,143,209920,6,0,B|370:151|398:191|398:191|422:143|506:131,1,180,2|8,0:0|0:0,0:0:0:0:
480,228,210520,1,2,0:0:0:0:
320,228,210720,2,0,P|264:212|240:168,1,90,2|2,0:0|0:0,0:0:0:0:
256,100,211120,1,8,0:0:0:0:
