osu file format v14

[General]
AudioFilename: audio.mp3
AudioLeadIn: 0
PreviewTime: 115320
Countdown: 0
SampleSet: Soft
StackLeniency: 0.7
Mode: 0
LetterboxInBreaks: 0
EpilepsyWarning: 1
WidescreenStoryboard: 1

[Editor]
Bookmarks: 44850,166850
DistanceSpacing: 1.2
BeatDivisor: 4
GridSize: 4
TimelineZoom: 1.4

[Metadata]
Title:What The Hell
TitleUnicode:What The Hell
Artist:Avril Lavigne
ArtistUnicode:Avril Lavigne
Creator:5Atarox
Version:Hard
Source:
Tags:English,Pop,goodbye lullaby
BeatmapID:1365283
BeatmapSetID:634451

[Difficulty]
HPDrainRate:6
CircleSize:4
OverallDifficulty:6
ApproachRate:7
SliderMultiplier:1.5
SliderTickRate:1

[Events]
//Background and Video events
0,0,"Whatthehellok.jpg",0,0
//Break Periods
2,70920,75800
2,141320,142800
2,144520,146200
//Storyboard Layer 0 (Background)
//Storyboard Layer 1 (Fail)
//Storyboard Layer 2 (Pass)
//Storyboard Layer 3 (Foreground)
//Storyboard Sound Samples

[TimingPoints]
320,400,4,2,2,75,1,0
5120,-111.111111111111,4,2,1,75,0,0
6720,-125,4,2,1,75,0,0
19920,-125,4,2,2,75,0,0
20120,-125,4,2,1,75,0,0
26320,-125,4,2,2,75,0,0
26920,-125,4,2,1,75,0,0
32720,-125,4,2,2,75,0,0
32920,-125,4,2,1,75,0,0
39120,-125,4,2,2,75,0,0
39320,-125,4,2,1,75,0,0
41920,-125,4,2,1,40,0,0
43120,-125,4,2,1,50,0,0
43320,-125,4,2,1,60,0,0
43520,-125,4,2,1,70,0,0
43720,-125,4,2,1,80,0,0
43920,-125,4,2,1,90,0,0
44120,-125,4,2,1,100,0,0
45120,-100,4,2,2,75,0,1
45520,-100,4,2,1,75,0,1
51520,-100,4,2,2,75,0,1
51720,-100,4,2,1,75,0,1
53120,-100,4,2,2,75,0,1
53520,-100,4,2,1,75,0,1
57920,-100,4,2,2,75,0,1
58320,-100,4,2,1,75,0,1
64320,-100,4,2,2,75,0,1
64720,-100,4,2,1,75,0,1
70720,-100,4,2,1,75,0,0
77120,-125,4,2,1,75,0,0
77520,-125,4,2,2,75,0,0
77920,-125,4,2,1,75,0,0
83920,-125,4,2,2,75,0,0
84320,-125,4,2,1,75,0,0
90320,-125,4,2,2,75,0,0
90920,-125,4,2,1,75,0,0
96720,-125,4,2,2,75,0,0
96920,-125,4,2,1,75,0,0
99520,-142.857142857143,4,2,1,75,0,0
102720,-125,4,2,1,75,0,0
103120,-125,4,2,2,75,0,0
103720,-125,4,2,1,75,0,0
109520,-125,4,2,2,75,0,0
109720,-125,4,2,1,75,0,0
114120,-125,4,2,1,80,0,0
114520,-125,4,2,1,85,0,0
114720,-125,4,2,1,90,0,0
114920,-125,4,2,1,95,0,0
115120,-125,4,2,1,100,0,0
115520,-100,4,2,2,75,0,1
115920,-100,4,2,1,75,0,1
121920,-100,4,2,2,75,0,1
122320,-100,4,2,1,75,0,1
123520,-100,4,2,2,75,0,1
123920,-100,4,2,1,75,0,1
128320,-100,4,2,2,75,0,1
128720,-100,4,2,1,75,0,1
134720,-100,4,2,2,75,0,1
135120,-100,4,2,1,75,0,1
141120,-100,4,2,2,75,0,0
144120,-100,4,2,1,75,0,0
147520,-166.666666666667,4,2,1,75,0,0
153920,-125,4,2,1,75,0,0
171320,-125,4,2,2,75,0,0
173120,-100,4,2,2,75,0,1
173520,-100,4,2,1,75,0,1
179520,-166.666666666667,4,2,2,75,0,1
180720,-100,4,2,1,75,0,1
181120,-100,4,2,2,75,0,1
181520,-100,4,2,1,75,0,1
185120,-100,4,2,5,75,0,1
185920,-100,4,1,1,75,0,1
186320,-100,4,2,1,75,0,1
192320,-100,4,2,2,75,0,1
192720,-100,4,2,1,75,0,1
193920,-100,4,2,2,75,0,1
194320,-100,4,2,1,75,0,1
198720,-100,4,2,2,75,0,1
199120,-100,4,2,1,75,0,1
205120,-100,4,2,2,75,0,1
205520,-100,4,2,1,75,0,1
211120,-100,4,2,1,75,0,0

[Colours]
Combo1 : 160,131,152
Combo2 : 248,228,97
Combo3 : 219,149,4
Combo4 : 129,82,124

[HitObjects]
136,68,5120,6,4,L|212:56,1,67.4999979400636
228,128,5520,2,4,L|320:144,1,67.4999979400636
268,212,5920,2,4,L|328:244,2,67.4999979400636
468,324,6720,6,0,P|452:284|480:200,1,120,2|8,0:0|0:0,0:0:0:0:
408,176,7320,2,0,B|436:132|488:140|488:140|464:120,1,120,2|2,0:0|0:0,0:0:0:0:
420,68,7920,1,8,0:0:0:0:
272,64,8320,5,2,0:0:0:0:
232,132,8520,1,2,0:0:0:0:
312,132,8720,2,0,P|304:172|280:200,1,60,8|2,0:0|0:0,0:0:0:0:
308,320,9120,2,0,P|320:276|340:264,1,60,0|2,0:0|0:0,0:0:0:0:
396,240,9520,1,8,0:0:0:0:
252,228,9920,6,0,L|112:204,1,120,2|8,0:0|0:0,0:0:0:0:
64,192,10520,1,2,0:0:0:0:
200,140,10920,2,0,L|268:132,1,60,2|8,0:0|0:0,0:0:0:0:
396,80,11520,6,0,B|412:104|412:104|416:140,1,60,6|6,0:0|0:0,0:0:0:0:
360,176,11920,2,0,B|364:208|364:208|384:240,1,60,12|6,0:0|0:0,0:0:0:0:
452,220,12320,1,6,0:0:0:0:
452,220,12520,1,6,0:0:0:0:
460,292,12720,2,0,L|344:332,1,120,12|2,0:0|0:0,0:0:0:0:
204,320,13520,5,8,0:0:0:0:
140,288,13720,2,0,P|120:244|144:172,1,120,2|2,0:0|0:0,0:0:0:0:
196,230,14320,2,0,L|256:236,2,60,8|0|2,0:0|0:0|0:0,0:0:0:0:
220,160,14920,2,0,L|284:152,2,60,2|8|2,0:0|0:0|0:0,0:0:0:0:
100,80,15720,6,0,L|164:56,1,60,2|8,0:0|0:0,0:0:0:0:
228,68,16120,1,0,0:0:0:0:
300,52,16320,2,0,P|352:88|356:152,1,120,2|8,0:0|0:0,0:0:0:0:
288,124,16920,1,2,0:0:0:0:
176,212,17320,2,0,L|208:268,1,60,2|8,0:0|0:0,0:0:0:0:
340,316,17920,6,4,P|380:296|400:260,1,60,6|6,0:0|0:0,0:0:0:0:
336,236,18320,2,4,P|360:200|360:160,1,60,12|6,0:0|0:0,0:0:0:0:
432,224,18720,1,6,0:0:0:0:
428,148,18920,2,4,P|440:120|464:103,1,60,6|12,0:0|0:0,0:0:0:0:
312,92,19520,6,0,B|280:84|256:96|256:96|224:108|184:96,1,120,2|10,0:0|0:0,0:0:0:0:
128,72,20120,1,2,0:0:0:0:
168,212,20520,2,0,L|240:188,1,60,2|8,0:0|0:0,0:0:0:0:
344,112,21120,5,2,0:0:0:0:
344,112,21320,1,2,0:0:0:0:
344,112,21520,2,0,L|364:188,1,60,8|2,0:0|0:0,0:0:0:0:
344,240,21920,2,0,P|388:240|416:224,1,60,0|2,0:0|0:0,0:0:0:0:
484,200,22320,2,0,P|488:240|476:280,1,60,8|0,0:0|0:0,0:0:0:0:
432,308,22720,2,0,B|412:340|412:340|364:332|364:332|328:356,1,120,2|8,0:0|0:0,0:0:0:0:
264,356,23320,1,2,0:0:0:0:
132,300,23720,5,2,0:0:0:0:
132,300,23920,1,8,0:0:0:0:
112,156,24320,2,4,P|156:128|156:96,1,60,6|6,0:0|0:0,0:0:0:0:
108,12,24720,2,4,P|92:44|96:88,1,60,12|6,0:0|0:0,0:0:0:0:
220,76,25120,2,4,P|200:52|168:48,2,60,6|6|12,0:0|0:0|0:0,0:0:0:0:
272,128,25720,5,0,0:0:0:0:
304,256,25920,1,2,0:0:0:0:
304,256,26320,2,0,B|344:252|344:252|376:272|376:272|440:264,1,120,10|0,0:0|0:0,0:0:0:0:
452,204,26920,2,0,L|384:188,1,60,2|8,0:0|0:0,0:0:0:0:
412,48,27520,5,2,0:0:0:0:
356,96,27720,1,2,0:0:0:0:
300,140,27920,2,0,P|284:108|292:72,1,60,8|2,0:0|0:0,0:0:0:0:
356,96,28320,1,0,0:0:0:0:
372,164,28520,2,0,P|380:212|364:240,1,60,2|8,0:0|0:0,0:0:0:0:
276,324,29120,6,0,B|228:356|204:276|140:320,1,120,2|8,0:0|0:0,0:0:0:0:
120,252,29720,2,0,P|108:216|148:136,1,120,2|2,0:0|0:0,0:0:0:0:
248,224,30320,2,0,P|208:212|168:212,1,60,8|0,0:0|0:0,0:0:0:0:
212,140,30720,5,6,0:0:0:0:
252,80,30920,1,6,0:0:0:0:
284,144,31120,1,12,0:0:0:0:
348,180,31320,2,0,L|340:252,1,60,6|6,0:0|0:0,0:0:0:0:
288,148,31720,1,6,0:0:0:0:
348,108,31920,1,12,0:0:0:0:
208,68,32320,6,0,B|176:68|148:92|148:92|116:112|80:100,1,120,2|12,0:0|0:0,0:0:0:0:
184,200,32920,2,0,P|204:168|204:140,1,60,2|0,0:0|0:0,0:0:0:0:
128,256,33320,2,0,P|108:304|120:336,1,60,2|8,0:0|0:0,0:0:0:0:
240,252,33920,2,0,P|288:216|292:144,1,120,2|8,0:0|0:0,0:0:0:0:
336,100,34520,1,2,0:0:0:0:
196,124,34920,6,0,P|220:168|240:188,1,60,2|8,0:0|0:0,0:0:0:0:
280,128,35320,1,0,0:0:0:0:
240,68,35520,2,0,P|184:52|132:96,1,120,2|8,0:0|0:0,0:0:0:0:
196,124,36120,2,0,L|204:192,1,60,2|0,0:0|0:0,0:0:0:0:
268,284,36520,2,0,L|288:216,1,60,2|8,0:0|0:0,0:0:0:0:
364,104,37120,5,6,0:0:0:0:
408,160,37320,2,4,P|368:180|336:172,1,60,6|12,0:0|0:0,0:0:0:0:
296,136,37720,1,6,0:0:0:0:
364,104,37920,2,4,P|408:88|444:104,1,60,6|6,0:0|0:0,0:0:0:0:
480,132,38320,1,12,0:0:0:0:
444,272,38720,6,0,P|408:284|320:268,1,120,2|12,0:0|0:0,0:0:0:0:
276,220,39320,2,0,P|284:188|288:152,1,60,2|0,0:0|0:0,0:0:0:0:
236,108,39720,2,0,P|216:140|204:180,1,60,2|8,0:0|0:0,0:0:0:0:
168,300,40320,5,2,0:0:0:0:
168,300,40520,1,2,0:0:0:0:
168,300,40720,2,0,L|144:232,1,60,8|2,0:0|0:0,0:0:0:0:
144,100,41320,2,0,L|204:144,1,60,2|8,0:0|0:0,0:0:0:0:
256,192,41920,12,8,44720,0:0:0:0:
112,184,45120,6,0,L|80:28,2,150,6|8|0,0:0|0:0|0:0,0:0:0:0:
200,224,46120,1,2,0:0:0:0:
192,136,46320,2,0,L|196:56,1,75,8|0,0:0|0:0,0:0:0:0:
284,80,46720,6,0,B|344:120|372:68|428:100,1,150,2|8,0:0|0:0,0:0:0:0:
380,176,47320,1,2,0:0:0:0:
380,176,47520,2,0,P|352:224|392:320,1,150,0|8,0:0|0:0,0:0:0:0:
204,352,48320,6,0,L|120:340,1,75,2|0,0:0|0:0,0:0:0:0:
200,276,48720,2,0,L|308:260,1,75,8|2,0:0|0:0,0:0:0:0:
336,200,49120,2,0,L|244:188,1,75,0|2,0:0|0:0,0:0:0:0:
172,176,49520,1,8,0:0:0:0:
236,112,49720,1,0,0:0:0:0:
312,80,49920,6,0,P|344:52|356:128,1,150,2|8,0:0|0:0,0:0:0:0:
456,152,50520,2,0,P|472:96|464:52,2,75,2|2|2,0:0|0:0|0:0,0:0:0:0:
388,212,51120,1,8,0:0:0:0:
216,260,51520,6,0,P|160:272|132:296,1,75,6|0,0:0|0:0,0:0:0:0:
252,136,51920,2,0,P|236:116|184:88,1,75,8|2,0:0|0:0,0:0:0:0:
92,196,52320,2,0,P|148:176|188:180,1,75,0|2,0:0|0:0,0:0:0:0:
244,212,52720,5,8,0:0:0:0:
332,216,52920,1,2,0:0:0:0:
416,244,53120,2,0,B|436:188|436:188|408:156|408:156|420:92,1,150,6|8,0:0|0:0,0:0:0:0:
332,136,53720,2,0,L|320:60,1,75,2|0,0:0|0:0,0:0:0:0:
232,44,54120,5,2,0:0:0:0:
248,132,54320,2,0,L|232:292,1,150,8|2,0:0|0:0,0:0:0:0:
312,324,54920,5,0,0:0:0:0:
336,236,55120,1,8,0:0:0:0:
424,260,55320,1,2,0:0:0:0:
400,348,55520,1,0,0:0:0:0:
424,260,55720,6,0,L|448:176,2,75,2|8|0,0:0|0:0|0:0,0:0:0:0:
484,112,56320,2,0,P|432:104|368:200,1,150,2|8,0:0|0:0,0:0:0:0:
328,248,56920,1,2,0:0:0:0:
240,272,57120,1,2,0:0:0:0:
260,184,57320,1,2,0:0:0:0:
260,184,57520,1,8,0:0:0:0:
128,64,57920,6,0,P|144:120|80:216,1,150,6|8,0:0|0:0,0:0:0:0:
60,120,58520,1,2,0:0:0:0:
196,236,58920,1,2,0:0:0:0:
236,156,59120,2,0,B|252:104|224:36|224:36|260:44,1,150,8|2,0:0|0:0,0:0:0:0:
328,84,59720,5,0,0:0:0:0:
408,40,59920,1,8,0:0:0:0:
468,104,60120,2,0,P|456:160|400:120,1,150,2|2,0:0|0:0,0:0:0:0:
328,176,60720,2,0,P|380:232|464:244,1,150,8|2,0:0|0:0,0:0:0:0:
404,324,61320,5,0,0:0:0:0:
316,336,61520,1,8,0:0:0:0:
240,292,61720,2,0,B|212:260|168:264|168:264|100:268|104:212,1,150,2|2,0:0|0:0,0:0:0:0:
176,184,62320,2,0,P|232:188|260:208,1,75,8|0,0:0|0:0,0:0:0:0:
324,244,62720,5,2,0:0:0:0:
324,244,62920,1,2,0:0:0:0:
452,116,63320,2,0,P|408:84|300:72,1,150,2|2,0:0|0:0,0:0:0:0:
240,116,63920,1,8,0:0:0:0:
172,280,64320,6,0,P|152:312|112:244,2,150,6|8|0,0:0|0:0|0:0,0:0:0:0:
168,192,65320,2,0,P|216:200|240:224,1,75,2|8,0:0|0:0,0:0:0:0:
300,280,65720,1,0,0:0:0:0:
364,220,65920,2,0,B|340:188|320:184|320:184|328:132|276:88,1,150,2|8,0:0|0:0,0:0:0:0:
232,168,66520,1,2,0:0:0:0:
156,216,66720,2,0,P|136:168|144:136,2,75,0|2|8,0:0|0:0|0:0,0:0:0:0:
316,300,67520,6,0,L|388:320,2,75,2|0|8,0:0|0:0|0:0,0:0:0:0:
304,212,68120,2,0,L|392:172,2,75,2|0|2,0:0|0:0|0:0,0:0:0:0:
232,264,68720,1,8,0:0:0:0:
232,264,68920,1,0,0:0:0:0:
232,264,69120,2,0,B|192:288|192:288|128:288|128:288|88:320,1,150,2|8,0:0|0:0,0:0:0:0:
160,376,69720,1,2,0:0:0:0:
248,356,69920,2,0,L|316:308,1,75,2|2,0:0|0:0,0:0:0:0:
304,224,70320,1,8,0:0:0:0:
164,196,70720,5,2,0:0:0:0:
52,48,77120,6,0,P|96:64|172:48,1,120,2|10,0:0|0:0,0:0:0:0:
308,24,77920,2,0,P|388:12|440:40,1,120,0|8,0:0|0:0,0:0:0:0:
457,90,78520,2,0,P|480:71|492:44,2,60,0|2|2,0:0|0:0|0:0,0:0:0:0:
384,88,79120,1,8,0:0:0:0:
320,120,79320,1,2,0:0:0:0:
376,164,79520,6,0,L|404:224,2,60,0|2|8,0:0|0:0|0:0,0:0:0:0:
328,300,80320,2,0,L|216:236,1,120,2|8,0:0|0:0,0:0:0:0:
172,188,80920,1,2,0:0:0:0:
232,148,81120,1,0,0:0:0:0:
208,80,81320,2,0,L|132:96,1,60,2|8,0:0|0:0,0:0:0:0:
124,236,81920,5,6,0:0:0:0:
192,260,82120,1,6,0:0:0:0:
264,264,82320,2,4,P|300:252|324:232,2,60,12|6|6,0:0|0:0|0:0,0:0:0:0:
192,260,82920,1,6,0:0:0:0:
124,240,83120,1,12,0:0:0:0:
124,240,83320,5,0,0:0:0:0:
144,96,83520,1,0,0:0:0:0:
148,100,83920,2,12,B|180:68|232:140|276:84,1,120,12|0,0:0|0:0,0:0:0:0:
320,52,84520,1,2,0:0:0:0:
344,120,84720,2,0,P|308:168|236:180,1,120,8|2,0:0|0:0,0:0:0:0:
188,152,85320,5,2,0:0:0:0:
184,224,85520,2,0,P|232:260|256:256,1,60,8|2,0:0|0:0,0:0:0:0:
364,216,86120,1,2,0:0:0:0:
364,216,86320,2,0,P|416:212|440:224,1,60,8|0,0:0|0:0,0:0:0:0:
396,280,86720,2,0,L|392:140,1,120,2|8,0:0|0:0,0:0:0:0:
388,88,87320,1,2,0:0:0:0:
244,88,87720,5,2,0:0:0:0:
244,88,87920,1,8,0:0:0:0:
128,172,88320,1,6,0:0:0:0:
140,244,88520,1,6,0:0:0:0:
200,200,88720,1,12,0:0:0:0:
240,260,88920,2,4,L|304:244,1,60,6|6,0:0|0:0,0:0:0:0:
432,284,89320,2,4,L|356:296,1,60,6|12,0:0|0:0,0:0:0:0:
308,324,89720,5,0,0:0:0:0:
176,308,89920,1,2,0:0:0:0:
176,308,90320,2,0,P|128:296|80:240,1,120,10|0,0:0|0:0,0:0:0:0:
172,160,90920,2,0,P|168:212|152:236,2,60,2|8|0,0:0|0:0|0:0,0:0:0:0:
99,163,91520,2,0,P|98:134|104:104,1,60,2|2,0:0|0:0,0:0:0:0:
172,76,91920,5,8,0:0:0:0:
232,116,92120,1,2,0:0:0:0:
268,180,92320,2,0,L|348:176,1,60,0|2,0:0|0:0,0:0:0:0:
368,116,92720,2,0,L|288:92,1,60,8|0,0:0|0:0,0:0:0:0:
444,72,93120,2,0,P|448:140|408:188,1,120,2|8,0:0|0:0,0:0:0:0:
380,240,93720,1,2,0:0:0:0:
256,316,94120,2,0,L|192:304,1,60,2|8,0:0|0:0,0:0:0:0:
104,196,94720,5,6,0:0:0:0:
104,196,94920,1,6,0:0:0:0:
144,136,95120,2,4,P|176:172|176:204,1,60,12|6,0:0|0:0,0:0:0:0:
156,252,95520,1,6,0:0:0:0:
104,196,95720,1,6,0:0:0:0:
68,136,95920,1,12,0:0:0:0:
68,136,96120,5,0,0:0:0:0:
180,60,96320,1,2,0:0:0:0:
180,60,96720,2,0,B|212:56|212:56|240:64,1,60,10|2,0:0|0:0,0:0:0:0:
292,112,97120,1,0,0:0:0:0:
292,256,97520,6,0,B|240:224|240:224|204:164,1,120,8|2,0:0|0:0,0:0:0:0:
236,104,98120,1,2,0:0:0:0:
284,156,98320,1,8,0:0:0:0:
304,88,98520,1,2,0:0:0:0:
360,44,98720,2,0,P|376:96|368:120,1,60,0|2,0:0|0:0,0:0:0:0:
360,172,99120,1,8,0:0:0:0:
372,296,99520,5,2,0:0:0:0:
248,244,99920,2,0,L|176:272,1,52.4999983978272,8|8,0:0|0:0,0:0:0:0:
152,208,100320,2,0,L|88:240,1,52.4999983978272,2|2,0:0|0:0,0:0:0:0:
128,308,100720,2,0,B|160:328|160:328|192:332|192:332|228:364,1,104.999996795654,8|2,0:0|0:0,0:0:0:0:
288,332,101320,1,2,0:0:0:0:
316,264,101520,2,0,P|340:228|352:220,1,52.4999983978272,8|8,0:0|0:0,0:0:0:0:
388,284,101920,2,0,P|368:320|344:328,1,52.4999983978272,2|2,0:0|0:0,0:0:0:0:
288,332,102320,2,0,B|240:352|248:280|180:292,1,104.999996795654,8|2,0:0|0:0,0:0:0:0:
56,268,103120,6,0,L|40:132,1,120,10|0,0:0|0:0,0:0:0:0:
36,76,103720,1,2,0:0:0:0:
104,52,103920,2,0,L|140:168,1,120,8|2,0:0|0:0,0:0:0:0:
144,240,104520,2,0,L|208:248,2,60,2|8|2,0:0|0:0|0:0,0:0:0:0:
288,232,105320,6,0,P|292:272|280:312,1,60,2|8,0:0|0:0,0:0:0:0:
224,320,105720,1,0,0:0:0:0:
203,247,105920,2,0,P|211:191|283:151,1,120,2|8,0:0|0:0,0:0:0:0:
332,160,106520,1,2,0:0:0:0:
204,96,106920,2,0,L|140:128,1,60,2|8,0:0|0:0,0:0:0:0:
292,96,107520,6,4,L|352:84,1,60,6|6,0:0|0:0,0:0:0:0:
356,156,107920,2,4,L|424:144,1,60,12|6,0:0|0:0,0:0:0:0:
420,216,108320,2,4,L|504:200,1,60,6|6,0:0|0:0,0:0:0:0:
344,228,108720,1,12,0:0:0:0:
428,348,109120,6,0,L|300:332,1,120,2|10,0:0|0:0,0:0:0:0:
332,264,109720,1,2,0:0:0:0:
260,276,109920,2,0,L|180:308,2,60,0|2|8,0:0|0:0|0:0,0:0:0:0:
332,264,110520,1,0,0:0:0:0:
404,260,110720,2,0,P|384:208|304:204,1,120,2|8,0:0|0:0,0:0:0:0:
269,145,111320,6,0,P|252:170|252:200,1,60,2|0,0:0|0:0,0:0:0:0:
328,104,111720,2,0,P|352:64|352:40,1,60,2|8,0:0|0:0,0:0:0:0:
208,56,112320,2,0,B|172:88|136:64|136:64|108:48|72:68,1,120,2|8,0:0|0:0,0:0:0:0:
104,128,112920,2,0,B|72:128|64:120|64:120|68:216,1,120,2|2,0:0|0:0,0:0:0:0:
72,272,113520,1,8,0:0:0:0:
200,204,113920,5,6,0:0:0:0:
188,108,114120,1,6,0:0:0:0:
280,152,114320,1,12,0:0:0:0:
168,192,114520,5,6,0:0:0:0:
240,96,114720,1,6,0:0:0:0:
288,208,114920,1,6,0:0:0:0:
200,312,115120,2,0,L|192:348,1,30,12|0,0:0|0:0,0:0:0:0:
328,336,115520,6,0,B|364:324|364:324|420:348|420:348|476:324,2,150,6|8|0,0:0|0:0|0:0,0:0:0:0:
240,192,116520,2,0,P|256:244|280:268,1,75,2|8,0:0|0:0,0:0:0:0:
332,188,116920,1,0,0:0:0:0:
392,120,117120,2,0,P|424:184|384:260,1,150,2|8,0:0|0:0,0:0:0:0:
332,188,117720,2,0,P|308:156|340:44,1,150,2|2,0:0|0:0,0:0:0:0:
392,120,118320,1,8,0:0:0:0:
288,268,118720,6,0,P|232:268|220:256,1,75,2|0,0:0|0:0,0:0:0:0:
104,160,119120,2,0,P|168:160|188:184,1,75,8|2,0:0|0:0,0:0:0:0:
132,334,119520,2,0,P|119:300|128:264,1,75,0|2,0:0|0:0,0:0:0:0:
268,108,119920,2,0,P|276:160|244:204,1,75,8|0,0:0|0:0,0:0:0:0:
340,236,120320,2,0,P|388:248|472:188,1,150,2|8,0:0|0:0,0:0:0:0:
460,108,120920,1,2,0:0:0:0:
384,156,121120,2,0,P|376:80|440:24,1,150,0|8,0:0|0:0,0:0:0:0:
244,44,121920,6,0,L|152:52,1,75,6|0,0:0|0:0,0:0:0:0:
208,208,122320,2,0,L|128:256,1,75,8|2,0:0|0:0,0:0:0:0:
112,140,122720,2,0,L|208:124,1,75,0|2,0:0|0:0,0:0:0:0:
272,148,123120,1,8,0:0:0:0:
284,236,123320,1,2,0:0:0:0:
272,64,123520,2,0,P|332:80|352:164,1,150,6|8,0:0|0:0,0:0:0:0:
404,248,124120,6,0,P|432:284|464:296,1,75,2|0,0:0|0:0,0:0:0:0:
476,208,124520,1,2,0:0:0:0:
364,332,124720,2,0,L|264:336,1,75,8|0,0:0|0:0,0:0:0:0:
212,284,125120,5,2,0:0:0:0:
204,196,125320,1,0,0:0:0:0:
288,228,125520,1,8,0:0:0:0:
200,244,125720,5,2,0:0:0:0:
268,140,125920,1,0,0:0:0:0:
320,256,126120,1,2,0:0:0:0:
404,224,126320,6,0,P|372:184|336:172,1,75,8|0,0:0|0:0,0:0:0:0:
432,136,126720,2,0,P|392:104|284:120,1,150,2|8,0:0|0:0,0:0:0:0:
212,128,127320,1,2,0:0:0:0:
212,128,127520,1,2,0:0:0:0:
140,184,127720,2,0,P|184:216|212:220,1,75,2|8,0:0|0:0,0:0:0:0:
332,348,128320,6,0,B|288:332|252:348|252:348|212:360|176:332,1,150,6|8,0:0|0:0,0:0:0:0:
220,256,128920,2,0,P|172:220|240:192,1,150,2|2,0:0|0:0,0:0:0:0:
100,268,129520,2,0,P|88:220|132:124,1,150,8|2,0:0|0:0,0:0:0:0:
208,100,130120,1,0,0:0:0:0:
228,183,130320,1,8,0:0:0:0:
292,120,130520,2,0,P|332:128|444:72,1,150,2|2,0:0|0:0,0:0:0:0:
468,172,131120,2,0,B|456:192|436:200|436:200|492:244|452:320,1,150,8|2,0:0|0:0,0:0:0:0:
384,268,131720,5,0,0:0:0:0:
300,232,131920,1,8,0:0:0:0:
332,148,132120,2,0,P|280:96|344:88,1,150,2|2,0:0|0:0,0:0:0:0:
236,20,132720,2,0,B|188:52|188:112|188:112|148:76,1,150,8|2,0:0|0:0,0:0:0:0:
157,84,133320,5,2,0:0:0:0:
132,172,133520,1,8,0:0:0:0:
112,260,133720,2,0,L|292:288,1,150,2|2,0:0|0:0,0:0:0:0:
348,296,134320,1,8,0:0:0:0:
204,188,134720,6,0,L|376:212,2,150,6|8|0,0:0|0:0|0:0,0:0:0:0:
244,108,135720,1,2,0:0:0:0:
140,124,135920,2,0,L|176:52,1,75,8|0,0:0|0:0,0:0:0:0:
120,208,136320,2,0,P|64:172|72:72,1,150,2|8,0:0|0:0,0:0:0:0:
140,124,136920,1,2,0:0:0:0:
212,68,137120,1,0,0:0:0:0:
304,52,137320,2,0,B|344:64|344:64|380:108,1,75,2|8,0:0|0:0,0:0:0:0:
388,268,137920,6,0,L|296:260,1,75,2|0,0:0|0:0,0:0:0:0:
265,186,138320,2,0,L|340:176,1,75,8|2,0:0|0:0,0:0:0:0:
292,100,138720,2,0,L|204:104,1,75,0|2,0:0|0:0,0:0:0:0:
176,184,139120,2,0,L|216:260,1,75,8|0,0:0|0:0,0:0:0:0:
256,328,139520,2,0,P|320:332|292:272,1,150,2|8,0:0|0:0,0:0:0:0:
376,228,140120,1,2,0:0:0:0:
296,184,140320,2,0,B|280:144|280:144|304:84|304:84|280:24,1,150,0|8,0:0|0:0,0:0:0:0:
172,184,141120,5,6,0:0:0:0:
248,120,144120,5,2,0:0:0:0:
248,120,144320,1,2,0:0:0:0:
136,96,147520,6,0,L|280:96,1,134.999995880127,2|2,0:0|0:0,0:0:0:0:
332,52,148320,2,0,P|348:92|252:172,1,179.999994506836,2|2,0:0|0:0,0:0:0:0:
100,176,149720,1,2,0:0:0:0:
100,176,149920,1,2,0:0:0:0:
260,320,150720,1,2,0:0:0:0:
368,316,151120,6,0,B|328:188|432:232|408:100,1,224.999993133545
304,124,152520,2,0,B|344:232|424:204|448:304,1,224.999993133545
300,308,153920,6,0,B|248:320|248:320|164:292,1,120,2|8,0:0|0:0,0:0:0:0:
180,228,154520,1,2,0:0:0:0:
252,240,154720,2,0,B|328:224|328:224|364:264,1,120,2|8,0:0|0:0,0:0:0:0:
256,152,155520,5,2,0:0:0:0:
256,152,155920,2,0,L|176:140,2,60,8|2|2,0:0|0:0|0:0,0:0:0:0:
372,64,156720,2,0,L|224:72,1,120,8|2,0:0|0:0,0:0:0:0:
124,136,157520,2,0,L|88:68,2,60,8|2|2,0:0|0:0|0:0,0:0:0:0:
124,136,158320,1,8,0:0:0:0:
176,268,158720,1,2,0:0:0:0:
176,268,159120,2,0,L|236:248,2,60,8|2|2,0:0|0:0|0:0,0:0:0:0:
312,224,159920,5,8,0:0:0:0:
276,84,160320,2,0,P|320:60|384:88,1,120,2|8,0:0|0:0,0:0:0:0:
396,156,160920,1,2,0:0:0:0:
328,136,161120,2,0,P|280:160|216:120,2,120,2|8|2,0:0|0:0|0:0,0:0:0:0:
396,156,162120,6,0,L|416:100,2,60,0|8|2,0:0|0:0|0:0,0:0:0:0:
368,224,162720,1,2,0:0:0:0:
316,272,162920,1,0,0:0:0:0:
300,200,163120,2,0,B|236:172|248:224|172:180,1,120,8|2,0:0|0:0,0:0:0:0:
72,96,163920,2,0,L|60:8,2,60,8|2|2,0:0|0:0|0:0,0:0:0:0:
112,156,164520,1,0,0:0:0:0:
140,88,164720,2,0,P|184:132|180:188,2,120,8|2|8,0:0|0:0|0:0,0:0:0:0:
116,160,165720,5,2,0:0:0:0:
116,160,165920,1,2,0:0:0:0:
104,232,166120,1,0,0:0:0:0:
172,260,166320,2,0,P|212:256|256:176,1,120,8|2,0:0|0:0,0:0:0:0:
256,52,167120,5,8,0:0:0:0:
256,52,167320,1,2,0:0:0:0:
184,52,167520,2,0,B|136:56|116:72|116:72|88:56|56:60,1,120,2|8,0:0|0:0,0:0:0:0:
116,196,168320,6,0,L|96:256,1,60,2|0,0:0|0:0,0:0:0:0:
168,272,168720,2,0,L|188:340,1,60,8|2,0:0|0:0,0:0:0:0:
256,320,169120,2,0,L|316:360,2,60,2|0|8,0:0|0:0|0:0,0:0:0:0:
400,320,169920,2,0,P|376:264|396:188,1,120,2|8,0:0|0:0,0:0:0:0:
424,144,170520,1,2,0:0:0:0:
456,208,170720,2,0,P|484:188|476:92,1,120,2|8,0:0|0:0,0:0:0:0:
360,68,171320,5,2,0:0:0:0:
360,68,171520,1,2,0:0:0:0:
228,68,171720,1,2,0:0:0:0:
292,176,171920,1,2,0:0:0:0:
292,176,172320,2,0,P|292:224|292:300,1,120,2|2,0:0|0:0,0:0:0:0:
112,320,173120,6,0,B|48:256|128:244|68:168,2,150,6|8|0,0:0|0:0|0:0,0:0:0:0:
172,252,174120,1,2,0:0:0:0:
172,252,174320,2,0,P|196:288|200:340,1,75,8|0,0:0|0:0,0:0:0:0:
192,168,174720,2,0,P|244:156|372:180,1,150,2|8,0:0|0:0,0:0:0:0:
420,208,175320,5,2,0:0:0:0:
440,296,175520,2,0,P|400:304|360:324,1,75,0|2,0:0|0:0,0:0:0:0:
288,280,175920,2,0,P|236:272|192:284,1,75,8|0,0:0|0:0,0:0:0:0:
156,208,176320,6,0,L|132:112,1,75,2|0,0:0|0:0,0:0:0:0:
116,276,176720,2,0,L|24:320,1,75,8|2,0:0|0:0,0:0:0:0:
214,275,177120,2,0,L|276:320,1,75,0|2,0:0|0:0,0:0:0:0:
192,352,177520,1,8,0:0:0:0:
192,352,177720,1,0,0:0:0:0:
192,352,177920,6,0,B|144:344|80:360|80:360|88:332|76:296,1,150,2|8,0:0|0:0,0:0:0:0:
72,232,178520,1,2,0:0:0:0:
104,148,178720,2,0,B|136:156|164:188|164:188|180:160|248:140,1,150,0|8,0:0|0:0,0:0:0:0:
316,132,179320,1,0,0:0:0:0:
320,136,179520,6,0,B|324:168|396:160|396:160|432:144|416:88|344:96|352:128|396:220,1,269.999991760254,4|8,0:0|0:0,0:0:0:0:
440,284,180920,1,2,0:0:0:0:
356,320,181120,2,0,P|296:344|192:308,1,150,6|8,0:0|0:0,0:0:0:0:
128,308,181720,2,0,P|64:316|96:248,1,150,2|2,0:0|0:0,0:0:0:0:
148,200,182320,1,8,0:0:0:0:
296,100,182720,6,0,P|304:156|328:180,1,75,2|0,0:0|0:0,0:0:0:0:
376,236,183120,2,0,P|392:312|388:324,2,75,8|2|0,0:0|0:0|0:0,0:0:0:0:
292,272,183720,2,0,P|252:252|232:200,1,75,2|8,0:0|0:0,0:0:0:0:
184,152,184120,1,0,0:0:0:0:
148,68,184320,2,0,P|104:104|88:148,1,75,2|0,0:0|0:0,0:0:0:0:
76,208,184720,6,0,L|88:292,1,75,8|2,0:0|0:0,0:0:0:0:
168,320,185120,2,8,L|204:300,3,37.5
244,320,185520,2,8,L|280:296,3,37.5
320,304,185920,6,0,P|368:324|468:296,1,150,4|8,0:0|0:0,0:0:0:0:
456,212,186520,1,2,0:0:0:0:
440,124,186720,2,0,L|408:48,1,75,0|2,0:0|0:0,0:0:0:0:
320,68,187120,1,8,0:0:0:0:
236,96,187320,1,0,0:0:0:0:
296,160,187520,2,0,P|240:184|160:144,1,150,2|8,0:0|0:0,0:0:0:0:
108,76,188120,5,2,0:0:0:0:
68,156,188320,2,0,B|52:212|52:212|72:248|72:248|52:312,1,150,0|8,0:0|0:0,0:0:0:0:
236,320,189120,2,0,P|288:328|312:304,1,75,2|0,0:0|0:0,0:0:0:0:
412,232,189520,2,0,P|364:224|324:248,1,75,8|2,0:0|0:0,0:0:0:0:
432,324,189920,2,0,P|468:332|508:316,2,75,0|2|8,0:0|0:0|0:0,0:0:0:0:
252,324,190720,6,0,B|176:304|188:360|92:308,1,150,2|8,0:0|0:0,0:0:0:0:
156,240,191320,1,2,0:0:0:0:
192,156,191520,2,0,P|264:96|328:108,1,150,0|8,0:0|0:0,0:0:0:0:
348,280,192320,2,0,P|276:236|284:164,2,150,6|8|0,0:0|0:0|0:0,0:0:0:0:
416,148,193320,1,2,0:0:0:0:
348,204,193520,1,8,0:0:0:0:
336,116,193720,1,2,0:0:0:0:
324,28,193920,6,0,B|284:24|260:68|260:68|224:36|176:60,1,150,6|8,0:0|0:0,0:0:0:0:
124,108,194520,2,0,P|84:184|108:248,1,150,2|2,0:0|0:0,0:0:0:0:
176,192,195120,2,0,B|208:244|188:288|188:288|212:328|256:308,1,150,8|2,0:0|0:0,0:0:0:0:
308,284,195720,5,0,0:0:0:0:
380,232,195920,1,8,0:0:0:0:
356,144,196120,1,2,0:0:0:0:
268,144,196320,1,0,0:0:0:0:
239,225,196520,1,2,0:0:0:0:
152,244,196720,6,0,P|104:260|68:236,1,75,8|0,0:0|0:0,0:0:0:0:
108,340,197120,2,0,L|288:360,1,150,2|8,0:0|0:0,0:0:0:0:
344,336,197720,1,2,0:0:0:0:
344,336,197920,1,2,0:0:0:0:
412,280,198120,2,0,L|400:172,1,75,2|8,0:0|0:0,0:0:0:0:
308,52,198720,6,0,B|220:96|244:24|144:72,1,150,6|8,0:0|0:0,0:0:0:0:
104,132,199320,1,2,0:0:0:0:
112,312,199720,1,0,0:0:0:0:
200,332,199920,2,0,B|240:320|240:320|292:344|292:344|352:324,1,150,8|2,0:0|0:0,0:0:0:0:
304,244,200520,5,0,0:0:0:0:
372,184,200720,1,8,0:0:0:0:
428,252,200920,2,0,P|460:212|412:116,1,150,2|2,0:0|0:0,0:0:0:0:
508,76,201520,2,0,P|448:36|356:72,1,150,8|2,0:0|0:0,0:0:0:0:
432,124,202120,5,0,0:0:0:0:
368,188,202320,1,8,0:0:0:0:
288,228,202520,2,0,B|232:248|168:208|168:208|184:260,1,150,2|2,0:0|0:0,0:0:0:0:
180,320,203120,2,0,P|124:332|100:316,1,75,8|0,0:0|0:0,0:0:0:0:
64,248,203520,5,2,0:0:0:0:
64,248,203720,1,2,0:0:0:0:
96,72,204120,2,0,B|144:64|168:48|168:48|192:76|240:92,1,150,2|2,0:0|0:0,0:0:0:0:
316,112,204720,1,8,0:0:0:0:
356,288,205120,6,0,B|304:300|304:300|268:288,1,75,6|0,0:0|0:0,0:0:0:0:
212,240,205520,2,0,B|188:232|188:232|124:236,1,75,8|2,0:0|0:0,0:0:0:0:
48,224,205920,2,0,B|36:200|36:200|48:124,1,75,0|2,0:0|0:0,0:0:0:0:
108,88,206320,5,8,0:0:0:0:
196,100,206520,1,0,0:0:0:0:
244,176,206720,2,0,B|268:152|268:152|280:156|332:180|384:140,1,150,2|8,0:0|0:0,0:0:0:0:
468,144,207320,2,0,L|436:300,1,150,2|2,0:0|0:0,0:0:0:0:
348,324,207920,1,8,0:0:0:0:
180,260,208320,6,0,P|152:296|112:304,1,75,2|0,0:0|0:0,0:0:0:0:
108,216,208720,2,0,P|52:232|20:216,1,75,8|2,0:0|0:0,0:0:0:0:
72,144,209120,2,0,P|24:128|8:96,1,75,0|2,0:0|0:0,0:0:0:0:
92,68,209520,2,0,P|56:32|56:0,1,75,8|0,0:0|0:0,0:0:0:0:
164,80,209920,2,0,P|160:128|224:232,1,150,2|8,0:0|0:0,0:0:0:0:
288,248,210520,1,0,0:0:0:0:
204,220,210720,2,0,P|236:180|352:196,1,150,0|8,0:0|0:0,0:0:0:0:
