osu file format v14

[General]
AudioFilename: audio.mp3
AudioLeadIn: 0
PreviewTime: 115320
Countdown: 0
SampleSet: Soft
StackLeniency: 0.7
Mode: 0
LetterboxInBreaks: 0
EpilepsyWarning: 1
WidescreenStoryboard: 1

[Editor]
Bookmarks: 166850,176150
DistanceSpacing: 1
BeatDivisor: 4
GridSize: 4
TimelineZoom: 1.4

[Metadata]
Title:What The Hell
TitleUnicode:What The Hell
Artist:Avril Lavigne
ArtistUnicode:Avril Lavigne
Creator:5Atarox
Version:Easy
Source:
Tags:English,Pop,goodbye lullaby
BeatmapID:1346192
BeatmapSetID:634451

[Difficulty]
HPDrainRate:2
CircleSize:3
OverallDifficulty:3
ApproachRate:3
SliderMultiplier:0.799999999999999
SliderTickRate:1

[Events]
//Background and Video events
0,0,"Whatthehellok.jpg",0,0
//Break Periods
2,70520,75680
2,141320,142880
2,144520,146080
//Storyboard Layer 0 (Background)
//Storyboard Layer 1 (Fail)
//Storyboard Layer 2 (Pass)
//Storyboard Layer 3 (Foreground)
//Storyboard Sound Samples

[TimingPoints]
320,400,4,2,2,100,1,0
5120,-100,4,2,1,100,0,0
6720,-100,4,2,1,75,0,0
43320,-100,4,2,1,80,0,0
43520,-100,4,2,1,85,0,0
43720,-100,4,2,1,90,0,0
43920,-100,4,2,1,95,0,0
44120,-100,4,2,1,100,0,0
45120,-100,4,2,2,75,0,1
45520,-100,4,2,1,75,0,1
51520,-100,4,2,2,75,0,1
52320,-100,4,2,1,75,0,1
57920,-100,4,2,2,75,0,1
59120,-100,4,2,1,75,0,1
64320,-100,4,2,2,75,0,1
65120,-100,4,2,1,75,0,1
70320,-100,4,2,1,75,0,0
113520,-100,4,2,1,85,0,0
113720,-100,4,2,1,95,0,0
113920,-100,4,2,1,100,0,0
115520,-100,4,2,2,75,0,1
116720,-100,4,2,1,75,0,1
121920,-100,4,2,2,75,0,1
122720,-100,4,2,1,75,0,1
128320,-100,4,2,2,75,0,1
129520,-100,4,2,1,75,0,1
134720,-100,4,2,2,75,0,1
135120,-100,4,2,1,75,0,1
141120,-100,4,1,1,75,0,0
144120,-100,4,2,1,75,0,0
147520,-100,4,2,4,75,0,0
173120,-100,4,2,4,75,0,1
174320,-100,4,2,1,75,0,1
179520,-100,4,2,2,75,0,1
180320,-100,4,2,1,75,0,1
192320,-100,4,2,2,75,0,1
192720,-100,4,2,1,75,0,1
198720,-100,4,2,2,75,0,1
199920,-100,4,2,1,75,0,1
205120,-100,4,2,2,75,0,1
205920,-100,4,2,1,75,0,1
211120,-100,4,2,4,75,0,0

[Colours]
Combo1 : 160,131,152
Combo2 : 248,228,97
Combo3 : 219,149,4
Combo4 : 129,82,124

[HitObjects]
132,224,5120,6,0,L|212:208,2,79.9999999999999,4|4|4,0:0|0:0|0:0,0:0:0:0:
80,160,6320,1,4,0:0:0:0:
80,80,6720,6,0,L|160:64,1,79.9999999999999,2|8,0:0|0:0,0:0:0:0:
236,56,7520,1,0,0:0:0:0:
280,124,7920,2,0,L|308:216,1,79.9999999999999,8|2,0:0|0:0,0:0:0:0:
380,228,8720,2,0,P|324:280|244:256,2,160,8|8|8,0:0|0:0|0:0,0:0:0:0:
424,72,11120,6,0,B|380:56|348:80|348:80,1,79.9999999999999,8|6,0:0|0:0,0:0:0:0:
276,120,11920,2,0,P|224:144|192:136,2,79.9999999999999,12|6|12,0:0|0:0|0:0,0:0:0:0:
220,60,13120,6,0,P|136:88|128:168,1,160,2|0,0:0|0:0,0:0:0:0:
148,228,14320,2,0,L|200:304,1,79.9999999999999,8|2,0:0|0:0,0:0:0:0:
272,288,15120,2,0,L|356:268,1,79.9999999999999,8|0,0:0|0:0,0:0:0:0:
428,252,15920,2,0,B|420:196|420:196|452:152|452:152|444:88,1,160,8|8,0:0|0:0,0:0:0:0:
288,72,17520,1,8,0:0:0:0:
132,108,18320,2,0,B|104:140|124:184|124:184|148:220|120:276,1,160,8|8,0:0|0:0,0:0:0:0:
200,284,19520,6,0,L|280:264,1,79.9999999999999,2|8,0:0|0:0,0:0:0:0:
328,204,20320,2,0,L|408:148,1,79.9999999999999,0|8,0:0|0:0,0:0:0:0:
360,84,21120,2,0,L|396:-4,2,79.9999999999999,2|8|0,0:0|0:0|0:0,0:0:0:0:
388,160,22320,2,0,B|320:176|288:120|288:120|256:160,1,160,8|8,0:0|0:0,0:0:0:0:
192,300,23920,6,0,B|112:308|112:308|28:272,1,160,8|8,0:0|0:0,0:0:0:0:
24,200,25120,1,2,0:0:0:0:
56,128,25520,2,0,B|96:112|96:112|144:136,1,79.9999999999999,8|0,0:0|0:0,0:0:0:0:
192,176,26320,2,0,B|228:192|228:192|280:176,2,79.9999999999999,8|0|8,0:0|0:0|0:0,0:0:0:0:
172,252,27520,6,0,L|252:300,1,79.9999999999999,2|8,0:0|0:0,0:0:0:0:
312,328,28320,1,0,0:0:0:0:
388,304,28720,2,0,L|420:132,1,160,8|8,0:0|0:0,0:0:0:0:
272,76,30320,6,0,P|224:76|192:92,1,79.9999999999999,8|2,0:0|0:0,0:0:0:0:
156,160,31120,2,0,P|116:172|68:152,1,79.9999999999999,8|2,0:0|0:0,0:0:0:0:
164,300,32320,2,0,P|212:308|280:224,1,160,2|0,0:0|0:0,0:0:0:0:
200,228,33520,1,8,0:0:0:0:
180,152,33920,1,2,0:0:0:0:
228,88,34320,2,0,P|144:80|100:148,1,160,8|8,0:0|0:0,0:0:0:0:
116,212,35520,5,2,0:0:0:0:
116,292,35920,2,0,B|168:292|188:252|188:252|208:216|260:204,2,160,8|8|8,0:0|0:0|0:0,0:0:0:0:
276,296,38320,2,0,P|328:252|316:156,1,160,8|8,0:0|0:0,0:0:0:0:
448,60,39920,6,0,L|472:228,1,160,8|8,0:0|0:0,0:0:0:0:
488,296,41120,1,0,0:0:0:0:
424,344,41520,1,8,0:0:0:0:
256,192,41920,12,0,44120,0:0:0:0:
84,68,45120,5,6,0:0:0:0:
160,88,45520,2,0,L|256:68,1,79.9999999999999,8|0,0:0|0:0,0:0:0:0:
280,140,46320,2,0,L|372:152,1,79.9999999999999,8|2,0:0|0:0,0:0:0:0:
408,216,47120,1,8,0:0:0:0:
484,244,47520,2,0,P|432:292|352:272,1,160,0|2,0:0|0:0,0:0:0:0:
296,232,48720,6,0,P|240:228|212:244,1,79.9999999999999,8|0,0:0|0:0,0:0:0:0:
156,288,49520,2,0,P|96:296|72:284,1,79.9999999999999,8|2,0:0|0:0,0:0:0:0:
92,168,50520,2,0,L|164:108,1,79.9999999999999
272,96,51520,6,0,P|328:84|396:160,1,160,6|0,0:0|0:0,0:0:0:0:
368,224,52720,1,8,0:0:0:0:
316,164,53120,2,0,B|288:188|284:224|272:256|312:268|316:288|308:308|276:316,1,160
244,372,54320,2,0,P|219:345|220:288,1,79.9999999999999,8|2,0:0|0:0,0:0:0:0:
204,224,55120,2,0,P|208:196|184:144,2,79.9999999999999,8|0|8,0:0|0:0|0:0,0:0:0:0:
284,224,56320,6,0,L|420:120,1,160,2|2,0:0|0:0,0:0:0:0:
412,48,57520,1,8,0:0:0:0:
332,60,57920,6,0,B|288:40|252:56|252:56|208:84|172:56,1,160,6|0,0:0|0:0,0:0:0:0:
116,108,59120,2,0,L|92:184,1,79.9999999999999,8|2,0:0|0:0,0:0:0:0:
160,228,59920,2,0,L|172:312,1,79.9999999999999,8|0,0:0|0:0,0:0:0:0:
240,348,60720,2,0,P|304:360|324:348,1,79.9999999999999,8|2,0:0|0:0,0:0:0:0:
284,280,61520,1,8,0:0:0:0:
416,192,62320,6,0,L|408:96,1,79.9999999999999,8|2,0:0|0:0,0:0:0:0:
348,60,63120,1,8,0:0:0:0:
272,44,63520,2,0,P|208:80|196:100,1,79.9999999999999,0|8,0:0|0:0,0:0:0:0:
196,164,64320,6,0,P|204:216|112:280,1,160,6|0,0:0|0:0,0:0:0:0:
124,200,65520,1,8,0:0:0:0:
88,128,65920,2,0,L|76:48,1,79.9999999999999,2|8,0:0|0:0,0:0:0:0:
156,48,66720,2,0,L|240:20,1,79.9999999999999,0|8,0:0|0:0,0:0:0:0:
308,40,67520,6,0,L|464:80,1,160,2|0,0:0|0:0,0:0:0:0:
416,232,69120,2,0,L|248:188,1,160,2|0,0:0|0:0,0:0:0:0:
184,164,70320,1,8,0:0:0:0:
128,60,77120,6,0,B|140:132|140:132|216:188,1,160,2|0,0:0|0:0,0:0:0:0:
264,128,78320,2,0,B|304:120|304:120|348:144,1,79.9999999999999,8|2,0:0|0:0,0:0:0:0:
376,208,79120,2,0,P|340:252|232:236,1,160,8|8,0:0|0:0,0:0:0:0:
200,184,80320,6,0,P|224:104|292:192,1,240,2|8,0:0|0:0,0:0:0:0:
308,264,81920,2,0,L|224:308,1,79.9999999999999,2|8,0:0|0:0,0:0:0:0:
168,260,82720,2,0,L|76:240,1,79.9999999999999,2|8,0:0|0:0,0:0:0:0:
104,84,83920,5,8,0:0:0:0:
260,60,84720,2,0,L|352:56,1,79.9999999999999,8|2,0:0|0:0,0:0:0:0:
408,100,85520,2,0,L|448:184,1,79.9999999999999,8|0,0:0|0:0,0:0:0:0:
440,252,86320,2,0,B|396:244|352:264|352:264|308:280|276:260,2,160,8|8|8,0:0|0:0|0:0,0:0:0:0:
420,332,88320,6,0,L|504:344,2,79.9999999999999,2|8|2,0:0|0:0|0:0,0:0:0:0:
344,308,89520,2,0,L|256:316,1,79.9999999999999,8|2,0:0|0:0,0:0:0:0:
184,316,90320,1,8,0:0:0:0:
120,168,91120,6,0,P|116:96|184:40,1,160,8|8,0:0|0:0,0:0:0:0:
276,168,92720,2,0,P|336:140|336:48,2,160,8|8|8,0:0|0:0|0:0,0:0:0:0:
268,88,94720,2,0,L|184:64,1,79.9999999999999,6|12,0:0|0:0,0:0:0:0:
132,120,95520,2,0,L|36:144,1,79.9999999999999,6|12,0:0|0:0,0:0:0:0:
136,276,96720,5,8,0:0:0:0:
132,116,97520,2,0,P|176:108|216:124,1,79.9999999999999,8|2,0:0|0:0,0:0:0:0:
252,188,98320,2,0,P|296:196|336:176,2,79.9999999999999,8|0|8,0:0|0:0|0:0,0:0:0:0:
172,188,99520,6,0,L|172:280,1,79.9999999999999,2|8,0:0|0:0,0:0:0:0:
216,332,100320,1,2,0:0:0:0:
296,332,100720,2,0,L|380:304,1,79.9999999999999,8|2,0:0|0:0,0:0:0:0:
380,228,101520,2,0,L|452:176,2,79.9999999999999,8|2|8,0:0|0:0|0:0,0:0:0:0:
332,164,102720,6,0,P|304:196|304:240,2,79.9999999999999,2|8|0,0:0|0:0|0:0,0:0:0:0:
284,100,103920,1,8,0:0:0:0:
300,20,104320,2,0,P|240:28|208:120,1,160,2|0,0:0|0:0,0:0:0:0:
260,172,105520,1,8,0:0:0:0:
284,96,105920,2,0,L|368:112,1,79.9999999999999,2|8,0:0|0:0,0:0:0:0:
424,56,106720,6,0,B|472:132|404:180|404:180|416:284,1,240,2|8,0:0|0:0,0:0:0:0:
336,292,108320,1,2,0:0:0:0:
272,244,108720,2,0,P|256:284|264:324,2,79.9999999999999,8|2|8,0:0|0:0|0:0,0:0:0:0:
308,84,110320,5,8,0:0:0:0:
228,68,110720,1,2,0:0:0:0:
156,36,111120,2,0,P|148:80|172:120,1,79.9999999999999,8|0,0:0|0:0,0:0:0:0:
216,172,111920,1,8,0:0:0:0:
256,192,112320,12,0,114320,0:0:0:0:
136,72,115520,6,0,P|176:48|272:100,1,160,6|0,0:0|0:0,0:0:0:0:
196,128,116720,1,8,0:0:0:0:
132,176,117120,2,0,P|164:204|208:208,2,79.9999999999999,2|8|0,0:0|0:0|0:0,0:0:0:0:
80,116,118320,2,0,P|52:168|104:256,1,160,8|8,0:0|0:0,0:0:0:0:
252,284,119920,6,0,L|344:256,1,79.9999999999999,8|2,0:0|0:0,0:0:0:0:
372,192,120720,2,0,L|396:104,1,79.9999999999999,8|0,0:0|0:0,0:0:0:0:
348,48,121520,1,8,0:0:0:0:
268,48,121920,6,0,P|224:52|148:140,1,160,6|0,0:0|0:0,0:0:0:0:
152,212,123120,1,8,0:0:0:0:
304,260,123920,2,0,P|344:224|352:116,1,160,8|8,0:0|0:0,0:0:0:0:
296,72,125120,2,0,P|264:68|216:88,1,79.9999999999999,2|8,0:0|0:0,0:0:0:0:
196,160,125920,2,0,P|156:176|108:164,2,79.9999999999999,0|8|2,0:0|0:0|0:0,0:0:0:0:
264,288,127320,6,0,L|392:308,1,120,2|8,0:0|0:0,0:0:0:0:
464,312,128320,2,0,B|468:256|416:224|416:224|372:188|384:168,1,160,6|0,0:0|0:0,0:0:0:0:
456,152,129520,2,0,B|440:112|400:96|400:96|352:76|368:28,1,160,8|8,0:0|0:0,0:0:0:0:
212,76,131120,5,8,0:0:0:0:
148,124,131520,2,0,L|132:208,1,79.9999999999999,2|8,0:0|0:0,0:0:0:0:
272,284,132720,2,0,L|356:268,1,79.9999999999999,8|0,0:0|0:0,0:0:0:0:
404,160,133720,5,2,0:0:0:0:
332,128,134120,1,2,0:0:0:0:
224,72,134720,6,0,B|184:64|184:64|140:80,1,79.9999999999999,6|8,0:0|0:0,0:0:0:0:
108,148,135520,1,0,0:0:0:0:
156,212,135920,2,0,B|192:228|192:228|240:208,1,79.9999999999999,8|2,0:0|0:0,0:0:0:0:
272,144,136720,1,8,0:0:0:0:
404,52,137520,6,0,B|388:96|404:120|404:120|472:108|460:172,1,160,8|8,0:0|0:0,0:0:0:0:
320,244,139120,1,8,0:0:0:0:
348,320,139520,2,0,P|280:316|268:304,1,79.9999999999999,2|8,0:0|0:0,0:0:0:0:
232,244,140320,2,0,P|184:224|152:232,1,79.9999999999999,0|8,0:0|0:0,0:0:0:0:
96,280,141120,5,4,0:0:0:0:
88,68,144320,5,2,0:0:0:0:
352,100,147520,6,0,P|296:92|272:100,1,79.9999999999999,2|0,0:0|0:0,0:0:0:0:
312,168,148320,2,0,P|324:212|316:252,1,79.9999999999999,2|0,0:0|0:0,0:0:0:0:
244,212,149120,1,2,0:0:0:0:
140,88,149920,1,2,0:0:0:0:
296,60,150720,6,0,P|356:48|420:132,1,160,2|2,0:0|0:0,0:0:0:0:
380,308,152320,2,0,B|324:256|264:260|264:260|184:296|148:248,1,240,2|0,0:0|0:0,0:0:0:0:
132,184,153920,2,0,B|124:140|124:140|144:96,1,79.9999999999999,2|8,0:0|0:0,0:0:0:0:
216,120,154720,2,0,B|228:84|228:84|212:36,2,79.9999999999999,2|8|2,0:0|0:0|0:0,0:0:0:0:
192,196,155920,5,8,0:0:0:0:
248,256,156320,2,0,L|344:256,1,79.9999999999999,2|8,0:0|0:0,0:0:0:0:
384,312,157120,1,2,0:0:0:0:
460,332,157520,2,0,B|472:276|424:244|424:244|412:212|424:180,1,160,8|8,0:0|0:0,0:0:0:0:
444,108,158720,1,2,0:0:0:0:
396,44,159120,6,0,L|308:60,1,79.9999999999999,8|2,0:0|0:0,0:0:0:0:
300,136,159920,2,0,L|220:188,1,79.9999999999999,8|2,0:0|0:0,0:0:0:0:
276,248,160720,2,0,L|284:332,2,79.9999999999999,8|2|8,0:0|0:0|0:0,0:0:0:0:
232,179,161920,1,2,0:0:0:0:
200,104,162320,6,0,P|252:96|280:116,1,79.9999999999999,8|2,0:0|0:0,0:0:0:0:
324,172,163120,2,0,P|368:192|400:184,1,79.9999999999999,8|2,0:0|0:0,0:0:0:0:
436,116,163920,2,0,B|432:92|404:60|404:60|352:80|312:24,1,160,8|8,0:0|0:0,0:0:0:0:
244,64,165120,1,2,0:0:0:0:
240,144,165520,2,0,P|240:192|256:236,1,79.9999999999999,8|2,0:0|0:0,0:0:0:0:
312,272,166320,5,8,0:0:0:0:
388,300,166720,1,2,0:0:0:0:
376,220,167120,1,8,0:0:0:0:
444,176,167520,2,0,P|408:144|364:140,1,79.9999999999999,2|8,0:0|0:0,0:0:0:0:
296,140,168320,2,0,P|252:140|220:124,2,79.9999999999999,2|8|2,0:0|0:0|0:0,0:0:0:0:
272,64,169520,5,8,0:0:0:0:
352,52,169920,2,0,L|444:44,1,79.9999999999999,2|8,0:0|0:0,0:0:0:0:
512,36,170720,1,2,0:0:0:0:
44,136,173120,6,0,P|60:80|160:64,1,160,6|0,0:0|0:0,0:0:0:0:
204,116,174320,1,8,0:0:0:0:
128,136,174720,2,0,L|144:216,1,79.9999999999999,2|8,0:0|0:0,0:0:0:0:
280,300,175920,5,8,0:0:0:0:
312,228,176320,2,0,B|340:192|340:192|408:172|408:172|436:132,1,160,2|0,0:0|0:0,0:0:0:0:
448,56,177520,2,0,P|396:60|372:84,1,79.9999999999999,8|2,0:0|0:0,0:0:0:0:
304,108,178320,1,8,0:0:0:0:
308,188,178720,2,0,L|332:276,1,79.9999999999999,0|8,0:0|0:0,0:0:0:0:
384,324,179520,2,0,P|340:344|252:284,1,160,6|0,0:0|0:0,0:0:0:0:
224,216,180720,5,8,0:0:0:0:
156,176,181120,2,0,L|112:96,1,79.9999999999999,2|8,0:0|0:0,0:0:0:0:
188,68,181920,2,0,L|240:0,1,79.9999999999999,0|8,0:0|0:0,0:0:0:0:
304,44,182720,2,0,B|308:88|308:88|360:128|344:168|344:168|300:220|372:256|372:256,1,240,2|8,0:0|0:0,0:0:0:0:
380,332,184320,2,0,P|332:344|300:320,2,79.9999999999999,2|8|8,0:0|0:0|0:0,0:0:0:0:
256,192,185720,12,0,189320,0:0:0:0:
112,80,190720,6,0,B|148:64|184:80|184:80|220:96|280:72,1,160,2|0,0:0|0:0,0:0:0:0:
348,64,191920,1,8,0:0:0:0:
416,108,192320,2,0,P|392:140|352:144,1,79.9999999999999,6|8,0:0|0:0,0:0:0:0:
276,164,193120,2,0,L|304:248,1,79.9999999999999,0|8,0:0|0:0,0:0:0:0:
336,312,193920,1,2,0:0:0:0:
256,320,194320,2,0,L|164:332,1,79.9999999999999,8|0,0:0|0:0,0:0:0:0:
96,340,195120,1,8,0:0:0:0:
108,260,195520,6,0,B|84:220|84:220|120:168|120:168|80:100|80:100|124:68,1,240,2|8,0:0|0:0,0:0:0:0:
196,100,197120,2,0,P|232:112|276:100,1,79.9999999999999,2|8,0:0|0:0,0:0:0:0:
352,88,197920,2,0,P|372:120|368:176,1,79.9999999999999,0|8,0:0|0:0,0:0:0:0:
364,240,198720,6,0,P|304:232|200:248,1,160,6|0,0:0|0:0,0:0:0:0:
152,188,199920,2,0,L|128:108,1,79.9999999999999,8|2,0:0|0:0,0:0:0:0:
104,36,200720,1,8,0:0:0:0:
260,76,201520,6,0,P|308:100|408:60,1,160,8|8,0:0|0:0,0:0:0:0:
404,228,203120,2,0,L|320:240,1,79.9999999999999,8|2,0:0|0:0,0:0:0:0:
264,188,203920,2,0,L|176:184,1,79.9999999999999,8|0,0:0|0:0,0:0:0:0:
104,180,204720,1,8,0:0:0:0:
92,100,205120,6,0,B|140:84|152:40|152:40|240:52,1,160,6|0,0:0|0:0,0:0:0:0:
300,64,206320,1,8,0:0:0:0:
376,88,206720,2,0,P|360:120|316:140,1,79.9999999999999,2|8,0:0|0:0,0:0:0:0:
164,172,207920,5,8,0:0:0:0:
172,252,208320,2,0,B|196:276|232:256|232:256|264:224|304:244|304:244|348:280|400:244,1,240,2|8,0:0|0:0,0:0:0:0:
352,180,209920,2,0,L|348:84,1,79.9999999999999,2|8,0:0|0:0,0:0:0:0:
188,100,211120,1,8,0:0:0:0:
