osu file format v14

[General]
AudioFilename: Avril Lavigne - Smile.mp3
AudioLeadIn: 2000
PreviewTime: 40420
Countdown: 0
SampleSet: Soft
StackLeniency: 0.7
Mode: 0
LetterboxInBreaks: 0
WidescreenStoryboard: 1

[Editor]
Bookmarks: 206,207063
DistanceSpacing: 1
BeatDivisor: 4
GridSize: 4
TimelineZoom: 1

[Metadata]
Title:Smile
TitleUnicode:Smile
Artist:Avril Lavigne
ArtistUnicode:Avril Lavigne
Creator:Gero
Version:Normal
Source:
Tags:
BeatmapID:1913353
BeatmapSetID:916162

[Difficulty]
HPDrainRate:4
CircleSize:4
OverallDifficulty:4
ApproachRate:5
SliderMultiplier:1.75
SliderTickRate:2

[Events]
//Background and Video events
0,0,"#JustSmile.jpg",0,0
Video,-200,"Video.mp4"
//Break Periods
//Storyboard Layer 0 (Background)
//Storyboard Layer 1 (Fail)
//Storyboard Layer 2 (Pass)
//Storyboard Layer 3 (Foreground)
//Storyboard Sound Samples

[TimingPoints]
206,571.428571428571,4,2,1,40,1,0
206,-100,4,2,1,40,0,0
4777,-100,4,2,1,60,0,0
40777,-100,4,2,1,50,0,0
41348,-86.9565217391304,4,2,1,90,0,1
68777,-100,4,2,1,40,0,0
71063,-100,4,2,1,60,0,0
104777,-100,4,2,1,50,0,0
105348,-86.9565217391304,4,2,1,90,0,1
141920,-100,4,2,1,40,0,0
151063,-100,4,2,1,30,0,0
159634,-100,4,2,1,50,0,0
160205,-86.9565217391304,4,2,1,90,0,1
196777,-100,4,2,1,50,0,0
203634,-100,4,2,1,40,0,0
204205,-100,4,2,1,30,0,0
204777,-100,4,2,1,25,0,0
205348,-100,4,2,1,20,0,0
205920,-100,4,2,1,15,0,0
206491,-100,4,2,1,10,0,0
207063,-100,4,2,1,5,0,0

[Colours]
Combo1 : 51,189,255
Combo2 : 0,255,64
Combo3 : 255,255,0
SliderBorder : 90,90,90
SliderTrackOverride : 255,255,255

[HitObjects]
320,376,206,6,0,B|368:360|378:316|378:316|368:272|320:256,1,175,2|2,0:0|0:3,0:0:0:0:
256,192,1063,2,0,L|217:170,2,43.75,2|2|2,0:3|0:3|0:3,0:0:0:0:
320,128,1634,2,0,L|434:192,2,131.25,2|2|2,0:0|0:0|0:0,0:0:0:0:
320,128,3063,5,2,0:3:0:0:
256,192,3348,2,0,L|217:170,2,43.75,2|2|2,0:3|0:3|0:3,0:0:0:0:
192,256,3920,2,0,L|78:192,1,131.25,2|2,0:3|0:3,0:0:0:0:
196,64,4777,6,0,P|256:87|316:64,1,131.25,4|0,1:2|0:0,0:0:0:0:
346,33,5348,1,0,1:0:0:0:
392,108,5634,2,0,B|381:150|381:150|391:192,1,87.5
341,266,6205,2,0,L|468:235,2,131.25,4|4|4,1:2|1:2|1:2,0:0:0:0:
256,292,7348,1,0,0:0:0:0:
176,332,7634,2,0,P|161:292|176:252,1,87.5,0|0,1:0|0:0,0:0:0:0:
112,192,8205,1,0,0:0:0:0:
176,132,8491,2,0,P|161:92|176:52,1,87.5,0|0,1:0|1:0,0:0:0:0:
208,24,8920,1,0,0:0:0:0:
320,92,9348,6,0,B|408:92|408:92|469:153,1,175,4|0,1:2|1:0,0:0:0:0:
392,192,10205,2,0,L|453:253,1,87.5
375,295,10777,2,0,P|315:318|256:296,2,131.25,4|4|4,1:2|1:2|1:2,0:0:0:0:
436,356,11920,1,0,0:0:0:0:
497,294,12205,2,0,B|486:252|486:252|496:210,1,87.5,0|0,1:0|0:0,0:0:0:0:
416,172,12777,2,0,L|446:44,2,131.25,0|0|0,0:0|1:0|0:0,0:0:0:0:
336,208,13920,6,0,P|256:238|176:208,1,175,4|0,1:2|1:0,0:0:0:0:
113,145,14777,1,0,0:0:0:0:
174,83,15063,1,0,0:0:0:0:
112,21,15348,2,0,B|71:21|71:21|24:21|-8:64,2,131.25,4|4|4,1:2|1:2|1:2,0:0:0:0:
174,83,16491,1,0,0:0:0:0:
113,145,16777,2,0,B|113:197|93:229|93:229|113:261|113:313,1,175,0|0,1:0|0:0,0:0:0:0:
184,364,17634,1,0,1:0:0:0:
256,312,17920,1,0,1:0:0:0:
256,312,18063,1,0,0:0:0:0:
363,240,18491,6,0,P|393:159|363:79,1,175,4|0,1:2|1:0,0:0:0:0:
312,12,19348,1,0,0:0:0:0:
256,80,19634,1,0,0:0:0:0:
200,12,19920,2,0,B|136:12|136:12|88:60,2,131.25,4|4|4,1:2|1:2|1:2,0:0:0:0:
256,80,21063,1,0,0:0:0:0:
312,148,21348,2,0,B|304:188|256:211|256:211|208:188|200:148,2,175,0|0|0,1:0|0:0|1:0,0:0:0:0:
363,79,22777,1,0,0:0:0:0:
420,148,23063,6,0,L|362:313,1,175,4|0,1:2|1:0,0:0:0:0:
292,264,23920,2,0,P|256:243|220:264,1,87.5
150,313,24491,2,0,L|105:189,2,131.25,4|4|4,1:2|1:2|1:2,0:0:0:0:
256,172,25920,1,0,1:0:0:0:
316,108,26205,1,0,0:0:0:0:
256,44,26491,1,0,0:0:0:0:
196,108,26777,1,0,1:0:0:0:
256,172,27063,1,0,1:0:0:0:
256,172,27205,1,0,0:0:0:0:
336,276,27634,6,0,P|256:307|176:276,2,175,4|0|0,1:2|1:0|0:0,0:0:0:0:
404,220,29063,2,0,L|384:349,2,131.25,4|4|4,1:2|1:2|1:2,0:0:0:0:
296,80,30491,2,0,B|256:62|256:62|216:80,1,87.5,0|0,1:0|0:0,0:0:0:0:
196,164,31063,2,0,P|256:186|316:164,2,131.25,0|0|0,0:0|1:0|0:0,0:0:0:0:
136,228,32205,6,0,P|256:274|376:228,1,262.5,4|0,1:2|0:0,0:0:0:0:
437,290,33348,1,0,0:0:0:0:
498,228,33634,2,0,B|498:168|498:168|502:156|502:156|502:97,2,131.25,4|4|4,1:2|1:2|1:2,0:0:0:0:
376,352,35063,2,0,B|340:324|340:324|296:324,1,87.5,0|0,1:0|0:0,0:0:0:0:
296,236,35634,2,0,B|256:253|256:253|216:236,1,87.5,0|0,0:0|1:0,0:0:0:0:
213,324,36205,2,0,B|172:324|172:324|136:352,1,87.5,0|0,1:0|0:0,0:0:0:0:
100,272,36777,6,0,P|70:192|100:112,1,175,4|0,1:2|1:0,0:0:0:0:
136,32,37634,2,0,B|172:60|172:60|213:60,1,87.5
264,132,38205,2,0,B|264:168|286:192|286:192|264:216|264:252,2,131.25,4|4|4,1:2|1:2|1:2,0:0:0:0:
100,192,39634,1,0,1:0:0:0:
40,128,39920,2,0,B|8:140|-17:192|-17:192|8:244|40:256,1,175,0|0,0:0|1:0,0:0:0:0:
100,320,40777,5,2,0:0:0:0:
100,320,41348,6,0,B|196:388|360:328|388:200|256:116|124:200|152:328|316:388|412:320,1,603.750011515618,4|0,0:0|1:0,0:0:0:0:
483,248,43348,1,2,0:0:0:0:
411,176,43634,2,0,P|399:128|411:80,1,100.62500191927,4|0,0:0|0:0,0:0:0:0:
500,28,44205,2,0,P|512:76|500:124,1,100.62500191927,0|0,1:0|0:0,0:0:0:0:
411,79,44777,2,0,B|376:36|328:36|328:36|272:36,2,150.937502878904,2|2|2,0:0|0:0|0:0,0:0:0:0:
328,136,45920,6,0,L|124:136,1,201.250003838539,4|0,0:0|1:0,0:0:0:0:
44,192,46777,1,2,0:0:0:0:
126,248,47063,2,0,P|188:248|188:324,2,150.937502878904,2|2|2,0:0|0:0|0:0,0:0:0:0:
126,136,48205,2,0,P|188:136|188:60,2,150.937502878904,4|2|2,0:0|0:0|0:0,0:0:0:0:
44,192,49348,2,0,L|-8:192,2,50.3125009596348,2|0|0,0:0|0:0|0:0,0:0:0:0:
126,248,49920,2,0,B|176:248|176:248|212:284,1,100.62500191927,0|0,1:0|0:0,0:0:0:0:
285,352,50491,6,0,B|364:396|432:320|408:232|336:220|336:220|370:192|370:192|336:164|336:164|408:152|432:64|364:-12|284:32,1,603.750011515618,4|0,0:0|1:0,0:0:0:0:
192,72,52491,1,2,0:0:0:0:
104,120,52777,2,0,P|84:192|104:264,1,150.937502878904,4|0,0:0|0:0,0:0:0:0:
136,300,53348,1,0,1:0:0:0:
208,368,53634,5,0,0:0:0:0:
208,368,53777,1,0,0:0:0:0:
208,368,53920,2,0,P|256:382|304:368,1,100.62500191927,2|0,0:0|0:0,0:0:0:0:
339,332,54348,2,0,P|387:318|435:332,1,100.62500191927,2|0,0:0|0:0,0:0:0:0:
470,367,54777,1,2,0:0:0:0:
504,272,55063,6,0,P|452:192|504:112,1,201.250003838539,4|0,0:0|1:0,0:0:0:0:
428,48,55920,2,0,B|403:43|403:43|378:48,1,50.3125009596348,2|0,0:0|0:0,0:0:0:0:
328,56,56205,2,0,B|352:128|352:128|328:200,2,150.937502878904,2|2|2,0:0|0:0|0:0,0:0:0:0:
256,128,57348,2,0,B|232:200|232:200|256:272,2,150.937502878904,4|2|2,0:0|0:0|0:0,0:0:0:0:
184,56,58491,2,0,L|167:103,1,50.3125009596348,2|0,0:0|0:0,0:0:0:0:
116,103,58777,2,0,L|99:150,1,50.3125009596348
48,150,59063,2,0,L|78:246,1,100.62500191927,0|0,1:0|0:0,0:0:0:0:
164,304,59634,6,0,P|256:339|348:304,1,201.250003838539,4|0,0:0|1:0,0:0:0:0:
416,376,60491,2,0,P|381:283|416:191,1,201.250003838539,2|2,0:0|0:0,0:0:0:0:
486,120,61348,1,0,1:0:0:0:
414,48,61634,1,2,0:0:0:0:
343,118,61920,6,0,B|275:118|275:118|267:122|267:122|259:126|259:126|191:126,1,150.937502878904,4|0,0:0|0:0,0:0:0:0:
158,90,62491,2,0,B|158:142|158:142|132:184,1,100.62500191927,0|0,1:0|0:0,0:0:0:0:
96,218,62920,1,0,0:0:0:0:
60,253,63063,1,0,0:0:0:0:
136,320,63348,1,2,0:0:0:0:
212,253,63634,2,0,B|240:260|256:276|256:276|272:260|300:253,1,100.62500191927,0|2,1:0|0:0,0:0:0:0:
376,320,64205,6,0,L|256:159,1,201.250003838539,4|0,0:0|1:0,0:0:0:0:
164,120,65063,2,0,P|256:155|348:120,1,201.250003838539,2|2,0:0|0:0,0:0:0:0:
419,48,65920,1,0,1:0:0:0:
490,119,66205,1,2,0:0:0:0:
418,190,66491,6,0,P|406:238|418:286,1,100.62500191927,4|0,0:0|0:0,0:0:0:0:
456,320,66920,1,0,0:0:0:0:
489,357,67063,2,0,B|448:296|384:296|384:296|308:296,1,201.250003838539,0|0,1:0|0:0,0:0:0:0:
256,212,67920,1,0,0:0:0:0:
203,296,68205,2,0,L|176:348,2,50.3125009596348,0|0|0,1:0|0:0|0:0,0:0:0:0:
150,212,68777,6,0,P|256:98|362:212,1,350,2|0,0:0|0:0,0:0:0:0:
309,296,70205,2,0,B|280:308|256:334|256:334|232:308|203:296,2,131.25,2|2|4,0:0|0:0|1:2,0:0:0:0:
370,357,71348,1,0,0:0:0:0:
431,295,71634,2,0,B|420:253|420:253|430:211,1,87.5,0|0,1:0|0:0,0:0:0:0:
360,160,72205,2,0,B|371:118|371:118|361:76,1,87.5,0|0,0:0|1:0,0:0:0:0:
284,116,72777,1,0,1:0:0:0:
284,116,72920,1,0,0:0:0:0:
176,192,73348,6,0,P|96:222|16:192,1,175,4|0,1:2|1:0,0:0:0:0:
56,116,74205,2,0,P|96:101|136:116,1,87.5
196,52,74777,2,0,P|256:75|316:52,2,131.25,4|4|4,1:2|1:2|1:2,0:0:0:0:
96,196,76205,1,0,1:0:0:0:
167,247,76491,2,0,P|199:278|211:319,1,87.5
300,319,77063,2,0,P|312:278|344:247,1,87.5,0|0,0:0|1:0,0:0:0:0:
416,196,77634,1,0,0:0:0:0:
336,160,77920,6,0,P|256:191|176:160,1,175,4|0,1:2|1:0,0:0:0:0:
114,98,78777,1,0,0:0:0:0:
52,159,79063,1,0,0:0:0:0:
113,220,79348,2,0,B|128:256|128:256|148:300|128:348,2,131.25,4|4|4,1:2|1:2|1:2,0:0:0:0:
52,159,80491,1,0,0:0:0:0:
114,98,80777,2,0,L|200:60,1,87.5,0|0,1:0|0:0,0:0:0:0:
256,124,81348,2,0,L|342:86,1,87.5
398,150,81920,1,0,1:0:0:0:
398,150,82063,1,0,0:0:0:0:
504,248,82491,6,0,B|476:304|416:304|416:304|352:304,1,175,4|0,1:2|1:0,0:0:0:0:
256,304,83348,1,0,0:0:0:0:
160,304,83634,1,0,0:0:0:0:
208,220,83920,2,0,P|256:182|304:220,2,131.25,4|4|4,1:2|1:2|1:2,0:0:0:0:
164,136,85063,1,0,0:0:0:0:
120,52,85348,2,0,B|160:52|160:52|206:40,1,87.5,0|0,1:0|0:0,0:0:0:0:
305,40,85920,2,0,B|352:52|352:52|392:52,1,87.5
348,136,86491,1,0,1:0:0:0:
304,220,86777,1,0,0:0:0:0:
352,304,87063,6,0,B|364:344|408:368|408:368|452:344|464:304,1,175,4|0,1:2|1:0,0:0:0:0:
512,220,87920,2,0,B|500:204|479:192|479:192|500:180|512:164,1,87.5
464,80,88491,2,0,B|440:32|388:32|388:32|352:32,2,131.25,4|4|4,1:2|1:2|1:2,0:0:0:0:
304,192,89920,1,0,1:0:0:0:
304,288,90205,1,0,0:0:0:0:
256,372,90491,1,0,0:0:0:0:
208,288,90777,1,0,1:0:0:0:
208,192,91063,1,0,1:0:0:0:
208,192,91205,1,0,0:0:0:0:
208,48,91634,6,0,B|208:80|208:80|256:108|256:108|304:80|304:80|304:48,2,175,4|0|0,1:2|1:0|0:0,0:0:0:0:
152,132,93063,2,0,B|99:132|99:132|91:128|91:128|91:136|91:136|83:132|83:132|30:132,2,131.25,4|4|4,1:2|1:2|1:2,0:0:0:0:
360,132,94491,2,0,B|400:114|400:114|440:132,1,87.5,0|0,1:0|0:0,0:0:0:0:
400,220,95063,2,0,B|426:280|426:280|400:340,2,131.25,0|0|0,0:0|1:0|0:0,0:0:0:0:
328,280,96205,6,0,B|312:316|276:316|276:316|236:316|236:316|200:316|184:280,1,175,4|0,1:2|1:0,0:0:0:0:
112,220,97063,2,0,B|93:217|80:192|80:192|93:167|112:164,1,87.5
184,104,97634,2,0,B|141:61|141:61|130:55|130:55|88:14,2,131.25,4|4|4,1:2|1:2|1:2,0:0:0:0:
360,132,99063,2,0,B|391:100|391:100|433:100,1,87.5,0|0,1:0|0:0,0:0:0:0:
512,156,99634,2,0,B|487:192|487:192|512:228,1,87.5,0|0,0:0|1:0,0:0:0:0:
433,284,100205,2,0,B|391:284|391:284|360:252,1,87.5,0|0,1:0|0:0,0:0:0:0:
288,316,100777,6,0,B|209:316|209:316|201:320|201:320|193:324|193:324|114:324,1,175,4|0,1:2|1:0,0:0:0:0:
28,364,101634,2,0,P|13:324|28:284,1,87.5
115,242,102205,2,0,B|102:208|74:192|74:192|102:176|115:142,2,131.25,4|4|4,1:2|1:2|1:2,0:0:0:0:
300,192,103634,1,0,1:0:0:0:
248,112,103920,2,0,B|212:192|212:192|248:272,1,175,0|0,0:0|1:0,0:0:0:0:
300,352,104777,5,2,0:0:0:0:
300,352,105348,6,0,B|384:352|384:352|448:352|488:296|488:240|488:240|488:144|488:144|488:88|448:32|384:32|384:32|300:32,1,603.750011515618,4|0,0:0|1:0,0:0:0:0:
236,112,107348,1,2,0:0:0:0:
301,192,107634,2,0,L|401:192,1,100.62500191927,4|0,0:0|0:0,0:0:0:0:
488,144,108205,2,0,B|488:172|488:172|498:192|498:192|488:212|488:212|488:240,1,100.62500191927,0|0,1:0|0:0,0:0:0:0:
401,288,108777,2,0,B|364:288|364:288|332:288|296:316|296:365,2,150.937502878904,2|2|2,0:0|0:0|0:0,0:0:0:0:
488,336,109920,6,0,L|311:240,1,201.250003838539,4|0,0:0|1:0,0:0:0:0:
256,156,110777,1,2,0:0:0:0:
201,240,111063,2,0,B|225:272|205:308|201:312|197:316|177:352|201:384,2,150.937502878904,2|2|2,0:0|0:0|0:0,0:0:0:0:
311,240,112205,2,0,B|287:272|307:308|311:312|315:316|335:352|311:384,2,150.937502878904,4|2|2,0:0|0:0|0:0,0:0:0:0:
256,156,113348,2,0,L|256:105,2,50.3125009596348,2|0|0,0:0|0:0|0:0,0:0:0:0:
201,240,113920,2,0,B|185:264|161:268|161:268|137:264|121:240,1,100.62500191927,0|0,1:0|0:0,0:0:0:0:
66,156,114491,6,0,B|92:104|156:107|184:140|184:140|168:112|168:52|200:20|256:-8|312:20|344:52|344:112|328:140|328:140|356:107|420:104|446:156,1,603.750011515618,4|0,0:0|1:0,0:0:0:0:
391,239,116491,1,2,0:0:0:0:
446,321,116777,2,0,P|391:364|336:321,1,150.937502878904,4|0,0:0|0:0,0:0:0:0:
285,320,117348,1,0,1:0:0:0:
197,368,117634,5,0,0:0:0:0:
197,368,117777,1,0,0:0:0:0:
197,368,117920,2,0,P|183:320|197:272,1,100.62500191927,2|0,0:0|0:0,0:0:0:0:
232,236,118348,2,0,B|256:192|256:192|232:148,1,100.62500191927,2|0,0:0|0:0,0:0:0:0:
196,111,118777,1,2,0:0:0:0:
256,32,119063,6,0,B|304:0|348:28|352:32|356:36|400:64|448:32,1,201.250003838539,4|0,0:0|1:0,0:0:0:0:
508,111,119920,2,0,B|513:136|513:136|508:161,1,50.3125009596348,2|0,0:0|0:0,0:0:0:0:
468,192,120205,2,0,B|468:255|468:255|464:263|464:263|472:263|472:263|468:271|468:271|468:334,2,150.937502878904,2|2|2,0:0|0:0|0:0,0:0:0:0:
368,192,121348,2,0,B|368:255|368:255|364:263|364:263|372:263|372:263|368:271|368:271|368:334,2,150.937502878904,4|2|2,0:0|0:0|0:0,0:0:0:0:
328,111,122491,2,0,B|303:106|303:106|278:111,1,50.3125009596348,2|0,0:0|0:0,0:0:0:0:
236,136,122777,2,0,B|211:141|211:141|186:136,1,50.3125009596348
144,111,123063,2,0,B|119:67|119:67|94:111,1,100.62500191927,0|0,1:0|0:0,0:0:0:0:
111,209,123634,6,0,P|183:275|203:372,1,201.250003838539,4|0,0:0|1:0,0:0:0:0:
308,372,124491,2,0,P|328:275|400:209,1,201.250003838539,2|2,0:0|0:0,0:0:0:0:
368,111,125348,1,0,1:0:0:0:
400,12,125634,1,2,0:0:0:0:
368,111,125920,6,0,B|300:111|300:111|292:115|292:115|284:119|284:119|216:119,1,150.937502878904,4|0,0:0|0:0,0:0:0:0:
168,119,126491,2,0,B|168:171|168:171|142:213,1,100.62500191927,0|0,1:0|0:0,0:0:0:0:
106,247,126920,1,0,0:0:0:0:
70,282,127063,1,0,0:0:0:0:
146,349,127348,1,2,0:0:0:0:
222,282,127634,2,0,B|231:308|256:316|256:316|281:308|290:282,1,100.62500191927,0|2,1:0|0:0,0:0:0:0:
366,349,128206,6,0,B|460:348|460:348|436:296|460:244,1,201.250003838539,4|0,0:0|1:0,0:0:0:0:
460,140,129063,2,0,B|436:88|460:36|460:36|366:35,1,201.250003838539,2|2,0:0|0:0,0:0:0:0:
290,102,129920,1,0,1:0:0:0:
214,35,130206,1,0,0:0:0:0:
138,102,130491,6,0,B|101:102|101:102|69:102|33:74|33:25,2,150.937502878904,4|2|2,0:0|0:0|0:0,0:0:0:0:
214,169,131634,2,0,B|239:164|239:164|264:169,1,50.3125009596348,2|0,0:0|0:0,0:0:0:0:
306,194,131920,2,0,B|331:199|331:199|356:194,1,50.3125009596348
398,169,132206,2,0,B|423:125|423:125|448:169,1,100.62500191927,0|0,1:0|0:0,0:0:0:0:
423,266,132777,6,0,B|423:307|423:307|423:352|376:388|328:376|304:348,1,201.250003838539,4|0,0:0|1:0,0:0:0:0:
207,348,133634,2,0,B|184:376|136:388|89:352|89:307|89:307|89:266,1,201.250003838539,2|2,0:0|0:0,0:0:0:0:
114,169,134491,1,0,1:0:0:0:
139,72,134777,1,2,0:0:0:0:
114,169,135063,6,0,L|207:348,1,201.250003838539,4|0,0:0|1:0,0:0:0:0:
305,348,135920,2,0,L|398:169,1,201.250003838539,2|2,0:0|0:0,0:0:0:0:
373,72,136777,1,0,1:0:0:0:
398,169,137063,1,2,0:0:0:0:
373,72,137348,6,0,B|320:88|304:141|304:141|204:141,1,201.250003838539,4|0,0:0|1:0,0:0:0:0:
204,243,138205,2,0,B|304:243|304:243|320:296|373:312,1,201.250003838539,2|2,0:0|0:0,0:0:0:0:
444,244,139063,1,0,1:0:0:0:
444,140,139348,1,2,0:0:0:0:
373,72,139634,6,0,B|310:72|310:72|302:68|302:68|302:76|302:76|294:72|294:72|231:72,2,150.937502878904,4|2|2,0:0|0:0|0:0,0:0:0:0:
444,140,140777,1,2,0:0:0:0:
444,140,140920,2,0,B|499:192|499:192|444:244,1,150.937502878904,2|0,0:0|1:0,0:0:0:0:
373,312,141634,1,2,0:0:0:0:
302,244,141920,6,0,B|292:272|256:288|256:288|220:272|210:244,1,131.25,0|0,1:0|0:0,0:0:0:0:
192,204,142491,1,2,0:0:0:0:
256,144,142777,1,0,0:0:0:0:
320,84,143063,2,0,L|408:84,1,87.5,2|0,0:0|0:0,0:0:0:0:
472,144,143634,2,0,B|472:200|472:200|476:208|476:208|480:216|480:216|480:273,1,131.25,2|0,0:0|0:0,0:0:0:0:
480,317,144205,6,0,L|418:378,1,87.5,2|0,0:0|0:0,0:0:0:0:
355,317,144777,2,0,L|293:378,1,87.5,2|0,0:0|0:0,0:0:0:0:
230,317,145348,2,0,L|168:255,1,87.5,2|0,0:0|0:0,0:0:0:0:
105,317,145919,2,0,L|43:255,1,87.5,2|0,0:0|0:0,0:0:0:0:
106,192,146491,6,0,B|122:164|156:152|156:152|122:140|106:112,1,131.25,2|0,0:0|0:0,0:0:0:0:
92,68,147063,2,0,L|48:68,2,43.75,2|0|0,0:0|0:0|0:0,0:0:0:0:
172,28,147634,2,0,B|220:28|220:28|256:44,1,87.5,2|0,0:0|0:0,0:0:0:0:
343,44,148205,2,0,L|422:79,1,87.5,2|0,0:0|0:0,0:0:0:0:
371,150,148777,6,0,P|256:337|141:150,1,525,2|2,0:0|0:0,0:0:0:0:
212,204,150777,5,0,0:0:0:0:
212,204,150920,1,0,0:0:0:0:
212,204,151063,2,0,L|300:204,1,87.5,2|2,3:0|3:0,0:0:0:0:
371,150,151634,2,0,B|386:110|386:110|385:65,1,87.5,2|2,3:0|3:0,0:0:0:0:
297,65,152205,2,0,P|256:52|215:65,1,87.5,2|2,3:0|3:0,0:0:0:0:
126,65,152777,2,0,B|126:110|126:110|141:150,1,87.5,2|2,3:0|3:0,0:0:0:0:
212,204,153348,6,0,P|180:234|169:275,2,87.5,2|2|2,3:0|3:0|3:0,0:0:0:0:
256,280,154205,1,2,3:0:0:0:
300,204,154491,2,0,P|332:234|343:275,2,87.5,2|2|2,3:0|3:0|3:0,0:0:0:0:
256,128,155348,1,2,3:0:0:0:
212,204,155634,5,2,3:0:0:0:
256,192,155777,12,2,157920,0:0:0:0:
412,320,159634,5,2,0:0:0:0:
412,320,160205,6,0,B|316:388|152:328|124:200|256:116|388:200|360:328|196:388|100:320,1,603.750011515618,4|0,0:0|1:0,0:0:0:0:
29,248,162205,1,2,0:0:0:0:
101,176,162491,2,0,P|113:128|101:80,1,100.62500191927,4|0,0:0|0:0,0:0:0:0:
12,28,163063,2,0,P|0:76|12:124,1,100.62500191927,0|0,1:0|0:0,0:0:0:0:
101,79,163634,2,0,B|136:36|184:36|184:36|240:36,2,150.937502878904,2|2|2,0:0|0:0|0:0,0:0:0:0:
184,136,164777,6,0,L|388:136,1,201.250003838539,4|0,0:0|1:0,0:0:0:0:
468,192,165634,1,2,0:0:0:0:
386,248,165920,2,0,P|324:248|324:324,2,150.937502878904,2|2|2,0:0|0:0|0:0,0:0:0:0:
386,136,167063,2,0,P|324:136|324:60,2,150.937502878904,4|2|2,0:0|0:0|0:0,0:0:0:0:
468,192,168205,2,0,L|520:192,2,50.3125009596348,2|0|0,0:0|0:0|0:0,0:0:0:0:
386,248,168777,2,0,B|336:248|336:248|300:284,1,100.62500191927,0|0,1:0|0:0,0:0:0:0:
227,352,169348,6,0,B|148:396|80:320|104:232|176:220|176:220|142:192|142:192|176:164|176:164|104:152|80:64|148:-12|228:32,1,603.750011515618,4|0,0:0|1:0,0:0:0:0:
320,72,171348,1,2,0:0:0:0:
408,120,171634,2,0,P|428:192|408:264,1,150.937502878904,4|0,0:0|0:0,0:0:0:0:
376,300,172205,1,0,1:0:0:0:
304,368,172491,5,0,0:0:0:0:
304,368,172634,1,0,0:0:0:0:
304,368,172777,2,0,P|256:382|208:368,1,100.62500191927,2|0,0:0|0:0,0:0:0:0:
173,332,173205,2,0,P|125:318|77:332,1,100.62500191927,2|0,0:0|0:0,0:0:0:0:
42,367,173634,1,2,0:0:0:0:
8,272,173920,6,0,P|60:192|8:112,1,201.250003838539,4|0,0:0|1:0,0:0:0:0:
84,48,174777,2,0,B|109:43|109:43|134:48,1,50.3125009596348,2|0,0:0|0:0,0:0:0:0:
184,56,175063,2,0,B|160:128|160:128|184:200,2,150.937502878904,2|2|2,0:0|0:0|0:0,0:0:0:0:
256,128,176205,2,0,B|280:200|280:200|256:272,2,150.937502878904,4|2|2,0:0|0:0|0:0,0:0:0:0:
328,56,177348,2,0,L|345:103,1,50.3125009596348,2|0,0:0|0:0,0:0:0:0:
396,103,177634,2,0,L|413:150,1,50.3125009596348
464,150,177920,2,0,L|434:246,1,100.62500191927,0|0,1:0|0:0,0:0:0:0:
348,304,178491,6,0,P|256:339|164:304,1,201.250003838539,4|0,0:0|1:0,0:0:0:0:
96,376,179348,2,0,P|131:283|96:191,1,201.250003838539,2|2,0:0|0:0,0:0:0:0:
26,120,180205,1,0,1:0:0:0:
98,48,180491,1,2,0:0:0:0:
169,118,180777,6,0,B|237:118|237:118|245:122|245:122|253:126|253:126|321:126,1,150.937502878904,4|0,0:0|0:0,0:0:0:0:
354,90,181348,2,0,B|354:142|354:142|380:184,1,100.62500191927,0|0,1:0|0:0,0:0:0:0:
416,218,181777,1,0,0:0:0:0:
452,253,181920,1,0,0:0:0:0:
376,320,182205,1,2,0:0:0:0:
300,253,182491,2,0,B|272:260|256:276|256:276|240:260|212:253,1,100.62500191927,0|2,1:0|0:0,0:0:0:0:
136,320,183063,6,0,L|256:159,1,201.250003838539,4|0,0:0|1:0,0:0:0:0:
348,120,183920,2,0,P|256:155|164:120,1,201.250003838539,2|2,0:0|0:0,0:0:0:0:
93,48,184777,1,0,1:0:0:0:
22,119,185063,1,2,0:0:0:0:
94,190,185348,6,0,P|122:258|94:326,2,150.937502878904,4|2|2,0:0|0:0|0:0,0:0:0:0:
22,118,186491,2,0,P|-6:187|21:255,2,150.937502878904,2|2|2,0:0|0:0|0:0,0:0:0:0:
93,48,187634,6,0,B|192:48|192:48|264:120,1,201.250003838539,4|0,0:0|1:0,0:0:0:0:
376,120,188491,2,0,B|424:136|440:192|440:192|424:248|376:264,1,201.250003838539,2|2,0:0|0:0,0:0:0:0:
264,263,189348,1,0,1:0:0:0:
180,192,189634,1,2,0:0:0:0:
264,120,189920,6,0,B|335:192|335:192|264:264,1,201.250003838539,4|0,0:0|1:0,0:0:0:0:
179,335,190777,2,0,B|109:264|109:264|180:192,1,201.250003838539,0|2,0:0|0:0,0:0:0:0:
94,120,191634,1,0,1:0:0:0:
178,48,191920,1,2,0:0:0:0:
264,120,192205,6,0,B|332:88|388:136|388:136|456:136,1,201.250003838539,4|0,0:0|1:0,0:0:0:0:
456,248,193063,2,0,B|388:248|388:248|332:296|264:263,1,201.250003838539,2|2,0:0|0:0,0:0:0:0:
179,335,193920,1,0,1:0:0:0:
94,264,194205,1,2,0:0:0:0:
180,192,194491,6,0,B|204:160|184:124|180:120|176:116|156:80|180:48,2,150.937502878904,4|0|2,0:0|1:0|0:0,0:0:0:0:
264,263,195634,2,0,P|179:309|93:263,1,201.250003838539,2|0,0:0|1:0,0:0:0:0:
180,192,196491,1,2,0:0:0:0:
94,120,196777,6,0,B|164:96|164:96|164:38|212:14,1,175,0|0,1:0|0:0,0:0:0:0:
299,14,197634,2,0,B|348:38|348:96|348:96|418:120,2,175,2|2|2,0:0|0:0|0:0,0:0:0:0:
256,92,199063,6,0,B|256:145|256:145|252:153|252:153|260:153|260:153|256:161|256:161|256:214,2,131.25
213,14,200205,2,0,P|172:1|131:14,1,87.5,0|2,0:0|0:0,0:0:0:0:
88,92,200777,1,0,0:0:0:0:
88,92,201063,1,2,0:0:0:0:
131,170,201348,6,0,L|213:272,1,131.25
298,272,202063,1,0,0:0:0:0:
298,272,202205,2,0,B|342:244|378:268|382:272|386:276|422:300|466:272,1,175,2|2,0:0|0:0,0:0:0:0:
428,192,203063,1,2,0:0:0:0:
464,111,203348,2,0,L|495:80,2,43.75,2|0|0,0:0|0:0|0:0,0:0:0:0:
256,192,203777,12,0,207063,0:0:0:0:
