osu file format v14

[General]
AudioFilename: audio.mp3
AudioLeadIn: 0
PreviewTime: 42570
Countdown: 0
SampleSet: Normal
StackLeniency: 0.7
Mode: 1
LetterboxInBreaks: 0
WidescreenStoryboard: 1

[Editor]
DistanceSpacing: 2.2
BeatDivisor: 4
GridSize: 8
TimelineZoom: 0.5

[Metadata]
Title:Smile (Cut Ver.)
TitleUnicode:Smile (Cut Ver.)
Artist:Avril Lavigne
ArtistUnicode:Avril Lavigne
Creator:Toofu
Version:Kantan
Source:
Tags:english pop punk poppunk froskya Revialink goodbye lullaby short version
BeatmapID:3886298
BeatmapSetID:1887206

[Difficulty]
HPDrainRate:9
CircleSize:5
OverallDifficulty:3
ApproachRate:5
SliderMultiplier:2.3
SliderTickRate:1

[Events]
//Background and Video events
0,0,"aa.jpg",0,-70
//Break Periods
//Storyboard Layer 0 (Background)
//Storyboard Layer 1 (Fail)
//Storyboard Layer 2 (Pass)
//Storyboard Layer 3 (Foreground)
//Storyboard Layer 4 (Overlay)
//Storyboard Sound Samples

[TimingPoints]
2285,571.428571428571,4,1,0,40,1,0
6784,-100,4,1,0,60,0,0
6856,571.428571428571,4,1,0,60,1,0
25070,-100,4,1,0,75,0,0
43355,-100,4,1,0,90,0,0
43427,-100,4,1,0,90,0,1
79855,-100,4,1,0,60,0,1
79998,-100,4,1,0,60,0,0

[HitObjects]
258,197,2285,5,0,0:0:0:0:
258,197,3713,1,8,0:0:0:0:
258,197,4142,1,0,0:0:0:0:
259,202,4570,1,8,0:0:0:0:
261,214,6856,1,12,0:0:0:0:
261,214,7427,1,8,0:0:0:0:
261,214,7713,1,0,0:0:0:0:
261,214,8284,1,0,0:0:0:0:
261,214,8713,1,0,0:0:0:0:
272,225,9141,1,0,0:0:0:0:
272,222,9713,1,8,0:0:0:0:
272,225,9998,1,0,0:0:0:0:
272,222,10855,1,8,0:0:0:0:
269,228,11427,1,12,0:0:0:0:
261,204,11998,1,8,0:0:0:0:
261,205,12284,1,0,0:0:0:0:
261,204,12855,1,8,0:0:0:0:
261,205,13284,1,0,0:0:0:0:
243,176,13713,1,0,0:0:0:0:
243,176,14284,1,8,0:0:0:0:
243,176,14855,1,8,0:0:0:0:
261,214,15998,1,4,0:0:0:0:
261,214,16570,1,8,0:0:0:0:
261,214,16855,1,0,0:0:0:0:
261,214,17426,1,0,0:0:0:0:
261,214,17855,1,8,0:0:0:0:
272,225,18283,1,8,0:0:0:0:
272,222,18855,1,8,0:0:0:0:
272,225,19141,1,0,0:0:0:0:
272,222,19998,1,8,0:0:0:0:
261,214,20570,1,4,0:0:0:0:
261,214,21142,1,8,0:0:0:0:
261,214,21427,1,0,0:0:0:0:
261,214,21998,1,8,0:0:0:0:
261,214,22427,1,0,0:0:0:0:
272,225,22855,1,8,0:0:0:0:
272,222,23998,5,8,0:0:0:0:
272,225,24570,1,0,0:0:0:0:
251,207,25141,1,4,0:0:0:0:
254,191,25713,1,8,0:0:0:0:
248,185,26570,1,0,0:0:0:0:
248,185,26998,1,8,0:0:0:0:
248,185,27427,1,0,0:0:0:0:
248,185,27998,1,8,0:0:0:0:
248,185,29141,1,0,0:0:0:0:
248,185,29713,1,12,0:0:0:0:
240,178,30284,1,0,0:0:0:0:
240,178,31141,1,8,0:0:0:0:
240,178,31570,1,0,0:0:0:0:
245,52,31998,1,8,0:0:0:0:
248,185,32570,1,8,0:0:0:0:
248,185,33713,1,0,0:0:0:0:
248,185,34284,1,12,0:0:0:0:
240,178,34855,1,8,0:0:0:0:
240,178,35712,1,8,0:0:0:0:
240,178,36141,1,8,0:0:0:0:
245,52,36569,1,0,0:0:0:0:
248,185,37141,1,8,0:0:0:0:
248,185,38284,1,8,0:0:0:0:
240,178,38855,1,12,0:0:0:0:
235,36,39427,1,0,0:0:0:0:
245,52,40284,1,0,0:0:0:0:
227,32,40713,1,0,0:0:0:0:
248,185,41141,1,0,0:0:0:0:
236,33,41713,1,8,0:0:0:0:
244,177,42570,5,0,0:0:0:0:
240,173,43427,5,12,0:0:0:0:
240,173,43998,1,8,0:0:0:0:
240,173,44284,1,0,0:0:0:0:
240,173,44570,1,8,0:0:0:0:
240,173,45141,1,0,0:0:0:0:
244,136,45427,1,0,0:0:0:0:
232,182,45713,1,8,0:0:0:0:
224,181,46855,1,0,0:0:0:0:
230,180,47141,1,8,0:0:0:0:
230,180,47427,1,8,0:0:0:0:
277,87,47713,1,0,0:0:0:0:
230,180,47998,1,8,0:0:0:0:
311,88,48855,1,8,0:0:0:0:
311,88,49141,1,0,0:0:0:0:
311,88,49427,1,0,0:0:0:0:
311,88,49713,1,8,0:0:0:0:
311,88,50284,1,8,0:0:0:0:
341,108,50570,1,0,0:0:0:0:
341,108,50855,1,0,0:0:0:0:
337,94,51427,1,8,0:0:0:0:
337,94,51998,1,0,0:0:0:0:
240,173,52570,5,12,0:0:0:0:
240,173,53141,1,8,0:0:0:0:
240,173,53427,1,0,0:0:0:0:
240,173,53713,1,8,0:0:0:0:
240,173,54284,1,0,0:0:0:0:
244,136,54570,1,0,0:0:0:0:
232,182,54856,1,8,0:0:0:0:
224,181,55998,1,0,0:0:0:0:
230,180,56284,1,0,0:0:0:0:
230,180,56570,1,8,0:0:0:0:
277,87,56856,1,0,0:0:0:0:
230,180,57141,1,8,0:0:0:0:
311,88,57998,1,8,0:0:0:0:
311,88,58284,1,0,0:0:0:0:
311,88,58570,1,8,0:0:0:0:
311,88,58856,1,8,0:0:0:0:
311,88,59427,1,8,0:0:0:0:
341,108,59713,1,0,0:0:0:0:
341,108,59998,1,8,0:0:0:0:
337,94,60570,5,0,0:0:0:0:
337,94,61141,1,0,0:0:0:0:
300,47,61713,5,12,0:0:0:0:
312,57,62570,1,0,0:0:0:0:
312,57,63141,1,0,0:0:0:0:
312,57,63713,1,0,0:0:0:0:
312,57,63998,1,8,0:0:0:0:
312,57,65427,1,8,0:0:0:0:
312,57,65713,1,0,0:0:0:0:
316,57,65998,1,0,0:0:0:0:
316,57,66284,1,8,0:0:0:0:
316,57,67141,1,0,0:0:0:0:
316,57,67713,1,0,0:0:0:0:
349,65,67998,1,8,0:0:0:0:
316,57,68284,1,0,0:0:0:0:
331,46,68570,1,8,0:0:0:0:
331,46,69141,1,8,0:0:0:0:
331,46,69713,1,0,0:0:0:0:
331,46,70284,1,0,0:0:0:0:
300,47,70855,5,12,0:0:0:0:
312,57,71713,1,8,0:0:0:0:
312,57,72283,1,0,0:0:0:0:
312,57,72855,1,8,0:0:0:0:
312,57,73140,1,0,0:0:0:0:
312,57,74569,1,8,0:0:0:0:
312,57,74855,1,0,0:0:0:0:
316,57,75140,1,0,0:0:0:0:
316,57,75427,1,8,0:0:0:0:
316,57,76283,1,0,0:0:0:0:
316,57,76855,1,0,0:0:0:0:
349,65,77140,1,0,0:0:0:0:
316,57,77426,1,0,0:0:0:0:
331,46,77713,1,8,0:0:0:0:
331,46,78284,1,8,0:0:0:0:
331,46,78855,1,0,0:0:0:0:
331,46,79426,1,8,0:0:0:0:
340,46,79998,1,4,0:0:0:0:
