osu file format v14

[General]
AudioFilename: audio.mp3
AudioLeadIn: 0
PreviewTime: 42570
Countdown: 0
SampleSet: Normal
StackLeniency: 0.7
Mode: 1
LetterboxInBreaks: 0
WidescreenStoryboard: 1

[Editor]
Bookmarks: 52570
DistanceSpacing: 2.2
BeatDivisor: 4
GridSize: 8
TimelineZoom: 1.7

[Metadata]
Title:Smile (Cut Ver.)
TitleUnicode:Smile (Cut Ver.)
Artist:Avril Lavigne
ArtistUnicode:Avril Lavigne
Creator:Toofu
Version:Futsuu
Source:
Tags:english pop punk poppunk froskya Revialink goodbye lullaby short version
BeatmapID:3886297
BeatmapSetID:1887206

[Difficulty]
HPDrainRate:8
CircleSize:5
OverallDifficulty:4
ApproachRate:5
SliderMultiplier:2.3
SliderTickRate:1

[Events]
//Background and Video events
0,0,"aa.jpg",0,-70
//Break Periods
//Storyboard Layer 0 (Background)
//Storyboard Layer 1 (Fail)
//Storyboard Layer 2 (Pass)
//Storyboard Layer 3 (Foreground)
//Storyboard Layer 4 (Overlay)
//Storyboard Sound Samples

[TimingPoints]
2285,571.428571428571,4,1,0,40,1,0
6784,-100,4,1,0,60,0,0
6856,571.428571428571,4,1,0,60,1,0
25070,-100,4,1,0,75,0,0
43355,-100,4,1,0,90,0,0
43427,-100,4,1,0,90,0,1
79855,-100,4,1,0,60,0,1
79998,-100,4,1,0,60,0,0

[HitObjects]
258,197,2285,5,0,0:0:0:0:
258,197,2856,1,0,0:0:0:0:
258,197,3142,1,0,0:0:0:0:
258,197,3427,1,8,0:0:0:0:
258,197,3713,1,8,0:0:0:0:
258,197,4142,1,0,0:0:0:0:
259,202,4570,1,8,0:0:0:0:
262,202,5142,1,8,0:0:0:0:
259,202,5427,1,0,0:0:0:0:
262,202,5713,1,8,0:0:0:0:
262,202,5999,1,8,0:0:0:0:
259,202,6427,1,0,0:0:0:0:
261,214,6856,1,4,0:0:0:0:
261,214,7427,1,8,0:0:0:0:
261,214,7570,1,8,0:0:0:0:
261,214,7713,1,0,0:0:0:0:
261,214,7998,1,8,0:0:0:0:
261,214,8284,1,4,0:0:0:0:
261,214,8713,1,4,0:0:0:0:
272,225,9141,1,4,0:0:0:0:
272,222,9427,1,8,0:0:0:0:
272,222,9713,1,8,0:0:0:0:
272,225,9998,1,8,0:0:0:0:
272,222,10141,1,0,0:0:0:0:
272,222,10284,1,0,0:0:0:0:
272,222,10570,1,0,0:0:0:0:
272,225,10855,1,8,0:0:0:0:
269,228,11427,1,4,0:0:0:0:
261,204,11998,1,8,0:0:0:0:
261,205,12141,1,0,0:0:0:0:
261,205,12284,1,8,0:0:0:0:
261,204,12570,1,8,0:0:0:0:
261,204,12855,1,4,0:0:0:0:
261,205,13284,1,4,0:0:0:0:
243,176,13713,1,4,0:0:0:0:
243,176,14284,1,8,0:0:0:0:
243,176,14570,1,0,0:0:0:0:
243,176,14855,1,8,0:0:0:0:
243,176,15141,1,0,0:0:0:0:
243,176,15427,1,8,0:0:0:0:
261,214,15998,1,4,0:0:0:0:
261,214,16570,1,8,0:0:0:0:
261,214,16712,1,0,0:0:0:0:
261,214,16855,1,8,0:0:0:0:
261,214,17141,1,0,0:0:0:0:
261,214,17426,1,4,0:0:0:0:
261,214,17855,1,4,0:0:0:0:
272,225,18283,1,4,0:0:0:0:
272,222,18569,1,8,0:0:0:0:
272,222,18855,1,0,0:0:0:0:
272,225,19141,1,8,0:0:0:0:
272,222,19284,1,8,0:0:0:0:
272,222,19426,1,0,0:0:0:0:
272,222,19712,1,8,0:0:0:0:
272,225,19997,1,8,0:0:0:0:
269,228,20569,1,4,0:0:0:0:
261,204,21141,1,8,0:0:0:0:
261,205,21284,1,8,0:0:0:0:
261,205,21427,1,0,0:0:0:0:
261,204,21712,1,8,0:0:0:0:
261,204,21997,1,4,0:0:0:0:
261,205,22426,1,4,0:0:0:0:
261,205,22855,1,4,0:0:0:0:
250,196,23427,1,8,0:0:0:0:
248,62,23713,1,0,0:0:0:0:
242,45,24284,1,0,0:0:0:0:
197,52,24570,1,8,0:0:0:0:
251,207,25141,1,4,0:0:0:0:
254,191,25713,1,8,0:0:0:0:
248,185,26570,1,8,0:0:0:0:
248,185,26998,1,8,0:0:0:0:
248,185,27427,1,4,0:0:0:0:
248,185,27998,1,8,0:0:0:0:
248,185,28284,1,0,0:0:0:0:
248,185,28855,1,0,0:0:0:0:
248,185,29141,1,8,0:0:0:0:
248,185,29427,1,0,0:0:0:0:
248,185,29713,1,4,0:0:0:0:
240,178,30284,1,8,0:0:0:0:
240,178,30855,1,8,0:0:0:0:
240,178,31141,1,0,0:0:0:0:
240,178,31570,1,0,0:0:0:0:
230,157,31998,1,4,0:0:0:0:
231,157,32570,1,8,0:0:0:0:
230,157,32855,1,0,0:0:0:0:
229,162,33427,1,0,0:0:0:0:
229,162,33713,1,8,0:0:0:0:
229,162,33998,1,8,0:0:0:0:
223,158,34284,1,4,0:0:0:0:
223,158,34855,1,8,0:0:0:0:
223,158,35713,1,8,0:0:0:0:
223,158,36141,1,8,0:0:0:0:
223,158,36570,1,4,0:0:0:0:
233,170,37141,1,8,0:0:0:0:
233,170,37427,1,0,0:0:0:0:
233,170,37998,1,8,0:0:0:0:
233,170,38284,1,8,0:0:0:0:
233,170,38570,1,0,0:0:0:0:
233,170,38855,1,4,0:0:0:0:
233,170,39427,1,8,0:0:0:0:
233,170,39998,1,8,0:0:0:0:
233,170,40284,1,0,0:0:0:0:
248,172,40713,1,0,0:0:0:0:
244,177,41141,1,4,0:0:0:0:
244,177,41713,1,8,0:0:0:0:
244,177,41998,1,0,0:0:0:0:
244,177,42284,5,0,0:0:0:0:
244,177,42570,1,8,0:0:0:0:
240,173,43427,5,12,0:0:0:0:
245,57,43713,1,0,0:0:0:0:
240,173,43998,1,8,0:0:0:0:
240,173,44284,1,0,0:0:0:0:
240,173,44427,1,0,0:0:0:0:
240,173,44570,1,8,0:0:0:0:
263,65,44713,1,0,0:0:0:0:
240,173,44855,1,8,0:0:0:0:
240,173,45141,1,8,0:0:0:0:
244,136,45427,1,8,0:0:0:0:
232,182,45713,1,12,0:0:0:0:
224,181,46284,1,8,0:0:0:0:
224,181,46570,1,0,0:0:0:0:
224,181,46855,1,0,0:0:0:0:
273,106,46998,1,8,0:0:0:0:
230,180,47141,1,8,0:0:0:0:
305,62,47284,1,0,0:0:0:0:
230,180,47427,1,8,0:0:0:0:
277,87,47713,1,0,0:0:0:0:
230,180,47998,1,12,0:0:0:0:
285,75,48570,1,8,0:0:0:0:
311,88,48855,1,0,0:0:0:0:
311,88,49141,1,8,0:0:0:0:
311,88,49284,1,8,0:0:0:0:
311,88,49427,1,0,0:0:0:0:
311,88,49713,1,8,0:0:0:0:
311,88,50284,1,8,0:0:0:0:
311,100,50427,1,0,0:0:0:0:
341,108,50570,1,8,0:0:0:0:
341,108,50855,1,0,0:0:0:0:
317,75,51141,1,0,0:0:0:0:
317,75,51284,1,0,0:0:0:0:
337,94,51427,1,8,0:0:0:0:
337,94,51713,1,0,0:0:0:0:
337,94,51998,1,8,0:0:0:0:
240,173,52570,5,12,0:0:0:0:
245,57,52855,1,0,0:0:0:0:
240,173,53141,1,0,0:0:0:0:
240,173,53427,1,8,0:0:0:0:
240,173,53570,1,8,0:0:0:0:
269,50,53713,1,0,0:0:0:0:
219,51,53855,1,0,0:0:0:0:
226,27,53998,1,8,0:0:0:0:
240,173,54284,1,8,0:0:0:0:
244,136,54570,1,0,0:0:0:0:
232,182,54856,1,12,0:0:0:0:
224,181,55427,1,8,0:0:0:0:
224,181,55713,1,0,0:0:0:0:
224,181,55998,1,0,0:0:0:0:
273,106,56141,1,0,0:0:0:0:
230,180,56284,1,8,0:0:0:0:
299,47,56427,1,0,0:0:0:0:
230,180,56570,1,8,0:0:0:0:
277,87,56856,1,0,0:0:0:0:
230,180,57141,1,12,0:0:0:0:
285,75,57713,1,8,0:0:0:0:
311,88,57998,1,0,0:0:0:0:
311,88,58284,1,8,0:0:0:0:
311,88,58427,1,0,0:0:0:0:
311,88,58570,1,8,0:0:0:0:
311,88,58855,1,0,0:0:0:0:
311,88,59427,1,0,0:0:0:0:
311,100,59570,1,8,0:0:0:0:
341,108,59713,1,8,0:0:0:0:
341,108,59998,1,0,0:0:0:0:
317,75,60284,1,0,0:0:0:0:
317,75,60427,1,0,0:0:0:0:
337,94,60570,5,8,0:0:0:0:
315,61,60713,1,8,0:0:0:0:
337,94,60856,1,0,0:0:0:0:
337,94,61141,1,8,0:0:0:0:
300,47,61713,5,12,0:0:0:0:
290,68,62284,1,0,0:0:0:0:
290,68,62570,1,0,0:0:0:0:
290,68,62713,1,0,0:0:0:0:
290,68,62855,1,8,0:0:0:0:
290,68,63141,1,8,0:0:0:0:
296,31,63284,1,0,0:0:0:0:
218,29,63427,5,0,0:0:0:0:
261,43,63713,1,0,0:0:0:0:
290,68,63998,1,12,0:0:0:0:
292,60,64570,1,8,0:0:0:0:
292,60,64855,1,8,0:0:0:0:
292,60,64998,1,8,0:0:0:0:
301,73,65141,1,0,0:0:0:0:
292,60,65427,1,8,0:0:0:0:
292,60,65713,1,0,0:0:0:0:
292,60,65855,1,0,0:0:0:0:
292,60,65998,1,8,0:0:0:0:
292,60,66284,1,12,0:0:0:0:
292,60,66855,1,8,0:0:0:0:
292,60,67141,1,0,0:0:0:0:
292,60,67284,1,8,0:0:0:0:
292,60,67427,1,8,0:0:0:0:
292,60,67713,1,8,0:0:0:0:
301,73,67855,1,0,0:0:0:0:
292,60,67998,1,8,0:0:0:0:
292,60,68284,1,0,0:0:0:0:
292,60,68570,1,12,0:0:0:0:
292,60,69141,1,8,0:0:0:0:
292,60,69427,1,0,0:0:0:0:
292,60,69570,1,8,0:0:0:0:
292,60,69713,1,8,0:0:0:0:
292,60,69855,1,8,0:0:0:0:
292,60,70141,1,0,0:0:0:0:
292,60,70284,1,8,0:0:0:0:
292,60,70570,1,0,0:0:0:0:
300,47,70855,1,12,0:0:0:0:
290,68,71427,1,8,0:0:0:0:
290,68,71712,1,0,0:0:0:0:
290,68,71855,1,0,0:0:0:0:
290,68,71997,1,8,0:0:0:0:
290,68,72283,1,8,0:0:0:0:
302,51,72427,1,0,0:0:0:0:
290,68,72569,1,0,0:0:0:0:
303,51,72855,1,0,0:0:0:0:
290,68,73140,1,12,0:0:0:0:
292,60,73713,1,8,0:0:0:0:
292,60,73998,1,8,0:0:0:0:
292,60,74140,1,0,0:0:0:0:
292,60,74283,1,0,0:0:0:0:
292,60,74569,1,8,0:0:0:0:
292,60,74855,1,8,0:0:0:0:
292,60,74997,1,0,0:0:0:0:
292,60,75140,1,8,0:0:0:0:
292,60,75427,1,12,0:0:0:0:
292,60,75998,1,0,0:0:0:0:
292,60,76283,1,8,0:0:0:0:
292,60,76426,1,0,0:0:0:0:
292,60,76569,1,8,0:0:0:0:
292,60,76855,1,8,0:0:0:0:
292,60,77141,1,8,0:0:0:0:
298,61,77284,1,0,0:0:0:0:
292,60,77426,1,0,0:0:0:0:
292,60,77712,1,12,0:0:0:0:
292,60,78283,1,8,0:0:0:0:
292,60,78570,1,8,0:0:0:0:
292,60,78712,1,0,0:0:0:0:
292,60,78855,5,0,0:0:0:0:
292,60,79140,1,0,0:0:0:0:
292,60,79426,1,8,0:0:0:0:
267,176,79998,5,4,0:0:0:0:
