osu file format v14

[General]
AudioFilename: audio.mp3
AudioLeadIn: 0
PreviewTime: 42570
Countdown: 0
SampleSet: Soft
StackLeniency: 0.7
Mode: 0
LetterboxInBreaks: 0
EpilepsyWarning: 1
WidescreenStoryboard: 1

[Editor]
Bookmarks: 25141,86855
DistanceSpacing: 0.8
BeatDivisor: 4
GridSize: 4
TimelineZoom: 3

[Metadata]
Title:Smile (Cut Ver.)
TitleUnicode:Smile (Cut Ver.)
Artist:Avril Lavigne
ArtistUnicode:Avril Lavigne
Creator:Froskya
Version:jschlatt's Insane
Source:
Tags:revialink gero jiebi jschlatt gibee games freihy freimox jojajim female vocalist vocals short version pop punk english goodbye lullaby genshin impact 原神 raiden shogun shougun 雷電将軍 ei 雷電影 baal beelzebul ganyu 甘雨 keqing 甘雨 hu tao 胡桃 arataki itto 荒瀧一斗 zhongli 钟离
BeatmapID:3136069
BeatmapSetID:1529886

[Difficulty]
HPDrainRate:5
CircleSize:4.5
OverallDifficulty:7
ApproachRate:8.5
SliderMultiplier:2
SliderTickRate:1

[Events]
//Background and Video events
0,0,"bg.jpg",0,0
//Break Periods
//Storyboard Layer 0 (Background)
//Storyboard Layer 1 (Fail)
//Storyboard Layer 2 (Pass)
//Storyboard Layer 3 (Foreground)
Sprite,Foreground,Centre,"sb\c1.png",0,0 F,0,2285,2385,0,1 M,1,2285,6427,185,190,165,190 S,0,2285,6427,0.4 F,0,6027,6427,1,0
Sprite,Foreground,Centre,"sb\c7.png",0,0 F,0,3713,3813,0,1 M,1,3713,6427,245,230,230,230 S,0,3713,6427,0.5 F,0,6027,6427,1,0
//Storyboard Layer 4 (Overlay)
//Storyboard Sound Samples

[TimingPoints]
2285,571.428571428571,4,2,1,40,1,0
2285,-125,4,2,1,40,0,0
2713,-125,4,2,1,5,0,0
2856,-125,4,2,1,40,0,0
3999,-125,4,2,1,5,0,0
4142,-125,4,2,1,40,0,0
4427,-125,4,2,1,5,0,0
4570,-125,4,2,1,40,0,0
4999,-125,4,2,1,5,0,0
5142,-125,4,2,1,40,0,0
6284,-125,4,2,1,5,0,0
6427,-125,4,2,1,40,0,0
6856,571.428571428571,4,2,1,60,1,0
6856,-71.4285714285714,4,2,1,60,0,0
7427,-100,4,2,1,60,0,0
8284,-71.4285714285714,4,2,1,60,0,0
9713,-100,4,2,1,60,0,0
11284,-100,4,2,1,5,0,0
11427,-71.4285714285714,4,2,1,60,0,0
11998,-100,4,2,1,60,0,0
12855,-71.4285714285714,4,2,1,60,0,0
14284,-100,4,2,1,60,0,0
15998,-71.4285714285714,4,2,1,60,0,0
16570,-100,4,2,1,60,0,0
17427,-71.4285714285714,4,2,1,60,0,0
18855,-100,4,2,1,60,0,0
20427,-100,4,2,1,5,0,0
20570,-71.4285714285714,4,2,1,60,0,0
21141,-100,4,2,1,60,0,0
21998,-71.4285714285714,4,2,1,60,0,0
23427,-100,4,2,1,60,0,0
25141,-71.4285714285714,4,2,1,70,0,0
25713,-100,4,2,1,70,0,0
26570,-71.4285714285714,4,2,1,70,0,0
27998,-100,4,2,1,70,0,0
29713,-71.4285714285714,4,2,1,70,0,0
30284,-100,4,2,1,70,0,0
31141,-71.4285714285714,4,2,1,70,0,0
32570,-100,4,2,1,70,0,0
34284,-71.4285714285714,4,2,1,70,0,0
34855,-100,4,2,1,70,0,0
35713,-71.4285714285714,4,2,1,70,0,0
37141,-100,4,2,1,70,0,0
38855,-71.4285714285714,4,2,1,70,0,0
39427,-100,4,2,1,70,0,0
40284,-71.4285714285714,4,2,1,70,0,0
41713,-100,4,2,1,70,0,0
42855,-100,4,2,1,50,0,0
43427,-76.9230769230769,4,2,1,80,0,1
51998,-76.9230769230769,4,2,1,80,0,0
52570,-76.9230769230769,4,2,1,80,0,1
61141,-76.9230769230769,4,2,1,80,0,0
61713,-76.9230769230769,4,2,1,80,0,1
70284,-76.9230769230769,4,2,1,80,0,0
70855,-76.9230769230769,4,2,1,80,0,1
79998,-125,4,2,1,50,0,0
87427,-125,4,2,1,45,0,0
87998,-125,4,2,1,40,0,0
88570,-125,4,2,1,30,0,0
89141,-125,4,2,1,20,0,0
89713,-125,4,2,1,10,0,0
90284,-125,4,2,1,5,0,0

[Colours]
Combo1 : 255,226,138
Combo2 : 170,255,170
Combo3 : 212,212,212
Combo4 : 121,211,255

[HitObjects]
117,43,2285,5,2,3:2:0:0:
117,43,2856,2,0,L|125:155,1,80,0|0,3:0|3:0,0:0:0:0:
171,183,3284,2,0,L|166:241,2,40,0|0|0,3:0|3:0|3:0,0:0:0:0:
240,111,3713,6,0,P|293:80|355:96,2,120,2|2|2,3:2|3:2|3:2,0:0:0:0:
240,111,5142,1,0,3:0:0:0:
94,80,5427,2,0,L|88:14,2,40,0|0|0,3:0|3:0|3:0,0:0:0:0:
158,152,5856,1,0,3:0:0:0:
158,152,5999,2,0,L|150:285,1,120,0|0,3:2|3:2,0:0:0:0:
150,271,6856,6,2,P|214:210|333:249,1,209.999993591309,4|2,1:0|0:0,0:1:0:0:
369,353,7427,1,10,0:0:0:0:
369,353,7570,1,2,0:0:0:0:
284,382,7713,2,0,L|288:332,1,50,2|2,0:0|0:0,0:0:0:0:
319,187,7998,2,0,L|323:237,1,50,2|0,0:0|0:0,0:0:0:0:
232,166,8284,6,2,P|294:102|386:133,1,139.999995727539,6|2,1:2|0:0,0:1:0:0:
154,224,8713,6,2,P|131:149|208:63,1,139.999995727539,4|2,1:2|0:0,0:1:0:0:
204,332,9141,6,2,B|125:328|125:328|83:353|83:353|-38:348,1,209.999993591309,6|2,1:2|0:0,0:1:0:0:
57,256,9713,2,0,P|95:214|85:146,1,100,10|2,0:0|1:2,0:0:0:0:
47,77,10141,2,0,L|106:88,1,50,2|2,1:2|0:0,0:0:0:0:
184,170,10427,1,0,1:0:0:0:
184,170,10570,2,0,L|248:164,1,50,2|0,1:2|0:0,0:0:0:0:
381,82,10855,1,10,0:0:0:0:
381,82,11427,6,2,L|364:312,1,209.999993591309,4|0,1:0|0:0,0:1:0:0:
284,242,11998,1,10,0:0:0:0:
284,242,12141,1,2,0:0:0:0:
222,356,12284,2,0,L|218:275,1,50,2|2,0:0|0:0,0:0:0:0:
203,126,12570,2,0,L|201:176,1,50,2|0,0:0|0:0,0:0:0:0:
127,246,12855,6,2,P|63:293|-28:267,1,139.999995727539,6|2,1:2|0:0,0:1:0:0:
202,176,13284,6,2,P|233:241|170:350,1,139.999995727539,6|2,1:2|0:0,0:1:0:0:
144,75,13713,6,2,P|218:46|317:145,1,209.999993591309,6|0,1:2|0:0,0:1:0:0:
328,276,14284,1,8,0:0:0:0:
328,276,14570,1,2,1:2:0:0:
256,217,14713,2,0,L|259:167,1,50,0|2,1:0|0:0,0:0:0:0:
340,130,14998,1,0,1:0:0:0:
411,229,15141,2,0,L|414:278,1,50,2|2,1:2|0:0,0:0:0:0:
336,371,15427,2,0,L|258:359,1,50,10|0,0:0|0:0,0:0:0:0:
203,318,15713,2,0,L|125:330,1,50,2|0,0:0|0:0,0:0:0:0:
36,384,15998,6,2,L|49:161,1,209.999993591309,4|2,1:0|0:0,0:1:0:0:
79,87,16570,1,10,0:0:0:0:
79,87,16713,1,2,0:0:0:0:
140,237,16855,2,0,L|136:161,1,50,2|2,0:0|0:0,0:0:0:0:
226,94,17141,2,0,L|223:143,1,50,2|0,0:0|0:0,0:0:0:0:
325,288,17427,6,2,P|391:313|491:243,1,139.999995727539,6|2,1:2|0:0,0:1:0:0:
218,263,17855,6,2,P|226:335|332:402,1,139.999995727539,6|2,1:2|0:0,0:1:0:0:
186,162,18284,6,2,B|131:155|131:155|100:173|100:173|34:165,1,139.999995727539,6|2,1:2|0:0,0:1:0:0:
84,67,18713,1,2,0:0:0:0:
252,92,18855,2,0,P|283:131|264:212,1,100,10|2,0:0|1:2,0:0:0:0:
187,253,19284,2,0,L|194:178,1,50,2|2,1:2|0:0,0:0:0:0:
292,307,19570,1,0,1:0:0:0:
292,307,19713,2,0,L|287:257,1,50,2|0,1:2|0:0,0:0:0:0:
231,380,19998,1,10,0:0:0:0:
231,380,20570,6,2,P|169:324|53:368,1,209.999993591309,4|0,1:0|0:0,0:1:0:0:
5,276,21141,1,10,0:0:0:0:
5,276,21284,1,2,0:0:0:0:
89,215,21427,2,0,L|96:138,1,50,2|2,0:0|0:0,0:0:0:0:
15,67,21713,2,0,L|19:116,1,50,2|0,0:0|0:0,0:0:0:0:
225,168,21998,6,2,P|184:96|100:88,1,139.999995727539,6|2,1:2|0:0,0:1:0:0:
257,267,22427,6,2,P|322:217|309:106,1,139.999995727539,4|2,1:2|0:0,0:1:0:0:
165,338,22855,6,2,B|238:374|238:374|378:353,1,209.999993591309,6|0,1:2|0:0,0:1:0:0:
507,332,23427,1,8,0:0:0:0:
507,332,23713,1,0,1:0:0:0:
460,260,23855,2,0,L|465:187,1,50,0|2,1:0|0:0,0:0:0:0:
381,166,24141,1,0,1:0:0:0:
315,256,24284,2,0,L|318:305,1,50,0|2,1:0|0:0,0:0:0:0:
236,384,24570,2,0,L|102:374,1,100,10|2,0:0|0:0,0:0:0:0:
21,211,25141,6,2,P|107:259|199:189,1,209.999993591309,4|0,1:0|0:0,0:1:0:0:
131,28,25713,2,0,L|124:116,1,50,8|0,0:0|0:0,0:0:0:0:
170,176,25998,1,0,0:0:0:0:
170,176,26141,1,0,0:0:0:0:
266,135,26284,2,0,L|330:130,1,50,0|0,0:0|0:0,0:0:0:0:
288,240,26570,6,2,P|211:254|141:175,1,139.999995727539,6|8,1:2|0:0,0:1:0:0:
391,220,26998,6,2,P|382:288|273:333,1,139.999995727539,6|0,1:2|0:0,0:1:0:0:
403,108,27427,6,2,P|489:154|472:289,1,209.999993591309,6|0,1:2|0:0,0:1:0:0:
396,365,27998,1,8,0:0:0:0:
396,365,28284,1,0,1:0:0:0:
318,323,28427,2,0,L|246:318,1,50,0|0,1:0|0:0,0:0:0:0:
182,368,28713,1,0,1:0:0:0:
66,291,28855,2,0,L|143:287,1,50,2|0,1:2|0:0,0:0:0:0:
210,164,29141,2,0,L|160:161,1,50,10|0,0:0|0:0,0:0:0:0:
275,245,29427,1,2,0:0:0:0:
275,245,29713,6,2,B|347:242|347:242|396:269|396:269|483:265,1,209.999993591309,4|0,1:0|0:0,0:1:0:0:
210,164,30284,2,0,P|167:216|206:314,1,150,10|0,0:0|0:0,0:0:0:0:
355,166,30855,2,0,L|358:91,1,50,2|0,0:0|0:0,0:0:0:0:
282,248,31141,6,2,P|353:279|438:228,1,139.999995727539,6|8,1:2|0:0,0:1:0:0:
210,164,31570,6,2,P|169:221|200:313,1,139.999995727539,6|0,1:2|0:0,0:1:0:0:
276,68,31998,6,2,P|196:43|95:137,1,209.999993591309,6|0,1:2|0:0,0:1:0:0:
134,296,32570,1,8,0:0:0:0:
134,296,32855,1,0,1:0:0:0:
217,343,32998,2,0,L|291:349,1,50,0|2,1:0|0:2,0:0:0:0:
356,321,33284,1,0,1:0:0:0:
285,209,33427,2,0,L|289:293,1,50,0|2,1:0|0:0,0:0:0:0:
375,337,33713,2,0,L|377:287,1,50,10|0,0:2|0:0,0:0:0:0:
456,168,33998,2,0,L|460:252,1,50,2|0,0:2|0:0,0:0:0:0:
339,111,34284,6,2,B|259:106|259:106|215:133|215:133|116:126,1,209.999993591309,4|0,1:0|0:0,0:1:0:0:
4,78,34855,1,8,0:0:0:0:
4,78,35141,1,0,0:0:0:0:
44,155,35284,2,0,L|34:246,1,50,0|2,0:0|0:0,0:0:0:0:
91,278,35570,1,2,0:0:0:0:
203,197,35713,6,2,P|149:151|32:190,1,139.999995727539,6|10,1:2|0:0,0:1:0:0:
284,263,36141,6,2,P|317:192|283:112,1,139.999995727539,6|0,1:2|0:0,0:1:0:0:
229,358,36570,6,2,B|368:380|368:380|449:340,1,209.999993591309,6|0,1:2|0:0,0:1:0:0:
482,200,37141,1,8,0:0:0:0:
482,200,37427,1,0,1:0:0:0:
414,140,37570,2,0,L|337:145,1,50,0|0,1:0|0:0,0:0:0:0:
267,223,37855,1,0,1:0:0:0:
179,195,37998,2,0,L|83:187,1,50,2|0,1:2|0:0,0:0:0:0:
38,117,38284,2,0,L|87:112,1,50,10|0,0:0|0:0,0:0:0:0:
187,212,38570,2,0,L|91:204,1,50,2|0,0:0|0:0,0:0:0:0:
246,124,38855,6,2,P|294:180|188:296,1,209.999993591309,4|0,1:0|0:0,0:1:0:0:
167,43,39427,2,0,B|263:22|263:22|330:59,1,150,10|0,0:0|0:0,0:0:0:0:
341,195,39998,2,0,L|348:132,1,50,2|0,0:0|0:0,0:0:0:0:
275,272,40284,6,2,P|355:297|427:234,1,139.999995727539,6|8,1:2|0:0,0:1:0:0:
187,220,40713,6,2,P|169:290|234:370,1,139.999995727539,6|2,1:2|0:0,0:1:0:0:
193,114,41141,6,2,P|111:138|113:286,1,209.999993591309,6|0,1:2|0:0,0:1:0:0:
216,369,41713,1,8,0:0:0:0:
216,369,41998,1,2,1:2:0:0:
296,333,42141,2,0,L|380:343,1,50,0|0,1:0|0:0,0:0:0:0:
475,376,42427,1,0,1:0:0:0:
427,305,42570,2,0,L|423:238,1,50,2|0,1:2|0:0,0:0:0:0:
439,166,42855,2,0,B|397:186|354:166|375:148|329:121|263:161,1,150,2|0,0:0|0:0,0:0:0:0:
147,259,43427,6,0,B|65:278|65:278|-1:253,1,129.999994049073,4|0,1:0|0:0,0:0:0:0:
58,181,43855,1,0,0:0:0:0:
214,198,43998,2,0,P|239:248|207:325,1,129.999994049073,10|0,0:0|1:0,0:0:0:0:
147,259,44427,1,0,1:0:0:0:
174,112,44570,2,0,L|337:106,1,129.999994049073,2|0,0:0|1:0,0:0:0:0:
402,139,44998,1,2,0:0:0:0:
344,13,45141,2,0,L|337:87,1,64.9999970245363,10|0,0:0|0:0,0:0:0:0:
433,213,45427,2,0,L|426:148,1,64.9999970245363,2|0,0:0|0:0,0:0:0:0:
362,281,45713,6,0,P|422:315|508:262,1,129.999994049073,2|0,1:2|0:0,0:0:0:0:
433,213,46141,1,2,0:0:0:0:
275,235,46284,2,0,P|258:298|322:367,1,129.999994049073,8|0,0:0|1:0,0:0:0:0:
362,281,46713,1,0,1:0:0:0:
303,142,46855,2,0,L|213:133,1,64.9999970245363,2|0,0:0|0:0,0:0:0:0:
154,183,47141,1,0,1:0:0:0:
154,183,47284,2,0,L|38:192,1,64.9999970245363,2|10,0:0|0:0,0:0:0:0:
0,110,47570,1,0,0:0:0:0:
72,41,47713,1,2,0:0:0:0:
72,41,47855,1,0,0:0:0:0:
117,267,47998,6,0,P|48:291|-22:232,1,129.999994049073,6|0,1:2|0:0,0:0:0:0:
60,196,48427,1,2,0:0:0:0:
218,235,48570,2,0,B|232:316|232:316|195:381,1,129.999994049073,10|2,0:0|1:2,0:0:0:0:
131,299,48998,1,0,1:0:0:0:
166,147,49141,1,2,0:0:0:0:
166,147,49284,2,0,L|242:142,1,64.9999970245363,2|0,1:2|1:0,0:0:0:0:
318,174,49570,1,2,0:0:0:0:
301,85,49713,2,0,L|309:8,1,64.9999970245363,10|0,0:0|0:0,0:0:0:0:
250,235,49998,2,0,L|256:299,1,64.9999970245363,2|0,0:0|0:0,0:0:0:0:
372,384,50284,5,2,1:2:0:0:
457,279,50427,2,0,L|452:344,1,64.9999970245363,2|0,0:0|0:0,0:0:0:0:
366,190,50713,1,2,0:0:0:0:
366,190,50855,2,0,L|371:254,1,64.9999970245363,10|0,0:0|0:0,0:0:0:0:
450,163,51141,2,0,L|456:89,1,64.9999970245363,2|0,1:2|1:0,0:0:0:0:
417,25,51427,1,2,0:0:0:0:
331,50,51570,1,0,1:0:0:0:
245,76,51713,2,0,L|171:82,1,64.9999970245363,0|2,1:0|0:0,0:0:0:0:
80,9,51998,2,0,L|72:157,1,129.999994049073,10|0,0:0|0:0,0:0:0:0:
144,194,52427,1,0,0:0:0:0:
308,163,52570,6,0,P|353:109|319:12,1,129.999994049073,4|0,1:0|0:0,0:0:0:0:
258,84,52998,1,0,0:0:0:0:
237,235,53141,2,0,B|311:256|311:256|374:233,1,129.999994049073,10|0,0:0|1:0,0:0:0:0:
308,163,53570,1,0,1:0:0:0:
144,194,53713,2,0,L|135:344,1,129.999994049073,2|0,0:0|1:0,0:0:0:0:
57,239,54141,1,2,0:0:0:0:
57,239,54284,2,0,L|53:158,1,64.9999970245363,10|0,0:0|0:0,0:0:0:0:
159,111,54570,2,0,L|155:175,1,64.9999970245363,2|0,0:0|0:0,0:0:0:0:
82,47,54855,6,0,P|147:8|224:36,1,129.999994049073,2|0,1:2|0:0,0:0:0:0:
282,45,55284,1,2,0:0:0:0:
171,233,55427,2,0,B|147:194|147:194|161:93,1,129.999994049073,8|0,0:0|1:0,0:0:0:0:
271,65,55855,1,0,1:0:0:0:
271,65,55998,2,0,L|280:164,1,64.9999970245363,2|0,0:0|0:0,0:0:0:0:
171,233,56284,2,0,L|176:168,1,64.9999970245363,2|2,1:2|0:0,0:0:0:0:
282,45,56570,2,0,L|291:144,1,64.9999970245363,8|0,0:0|0:0,0:0:0:0:
263,202,56855,1,2,0:0:0:0:
374,137,56998,1,0,0:0:0:0:
356,315,57141,6,0,P|423:336|496:272,1,129.999994049073,6|0,1:2|0:0,0:0:0:0:
411,249,57570,1,2,0:0:0:0:
280,265,57713,2,0,P|264:333|335:400,1,129.999994049073,10|2,0:0|1:2,0:0:0:0:
356,315,58141,1,0,1:2:0:0:
282,169,58284,1,2,0:0:0:0:
282,169,58427,2,0,L|179:160,1,64.9999970245363,2|0,1:2|1:0,0:0:0:0:
118,55,58713,1,2,0:0:0:0:
207,21,58856,2,0,L|310:12,1,64.9999970245363,10|0,0:0|0:0,0:0:0:0:
265,178,59141,2,0,L|162:169,1,64.9999970245363,2|0,0:0|0:0,0:0:0:0:
118,55,59427,5,2,1:2:0:0:
37,99,59570,2,0,L|43:194,1,64.9999970245363,2|0,1:2|1:0,0:0:0:0:
118,269,59855,1,2,1:2:0:0:
118,269,59998,2,0,L|124:174,1,64.9999970245363,10|0,0:0|0:0,0:0:0:0:
0,272,60284,2,0,L|6:367,1,64.9999970245363,2|0,1:2|1:0,0:0:0:0:
151,381,60570,1,2,0:0:0:0:
151,381,60713,1,0,1:0:0:0:
236,322,60855,2,0,L|339:316,1,64.9999970245363,0|2,1:0|0:0,0:0:0:0:
388,355,61141,2,0,L|396:215,1,129.999994049073,10|0,0:0|0:0,0:0:0:0:
428,137,61570,1,0,0:0:0:0:
338,35,61713,6,0,P|285:8|189:62,1,129.999994049073,4|2,1:0|0:0,0:0:0:0:
175,179,62141,1,0,0:0:0:0:
175,179,62284,2,0,P|117:206|32:162,1,129.999994049073,8|2,0:0|1:2,0:0:0:0:
107,107,62713,1,0,1:0:0:0:
262,151,62855,6,0,L|254:236,1,64.9999970245363,0|0,0:0|1:0,0:0:0:0:
164,277,63141,2,0,L|157:212,1,64.9999970245363,2|0,1:2|0:0,0:0:0:0:
277,167,63427,2,0,L|269:252,1,64.9999970245363,8|0,0:0|0:0,0:0:0:0:
232,368,63713,1,2,0:0:0:0:
232,368,63855,1,0,0:0:0:0:
348,268,63998,6,0,P|410:254|464:286,1,129.999994049073,0|2,1:2|0:0,0:0:0:0:
376,120,64427,1,0,0:0:0:0:
376,120,64570,2,0,P|321:152|259:138,1,129.999994049073,8|0,0:0|1:0,0:0:0:0:
299,58,64998,1,0,1:0:0:0:
172,105,65141,2,0,L|177:187,1,64.9999970245363,0|0,0:0|1:0,0:0:0:0:
78,132,65427,2,0,L|81:67,1,64.9999970245363,2|0,1:2|0:0,0:0:0:0:
187,118,65713,2,0,L|192:200,1,64.9999970245363,10|0,0:0|0:0,0:0:0:0:
248,261,65998,1,2,0:0:0:0:
248,261,66141,1,0,0:0:0:0:
143,352,66284,6,0,P|88:384|26:369,1,129.999994049073,6|0,1:2|0:0,0:0:0:0:
74,287,66713,1,0,0:0:0:0:
234,304,66855,2,0,B|285:301|285:301|313:313|313:313|366:310,1,129.999994049073,8|2,0:0|1:2,0:0:0:0:
434,260,67284,1,0,1:0:0:0:
334,160,67427,2,0,L|328:249,1,64.9999970245363,0|0,0:0|1:0,0:0:0:0:
430,138,67713,2,0,L|425:73,1,64.9999970245363,2|0,1:2|0:0,0:0:0:0:
317,150,67998,2,0,L|311:239,1,64.9999970245363,10|0,0:0|0:0,0:0:0:0:
447,123,68284,2,0,L|442:58,1,64.9999970245363,2|0,0:0|0:0,0:0:0:0:
236,105,68570,6,0,P|224:167|260:219,1,129.999994049073,2|0,1:2|0:0,0:0:0:0:
317,150,68998,1,2,0:0:0:0:
271,13,69141,2,0,L|124:6,1,129.999994049073,8|2,0:0|1:2,0:0:0:0:
8,74,69570,2,0,L|14:169,1,64.9999970245363,0|2,1:0|0:0,0:0:0:0:
55,219,69855,1,0,1:0:0:0:
190,191,69998,2,0,L|194:126,1,64.9999970245363,0|2,1:0|0:0,0:0:0:0:
271,13,70284,2,0,L|278:151,1,129.999994049073,10|2,0:0|0:0,0:0:0:0:
331,217,70713,1,2,0:0:0:0:
225,301,70855,6,0,P|160:331|85:292,1,129.999994049073,4|2,1:0|0:0,0:0:0:0:
163,238,71284,1,0,0:0:0:0:
313,255,71427,2,0,B|323:332|323:332|280:401,1,129.999994049073,8|2,0:0|1:2,0:0:0:0:
225,301,71855,1,0,1:0:0:0:
271,148,71998,6,0,L|358:142,1,64.9999970245363,0|0,0:0|1:0,0:0:0:0:
377,259,72284,2,0,L|312:254,1,64.9999970245363,2|0,1:2|0:0,0:0:0:0:
255,137,72570,2,0,L|342:131,1,64.9999970245363,8|0,0:0|0:0,0:0:0:0:
458,177,72855,1,2,0:0:0:0:
458,177,72998,1,0,0:0:0:0:
376,51,73141,6,0,P|308:27|241:72,1,129.999994049073,0|2,1:2|0:0,0:0:0:0:
176,178,73570,1,0,0:0:0:0:
176,178,73713,2,0,P|108:202|41:157,1,129.999994049073,8|0,0:0|1:0,0:0:0:0:
118,119,74141,1,0,1:0:0:0:
264,174,74284,2,0,L|270:263,1,64.9999970245363,0|0,0:0|1:0,0:0:0:0:
169,295,74570,2,0,L|173:230,1,64.9999970245363,2|0,1:2|0:0,0:0:0:0:
276,162,74855,2,0,L|282:251,1,64.9999970245363,10|0,0:0|0:0,0:0:0:0:
334,308,75141,1,2,0:0:0:0:
334,308,75284,1,0,0:0:0:0:
345,96,75427,6,0,P|280:63|210:102,1,129.999994049073,4|0,1:2|0:0,0:0:0:0:
276,162,75855,1,0,0:0:0:0:
431,142,75998,2,0,L|438:4,1,129.999994049073,8|2,0:0|1:2,0:0:0:0:
345,96,76427,1,0,1:0:0:0:
417,235,76570,2,0,L|501:241,1,64.9999970245363,0|0,0:0|1:0,0:0:0:0:
410,334,76855,2,0,L|345:338,1,64.9999970245363,2|0,1:2|0:0,0:0:0:0:
431,221,77141,2,0,L|515:227,1,64.9999970245363,10|0,0:0|0:0,0:0:0:0:
401,353,77427,2,0,L|336:357,1,64.9999970245363,2|0,0:0|0:0,0:0:0:0:
186,308,77713,6,0,P|226:258|197:174,1,129.999994049073,2|0,1:2|1:0,0:0:0:0:
86,140,78141,1,0,1:0:0:0:
86,140,78284,2,0,P|46:90|75:6,1,129.999994049073,8|2,0:0|1:2,0:0:0:0:
142,68,78713,1,0,1:0:0:0:
119,225,78855,2,0,L|36:230,1,64.9999970245363,2|0,0:0|1:0,0:0:0:0:
205,180,79141,2,0,L|269:183,1,64.9999970245363,0|0,1:0|0:0,0:0:0:0:
362,290,79427,2,0,L|353:157,1,129.999994049073,10|2,0:0|0:0,0:0:0:0:
407,88,79855,1,2,0:0:0:0:
348,23,79998,6,0,P|309:8|268:23,1,80,4|0,1:0|3:0,0:0:0:0:
218,78,80427,2,0,B|185:81|185:81|167:73|167:73|135:76,1,80,0|0,3:0|3:0,0:0:0:0:
74,114,80855,1,2,3:2:0:0:
116,237,81141,1,0,3:0:0:0:
116,237,81284,1,0,3:0:0:0:
241,221,81570,1,0,3:0:0:0:
241,221,81713,2,0,L|236:277,1,40,0|0,3:0|0:0,0:0:0:0:
272,331,81998,1,2,3:2:0:0:
444,302,82284,6,0,L|438:193,1,80,0|2,3:0|3:2,0:0:0:0:
431,138,82713,2,0,P|394:154|353:147,1,80,0|0,3:0|3:0,0:0:0:0:
293,102,83141,2,0,L|236:98,1,40,0|0,3:0|0:0,0:0:0:0:
174,110,83427,1,0,3:0:0:0:
85,221,83713,2,0,L|81:284,1,40,2|0,0:0|3:0,0:0:0:0:
161,321,83998,2,0,L|158:273,1,40,2|0,3:2|0:0,0:0:0:0:
200,207,84284,1,2,3:2:0:0:
276,339,84570,6,0,P|321:323|360:335,1,80,2|0,3:2|3:0,0:0:0:0:
433,384,84998,2,0,B|421:360|421:360|429:291,1,80,0|0,3:0|3:0,0:0:0:0:
469,237,85427,2,0,L|465:177,1,40,2|0,3:2|0:0,0:0:0:0:
424,131,85713,1,0,3:0:0:0:
424,131,85855,1,0,3:0:0:0:
307,239,86141,1,0,3:0:0:0:
307,239,86284,2,0,L|243:242,1,40,2|0,3:2|0:0,0:0:0:0:
191,213,86570,1,2,3:2:0:0:
214,33,86855,5,2,3:2:0:0:
256,192,86998,12,0,90284,0:0:0:0:
