osu file format v14

[General]
AudioFilename: audio.mp3
AudioLeadIn: 0
PreviewTime: 42570
Countdown: 0
SampleSet: Soft
StackLeniency: 0.7
Mode: 0
LetterboxInBreaks: 0
EpilepsyWarning: 1
WidescreenStoryboard: 1

[Editor]
DistanceSpacing: 1.73
BeatDivisor: 4
GridSize: 4
TimelineZoom: 2.3

[Metadata]
Title:Smile (Cut Ver.)
TitleUnicode:Smile (Cut Ver.)
Artist:Avril Lavigne
ArtistUnicode:Avril Lavigne
Creator:Froskya
Version:freihy x Froskya's Hard
Source:
Tags:revialink gero jiebi jschlatt gibee games freihy freimox jojajim female vocalist vocals short version pop punk english goodbye lullaby genshin impact 原神 raiden shogun shougun 雷電将軍 ei 雷電影 baal beelzebul ganyu 甘雨 keqing 甘雨 hu tao 胡桃 arataki itto 荒瀧一斗 zhongli 钟离
BeatmapID:3136566
BeatmapSetID:1529886

[Difficulty]
HPDrainRate:6
CircleSize:4
OverallDifficulty:6
ApproachRate:7.8
SliderMultiplier:1.75
SliderTickRate:1

[Events]
//Background and Video events
0,0,"bg.jpg",0,0
//Break Periods
//Storyboard Layer 0 (Background)
//Storyboard Layer 1 (Fail)
//Storyboard Layer 2 (Pass)
//Storyboard Layer 3 (Foreground)
Sprite,Foreground,Centre,"sb\c1.png",0,0 F,0,2285,2385,0,1 M,1,2285,6427,185,190,165,190 S,0,2285,6427,0.4 F,0,6027,6427,1,0
Sprite,Foreground,Centre,"sb\c5.png",0,0 F,0,3713,3813,0,1 M,1,3713,6427,245,230,230,230 S,0,3713,6427,0.5 F,0,6027,6427,1,0
//Storyboard Layer 4 (Overlay)
//Storyboard Sound Samples

[TimingPoints]
2285,571.428571428571,4,2,1,40,1,0
2285,-133.333333333333,4,2,1,40,0,0
3713,-100,4,2,1,40,0,0
4570,-133.333333333333,4,2,1,40,0,0
6856,571.428571428571,4,2,1,60,1,0
6856,-100,4,2,1,60,0,0
11284,-100,4,2,1,5,0,0
11427,-100,4,2,1,60,0,0
20427,-100,4,2,1,5,0,0
20570,-100,4,2,1,60,0,0
25141,-100,4,2,1,70,0,0
42855,-100,4,2,1,50,0,0
43427,-66.6666666666667,4,2,1,80,0,1
51998,-66.6666666666667,4,2,1,80,0,0
52570,-66.6666666666667,4,2,1,80,0,1
61141,-66.6666666666667,4,2,1,80,0,0
61713,-66.6666666666667,4,2,1,80,0,1
70284,-66.6666666666667,4,2,1,80,0,0
70855,-66.6666666666667,4,2,1,80,0,1
79998,-222.222222222221,4,2,1,50,0,0
87427,-222.222222222221,4,2,1,45,0,0
87998,-222.222222222221,4,2,1,40,0,0
88570,-222.222222222221,4,2,1,30,0,0
89141,-222.222222222221,4,2,1,20,0,0
89713,-222.222222222221,4,2,1,10,0,0
90284,-222.222222222221,4,2,1,5,0,0

[Colours]
Combo1 : 255,226,138
Combo2 : 170,255,170
Combo3 : 212,212,212
Combo4 : 121,211,255

[HitObjects]
420,340,2285,6,0,B|440:294|415:255|415:255|407:297|383:312,1,131.25,2|0,3:2|3:0,0:0:0:0:
374,138,3142,2,0,L|380:170,2,32.8125012516976,0|0|0,3:0|3:0|3:0,0:0:0:0:
326,81,3570,1,0,3:0:0:0:
326,81,3713,2,0,P|347:31|383:95,1,131.25,2|2,3:2|3:2,0:0:0:0:
240,244,4570,6,0,B|229:224|229:224|251:107,1,131.25000500679,2|0,3:2|3:0,0:0:0:0:
132,40,5427,2,0,L|136:72,2,32.8125012516976,0|0|0,3:0|3:0|3:0,0:0:0:0:
48,40,5856,2,0,L|43:7,1,32.8125012516976,0|0,3:0|3:2,0:0:0:0:
68,184,6427,1,0,3:2:0:0:
152,336,6856,6,2,B|144:360|144:360|120:236,1,131.25,4|2,1:0|0:0,0:1:0:0:
164,176,7427,1,10,0:0:0:0:
164,176,7570,2,0,L|241:182,2,43.75,2|2|2,0:0|0:0|0:0,0:0:0:0:
102,116,7998,1,2,0:0:0:0:
224,16,8284,2,2,B|240:12|240:12|328:56,1,87.5,6|2,1:2|0:0,0:1:0:0:
344,120,8713,2,2,B|407:151|407:151|423:147,1,87.5,4|2,1:2|0:0,0:1:0:0:
444,240,9141,6,2,P|412:225|388:266,1,87.5,6|2,1:2|0:0,0:1:0:0:
352,328,9570,1,2,0:0:0:0:
272,324,9713,2,0,P|253:359|215:346,1,87.5,10|2,0:0|1:2,0:0:0:0:
176,280,10141,1,2,1:2:0:0:
96,272,10284,2,0,L|112:380,2,87.5,2|2|10,0:0|1:2|0:0,0:0:0:0:
364,168,11427,6,2,B|377:184|377:184|363:64,1,131.25,4|0,1:0|0:0,0:1:0:0:
455,72,11998,1,10,0:0:0:0:
455,72,12141,1,2,0:0:0:0:
455,72,12284,2,0,L|464:136,1,43.75,2|2,0:0|0:0,0:0:0:0:
444,196,12570,1,2,0:0:0:0:
294,184,12855,2,2,B|287:176|287:176|388:165,1,87.5,6|2,1:2|0:0,0:1:0:0:
347,81,13284,2,2,B|354:89|354:89|253:100,1,87.5,6|2,1:2|0:0,0:1:0:0:
227,25,13713,6,2,P|187:61|103:29,1,131.25,6|0,1:2|0:0,0:1:0:0:
52,1,14284,1,8,0:0:0:0:
21,143,14570,1,2,1:2:0:0:
21,143,14713,1,0,1:0:0:0:
83,190,14855,2,0,L|97:231,1,43.75,2|0,0:0|1:2,0:0:0:0:
175,208,15141,2,0,L|160:166,1,43.75,2|2,1:2|0:0,0:0:0:0:
102,113,15427,1,10,0:0:0:0:
192,16,15713,1,2,0:0:0:0:
304,104,15998,6,2,B|285:88|285:88|301:220,1,131.25,4|2,1:0|0:0,0:1:0:0:
360,256,16570,1,10,0:0:0:0:
360,256,16713,1,2,0:0:0:0:
360,256,16855,2,0,L|351:301,1,43.75,2|2,0:0|0:0,0:0:0:0:
292,356,17141,1,2,0:0:0:0:
188,204,17427,2,2,B|180:208|180:208|212:92,1,87.5,6|2,1:2|0:0,0:1:0:0:
104,156,17855,2,2,B|112:152|112:152|80:268,1,87.5,6|2,1:2|0:0,0:1:0:0:
72,312,18284,6,2,B|118:291|110:332|164:305,1,87.5,6|2,1:2|0:0,0:1:0:0:
208,248,18713,1,2,0:0:0:0:
284,276,18855,2,0,B|329:251|321:292|368:272,1,87.5,10|2,0:0|1:2,0:0:0:0:
424,220,19284,1,2,1:2:0:0:
500,248,19427,2,0,L|515:360,2,87.5,2|2|10,0:0|1:2|0:0,0:0:0:0:
282,33,20570,6,2,B|295:21|295:21|309:143,1,131.25,4|0,1:0|0:0,0:1:0:0:
237,192,21141,1,10,0:0:0:0:
237,192,21284,1,2,0:0:0:0:
237,192,21427,2,0,L|232:236,1,43.75,2|2,0:0|0:0,0:0:0:0:
272,304,21713,1,2,0:0:0:0:
392,360,21998,2,2,B|410:368|410:368|389:294,1,87.5,6|2,1:2|0:0,0:1:0:0:
448,228,22427,2,2,B|467:231|467:231|429:165,1,87.5,4|2,1:2|0:0,0:1:0:0:
362,122,22855,6,2,P|350:80|364:40,1,87.5,6|0,1:2|0:0,0:1:0:0:
317,233,23427,2,0,L|208:255,1,87.5,8|0,0:0|1:0,0:0:0:0:
164,196,23855,1,0,1:0:0:0:
202,123,23998,2,0,P|207:83|180:38,1,87.5,2|0,0:0|1:0,0:0:0:0:
83,61,24427,2,0,P|78:101|104:145,1,87.5,2|0,0:0|0:0,0:0:0:0:
164,196,24855,2,0,B|166:218|166:218|155:245,1,43.75,2|0,0:0|0:0,0:0:0:0:
28,258,25141,6,2,P|11:196|71:106,1,175,4|8,1:0|0:0,0:1:0:0:
241,153,25998,2,0,L|250:96,2,43.75
67,107,26570,2,2,B|61:119|61:119|176:104,1,87.5,6|8,1:2|0:0,0:1:0:0:
236,184,26998,2,2,B|242:172|242:172|127:187,1,87.5,6|0,1:2|0:0,0:1:0:0:
105,237,27427,6,2,P|51:270|50:333,1,131.25,6|0,1:2|0:0,0:1:0:0:
130,372,27998,1,8,0:0:0:0:
252,256,28284,2,0,L|244:192,2,43.75,0|0|0,1:0|1:0|0:0,0:0:0:0:
313,320,28713,2,0,L|304:363,1,43.75,0|2,1:0|1:2,0:0:0:0:
159,344,29141,2,0,L|150:301,1,43.75,10|0,0:0|0:0,0:0:0:0:
221,260,29427,2,0,L|212:217,1,43.75,2|0,0:0|0:0,0:0:0:0:
134,109,29713,6,2,P|147:167|78:228,1,131.25,4|0,1:0|0:0,0:1:0:0:
37,259,30284,2,0,P|121:268|159:336,1,131.25,10|0,0:0|0:0,0:0:0:0:
128,376,30855,1,2,0:0:0:0:
296,288,31141,2,2,B|309:282|309:282|205:266,1,87.5,6|8,1:2|0:0,0:1:0:0:
148,180,31570,2,2,B|135:186|135:186|239:202,1,87.5,6|0,1:2|0:0,0:1:0:0:
252,128,31998,6,2,P|236:76|136:40,1,131.25,6|0,1:2|0:0,0:1:0:0:
92,72,32570,1,8,0:0:0:0:
304,0,32855,2,0,L|313:42,1,43.75,0|0,1:0|1:0,0:0:0:0:
386,70,33141,2,0,L|369:174,1,87.5,2|0,0:2|1:0,0:0:0:0:
333,221,33570,2,0,L|350:325,1,87.5,2|0,0:0|0:0,0:0:0:0:
280,372,33998,1,2,0:2:0:0:
248,184,34284,6,2,P|175:195|151:264,1,131.25,4|0,1:0|0:0,0:1:0:0:
208,336,34855,1,8,0:0:0:0:
336,280,35141,2,0,L|400:295,2,43.75,0|0|2,0:0|0:0|0:0,0:0:0:0:
208,336,35713,2,2,B|200:344|200:344|191:235,1,87.5,6|10,1:2|0:0,0:1:0:0:
240,204,36141,2,2,B|248:212|248:212|257:103,1,87.5,6|0,1:2|0:0,0:1:0:0:
108,144,36570,6,2,P|128:72|216:56,1,131.25,6|0,1:2|0:0,0:1:0:0:
248,96,37141,1,8,0:0:0:0:
380,49,37427,2,0,L|389:6,2,43.75,0|0|0,1:0|1:0|0:0,0:0:0:0:
461,79,37855,2,0,L|470:122,1,43.75,0|2,1:0|1:2,0:0:0:0:
378,236,38284,2,0,L|335:223,1,43.75,10|0,0:0|0:0,0:0:0:0:
276,281,38570,2,0,L|233:268,1,43.75,2|0,0:0|0:0,0:0:0:0:
154,164,38855,6,2,P|144:101|129:6,1,131.25,4|0,1:0|0:0,0:1:0:0:
211,20,39427,2,0,P|221:84|231:149,1,131.25,10|0,0:0|0:0,0:0:0:0:
291,202,39998,1,2,0:0:0:0:
343,55,40284,2,2,B|352:44|352:44|342:153,1,87.5,6|8,1:2|0:0,0:1:0:0:
424,176,40713,2,2,B|415:187|415:187|425:78,1,87.5,6|2,1:2|0:0,0:1:0:0:
469,32,41141,6,2,P|382:21|339:73,1,131.25,6|0,1:2|0:0,0:1:0:0:
328,120,41713,1,8,0:0:0:0:
140,244,41998,2,0,P|138:177|144:167,1,43.75,2|0,1:2|1:0,0:0:0:0:
208,188,42284,2,0,P|210:255|204:265,1,43.75,0|0,0:0|1:0,0:0:0:0:
192,308,42570,1,2,1:2:0:0:
284,168,42855,2,0,P|362:140|395:165,1,131.25,2|0,0:0|0:0,0:0:0:0:
436,240,43427,6,0,B|407:277|407:277|258:255,1,196.875007510186,4|0,1:0|0:0,0:0:0:0:
208,187,43998,2,0,B|216:134|216:134|228:119|228:119|235:61,1,131.25000500679,10|0,0:0|1:0,0:0:0:0:
171,11,44427,1,0,1:0:0:0:
171,11,44570,2,0,B|39:22|39:22|77:27|91:64,1,196.875007510186,2|2,0:0|0:0,0:0:0:0:
15,102,45141,1,10,0:0:0:0:
138,289,45427,2,0,L|129:225,1,65.6250025033952,2|0,0:0|0:0,0:0:0:0:
27,202,45713,6,0,L|44:332,1,131.25000500679,2|0,1:2|0:0,0:0:0:0:
114,131,46284,2,0,P|182:135|258:142,1,131.25000500679,8|0,0:0|1:0,0:0:0:0:
250,59,46713,1,0,1:0:0:0:
250,59,46855,2,0,P|321:43|382:99,1,131.25000500679,2|0,0:0|1:0,0:0:0:0:
395,165,47284,2,0,P|456:182|512:151,1,131.25000500679,2|0,0:0|0:0,0:0:0:0:
456,36,47713,2,0,L|447:101,1,65.6250025033952,2|0,0:0|0:0,0:0:0:0:
388,0,47998,6,0,P|295:35|307:122,1,196.875007510186,6|2,1:2|0:0,0:0:0:0:
395,165,48570,1,10,0:0:0:0:
296,319,48855,2,0,L|231:309,1,65.6250025033952,2|0,1:2|1:0,0:0:0:0:
281,215,49141,1,2,0:0:0:0:
191,233,49284,2,0,L|45:258,1,131.25000500679,2|2,1:2|0:0,0:0:0:0:
117,151,49713,2,0,P|88:88|132:35,1,131.25000500679,10|2,0:0|0:0,0:0:0:0:
359,39,50284,5,2,1:2:0:0:
359,39,50427,2,0,P|388:94|358:150,1,131.25000500679,2|2,0:0|0:0,0:0:0:0:
400,231,50855,2,0,L|263:256,1,131.25000500679,10|2,0:0|1:2,0:0:0:0:
281,360,51284,1,0,1:0:0:0:
195,328,51427,2,0,P|132:364|39:284,1,196.875007510186,2|2,0:0|0:0,0:0:0:0:
128,252,51998,2,0,B|159:111|159:111|131:67,1,196.875007510186,10|0,0:0|0:0,0:0:0:0:
15,74,52570,6,0,B|121:99|89:4|208:34,1,196.875007510186,4|0,1:0|0:0,0:0:0:0:
255,93,53141,2,0,P|318:94|363:48,1,131.25000500679,10|0,0:0|1:0,0:0:0:0:
439,5,53570,1,0,1:0:0:0:
439,5,53713,2,0,B|466:40|466:40|448:145|448:145|408:168,1,196.875007510186,2|2,0:0|0:0,0:0:0:0:
331,204,54284,1,10,0:0:0:0:
494,331,54570,2,0,P|472:307|440:299,1,65.6250025033952,2|0,0:0|0:0,0:0:0:0:
314,337,54855,6,0,B|388:335|355:381|433:379,1,131.25000500679,2|0,1:2|0:0,0:0:0:0:
358,215,55427,2,0,P|293:229|223:244,1,131.25000500679,8|0,0:0|1:0,0:0:0:0:
149,263,55856,1,0,1:0:0:0:
149,263,55998,2,0,P|131:201|162:145,1,131.25000500679,2|2,0:0|1:2,0:0:0:0:
254,116,56427,2,0,P|271:54|240:-1,1,131.25000500679,2|0,0:0|0:0,0:0:0:0:
131,65,56856,2,0,L|148:2,1,65.6250025033952,2|0,0:0|0:0,0:0:0:0:
20,110,57141,6,0,P|113:76|161:149,1,196.875007510186,6|2,1:2|0:0,0:0:0:0:
73,198,57713,1,10,0:0:0:0:
215,307,57998,2,0,L|279:298,1,65.6250025033952,2|0,1:2|1:2,0:0:0:0:
232,203,58284,1,2,0:0:0:0:
323,215,58427,2,0,L|464:234,1,131.25000500679,2|2,1:2|0:0,0:0:0:0:
487,345,58855,2,0,L|352:326,1,131.25000500679,10|2,0:0|0:0,0:0:0:0:
137,250,59427,5,2,1:2:0:0:
137,250,59570,2,0,B|149:242|149:242|-3:226,1,131.25000500679,2|2,1:2|1:2,0:0:0:0:
56,140,59998,2,0,B|44:148|44:148|196:164,1,131.25000500679,10|2,0:0|1:2,0:0:0:0:
265,173,60427,1,0,1:0:0:0:
233,84,60570,2,0,P|292:45|390:127,1,196.875007510186,2|2,0:0|0:0,0:0:0:0:
472,28,61141,2,0,B|500:72|500:72|469:213,1,196.875007510186,10|0,0:0|0:0,0:0:0:0:
500,325,61713,6,0,P|448:286|385:296,1,131.25000500679,4|2,1:0|0:0,0:0:0:0:
292,357,62141,1,0,0:0:0:0:
292,357,62284,1,8,0:0:0:0:
179,273,62570,2,0,P|207:210|280:205,1,131.25000500679,2|0,1:2|0:0,0:0:0:0:
354,190,62998,1,0,1:0:0:0:
354,190,63141,2,0,P|326:127|253:122,1,131.25000500679,2|8,1:2|0:0,0:0:0:0:
117,178,63713,1,2,0:0:0:0:
66,113,63855,1,0,0:0:0:0:
66,113,63998,6,0,B|34:143|34:143|43:249,1,131.25000500679,0|2,1:2|0:0,0:0:0:0:
96,336,64427,1,0,0:0:0:0:
96,336,64570,2,0,L|281:317,1,131.25000500679,8|0,0:0|1:0,0:0:0:0:
296,359,64998,2,0,P|353:343|370:278,1,131.25000500679,0|0,1:0|1:0,0:0:0:0:
443,248,65427,2,0,P|437:216|416:191,1,65.6250025033952,2|0,1:2|0:0,0:0:0:0:
437,114,65713,2,0,P|408:97|376:98,1,65.6250025033952,10|0,0:0|0:0,0:0:0:0:
321,42,65998,2,0,P|290:53|269:78,1,65.6250025033952,2|0,0:0|0:0,0:0:0:0:
195,187,66284,6,0,P|258:197|304:155,1,131.25000500679,6|0,1:2|0:0,0:0:0:0:
182,97,66713,1,0,0:0:0:0:
182,97,66855,1,8,0:0:0:0:
82,182,67141,2,0,L|99:337,1,131.25000500679,2|0,1:2|0:0,0:0:0:0:
176,360,67570,1,0,1:0:0:0:
176,360,67713,2,0,P|286:324|323:372,2,131.25000500679,2|10|2,1:2|0:0|0:0,0:0:0:0:
405,354,68570,6,0,L|367:150,1,196.875007510186,2|2,1:2|0:0,0:0:0:0:
454,178,69141,2,0,L|477:307,1,131.25000500679,8|2,0:0|1:2,0:0:0:0:
405,354,69570,1,0,1:0:0:0:
319,336,69713,2,0,L|288:165,1,131.25000500679,2|0,0:0|1:0,0:0:0:0:
392,108,70141,1,2,0:0:0:0:
392,108,70284,2,0,L|408:196,1,65.6250025033952,10|0,0:0|0:0,0:0:0:0:
463,225,70570,2,0,L|474:289,1,65.6250025033952,2|2,0:0|0:0,0:0:0:0:
405,354,70855,6,0,B|328:363|355:315|278:322,1,131.25000500679,4|2,1:0|0:0,0:0:0:0:
195,258,71284,1,0,0:0:0:0:
195,258,71427,1,8,0:0:0:0:
166,113,71713,2,0,P|229:104|280:141,1,131.25000500679,2|0,1:2|0:0,0:0:0:0:
346,81,72141,1,0,1:0:0:0:
346,80,72284,2,0,P|398:43|461:52,1,131.25000500679,2|8,1:2|0:0,0:0:0:0:
464,214,72855,1,2,0:0:0:0:
398,273,72998,1,0,0:0:0:0:
398,273,73141,6,0,B|367:249|367:249|353:144,1,131.25000500679,0|2,1:0|0:0,0:0:0:0:
336,39,73570,1,0,0:0:0:0:
336,39,73713,2,0,B|261:15|279:68|205:47,1,131.25000500679,8|0,0:0|1:0,0:0:0:0:
139,4,74141,2,0,P|126:68|181:122,1,131.25000500679,0|0,1:0|1:0,0:0:0:0:
243,129,74570,2,0,L|232:202,1,65.6250025033952,2|0,1:2|0:0,0:0:0:0:
157,215,74855,2,0,L|146:288,1,65.6250025033952,10|0,0:0|0:0,0:0:0:0:
72,305,75141,2,0,L|61:378,1,65.6250025033952,2|0,0:0|0:0,0:0:0:0:
194,378,75427,6,0,P|258:364|322:350,1,131.25000500679,4|0,1:2|0:0,0:0:0:0:
337,240,75855,1,0,0:0:0:0:
337,240,75998,1,8,0:0:0:0:
188,225,76284,2,0,P|147:176|164:115,1,131.25000500679,2|0,1:2|0:0,0:0:0:0:
221,47,76713,1,0,1:0:0:0:
221,47,76855,2,0,L|372:63,2,131.25000500679,2|10|2,1:2|0:0|0:0,0:0:0:0:
301,224,77713,5,2,1:2:0:0:
301,224,77855,1,0,1:0:0:0:
301,224,77998,2,0,P|315:279|336:378,1,131.25000500679,0|8,1:0|0:0,0:0:0:0:
180,304,78570,2,0,L|189:221,1,65.6250025033952,2|0,1:2|1:0,0:0:0:0:
124,180,78855,2,0,P|116:124|196:83,1,131.25000500679,2|0,0:0|1:0,0:0:0:0:
256,104,79284,1,0,0:0:0:0:
342,80,79427,2,0,P|393:117|388:180,1,131.25000500679,10|2,0:0|0:0,0:0:0:0:
356,276,79855,1,2,0:0:0:0:
411,358,79998,1,4,1:0:0:0:
246,293,80855,6,0,L|250:248,1,39.3749987983704,2|0,3:2|3:0,0:0:0:0:
348,224,81427,2,0,L|344:179,1,39.3749987983704,2|0,0:0|3:0,0:0:0:0:
260,128,81998,2,0,B|247:108|247:108|257:43|257:43,1,78.7499975967408,2|2,3:2|3:2,0:0:0:0:
164,200,83713,6,0,L|167:242,1,39.3749987983704,2|2,0:0|3:2,0:0:0:0:
112,332,84284,2,0,P|76:346|38:336,1,78.7499975967408,2|0,3:2|3:0,0:0:0:0:
237,349,85427,6,0,L|231:303,1,39.3749987983704,2|0,3:2|3:0,0:0:0:0:
335,277,85998,2,0,L|329:316,2,39.3749987983704,2|2|2,0:0|3:2|3:2,0:0:0:0:
353,184,86855,1,2,3:2:0:0:
256,192,86998,12,0,90284,0:0:0:0:
