osu file format v14

[General]
AudioFilename: audio.mp3
AudioLeadIn: 0
PreviewTime: 42570
Countdown: 0
SampleSet: Soft
StackLeniency: 0.7
Mode: 0
LetterboxInBreaks: 0
EpilepsyWarning: 1
WidescreenStoryboard: 1

[Editor]
Bookmarks: 25141,86855
DistanceSpacing: 0.8
BeatDivisor: 4
GridSize: 8
TimelineZoom: 1.4

[Metadata]
Title:Smile (Cut Ver.)
TitleUnicode:Smile (Cut Ver.)
Artist:Avril Lavigne
ArtistUnicode:Avril Lavigne
Creator:Froskya
Version:Easy
Source:
Tags:revialink gero jiebi jschlatt gibee games freihy freimox jojajim female vocalist vocals short version pop punk english goodbye lullaby genshin impact 原神 raiden shogun shougun 雷電将軍 ei 雷電影 baal beelzebul ganyu 甘雨 keqing 甘雨 hu tao 胡桃 arataki itto 荒瀧一斗 zhongli 钟离
BeatmapID:3134384
BeatmapSetID:1529886

[Difficulty]
HPDrainRate:2
CircleSize:3
OverallDifficulty:2
ApproachRate:3
SliderMultiplier:1.3
SliderTickRate:1

[Events]
//Background and Video events
0,0,"bg.jpg",0,0
//Break Periods
//Storyboard Layer 0 (Background)
//Storyboard Layer 1 (Fail)
//Storyboard Layer 2 (Pass)
//Storyboard Layer 3 (Foreground)
Sprite,Foreground,Centre,"sb\c1.png",0,0 F,0,2285,2385,0,1 M,1,2285,6427,185,190,165,190 S,0,2285,6427,0.4 F,0,6027,6427,1,0
Sprite,Foreground,Centre,"sb\c2.png",0,0 F,0,3713,3813,0,1 M,1,3713,6427,245,230,230,230 S,0,3713,6427,0.5 F,0,6027,6427,1,0
//Storyboard Layer 4 (Overlay)
//Storyboard Sound Samples

[TimingPoints]
2285,571.428571428571,4,2,1,40,1,0
6856,571.428571428571,4,2,1,60,1,0
25141,-100,4,2,1,70,0,0
42855,-100,4,2,1,50,0,0
43427,-100,4,2,1,80,0,1
51998,-100,4,2,1,80,0,0
52570,-100,4,2,1,80,0,1
61141,-100,4,2,1,80,0,0
61713,-100,4,2,1,80,0,1
70284,-100,4,2,1,80,0,0
70855,-100,4,2,1,80,0,1
79998,-100,4,2,1,50,0,0
87427,-100,4,2,1,45,0,0
87998,-100,4,2,1,40,0,0
88570,-100,4,2,1,30,0,0
89141,-100,4,2,1,20,0,0
89713,-100,4,2,1,10,0,0
90284,-100,4,2,1,5,0,0

[Colours]
Combo1 : 255,226,138
Combo2 : 170,255,170
Combo3 : 212,212,212
Combo4 : 121,211,255

[HitObjects]
54,43,2285,6,0,P|121:34|193:26,1,130,2|0,3:2|3:0,0:0:0:0:
301,128,3713,2,0,P|344:134|422:144,2,97.5,2|2|2,3:2|3:2|3:2,0:0:0:0:
68,179,6856,6,2,P|122:149|195:179,1,130,4|10,1:0|0:0,0:1:0:0:
237,264,7998,1,2,0:0:0:0:
237,264,8284,2,2,L|223:372,2,97.5,6|4|6,1:2|1:2|1:2,0:1:0:0:
313,193,9713,1,10,0:0:0:0:
389,263,10284,2,0,L|459:261,1,65,2|2,0:0|1:2,0:0:0:0:
505,259,10855,1,10,0:0:0:0:
501,154,11427,6,2,B|480:121|480:121|387:123,1,130,4|10,1:0|0:0,0:1:0:0:
285,126,12570,1,2,0:0:0:0:
285,126,12855,2,2,P|269:81|285:36,2,97.5,6|6|6,1:2|1:2|1:2,0:1:0:0:
339,214,14284,1,8,0:0:0:0:
271,291,14855,2,0,L|188:300,1,65,2|2,0:0|1:2,0:0:0:0:
179,253,15427,2,0,L|114:245,1,65,10|2,0:0|0:0,0:0:0:0:
66,265,15998,6,2,P|75:198|85:135,1,130,4|10,1:0|0:0,0:1:0:0:
133,46,17141,1,2,0:0:0:0:
133,46,17427,2,2,P|88:33|30:20,2,97.5,6|6|6,1:2|1:2|1:2,0:1:0:0:
232,17,18855,1,10,0:0:0:0:
333,38,19427,2,0,P|337:69|340:102,1,65,2|2,0:0|1:2,0:0:0:0:
345,154,19998,1,10,0:0:0:0:
299,248,20570,6,2,P|243:217|181:233,1,130,4|10,1:0|0:0,0:1:0:0:
101,294,21713,1,2,0:0:0:0:
101,294,21998,2,2,L|82:180,2,97.5,6|4|6,1:2|1:2|1:2,0:1:0:0:
180,361,23427,1,8,0:0:0:0:
280,333,23998,2,0,L|354:337,1,65,2|0,0:0|1:0,0:0:0:0:
387,305,24570,2,0,L|383:241,1,65,10|2,0:0|0:0,0:0:0:0:
420,204,25141,6,2,P|431:142|393:92,1,130,4|8,1:0|0:0,0:1:0:0:
238,116,26570,2,2,B|252:177|252:177|234:206,2,97.5,6|6|6,1:2|1:2|1:2,0:1:0:0:
211,15,27998,1,8,0:0:0:0:
94,118,28855,2,0,B|67:147|67:147|75:243,1,130,2|2,1:2|0:0,0:0:0:0:
85,288,29713,6,2,P|148:278|224:265,1,130,4|10,1:0|0:0,0:1:0:0:
249,169,30855,1,2,0:0:0:0:
249,169,31141,2,2,P|203:176|151:184,2,97.5,6|6|6,1:2|1:2|1:2,0:1:0:0:
324,96,32570,1,8,0:0:0:0:
427,87,33141,2,0,P|440:116|439:148,1,65,2|0,0:2|1:0,0:0:0:0:
413,194,33713,2,0,P|399:223|400:255,1,65,10|2,0:2|0:2,0:0:0:0:
406,306,34284,6,2,L|276:296,1,130,4|8,1:0|0:0,0:1:0:0:
178,280,35427,1,2,0:0:0:0:
178,280,35713,2,2,P|191:332|198:379,2,97.5,6|6|6,1:2|1:2|1:2,0:1:0:0:
91,222,37141,1,8,0:0:0:0:
141,75,37998,2,0,P|202:90|253:54,1,130,2|2,1:2|0:0,0:0:0:0:
300,31,38855,6,2,B|331:66|331:66|310:171,1,130,4|10,1:0|0:0,0:1:0:0:
224,194,39998,1,2,0:0:0:0:
224,194,40284,2,2,L|129:175,2,97.5,6|6|6,1:2|1:2|1:2,0:1:0:0:
184,292,41713,1,8,0:0:0:0:
184,292,41998,2,0,B|258:278|239:320|318:302,1,130,2|2,1:2|1:2,0:0:0:0:
362,295,42855,1,2,0:0:0:0:
450,240,43427,6,0,P|461:304|469:369,2,130,4|10|2,1:0|0:0|0:0,0:0:0:0:
436,136,45141,1,10,0:0:0:0:
436,136,45427,2,0,P|392:127|304:114,1,130,2|0,0:0|0:0,0:0:0:0:
276,72,46284,1,8,0:0:0:0:
181,34,46855,2,0,P|132:42|85:51,2,97.5,2|2|2,0:0|0:0|0:0,0:0:0:0:
213,72,47998,6,0,P|247:126|225:185,1,130,6|10,1:2|0:0,0:0:0:0:
156,262,49141,2,0,P|108:265|67:241,2,97.5,2|2|2,0:0|0:0|0:0,0:0:0:0:
191,223,50284,2,0,P|238:226|279:202,2,97.5,2|2|2,1:2|0:0|1:2,0:0:0:0:
176,172,51427,1,2,0:0:0:0:
213,72,51998,1,10,0:0:0:0:
312,38,52570,6,0,B|382:28|363:73|434:64,2,130,4|10|2,1:0|0:0|0:0,0:0:0:0:
212,33,54284,1,10,0:0:0:0:
212,33,54570,2,0,P|151:19|101:56,1,130,2|0,0:0|0:0,0:0:0:0:
79,104,55427,1,8,0:0:0:0:
75,208,55998,2,0,P|83:255|58:306,2,97.5,2|2|2,0:0|0:0|0:0,0:0:0:0:
62,157,57141,6,0,P|129:171|198:180,1,130,6|10,1:2|0:0,0:0:0:0:
263,252,58284,2,0,L|250:370,2,97.5,2|2|2,0:0|0:0|0:0,0:0:0:0:
304,220,59427,2,0,L|293:123,2,97.5,2|2|2,1:2|1:2|1:2,0:0:0:0:
346,250,60570,1,2,0:0:0:0:
438,203,61141,1,10,0:0:0:0:
454,100,61713,6,0,P|412:53|349:54,1,130,4|8,1:0|0:0,0:0:0:0:
313,93,62570,1,2,1:2:0:0:
242,16,63141,1,2,1:2:0:0:
177,97,63713,2,0,B|146:61|146:61|53:78,1,130,2|2,0:0|0:0,0:0:0:0:
17,54,64570,1,8,0:0:0:0:
60,202,65427,2,0,L|46:335,1,130,2|2,1:2|0:0,0:0:0:0:
97,342,66284,6,0,B|128:306|128:306|209:320,1,130,6|8,1:2|0:0,0:0:0:0:
246,283,67141,1,2,1:2:0:0:
322,361,67713,1,2,1:2:0:0:
322,361,67998,1,10,0:0:0:0:
412,309,68570,2,0,P|459:304|509:298,2,97.5,2|2|2,1:2|0:0|1:2,0:0:0:0:
390,261,69713,2,0,P|328:275|275:240,1,130,2|10,0:0|0:0,0:0:0:0:
347,167,70855,6,0,P|327:109|366:53,1,130,4|8,1:0|0:0,0:0:0:0:
406,27,71713,1,2,1:2:0:0:
494,81,72284,1,2,1:2:0:0:
452,176,72855,2,0,L|435:304,1,130,2|2,0:0|0:0,0:0:0:0:
428,356,73713,1,8,0:0:0:0:
282,299,74570,2,0,P|278:334|273:366,2,65,2|10|0,1:2|0:0|0:0,0:0:0:0:
291,247,75427,6,0,P|282:175|222:142,1,130,4|8,1:2|0:0,0:0:0:0:
186,137,76284,1,2,1:2:0:0:
117,67,76855,1,2,1:2:0:0:
117,67,77141,1,10,0:0:0:0:
31,128,77713,2,0,P|22:192|13:256,1,130,2|8,1:2|0:0,0:0:0:0:
95,319,78855,1,2,0:0:0:0:
195,290,79427,1,10,0:0:0:0:
294,254,79998,6,0,B|379:280|379:280|386:293|386:293|486:322,1,195,4|2,1:0|3:2,0:0:0:0:
502,218,81427,1,2,0:0:0:0:
401,191,81998,2,0,B|347:176|347:176|334:163|334:163|280:148,1,130,2|2,3:2|3:2,0:0:0:0:
73,129,83713,2,0,L|4:109,2,65,2|2|2,0:0|3:2|3:2,0:0:0:0:
116,160,84570,6,0,P|124:224|141:364,1,195,2|2,3:2|3:2,0:0:0:0:
243,343,85998,2,0,L|232:271,2,65,2|2|2,0:0|3:2|3:2,0:0:0:0:
290,363,86855,1,2,3:2:0:0:
256,192,87141,12,0,90284,0:0:0:0:
