osu file format v14

[General]
AudioFilename: audio.mp3
AudioLeadIn: 0
PreviewTime: -1
Countdown: 0
SampleSet: Normal
StackLeniency: 0.7
Mode: 0
LetterboxInBreaks: 0
WidescreenStoryboard: 0

[Editor]
DistanceSpacing: 1.5
BeatDivisor: 4
GridSize: 4
TimelineZoom: 1.9

[Metadata]
Title:Waiting for Love
TitleUnicode:Waiting for Love
Artist:Avicii
ArtistUnicode:Avicii
Creator:Nat3
Version:hardish backup1
Source:
Tags:
BeatmapID:1705617
BeatmapSetID:813230

[Difficulty]
HPDrainRate:4
CircleSize:3.2
OverallDifficulty:6
ApproachRate:9
SliderMultiplier:1.8
SliderTickRate:1

[Events]
//Background and Video events
0,0,"Chrysanthemum.jpg",0,0
//Break Periods
2,51317,66084
//Storyboard Layer 0 (Background)
//Storyboard Layer 1 (Fail)
//Storyboard Layer 2 (Pass)
//Storyboard Layer 3 (Foreground)
//Storyboard Sound Samples

[TimingPoints]
3946,468.201326570425,4,1,0,40,1,0
20333,-133.333333333333,4,1,0,40,0,0
21269,-100,4,1,0,40,0,0
22439,-133.333333333333,4,1,0,40,0,0
26419,-90.9090909090909,4,2,0,40,0,0
37422,-133.333333333333,4,1,0,40,0,0
41402,-125,4,1,0,40,0,0
43274,-100,4,1,0,40,0,0
44211,-125,4,1,0,40,0,0
47956,-133.333333333333,4,1,0,40,0,0
49829,-133.333333333333,4,1,0,40,0,0
50766,-166.666666666667,4,1,0,40,0,0
66684,-133.333333333333,4,1,0,40,0,0
71835,-142.857142857143,4,1,0,40,0,0
72303,-153.846153846154,4,1,0,40,0,0
72771,-200,4,1,0,40,0,0
75112,-181.818181818182,4,1,0,40,0,0
78858,468.75,4,1,0,40,1,0
78858,-133.333333333333,4,1,0,40,0,0
81670,-200,4,1,0,40,0,0
93858,468.201326570425,4,1,0,40,1,0
93858,-133.333333333333,4,1,0,40,0,0
108840,-90.9090909090909,4,1,0,40,0,0
120077,-100,4,1,0,40,0,0

[HitObjects]
314,331,10734,5,0,0:0:0:0:
394,245,10969,1,0,0:0:0:0:
473,159,11203,1,0,0:0:0:0:
395,71,11437,6,0,B|368:33|313:23,1,90
271,130,11905,2,0,P|236:158|192:160,1,90
124,64,12373,6,0,B|73:78|62:130,1,90
61,241,12841,2,0,P|81:289|142:325,1,90
188,226,13310,5,0,0:0:0:0:
304,213,13544,1,0,0:0:0:0:
414,250,13778,2,0,B|385:337|262:361,1,180
231,184,14480,5,0,0:0:0:0:
268,73,14714,1,0,0:0:0:0:
378,35,14948,1,0,0:0:0:0:
447,128,15182,6,0,B|425:170|377:202,1,90
272,172,15651,6,0,B|232:161|179:200,1,90
221,305,16119,6,0,B|181:330|126:313,1,90
34,253,16587,6,0,B|5:219|-3:163,1,90
110,136,17055,5,0,0:0:0:0:
210,76,17289,1,0,0:0:0:0:
311,18,17523,2,0,P|394:-1|450:64,1,180
459,190,18226,5,0,0:0:0:0:
367,116,18460,1,0,0:0:0:0:
255,150,18694,1,0,0:0:0:0:
196,48,18928,6,0,P|164:32|99:49,1,90
163,144,19396,2,0,P|210:174|227:203,1,90
116,241,19864,2,0,P|111:276|145:328,1,90
224,328,20333,2,0,B|292:332|304:310,1,67.5000025749208
366,277,20801,5,0,0:0:0:0:
298,221,21035,1,0,0:0:0:0:
409,185,21269,2,0,B|460:167|460:167|463:87|463:87|511:44,1,180
81,92,22205,5,0,0:0:0:0:
206,142,22439,2,0,P|136:234|18:236,2,202.500007724762
331,89,24078,5,0,0:0:0:0:
457,134,24312,2,0,P|457:259|355:314,1,202.500007724762
237,181,25717,6,0,L|179:144,2,67.5000025749208
427,66,26419,6,0,B|389:120|414:193|331:265,1,198.000006042481
310,137,27121,1,0,0:0:0:0:
237,70,27356,2,0,P|193:53|102:96,1,99.0000030212403
101,154,27824,1,0,0:0:0:0:
103,262,28058,1,0,0:0:0:0:
206,293,28292,5,0,0:0:0:0:
300,239,28526,1,0,0:0:0:0:
201,195,28760,2,0,B|241:112|241:112|364:80,1,198.000006042481
404,153,29462,5,0,0:0:0:0:
326,214,29697,1,0,0:0:0:0:
247,274,29931,1,0,0:0:0:0:
271,133,30165,6,0,B|227:80|227:80|162:80|162:80|108:144,1,198.000006042481
54,202,30867,1,0,0:0:0:0:
124,270,31101,6,0,B|165:319|165:319|230:319|230:319|274:266,1,198.000006042481
336,189,31803,1,0,0:0:0:0:
324,90,32038,5,0,0:0:0:0:
228,63,32272,1,0,0:0:0:0:
129,74,32506,2,0,P|73:148|124:271,1,198.000006042481
156,167,33208,5,0,0:0:0:0:
224,238,33442,1,0,0:0:0:0:
292,166,33676,1,0,0:0:0:0:
292,166,33910,6,0,P|332:126|484:158,1,198.000006042481
367,249,34613,1,0,0:0:0:0:
367,249,34847,6,0,P|274:273|195:219,1,198.000006042481
260,85,35549,1,0,0:0:0:0:
408,75,35783,6,0,P|449:100|500:271,2,198.000006042481
200,287,37188,1,0,0:0:0:0:
37,212,37656,6,0,P|67:141|133:86,1,135.000005149842
199,58,38358,1,0,0:0:0:0:
299,45,38592,2,0,P|387:55|434:88,1,135.000005149842
383,192,39295,5,0,0:0:0:0:
288,155,39529,1,0,0:0:0:0:
213,223,39763,2,0,B|160:235|160:235|91:168|26:199,1,202.500007724762
0,63,41402,6,0,B|41:13|41:13|70:39|70:39|113:19|113:19|146:75,1,216
157,218,42338,2,0,B|168:275|168:275|274:323,1,144
352,290,43040,1,0,0:0:0:0:
390,160,43274,2,0,P|448:129|511:146,1,135
389,54,44211,6,0,B|345:13|345:13|298:32|298:32|248:33,1,144
203,162,45147,2,0,P|210:232|257:285,1,144
356,241,45850,1,0,0:0:0:0:
442,176,46084,2,0,B|371:93|371:93|310:81,1,144
229,96,46786,1,0,0:0:0:0:
131,142,47020,2,0,B|119:196|119:196|65:222|65:222|41:227,1,108
102,253,47956,6,0,L|208:138,1,135.000005149842
356,83,48659,1,0,0:0:0:0:
438,142,48893,2,0,L|314:241,1,135.000005149842
135,181,49829,2,0,P|244:149|277:126,1,135.000005149842
203,54,50532,1,0,0:0:0:0:
380,100,50766,2,0,P|400:52|441:55,1,80.9999975280763
107,185,66684,5,0,0:0:0:0:
250,41,67153,1,0,0:0:0:0:
429,135,67621,2,0,B|400:263,1,101.250003862381
254,226,68323,1,0,0:0:0:0:
179,294,68557,2,0,B|249:324|249:324|322:323,1,135.000005149842
462,308,69494,5,0,0:0:0:0:
444,187,69845,1,0,0:0:0:0:
349,110,70196,1,0,0:0:0:0:
349,110,70430,2,0,P|263:57|183:75,1,135.000005149842
157,31,71366,6,0,P|137:71|141:116,1,90
187,134,71835,6,0,P|189:171|158:228,1,101.250003862381
134,237,72303,6,0,P|114:276|117:321,1,90
141,321,72771,6,0,L|208:347,1,67.5
253,345,73239,6,2,B|335:212|500:299|489:60|378:-4|280:104|280:104|256:128|256:128|232:104|232:104|129:-7|2:59|16:304|176:204|256:364,1,1080,0|0,0:0|0:0,0:0:0:0:
358,142,79560,1,0,0:0:0:0:
254,228,79795,1,0,0:0:0:0:
64,166,80498,5,0,0:0:0:0:
154,65,80733,1,0,0:0:0:0:
286,43,80967,1,0,0:0:0:0:
181,222,81670,5,0,0:0:0:0:
317,105,82139,1,0,0:0:0:0:
401,264,82608,1,0,0:0:0:0:
267,186,83311,5,0,0:0:0:0:
211,257,83545,1,0,0:0:0:0:
267,186,84248,5,0,0:0:0:0:
194,131,84483,2,0,L|171:118,2,22.5
78,340,85420,5,0,0:0:0:0:
79,159,85889,1,0,0:0:0:0:
227,57,86358,1,0,0:0:0:0:
318,143,87061,5,0,0:0:0:0:
385,84,87295,1,0,0:0:0:0:
466,177,87998,5,0,0:0:0:0:
404,242,88233,2,0,L|382:265,2,22.5
342,53,89170,5,0,0:0:0:0:
161,54,89639,1,0,0:0:0:0:
62,204,90108,2,0,L|129:275,1,90
267,180,90811,5,0,0:0:0:0:
193,231,91045,2,0,L|260:302,1,90
101,293,91748,1,0,0:0:0:0:
100,202,91983,1,0,0:0:0:0:
169,144,92217,1,0,0:0:0:0:
328,70,92920,5,0,0:0:0:0:
350,157,93389,2,0,L|324:176,3,22.5
389,228,93858,6,0,P|362:287|263:318,1,135.000005149842
244,236,94560,1,0,0:0:0:0:
223,136,94794,2,0,P|167:99|57:99,1,135.000005149842
68,185,95496,5,0,0:0:0:0:
120,271,95730,2,0,L|208:273,1,67.5000025749208
180,274,96667,6,0,P|232:233|339:253,1,135.000005149842
252,312,97603,6,0,B|300:326|300:326|339:315|339:315|416:298,1,135.000005149842
398,205,98305,1,0,0:0:0:0:
407,103,98540,2,0,B|364:61|364:61|271:40,1,135.000005149842
191,64,99242,1,0,0:0:0:0:
102,112,99476,6,0,L|75:140,2,33.7500012874604
142,227,99944,6,0,L|190:180,1,67.5000025749208
142,227,100412,6,0,L|214:286,1,67.5000025749208
142,227,100881,6,0,L|88:293,1,67.5000025749208
311,205,101349,6,0,L|265:146,1,67.5000025749208
232,72,101817,2,0,L|274:18,1,67.5000025749208
368,0,102285,6,0,L|407:54,1,67.5000025749208
424,140,102753,1,0,0:0:0:0:
392,220,102987,1,0,0:0:0:0:
324,276,103222,2,0,L|284:296,2,33.7500012874604
256,192,103690,12,0,108021,0:0:0:0:
312,232,108606,5,0,0:0:0:0:
336,136,108840,2,0,P|256:76|144:100,1,198.000006042481
28,252,109542,5,0,0:0:0:0:
8,168,109776,2,0,P|120:238|226:218,1,198.000006042481
100,112,110479,1,8,0:0:0:0:
232,44,110713,5,0,0:0:0:0:
336,148,110947,2,0,B|448:112|432:244|540:207,1,198.000006042481
0,216,111649,2,0,P|32:192|120:192,1,99.0000030212403
200,284,112117,2,0,P|142:288|82:267,1,99.0000030212403
270,103,112586,6,0,P|262:163|253:353,1,247.500007553101
224,216,113288,1,0,0:0:0:0:
405,190,113522,2,0,P|409:130|258:133,1,225
196,300,114224,1,0,0:0:0:0:
56,172,114458,5,0,0:0:0:0:
104,148,114575,1,0,0:0:0:0:
156,148,114692,1,0,0:0:0:0:
273,350,114927,2,0,P|284:294|270:240,1,112.5
79,307,115395,2,0,P|147:299|201:298,1,112.5
300,136,115863,2,0,P|232:128|173:130,1,112.5
328,292,116331,6,0,P|384:232|517:267,1,225
428,328,117033,1,0,0:0:0:0:
380,192,117268,2,0,B|264:148|276:260|155:207,1,225
52,136,117970,1,0,0:0:0:0:
228,40,118204,5,0,0:0:0:0:
208,84,118321,1,0,0:0:0:0:
208,132,118438,1,0,0:0:0:0:
328,268,118672,2,0,P|292:244|218:244,1,112.5
72,224,119140,2,0,B|56:268|56:268|66:341,1,112.5
217,128,119609,2,0,B|233:172|233:172|221:249,1,112.5
265,324,120077,6,0,B|333:312|333:312|377:336|377:336|480:327,1,180
466,224,120779,1,0,0:0:0:0:
383,118,121013,6,0,B|324:133|324:133|280:109|280:109|212:121,1,180
444,132,121715,5,0,0:0:0:0:
276,55,121950,1,0,0:0:0:0:
312,176,122184,2,0,L|48:78,1,270
