osu file format v14

[General]
AudioFilename: audio.mp3
AudioLeadIn: 0
PreviewTime: -1
Countdown: 0
SampleSet: Normal
StackLeniency: 0.7
Mode: 0
LetterboxInBreaks: 0
WidescreenStoryboard: 1

[Editor]
DistanceSpacing: 0.8
BeatDivisor: 4
GridSize: 8
TimelineZoom: 1.9

[Metadata]
Title:Waiting for Love
TitleUnicode:Waiting for Love
Artist:Avicii
ArtistUnicode:Avicii
Creator:Nat3
Version:Love
Source:
Tags:
BeatmapID:1715477
BeatmapSetID:813230

[Difficulty]
HPDrainRate:9
CircleSize:4
OverallDifficulty:9
ApproachRate:9
SliderMultiplier:2
SliderTickRate:2

[Events]
//Background and Video events
0,0,"Chrysanthemum.jpg",0,0
//Break Periods
//Storyboard Layer 0 (Background)
//Storyboard Layer 1 (Fail)
//Storyboard Layer 2 (Pass)
//Storyboard Layer 3 (Foreground)
//Storyboard Sound Samples

[TimingPoints]
3946,468.75,4,1,0,40,1,0
4414,-66.6666666666667,4,1,0,40,0,0
20333,-133.333333333333,4,1,0,40,0,0
21269,-100,4,1,0,40,0,0
22439,-133.333333333333,4,1,0,40,0,0
26419,-90.9090909090909,4,2,0,40,0,0
37422,-133.333333333333,4,1,0,40,0,0
41402,-125,4,1,0,40,0,0
43274,-100,4,1,0,40,0,0
44211,-125,4,1,0,40,0,0
47956,-133.333333333333,4,1,0,40,0,0
48893,-153.846153846153,4,1,0,40,0,0
48893,-153.846153846153,4,1,0,40,0,0
49829,-200,4,1,0,40,0,0
50766,-166.666666666667,4,1,0,40,0,0
51702,-133.333333333333,4,1,0,40,0,0
52638,-133.333333333333,4,1,0,40,0,0
53575,-100,4,1,0,40,0,0
54511,-133.333333333333,4,1,0,40,0,0
55448,-100,4,1,0,40,0,0
56384,-133.333333333333,4,1,0,40,0,0
57320,-181.818181818181,4,1,0,40,0,0
58257,-125,4,1,0,40,0,0
60130,-200,4,1,0,40,0,0
62002,-142.857142857143,4,1,0,40,0,0
62939,-133.333333333333,4,1,0,40,0,0
63875,-200,4,1,0,40,0,0
65748,-142.857142857143,4,1,0,40,0,0
66684,-133.333333333333,4,1,0,40,0,0
71835,-142.857142857143,4,1,0,40,0,0
72303,-153.846153846154,4,1,0,40,0,0
72771,-200,4,1,0,40,0,0
75112,-181.818181818182,4,1,0,40,0,0
78858,468.75,4,1,0,40,1,0
78858,-133.333333333333,4,1,0,40,0,0
81670,-200,4,1,0,40,0,0
93858,468.201326570425,4,1,0,40,1,0
93858,-133.333333333333,4,1,0,40,0,0
108840,-100,4,1,0,40,0,0
120077,-133.333333333333,4,1,0,40,0,0
122184,-100,4,1,0,40,0,0

[HitObjects]
293,148,3946,5,0,0:0:0:0:
366,74,4180,1,0,0:0:0:0:
441,12,4414,2,0,B|467:-9|515:0,2,75.0000028610231
219,148,4883,5,0,0:0:0:0:
146,74,5117,1,0,0:0:0:0:
60,39,5352,5,0,0:0:0:0:
60,39,5469,1,0,0:0:0:0:
60,39,5586,1,0,0:0:0:0:
413,127,6055,1,0,0:0:0:0:
491,62,6289,2,0,B|535:37|600:77,2,75.0000028610231
258,192,6758,5,0,0:0:0:0:
168,143,6992,1,0,0:0:0:0:
62,291,7226,1,0,0:0:0:0:
92,343,7343,1,0,0:0:0:0:
151,355,7460,1,0,0:0:0:0:
240,217,8867,6,0,B|208:217|208:217|152:257|152:257|72:257,1,150.000005722046
314,331,10742,5,0,0:0:0:0:
373,263,10977,1,0,0:0:0:0:
431,194,11211,1,0,0:0:0:0:
234,203,11446,5,0,0:0:0:0:
156,157,11914,1,0,0:0:0:0:
457,118,15182,6,0,B|435:160|387:192,1,90
302,116,15651,6,0,B|251:108|209:144,1,90
237,252,16119,6,0,B|197:277|142:260,1,90
52,198,16587,6,0,B|23:164|15:108,1,90
133,119,17055,5,0,0:0:0:0:
239,70,17289,1,0,0:0:0:0:
347,25,17523,2,0,P|430:6|486:71,1,180
459,190,18226,5,0,0:0:0:0:
362,95,18460,1,0,0:0:0:0:
245,163,18694,1,0,0:0:0:0:
179,45,18928,6,0,P|147:29|82:46,1,90
174,145,19396,2,0,P|221:175|238:204,1,90
109,246,19864,2,0,P|104:281|138:333,1,90
227,354,20333,2,0,L|318:329,1,67.5000025749208
381,289,20801,5,0,0:0:0:0:
325,204,21035,1,0,0:0:0:0:
421,166,21269,2,0,B|472:148|472:148|475:68|475:68|523:25,1,180
81,92,22205,5,0,0:0:0:0:
203,148,22439,2,0,P|133:240|15:242,2,202.500007724762
302,55,24078,5,0,0:0:0:0:
422,115,24312,2,0,P|413:203|536:267,1,202.500007724762
237,181,25717,6,0,L|179:144,2,67.5000025749208
427,66,26419,6,0,B|389:120|414:193|331:265,1,198.000006042481
381,100,27121,1,0,0:0:0:0:
261,10,27356,2,0,P|217:-7|126:36,1,99.0000030212403
91,128,27824,1,0,0:0:0:0:
91,276,28058,1,0,0:0:0:0:
233,316,28292,5,0,0:0:0:0:
369,258,28526,1,0,0:0:0:0:
256,160,28760,2,0,B|296:77|296:77|419:45,1,198.000006042481
445,190,29462,5,0,0:0:0:0:
367,251,29697,1,0,0:0:0:0:
279,297,29931,1,0,0:0:0:0:
273,168,30165,6,0,B|229:115|229:115|164:115|164:115|110:179,1,198.000006042481
40,263,30867,1,0,0:0:0:0:
130,354,31101,6,0,B|171:403|171:403|236:403|236:403|280:350,1,198.000006042481
376,236,31803,1,0,0:0:0:0:
354,84,32038,5,0,0:0:0:0:
223,13,32272,1,0,0:0:0:0:
81,57,32506,2,0,P|25:131|76:254,1,198.000006042481
175,154,33208,5,0,0:0:0:0:
260,275,33442,1,0,0:0:0:0:
354,166,33676,1,0,0:0:0:0:
354,166,33910,6,0,P|394:126|511:173,1,198.000006042481
440,303,34613,1,0,0:0:0:0:
440,303,34847,6,0,P|347:327|258:262,1,198.000006042481
227,131,35549,1,0,0:0:0:0:
263,12,35783,6,0,P|304:37|355:208,2,198.000006042481
200,287,37188,1,0,0:0:0:0:
37,212,37656,6,0,P|67:141|133:86,1,135.000005149842
199,58,38358,1,0,0:0:0:0:
299,45,38592,2,0,P|387:55|434:88,1,135.000005149842
393,175,39295,5,0,0:0:0:0:
292,164,39529,1,0,0:0:0:0:
203,213,39763,2,0,B|150:225|150:225|81:158|16:189,1,202.500007724762
0,63,41402,6,0,B|41:13|41:13|70:39|70:39|113:19|113:19|146:75,1,216
22,149,42338,2,0,B|33:206|33:206|139:254,1,144
233,165,43040,1,0,0:0:0:0:
386,74,43274,2,0,P|444:43|507:60,1,135
386,74,44211,6,0,B|342:33|342:33|295:52|295:52|245:53,1,144
6,185,45147,2,0,P|13:255|60:308,1,144
174,219,45850,1,0,0:0:0:0:
314,249,46084,2,0,B|351:192|351:192|351:116,1,144
242,21,46786,1,0,0:0:0:0:
118,95,47020,2,0,B|67:57|67:57|39:108|-32:65,1,144
0,79,47956,6,0,B|36:145|36:145|103:209,1,135.000005149842
203,131,48659,1,0,0:0:0:0:
263,230,48893,2,0,P|245:300|191:336,1,116.999994644165
388,291,49829,2,0,P|455:209|510:208,1,135.000005149842
376,244,50766,2,0,B|339:213|339:213|358:165|345:134,1,107.999996704102
349,154,51702,6,0,P|307:101|247:72,1,135.000005149842
41,246,52638,2,0,P|35:315|-7:361,1,101.250003862381
220,319,53341,1,0,0:0:0:0:
374,226,53575,2,0,B|421:230|447:183|447:183|441:108|507:104,1,180
372,147,54511,6,0,P|309:177|289:230,1,101.250003862381
138,72,55214,1,0,0:0:0:0:
46,227,55448,2,0,B|8:308|8:308|7:353|84:367,1,180
69,363,56384,6,0,P|112:312|169:271,1,135.000005149842
286,334,57086,1,0,0:0:0:0:
372,286,57320,2,0,P|420:263|451:208,1,99.0000030212403
351,193,58023,1,0,0:0:0:0:
339,51,58257,2,0,P|307:55|253:-4,2,108
339,51,59193,6,0,L|424:98,2,72
263,174,59896,1,0,0:0:0:0:
222,93,60130,2,0,P|181:120|164:177,1,90
316,252,61066,2,0,P|288:286|246:301,1,90
41,154,62002,2,0,P|1:106|1:45,1,125.999996154785
0,46,62939,6,0,L|65:-16,2,67.5000025749208
77,156,63641,1,0,0:0:0:0:
43,239,63875,2,0,P|82:284|129:297,1,90
211,145,64812,6,0,P|232:101|276:73,1,90
304,157,65514,1,0,0:0:0:0:
297,282,65748,2,0,P|235:284|186:246,1,125.999996154785
81,82,66684,5,0,0:0:0:0:
259,51,67153,1,0,0:0:0:0:
429,160,67621,2,0,B|428:217|428:217|384:275,1,101.250003862381
268,177,68323,1,0,0:0:0:0:
166,175,68557,2,0,B|112:233|112:233|116:314,1,135.000005149842
462,308,69494,5,0,0:0:0:0:
453,156,69845,1,0,0:0:0:0:
336,253,70196,1,0,0:0:0:0:
333,151,70430,2,0,P|247:98|167:116,1,135.000005149842
157,31,71366,6,0,P|139:80|141:116,1,67.5000025749208
140,108,71835,6,0,P|160:152|144:224,1,94.499997116089
160,208,72303,6,0,P|164:252|184:300,1,87.749995983124
188,304,72771,6,0,P|220:340|258:346,1,67.5
253,345,73239,6,2,B|335:212|500:299|489:60|378:-4|280:104|280:104|256:128|256:128|232:104|232:104|129:-7|2:59|16:304|176:204|256:364,1,1080,0|0,0:0|0:0,0:0:0:0:
358,142,79560,1,0,0:0:0:0:
254,228,79795,1,0,0:0:0:0:
64,166,80498,5,0,0:0:0:0:
144,56,80733,1,0,0:0:0:0:
280,56,80967,1,0,0:0:0:0:
181,222,81670,5,0,0:0:0:0:
325,115,82139,1,0,0:0:0:0:
413,272,82608,1,0,0:0:0:0:
267,186,83311,5,0,0:0:0:0:
203,249,83545,1,0,0:0:0:0:
267,186,84248,5,0,0:0:0:0:
194,131,84483,2,0,L|173:112,2,22.5
78,340,85420,5,0,0:0:0:0:
80,160,85889,1,0,0:0:0:0:
224,56,86358,1,0,0:0:0:0:
318,143,87061,5,0,0:0:0:0:
380,80,87295,1,0,0:0:0:0:
466,177,87998,5,0,0:0:0:0:
404,242,88233,2,0,L|382:265,2,22.5
342,53,89170,5,0,0:0:0:0:
160,56,89639,1,0,0:0:0:0:
160,236,90108,2,0,B|201:201|201:201|253:192,1,90
324,208,90811,5,0,0:0:0:0:
260,268,91045,2,0,B|281:306|281:306|320:331,1,90
402,293,91748,1,0,0:0:0:0:
461,225,91983,1,0,0:0:0:0:
432,139,92217,1,0,0:0:0:0:
449,48,92920,5,0,0:0:0:0:
327,180,93389,2,0,L|307:207,3,22.5
389,228,93858,6,0,P|362:287|263:318,1,135.000005149842
244,236,94560,1,0,0:0:0:0:
223,136,94794,2,0,P|167:99|57:99,1,135.000005149842
68,185,95496,5,0,0:0:0:0:
120,271,95730,2,0,L|208:273,1,67.5000025749208
187,272,96667,6,0,P|239:231|346:251,1,135.000005149842
266,307,97603,6,0,B|314:321|314:321|353:310|353:310|430:293,1,135.000005149842
405,199,98305,1,0,0:0:0:0:
401,97,98540,2,0,B|358:55|358:55|265:34,1,135.000005149842
191,64,99242,1,0,0:0:0:0:
102,112,99476,6,0,L|75:140,2,33.7500012874604
142,227,99944,6,0,L|190:180,1,67.5000025749208
142,227,100412,6,0,L|214:286,1,67.5000025749208
142,227,100881,6,0,L|88:293,1,67.5000025749208
311,205,101349,6,0,L|265:146,1,67.5000025749208
268,64,101817,2,0,L|310:10,1,67.5000025749208
397,11,102285,6,0,L|436:65,1,67.5000025749208
436,153,102753,1,0,0:0:0:0:
388,226,102987,1,0,0:0:0:0:
320,282,103222,2,0,L|280:302,2,33.7500012874604
256,192,103690,12,0,107904,0:0:0:0:
253,199,108606,5,0,0:0:0:0:
348,103,108840,2,0,P|268:43|188:55,1,180
21,259,109542,5,0,0:0:0:0:
1,171,109776,2,0,P|113:241|187:240,1,180
158,108,110479,1,0,0:0:0:0:
285,177,110713,5,0,0:0:0:0:
301,244,110947,2,0,B|346:235|372:182|360:136|304:106,1,180
37,82,111649,6,0,P|79:47|145:61,1,90
129,133,112117,2,0,P|187:135|223:184,1,90
178,285,112586,6,0,B|270:344|270:344|379:328,1,180
424,228,113288,1,0,0:0:0:0:
330,125,113522,2,0,P|412:143|423:227,1,180
290,250,114224,1,0,0:0:0:0:
232,180,114458,2,0,L|186:208,2,45
256,46,114927,6,0,P|300:39|343:50,1,90
447,136,115395,2,0,P|453:180|442:223,1,90
351,322,115863,2,0,P|306:328|263:317,1,90
180,210,116331,6,0,P|133:136|46:128,1,180
181,134,117033,1,0,0:0:0:0:
307,86,117268,6,0,P|353:12|440:4,1,180
305,12,117970,1,0,0:0:0:0:
409,97,118204,6,0,L|462:156,2,45
422,231,118672,2,0,P|419:275|394:312,1,90
345,186,119140,2,0,P|332:228|300:259,1,90
267,127,119609,2,0,P|249:168|214:195,1,90
168,105,120077,6,0,B|116:75|116:75|27:129,1,135.000005149842
74,212,120779,1,0,0:0:0:0:
123,300,121013,6,0,B|190:357|190:357|266:357,1,135.000005149842
337,347,121715,5,0,0:0:0:0:
407,273,121950,1,0,0:0:0:0:
272,273,122184,2,0,P|325:202|459:280,1,270
