osu file format v14

[General]
AudioFilename: audio.mp3
AudioLeadIn: 0
PreviewTime: -1
Countdown: 0
SampleSet: None
StackLeniency: 0.7
Mode: 0
LetterboxInBreaks: 0
WidescreenStoryboard: 1

[Editor]
DistanceSpacing: 1
BeatDivisor: 4
GridSize: 4
TimelineZoom: 1.9

[Metadata]
Title:Waiting for Love
TitleUnicode:Waiting for Love
Artist:Avicii
ArtistUnicode:Avicii
Creator:Nat3
Version:Insane
Source:
Tags:
BeatmapID:1843157
BeatmapSetID:813230

[Difficulty]
HPDrainRate:6
CircleSize:3.2
OverallDifficulty:6
ApproachRate:7.5
SliderMultiplier:1.8
SliderTickRate:1

[Events]
//Background and Video events
0,0,"Chrysanthemum.jpg",0,0
//Break Periods
//Storyboard Layer 0 (Background)
//Storyboard Layer 1 (Fail)
//Storyboard Layer 2 (Pass)
//Storyboard Layer 3 (Foreground)
//Storyboard Sound Samples

[TimingPoints]
3946,468.201326570425,4,1,0,40,1,0
20333,-133.333333333333,4,1,0,40,0,0
21269,-100,4,1,0,40,0,0
22439,-133.333333333333,4,1,0,40,0,0
26419,-90.9090909090909,4,2,0,40,0,0
37422,-133.333333333333,4,1,0,40,0,0
41402,-125,4,1,0,40,0,0
43274,-100,4,1,0,40,0,0
44211,-125,4,1,0,40,0,0
47956,-133.333333333333,4,1,0,40,0,0
48893,-153.846153846153,4,1,0,40,0,0
48893,-153.846153846153,4,1,0,40,0,0
49829,-200,4,1,0,40,0,0
50766,-166.666666666667,4,1,0,40,0,0
51702,-133.333333333333,4,1,0,40,0,0
52638,-133.333333333333,4,1,0,40,0,0
53575,-100,4,1,0,40,0,0
54511,-133.333333333333,4,1,0,40,0,0
55448,-100,4,1,0,40,0,0
56384,-133.333333333333,4,1,0,40,0,0
57320,-181.818181818181,4,1,0,40,0,0
58257,-125,4,1,0,40,0,0
60130,-200,4,1,0,40,0,0
62002,-142.857142857143,4,1,0,40,0,0
62939,-133.333333333333,4,1,0,40,0,0
63875,-200,4,1,0,40,0,0
65748,-142.857142857143,4,1,0,40,0,0
66684,-133.333333333333,4,1,0,40,0,0
71835,-166.666666666667,4,1,0,40,0,0
72303,-181.818181818182,4,1,0,40,0,0
72771,-200,4,1,0,40,0,0
75112,-181.818181818182,4,1,0,40,0,0
78858,468.75,4,1,0,40,1,0
78858,-133.333333333333,4,1,0,40,0,0
81670,-200,4,1,0,40,0,0
93858,468.201326570425,4,1,0,40,1,0
93858,-100,4,1,0,40,0,0
108840,-100,4,1,0,40,0,0
120077,-133.333333333333,4,1,0,40,0,0
122184,-100,4,1,0,40,0,0

[HitObjects]
314,331,10734,5,0,0:0:0:0:
407,269,10969,1,0,0:0:0:0:
459,170,11203,1,0,0:0:0:0:
458,72,11437,6,0,B|431:34|376:24,1,90
302,130,11905,2,0,P|267:158|223:160,1,90
131,63,12373,6,0,B|80:77|69:129,1,90
88,259,12841,2,0,P|108:307|169:343,1,90
213,227,13310,5,0,0:0:0:0:
284,146,13544,1,0,0:0:0:0:
354,227,13778,2,0,B|324:312|324:312|228:365,1,180
231,184,14480,5,0,0:0:0:0:
240,58,14714,1,0,0:0:0:0:
360,44,14948,1,0,0:0:0:0:
457,118,15182,6,0,B|435:160|387:192,1,90
302,116,15651,6,0,B|251:108|209:144,1,90
229,263,16119,6,0,B|189:288|134:271,1,90
52,198,16587,6,0,B|23:164|15:108,1,90
133,119,17055,5,0,0:0:0:0:
238,68,17289,1,0,0:0:0:0:
340,11,17523,2,0,P|423:-8|479:57,1,180
459,190,18226,5,0,0:0:0:0:
398,89,18460,1,0,0:0:0:0:
298,151,18694,1,0,0:0:0:0:
179,45,18928,6,0,P|147:29|82:46,1,90
174,145,19396,2,0,P|221:175|238:204,1,90
109,246,19864,2,0,P|104:281|138:333,1,90
227,354,20333,2,0,P|245:324|317:316,1,67.5000025749208
381,289,20801,5,0,0:0:0:0:
325,204,21035,1,0,0:0:0:0:
421,166,21269,2,0,B|472:148|472:148|475:68|475:68|523:25,1,180
81,92,22205,5,0,0:0:0:0:
203,148,22439,2,0,P|133:240|15:242,2,202.500007724762
302,55,24078,5,0,0:0:0:0:
332,186,24312,2,0,B|426:195|402:112|483:90|562:75,1,202.500007724762
237,181,25717,6,0,L|179:144,2,67.5000025749208
427,66,26419,6,0,B|389:120|414:193|331:265,1,198.000006042481
371,99,27121,1,0,0:0:0:0:
261,10,27356,2,0,P|217:-7|126:36,1,99.0000030212403
91,128,27824,1,0,0:0:0:0:
91,276,28058,1,0,0:0:0:0:
233,316,28292,5,0,0:0:0:0:
369,258,28526,1,0,0:0:0:0:
256,160,28760,2,0,B|296:77|296:77|419:45,1,198.000006042481
445,190,29462,5,0,0:0:0:0:
408,313,29697,1,0,0:0:0:0:
282,276,29931,1,0,0:0:0:0:
273,168,30165,6,0,B|229:115|229:115|164:115|164:115|110:179,1,198.000006042481
65,244,30867,1,0,0:0:0:0:
129,319,31101,6,0,B|170:368|170:368|235:368|235:368|279:315,1,198.000006042481
352,247,31803,1,0,0:0:0:0:
354,84,32038,5,0,0:0:0:0:
223,13,32272,1,0,0:0:0:0:
81,57,32506,2,0,P|25:131|76:254,1,198.000006042481
175,154,33208,5,0,0:0:0:0:
260,275,33442,1,0,0:0:0:0:
356,164,33676,1,0,0:0:0:0:
356,164,33910,6,0,P|396:124|513:171,1,198.000006042481
449,338,34613,1,0,0:0:0:0:
449,338,34847,6,0,P|356:362|267:297,1,198.000006042481
227,131,35549,1,0,0:0:0:0:
263,12,35783,6,0,P|304:37|355:208,2,198.000006042481
200,287,37188,1,0,0:0:0:0:
37,212,37656,6,0,P|67:141|133:86,1,135.000005149842
203,45,38358,1,0,0:0:0:0:
309,23,38592,2,0,P|397:33|444:66,1,135.000005149842
400,155,39295,5,0,0:0:0:0:
305,241,39529,1,0,0:0:0:0:
198,187,39763,2,0,B|145:199|145:199|76:132|11:163,1,202.500007724762
0,63,41402,6,0,B|41:13|41:13|70:39|70:39|113:19|113:19|146:75,1,216
22,149,42338,2,0,B|33:206|33:206|139:254,1,144
233,165,43040,1,0,0:0:0:0:
386,74,43274,2,0,P|444:43|507:60,1,135
386,74,44211,6,0,B|342:33|342:33|295:52|295:52|245:53,1,144
58,158,45147,2,0,P|65:228|112:281,1,144
174,219,45850,1,0,0:0:0:0:
314,249,46084,2,0,B|351:192|351:192|351:116,1,144
242,21,46786,1,0,0:0:0:0:
118,95,47020,2,0,B|67:57|67:57|39:108|-32:65,1,144
0,79,47956,6,0,B|36:145|36:145|103:209,1,135.000005149842
203,131,48659,1,0,0:0:0:0:
263,230,48893,2,0,P|245:300|191:336,1,116.999994644165
388,291,49829,2,0,P|455:209|510:208,1,135.000005149842
403,224,50766,2,0,B|366:193|366:193|385:145|372:114,1,107.999996704102
376,134,51702,6,0,P|334:81|274:52,1,135.000005149842
41,246,52638,2,0,P|35:315|-7:361,1,101.250003862381
220,319,53341,1,0,0:0:0:0:
374,226,53575,2,0,B|421:230|447:183|447:183|441:108|507:104,1,180
372,147,54511,6,0,P|309:177|289:230,1,101.250003862381
138,72,55214,1,0,0:0:0:0:
46,227,55448,2,0,B|8:308|8:308|7:353|84:367,1,180
69,363,56384,6,0,P|112:312|169:271,1,135.000005149842
285,333,57086,1,0,0:0:0:0:
422,283,57320,2,0,P|470:260|501:205,1,99.0000030212403
355,184,58023,1,0,0:0:0:0:
215,147,58257,2,0,B|192:73|263:0|339:1|374:22,1,216
341,11,59193,6,0,L|426:58,2,72
320,154,59896,1,0,0:0:0:0:
208,164,60130,2,0,P|167:191|150:248,1,90
296,332,61066,2,0,P|268:366|226:381,1,90
42,207,62002,2,0,P|2:159|2:98,1,125.999996154785
2,97,62939,6,0,L|67:35,2,67.5000025749208
68,216,63641,1,0,0:0:0:0:
149,160,63875,2,0,P|188:205|235:218,1,90
149,277,64812,6,0,P|198:310|247:310,1,90
303,276,65514,1,0,0:0:0:0:
215,215,65748,2,0,B|216:153|173:137|152:95,1,125.999996154785
81,82,66684,5,0,0:0:0:0:
245,62,67153,1,0,0:0:0:0:
439,143,67621,2,0,B|438:200|438:200|394:258,1,101.250003862381
268,184,68323,1,0,0:0:0:0:
180,234,68557,2,0,B|126:292|126:292|126:373,1,135.000005149842
462,308,69494,5,0,0:0:0:0:
453,156,69845,1,0,0:0:0:0:
336,253,70196,1,0,0:0:0:0:
378,83,70430,2,0,P|292:30|247:38,1,135.000005149842
205,142,71132,1,0,0:0:0:0:
364,157,71366,6,0,L|437:231,1,101.250003862381
314,206,71835,6,0,L|384:279,1,80.9999975280763
260,256,72303,6,0,L|313:313,1,74.2500022659302
208,302,72771,6,0,L|262:357,1,67.5
255,350,73239,6,2,B|337:217|502:304|491:65|380:1|282:109|282:109|258:133|258:133|234:109|234:109|131:-2|4:64|18:309|178:209|258:369,1,1080,0|0,0:0|0:0,0:0:0:0:
358,142,79560,1,0,0:0:0:0:
254,228,79795,1,0,0:0:0:0:
64,166,80498,5,0,0:0:0:0:
144,56,80733,1,0,0:0:0:0:
280,56,80967,1,0,0:0:0:0:
181,222,81670,5,0,0:0:0:0:
325,115,82139,1,0,0:0:0:0:
413,272,82608,1,0,0:0:0:0:
267,186,83311,5,0,0:0:0:0:
203,249,83545,1,0,0:0:0:0:
267,186,84248,5,0,0:0:0:0:
194,131,84483,2,0,L|173:112,2,22.5
78,340,85420,5,0,0:0:0:0:
80,160,85889,1,0,0:0:0:0:
224,56,86358,1,0,0:0:0:0:
318,143,87061,5,0,0:0:0:0:
380,80,87295,1,0,0:0:0:0:
466,177,87998,5,0,0:0:0:0:
404,242,88233,2,0,L|382:265,2,22.5
342,53,89170,5,0,0:0:0:0:
160,56,89639,1,0,0:0:0:0:
160,236,90108,2,0,B|201:201|201:201|253:192,1,90
325,208,90811,5,0,0:0:0:0:
270,279,91045,2,0,B|291:317|291:317|330:342,1,90
406,293,91748,1,0,0:0:0:0:
465,224,91983,1,0,0:0:0:0:
435,139,92217,1,0,0:0:0:0:
449,48,92920,5,0,0:0:0:0:
304,155,93389,2,0,L|284:182,3,22.5
389,228,93858,6,0,P|362:287|244:319,1,180
237,189,94560,1,0,0:0:0:0:
165,74,94794,2,0,P|87:31|-1:41,1,180
36,177,95496,5,0,0:0:0:0:
24,311,95730,2,0,L|111:243,1,90
230,248,96199,1,0,0:0:0:0:
179,321,96667,6,0,P|231:280|346:299,1,180
265,354,97603,6,0,B|317:371|317:371|365:371|365:371|397:355|397:355|429:323,1,180
423,195,98305,1,0,0:0:0:0:
383,65,98540,2,0,B|340:23|340:23|210:-4,1,180
148,70,99242,1,0,0:0:0:0:
159,162,99476,2,0,L|125:226,2,45
386,275,99944,6,0,L|448:210,1,90
386,275,100412,6,0,L|469:342,1,90
386,275,100881,6,0,L|322:347,1,90
333,219,101349,6,0,L|250:139,1,90
267,71,101817,2,0,L|326:-6,1,90
411,3,102285,6,0,L|469:77,1,90
430,156,102753,1,0,0:0:0:0:
381,231,102987,1,0,0:0:0:0:
315,292,103222,2,0,L|261:315,2,45
124,108,103690,6,0,L|74:48,2,45
212,108,104158,6,0,L|274:59,2,45
216,196,104626,6,0,L|264:262,2,45
128,196,105094,6,0,L|68:240,2,45
256,192,105563,12,0,108606,0:0:0:0:
348,103,108840,6,0,P|268:43|188:55,1,180
86,291,109542,5,0,0:0:0:0:
66,203,109776,2,0,P|178:273|252:272,1,180
272,104,110479,1,0,0:0:0:0:
435,175,110713,5,0,0:0:0:0:
434,323,110947,2,0,B|474:303|500:250|488:204|438:180,1,180
402,249,111649,6,0,P|361:231|340:192,1,90
241,96,112117,2,0,P|209:64|166:57,1,90
7,188,112586,6,0,B|78:281|78:281|185:337,1,180
317,273,113288,1,0,0:0:0:0:
234,122,113522,2,0,P|306:212|317:296,1,180
130,292,114224,1,0,0:0:0:0:
25,145,114458,2,0,L|-3:99,2,45
256,46,114927,6,0,P|300:39|343:50,1,90
489,160,115395,2,0,P|495:204|484:247,1,90
357,336,115863,2,0,P|312:342|269:331,1,90
132,206,116331,6,0,P|85:132|-2:124,1,180
143,151,117033,1,0,0:0:0:0:
315,97,117268,6,0,P|361:23|448:15,1,180
305,32,117970,1,0,0:0:0:0:
438,152,118204,6,0,L|468:187,2,45
408,329,118672,2,0,P|381:364|340:381,1,90
177,305,119140,2,0,P|159:264|163:219,1,90
284,85,119609,2,0,P|289:40|273:0,1,90
165,81,120077,6,0,B|113:51|113:51|24:105,1,135.000005149842
48,224,120779,1,0,0:0:0:0:
151,310,121013,6,0,B|218:367|218:367|294:367,1,135.000005149842
395,330,121715,5,0,0:0:0:0:
455,208,121950,1,0,0:0:0:0:
268,205,122184,2,0,P|321:134|455:212,1,270
