osu file format v14

[General]
AudioFilename: audio.mp3
AudioLeadIn: 0
PreviewTime: -1
Countdown: 0
SampleSet: Normal
StackLeniency: 0.7
Mode: 0
LetterboxInBreaks: 0
WidescreenStoryboard: 1

[Editor]
DistanceSpacing: 1.2
BeatDivisor: 1
GridSize: 4
TimelineZoom: 1.5

[Metadata]
Title:Waiting for Love
TitleUnicode:Waiting for Love
Artist:Avicii
ArtistUnicode:Avicii
Creator:Nat3
Version:Easy
Source:
Tags:
BeatmapID:1715322
BeatmapSetID:813230

[Difficulty]
HPDrainRate:2
CircleSize:3
OverallDifficulty:3
ApproachRate:3
SliderMultiplier:0.999999999999999
SliderTickRate:1

[Events]
//Background and Video events
0,0,"Chrysanthemum.jpg",0,0
//Break Periods
//Storyboard Layer 0 (Background)
//Storyboard Layer 1 (Fail)
//Storyboard Layer 2 (Pass)
//Storyboard Layer 3 (Foreground)
//Storyboard Sound Samples

[TimingPoints]
3946,468.201326570425,4,1,0,40,1,0
73239,-133.333333333333,4,1,0,40,0,0
78858,468.75,4,1,0,40,1,0
78858,-133.333333333333,4,1,0,40,0,0
79561,-80,4,1,0,40,0,0
93858,468.201326570425,4,1,0,40,1,0

[HitObjects]
176,167,3946,6,0,B|248:83|361:121|453:53,1,300
329,51,5818,6,0,B|394:140|356:253|440:325,1,300
320,339,7691,6,0,B|288:291|288:291|170:251,1,99.9999999999999
259,157,8628,6,0,B|227:109|227:109|109:69,1,99.9999999999999
0,285,9564,6,0,B|-74:250|-74:250|-13:152|-13:152|-133:78,1,300
388,0,11437,6,0,L|506:68,1,99.9999999999999
512,144,12373,6,0,L|512:272,1,99.9999999999999
452,324,13310,6,0,L|356:396,1,99.9999999999999
328,293,14246,1,0,0:0:0:0:
53,127,15182,6,0,L|133:31,1,99.9999999999999
182,126,16119,6,0,L|246:209,1,99.9999999999999
283,113,17055,6,0,L|347:36,1,99.9999999999999
403,118,17992,1,0,0:0:0:0:
51,338,18928,6,0,L|51:238,1,99.9999999999999
80,142,19864,6,0,L|122:51,1,99.9999999999999
216,85,20801,2,0,L|439:165,1,200
332,222,22205,5,0,0:0:0:0:
233,202,22674,2,0,L|101:257,2,99.9999999999999
291,282,24078,6,0,L|78:58,1,300
189,78,27356,1,0,0:0:0:0:
139,164,27824,1,0,0:0:0:0:
245,166,29228,5,0,0:0:0:0:
320,99,29697,1,0,0:0:0:0:
250,26,30165,2,0,L|146:107,1,99.9999999999999
201,127,30867,5,0,0:0:0:0:
232,165,31101,2,0,L|128:246,1,99.9999999999999
179,268,31803,1,0,0:0:0:0:
220,93,33910,2,0,L|116:174,1,99.9999999999999
175,190,34613,5,0,0:0:0:0:
206,228,34847,2,0,L|102:309,1,99.9999999999999
160,326,35549,1,0,0:0:0:0:
191,147,36720,5,0,0:0:0:0:
290,135,37188,1,0,0:0:0:0:
206,228,37656,2,0,L|102:309,1,99.9999999999999
168,318,38358,1,0,0:0:0:0:
215,334,38592,2,0,L|293:272,1,99.9999999999999
297,222,39295,5,0,0:0:0:0:
166,350,41402,2,0,L|460:30,1,400
120,64,44211,2,0,L|178:189,1,99.9999999999999
260,96,45147,2,0,L|390:93,4,99.9999999999999
129,32,47956,6,0,L|109:173,1,99.9999999999999
125,190,48659,1,0,0:0:0:0:
178,218,48893,2,0,P|241:151|286:147,1,99.9999999999999
291,260,49829,2,0,P|354:193|399:189,1,99.9999999999999
178,218,50766,2,0,P|241:151|286:147,1,99.9999999999999
308,47,51702,5,0,0:0:0:0:
358,155,52170,1,0,0:0:0:0:
239,181,53341,1,0,0:0:0:0:
231,240,53575,6,0,L|346:308,1,99.9999999999999
239,181,55214,1,0,0:0:0:0:
231,240,55448,6,0,L|346:308,1,99.9999999999999
84,82,56384,6,0,L|496:153,1,400
301,101,59896,1,0,0:0:0:0:
381,170,60130,6,0,L|316:300,1,99.9999999999999
218,238,61066,2,0,L|96:302,1,99.9999999999999
131,162,62002,2,0,L|249:81,1,99.9999999999999
283,193,63875,6,0,L|142:215,1,99.9999999999999
283,193,64812,6,0,L|142:215,1,99.9999999999999
283,193,65748,6,0,L|142:215,1,99.9999999999999
127,103,66684,1,0,0:0:0:0:
247,96,67153,1,0,0:0:0:0:
256,103,71366,6,0,L|361:98,1,99.9999999999999
364,218,72303,6,0,L|264:222,1,99.9999999999999
57,57,73239,6,0,B|102:243|209:375|442:311|507:222|507:222|491:83|421:55|300:37,1,900.000034332276
201,59,79561,6,0,L|141:129,1,62.4999999999999
381,146,80498,1,0,0:0:0:0:
306,139,80733,2,0,L|246:209,1,62.4999999999999
63,86,81670,5,0,0:0:0:0:
66,236,82139,1,0,0:0:0:0:
189,151,82608,1,0,0:0:0:0:
392,55,83311,2,0,L|376:160,1,62.4999999999999
162,69,84248,1,0,0:0:0:0:
