osu file format v14

[General]
AudioFilename: audio.mp3
AudioLeadIn: 0
PreviewTime: 55409
Countdown: 0
SampleSet: None
StackLeniency: 0.4
Mode: 0
LetterboxInBreaks: 0
WidescreenStoryboard: 0

[Editor]
Bookmarks: 9681,28468,37788,47108,55264,56429,65749
DistanceSpacing: 2
BeatDivisor: 8
GridSize: 16
TimelineZoom: 1.2

[Metadata]
Title:Lonely Together (feat. Rita Ora)
TitleUnicode:Lonely Together (feat. Rita Ora)
Artist:Avicii
ArtistUnicode:Avicii
Creator:_orange
Version:Insane
Source:
Tags:
BeatmapID:1403622
BeatmapSetID:663112

[Difficulty]
HPDrainRate:7
CircleSize:4.5
OverallDifficulty:7
ApproachRate:9
SliderMultiplier:2
SliderTickRate:1

[Events]
//Background and Video events
0,0,"bg.jpg",0,0
//Break Periods
//Storyboard Layer 0 (Background)
//Storyboard Layer 1 (Fail)
//Storyboard Layer 2 (Pass)
//Storyboard Layer 3 (Foreground)
//Storyboard Sound Samples

[TimingPoints]
507,582.52427184466,4,2,1,30,1,0
507,-133.333333333333,4,2,1,30,0,0
5167,-133.333333333333,4,2,1,40,0,0
9681,-117.647058823529,4,2,1,50,0,0
28468,-117.647058823529,4,2,1,60,0,0
37788,-100,4,2,1,70,0,0
56429,-50,4,2,1,80,0,1
65458,-30,4,2,1,80,0,1
65749,-100,4,2,1,80,0,0

[Colours]
Combo1 : 255,192,0
Combo2 : 0,202,0
Combo3 : 18,124,255
Combo4 : 242,24,57

[HitObjects]
163,142,507,5,0,0:0:0:0:
237,151,652,2,0,L|162:141,1,75.0000028610231
88,130,1089,2,0,P|78:167|78:204,1,75.0000028610231
69,279,1526,1,0,0:0:0:0:
208,217,1672,5,0,0:0:0:0:
283,228,1817,2,0,L|209:218,1,75.0000028610231
224,291,2254,2,0,L|149:301,1,75.0000028610231
104,361,2691,1,0,0:0:0:0:
242,365,2837,5,0,0:0:0:0:
317,355,2982,2,0,L|243:365,1,75.0000028610231
224,291,3419,2,0,P|246:261|277:240,1,75.0000028610231
351,253,3856,5,0,0:0:0:0:
315,106,4002,1,0,0:0:0:0:
326,181,4147,2,0,L|316:107,1,75.0000028610231
241,93,4584,2,0,P|256:60|285:37,1,75.0000028610231
358,43,5021,1,0,0:0:0:0:
488,110,5167,5,0,0:0:0:0:
499,185,5312,2,0,L|489:111,1,75.0000028610231
418,137,5749,2,0,L|428:211,1,75.0000028610231
438,285,6186,1,0,0:0:0:0:
300,223,6332,5,0,0:0:0:0:
226,233,6477,2,0,L|300:223,1,75.0000028610231
327,152,6914,2,0,L|257:123,1,75.0000028610231
190,90,7351,1,0,0:0:0:0:
101,211,7497,5,0,0:0:0:0:
91,136,7642,2,0,L|100:210,1,75.0000028610231
66,277,8079,2,0,P|87:307|119:326,1,75.0000028610231
194,329,8516,1,0,0:0:0:0:
322,251,8662,5,0,0:0:0:0:
247,260,8807,2,0,L|321:250,1,75.0000028610231
321,326,9244,2,0,L|395:335,1,75.0000028610231
465,287,9681,6,0,L|469:244,1,42.5000008106232
479,159,9973,1,0,0:0:0:0:
478,159,10118,2,0,P|493:119|489:77,2,85.0000016212464
470,171,10773,1,0,0:0:0:0:
345,141,10992,6,0,L|239:128,1,106.250002026558
225,125,11429,1,0,0:0:0:0:
131,222,11574,2,0,B|146:183|146:183|142:141,1,85.0000016212464
90,72,12011,1,0,0:0:0:0:
22,123,12157,6,0,L|22:165,1,42.5000008106232
39,256,12594,2,0,L|39:298,1,42.5000008106232
131,222,13031,2,0,L|131:264,1,42.5000008106232
205,350,13322,6,0,L|205:307,1,42.5000008106232
239,199,13759,2,0,L|239:241,1,42.5000008106232
333,326,14050,1,0,0:0:0:0:
395,267,14196,2,0,P|394:246|388:226,1,42.5000008106232
465,189,14487,6,0,P|451:149|459:107,1,85.0000016212464
389,32,14924,1,0,0:0:0:0:
306,103,15070,2,0,L|221:92,1,85.0000016212464
128,144,15506,1,0,0:0:0:0:
132,40,15652,6,0,P|81:50|42:85,1,106.250002026558
37,98,16089,1,0,0:0:0:0:
35,285,16235,2,0,L|45:200,1,85.0000016212464
123,234,16672,1,0,0:0:0:0:
201,203,16817,6,0,L|201:160,1,42.5000008106232
289,260,17254,2,0,L|289:217,1,42.5000008106232
202,328,17691,2,0,L|202:285,1,42.5000008106232
288,341,17982,6,0,L|288:383,1,42.5000008106232
423,307,18419,2,0,L|423:264,1,42.5000008106232
430,76,18856,1,0,0:0:0:0:
475,172,19002,1,0,0:0:0:0:
369,157,19147,6,0,L|285:147,1,85.0000016212464
179,134,19584,1,0,0:0:0:0:
331,75,19730,2,0,L|246:64,1,85.0000016212464
162,50,20167,1,0,0:0:0:0:
87,139,20312,6,0,L|76:223,1,85.0000016212464
69,265,20749,1,0,0:0:0:0:
179,134,20895,2,0,L|168:218,1,85.0000016212464
166,233,21332,1,0,0:0:0:0:
299,303,21477,6,0,P|330:295|356:276,1,63.7500012159348
363,263,21769,2,0,L|359:199,1,63.7500012159348
372,189,22060,2,0,L|375:125,1,63.7500012159348
378,113,22351,2,0,B|316:102|316:102|271:120|271:120|213:110,1,170.000003242493
130,91,23079,1,0,0:0:0:0:
153,173,23225,2,0,L|153:215,1,42.5000008106232
40,295,23516,2,0,L|45:252,1,42.5000008106232
100,346,23807,6,0,P|151:336|196:307,1,106.250002026558
204,297,24244,1,0,0:0:0:0:
308,350,24390,2,0,L|315:265,1,85.0000016212464
324,180,24827,1,0,0:0:0:0:
211,126,24973,6,0,P|252:117|287:94,1,85.0000016212464
316,15,25409,1,0,0:0:0:0:
162,57,25555,2,0,L|210:126,1,85.0000016212464
203,211,25992,1,0,0:0:0:0:
120,233,26138,6,0,L|120:190,1,42.5000008106232
37,320,26574,2,0,L|37:277,1,42.5000008106232
152,357,27011,2,0,L|152:314,1,42.5000008106232
203,211,27303,6,0,L|203:253,1,42.5000008106232
286,121,27740,2,0,L|286:163,1,42.5000008106232
352,46,28176,1,0,0:0:0:0:
352,46,28322,1,0,0:0:0:0:
450,187,28468,6,0,L|456:145,2,42.5000008106232
476,275,28905,1,0,0:0:0:0:
353,237,29050,2,0,L|310:242,1,42.5000008106232
255,344,29341,2,0,L|250:302,1,42.5000008106232
221,219,29633,6,0,P|185:198|143:197,2,85.0000016212464
162,281,30361,2,0,L|156:323,2,42.5000008106232
53,256,30798,5,0,0:0:0:0:
63,169,30943,2,0,L|71:84,1,85.0000016212464
157,9,31380,1,0,0:0:0:0:
214,127,31526,1,0,0:0:0:0:
310,63,31672,2,0,L|352:67,1,42.5000008106232
421,115,31963,6,0,P|437:75|431:34,2,85.0000016212464
490,165,32691,2,0,L|452:186,2,42.5000008106232
463,273,33128,5,0,0:0:0:0:
384,241,33273,2,0,L|341:246,1,42.5000008106232
490,165,33565,1,0,0:0:0:0:
375,254,33710,2,0,L|332:259,1,42.5000008106232
388,98,34002,1,0,0:0:0:0:
367,267,34147,2,0,L|324:272,1,42.5000008106232
246,238,34439,6,0,L|240:195,2,42.5000008106232
199,322,34875,2,0,P|206:354|205:386,1,63.7500012159348
119,265,35312,2,0,P|109:245|104:225,1,42.5000008106232
89,140,35604,1,0,0:0:0:0:
172,95,35749,6,0,L|177:52,1,42.5000008106232
258,76,36040,2,0,L|263:33,1,42.5000008106232
317,159,36332,1,0,0:0:0:0:
359,22,36477,2,0,L|353:64,1,42.5000008106232
428,325,37206,5,0,0:0:0:0:
343,314,37351,2,0,L|427:324,1,85.0000016212464
306,252,37788,6,0,P|305:301|277:342,1,100
178,353,38225,1,0,0:0:0:0:
215,226,38371,2,0,L|202:126,1,100
74,50,38807,2,0,L|123:54,1,50
107,151,39099,6,0,L|69:183,2,50
222,51,39536,1,0,0:0:0:0:
311,93,39681,2,0,L|360:99,2,50
414,55,40118,6,0,L|401:154,1,100
382,252,40555,1,0,0:0:0:0:
488,167,40701,2,0,L|481:216,1,50
382,252,40992,1,0,0:0:0:0:
512,350,41138,2,0,L|462:356,1,50
362,371,41429,5,0,0:0:0:0:
271,329,41574,1,0,0:0:0:0:
171,343,41720,1,0,0:0:0:0:
202,200,41866,2,0,L|210:250,1,50
271,329,42157,1,0,0:0:0:0:
171,343,42303,1,0,0:0:0:0:
202,200,42448,6,0,B|206:158|206:158|172:111,1,100
72,106,42885,1,0,0:0:0:0:
195,213,43031,2,0,P|244:225|293:218,1,100
421,113,43468,2,0,P|397:105|372:102,1,50
291,40,43759,6,0,L|284:89,2,50
141,34,44196,1,0,0:0:0:0:
174,146,44341,1,0,0:0:0:0:
90,202,44487,2,0,L|41:212,1,50
174,284,44778,6,0,B|222:279|222:279|260:244,1,100
323,167,45215,1,0,0:0:0:0:
330,308,45361,2,0,L|344:259,1,50
323,167,45652,1,0,0:0:0:0:
451,227,45798,2,0,L|436:178,1,50
456,69,46089,6,0,L|406:62,1,50
308,52,46380,1,0,0:0:0:0:
323,167,46526,2,0,L|310:67,1,100
143,139,47108,6,0,L|149:89,1,50
52,199,47400,2,0,L|45:149,1,50
147,250,47691,1,0,0:0:0:0:
0,324,47837,2,0,P|49:319|96:335,1,100
226,309,48273,6,0,B|262:318|262:318|323:306,1,100
416,344,48710,1,0,0:0:0:0:
410,190,48856,2,0,L|404:239,1,50
352,108,49147,1,0,0:0:0:0:
394,12,49293,1,0,0:0:0:0:
233,137,49439,6,0,L|286:143,1,50
147,48,49730,2,0,P|127:79|112:113,1,75
122,125,50021,2,0,L|108:224,1,100
28,284,50458,1,0,0:0:0:0:
217,333,50604,6,0,B|167:335|167:335|120:322,1,100
341,190,51186,1,0,0:0:0:0:
393,369,51332,2,0,L|404:269,1,100
411,115,51769,6,0,P|369:91|319:89,1,100
226,127,52206,1,0,0:0:0:0:
395,24,52351,2,0,P|358:57|318:88,1,100
213,132,52788,1,0,0:0:0:0:
139,6,52934,6,0,L|132:55,1,50
30,182,53225,2,0,L|23:132,1,50
145,225,53516,1,0,0:0:0:0:
41,355,53662,2,0,P|44:305|74:267,1,100
233,335,54099,6,0,L|332:322,1,100
431,305,54536,1,0,0:0:0:0:
376,153,54681,2,0,L|369:202,1,50
463,99,54973,1,0,0:0:0:0:
284,249,55118,1,0,0:0:0:0:
458,98,56429,5,0,0:0:0:0:
458,98,56720,2,0,L|308:98,1,150
224,99,57011,1,0,0:0:0:0:
125,205,57157,2,0,P|217:191|224:99,1,200
126,205,57594,6,0,B|119:256|119:256|168:311|168:311|158:135,1,300
38,226,58176,1,0,0:0:0:0:
308,98,58468,1,0,0:0:0:0:
287,274,58613,1,0,0:0:0:0:
446,204,58759,5,0,0:0:0:0:
446,204,59050,2,0,B|385:240|385:240|434:301,1,150
484,358,59341,1,0,0:0:0:0:
446,204,59487,2,0,B|447:170|431:147|431:147|355:161|308:97,1,200
407,35,59924,5,0,0:0:0:0:
446,204,60070,1,0,0:0:0:0:
271,192,60215,2,0,L|121:192,1,150
44,191,60506,1,0,0:0:0:0:
272,32,60798,1,0,0:0:0:0:
271,192,60943,1,0,0:0:0:0:
272,352,61089,5,0,0:0:0:0:
272,352,61380,2,0,B|266:318|247:302|247:302|294:313|336:283,1,150
390,229,61671,1,0,0:0:0:0:
184,363,61817,2,0,B|130:328|39:326|39:326|50:347|74:357,1,200
33,60,62254,6,0,B|1:104|2:172|57:209|57:209|40:220|40:220|72:268|40:326,1,300
134,247,62837,1,0,0:0:0:0:
426,169,63128,1,0,0:0:0:0:
255,151,63273,1,0,0:0:0:0:
134,247,63419,5,0,0:0:0:0:
134,247,63710,2,0,B|241:234|241:234|279:251,1,150
344,292,64002,1,0,0:0:0:0:
177,150,64147,2,0,P|216:78|254:150,1,200
51,206,64584,6,0,P|69:80|176:149,1,300
101,147,65167,1,0,0:0:0:0:
452,310,65458,6,0,L|452:226,1,83.3333333333333
