osu file format v14

[General]
AudioFilename: audio.mp3
AudioLeadIn: 0
PreviewTime: 295685
Countdown: 0
SampleSet: Soft
StackLeniency: 0.7
Mode: 0
LetterboxInBreaks: 0
WidescreenStoryboard: 1

[Editor]
Bookmarks: 126268,226695,267406,284546,351965,374108
DistanceSpacing: 1.9
BeatDivisor: 4
GridSize: 32
TimelineZoom: 2.799999

[Metadata]
Title:Dizziness Explained
TitleUnicode:Dizziness Explained
Artist:Aviations
ArtistUnicode:Aviations
Creator:Asa
Version:Vertigo
Source:
Tags:AsaBen progressive rock ambient experimental Boston The Light Years hardcore math english metal
BeatmapID:3617592
BeatmapSetID:1767295

[Difficulty]
HPDrainRate:5
CircleSize:4.2
OverallDifficulty:9
ApproachRate:9.7
SliderMultiplier:1.4
SliderTickRate:1

[Events]
//Background and Video events
0,0,"karl-sisson-pilotsdream-small-v02.jpg",0,0
//Break Periods
2,20227,25018
2,152222,169831
//Storyboard Layer 0 (Background)
//Storyboard Layer 1 (Fail)
//Storyboard Layer 2 (Pass)
//Storyboard Layer 3 (Foreground)
//Storyboard Layer 4 (Overlay)
//Storyboard Sound Samples

[TimingPoints]
5742,285.714285714286,5,2,1,100,1,0
5742,-100,5,2,1,50,0,0
6170,-100,5,2,1,60,0,0
6600,-100,5,2,1,70,0,0
7170,-100,5,2,1,80,0,0
8027,-100,5,2,1,90,0,0
8600,-80,5,2,1,100,0,0
20030,285.714285714286,5,2,1,100,1,0
20887,285.714285714286,5,2,1,100,1,0
24315,285.714285714286,5,2,1,100,1,0
25172,285.714285714286,5,2,1,100,1,0
25743,285.714285714286,5,2,1,100,1,0
25743,-133.333333333333,5,2,1,100,0,0
28600,-100,5,2,1,100,0,0
32600,285.714285714286,5,2,1,100,1,0
34028,-66.6666666666667,5,2,1,100,0,1
34885,285.714285714286,5,2,1,100,1,0
34885,-66.6666666666667,5,2,1,100,0,1
36028,285.714285714286,7,2,1,100,1,0
36028,-66.6666666666667,7,2,1,100,0,0
38885,-100,7,2,1,100,0,0
40028,-66.6666666666667,7,2,1,100,0,0
41099,-66.6666666666667,7,2,1,5,0,0
41170,-66.6666666666667,7,2,1,100,0,0
44028,-66.6666666666667,7,2,1,100,0,0
48028,285.714285714286,6,2,1,100,1,0
48028,-66.6666666666667,6,2,1,100,0,1
51456,-100,6,2,1,100,0,1
54885,285.714285714286,5,2,1,100,1,0
54885,-80,5,2,1,100,0,0
59456,285.714285714286,6,2,1,100,1,0
59456,-80,6,2,1,100,0,0
61170,-100,6,2,1,100,0,0
64027,285.714285714286,4,2,1,100,1,0
65455,-80,4,2,1,100,0,0
68598,-80,4,2,1,100,0,1
70884,285.714285714286,5,2,1,100,1,0
74312,285.714285714286,5,2,1,100,1,0
74312,-80,5,2,1,100,0,0
74954,-80,5,2,1,5,0,0
75026,-80,5,2,1,100,0,0
76597,285.714285714286,4,2,1,100,1,0
77740,285.714285714286,6,2,1,100,1,0
79454,285.714285714286,5,2,1,100,1,0
79454,-50,5,2,1,100,0,0
79739,-66.6666666666667,5,2,1,100,0,0
80311,285.714285714286,4,2,1,100,1,0
80311,-66.6666666666667,4,2,1,100,0,0
80596,-133.333333333333,4,2,1,100,0,0
82025,-66.6666666666667,4,2,1,100,0,0
83453,285.714285714286,4,2,1,100,1,0
83738,-66.6666666666667,4,2,1,100,0,0
84311,285.714285714286,5,2,1,100,1,0
84453,-50,5,2,1,100,0,0
84739,-66.6666666666667,5,2,1,100,0,0
85453,-100,5,2,1,100,0,0
85739,-80,5,2,1,100,0,0
86882,285.714285714286,5,2,1,100,1,0
86882,-66.6666666666667,5,2,1,100,0,0
89739,285.714285714286,4,2,1,100,1,0
89953,-100,4,2,1,5,0,0
90024,-100,4,2,1,100,0,0
93310,-66.6666666666667,4,2,1,100,0,0
94310,-100,4,2,1,100,0,0
95024,-57.1428571428571,4,2,1,100,0,0
95239,-57.1428571428571,4,2,1,5,0,0
95310,-80,4,2,1,100,0,0
95524,-80,4,2,1,5,0,0
95596,-80,4,2,1,100,0,0
96310,-100,4,2,1,100,0,0
98881,285.714285714286,3,2,1,100,1,0
98881,-66.6666666666667,4,2,1,100,0,0
101881,-100,3,2,1,100,0,0
102310,-66.6666666666667,3,2,1,100,0,0
104596,-57.1428571428571,3,2,1,100,0,0
105167,-50,3,2,1,100,0,0
105381,-50,3,2,1,5,0,0
105453,-80,3,2,1,100,0,0
105667,-80,3,2,1,5,0,0
105739,-80,3,2,1,100,0,0
105953,-80,3,2,1,5,0,0
106024,-66.6666666666667,3,2,1,100,0,0
106239,-66.6666666666667,3,2,1,5,0,0
106310,-66.6666666666667,3,2,1,100,0,0
106881,285.714285714286,4,2,1,100,1,0
106881,-66.6666666666667,4,2,1,100,0,0
108596,-80,4,2,1,100,0,0
114310,-50,4,2,1,100,0,0
114524,-50,4,2,1,5,0,0
114596,-100,4,2,1,100,0,0
114810,-100,4,2,1,5,0,0
114881,-66.6666666666667,4,2,1,100,0,0
114953,-66.6666666666667,4,2,1,5,0,0
115024,-66.6666666666667,4,2,1,100,0,0
115096,-66.6666666666667,4,2,1,5,0,0
115167,-66.6666666666667,4,2,1,100,0,0
115381,-66.6666666666667,4,2,1,5,0,0
115453,-66.6666666666667,4,2,1,100,0,0
116024,-100,4,2,1,100,0,0
116667,-100,4,2,1,5,0,0
116739,-100,4,2,1,100,0,0
116810,-100,4,2,1,5,0,0
116881,-50,4,2,1,100,0,0
116953,-100,4,2,1,5,0,0
117167,-66.6666666666667,4,2,1,100,0,0
123453,-50,4,2,1,100,0,0
123667,-50,4,2,1,5,0,0
123739,-100,4,2,1,100,0,0
123953,-100,4,2,1,5,0,0
124024,-100,4,2,1,100,0,0
124096,-100,4,2,1,5,0,0
124167,-66.6666666666667,4,2,1,100,0,0
124596,-100,4,2,1,100,0,0
124881,-66.6666666666667,4,2,1,100,0,0
126310,-100,4,2,1,100,0,0
126881,-66.6666666666667,4,2,1,100,0,0
127381,-66.6666666666667,4,2,1,5,0,0
127452,-66.6666666666667,4,2,1,100,0,0
131310,-50,4,2,1,100,0,0
131738,285.714285714286,4,2,1,100,1,0
131738,-66.6666666666667,4,2,1,100,0,0
132309,285.714285714286,4,2,1,100,1,0
134451,285.714285714286,4,2,1,100,1,0
134522,-100,4,2,1,5,0,0
134736,-100,4,2,1,100,0,0
134808,-100,4,2,1,5,0,0
135022,-100,4,2,1,100,0,0
135094,-100,4,2,1,5,0,0
135166,285.714285714286,4,2,1,100,1,0
135166,-100,4,2,1,100,0,0
135737,-44.4444444444445,4,2,1,100,0,0
136737,-66.6666666666667,4,2,1,100,0,0
136951,-66.6666666666667,4,2,1,5,0,0
137023,285.714285714286,4,2,1,100,1,0
137094,-100,4,2,1,5,0,0
137308,-44.4444444444445,4,2,1,100,0,0
137523,-44.4444444444445,4,2,1,5,0,0
137594,-44.4444444444445,4,2,1,100,0,0
137737,285.714285714286,4,2,1,100,1,0
138308,285.714285714286,4,2,1,100,1,0
138308,-66.6666666666667,4,2,1,100,0,0
139450,-66.6666666666667,4,2,1,100,0,0
141165,-80,4,2,1,100,0,0
143522,-80,4,2,1,5,0,0
143593,-66.6666666666667,4,2,1,100,0,0
143665,-66.6666666666667,4,2,1,5,0,0
143879,-66.6666666666667,4,2,1,100,0,0
147881,285.714285714286,5,2,1,100,1,0
152041,571.428571428571,4,2,1,100,1,0
170326,-133.333333333333,4,2,1,70,0,0
171469,-100,4,2,1,70,0,0
172612,-133.333333333333,4,2,1,70,0,0
173755,-100,4,2,1,70,0,0
174612,-133.333333333333,4,2,1,70,0,0
174898,-133.333333333333,4,2,1,70,0,0
176040,-100,4,2,1,70,0,0
176898,-133.333333333333,4,2,1,70,0,0
179469,-100,4,2,1,70,0,0
180040,-133.333333333333,4,2,1,70,0,0
180612,-100,4,2,1,70,0,0
181469,-133.333333333333,4,2,1,70,0,0
185183,-100,4,2,1,70,0,0
188612,-100,4,2,1,70,0,0
189755,-86.9565217391304,4,2,1,70,0,0
190898,-100,4,2,1,70,0,0
192040,-86.9565217391304,4,2,1,70,0,0
192826,-86.9565217391304,4,2,1,5,0,0
192898,-86.9565217391304,4,2,1,70,0,0
193183,-100,4,2,1,70,0,0
194326,-86.9565217391304,4,2,1,70,0,0
195183,-100,4,2,1,70,0,0
197755,-66.6666666666667,4,2,1,70,0,0
198183,-100,4,2,1,70,0,0
198898,-80,4,2,1,70,0,0
202326,-66.6666666666667,4,2,1,70,0,0
202755,-100,4,2,1,70,0,0
203469,-80,4,2,1,70,0,0
204326,-100,4,2,1,70,0,0
204755,-100,4,2,1,50,0,0
205183,-80,4,2,1,100,0,0
206898,-66.6666666666667,4,2,1,100,0,0
227451,285.714285714286,4,2,1,100,1,0
227451,-66.6666666666667,4,2,1,100,0,0
227808,-66.6666666666667,4,2,1,5,0,0
227879,-66.6666666666667,4,2,1,100,0,0
228022,-57.1428571428571,4,2,1,100,0,0
228236,-57.1428571428571,4,2,1,5,0,0
228308,-80,4,2,1,100,0,0
228522,-80,4,2,1,5,0,0
228593,-100,4,2,1,100,0,0
230308,-50,4,2,1,100,0,0
230522,-66.6666666666667,4,2,1,5,0,0
230593,-133.333333333333,4,2,1,100,0,0
230808,-133.333333333333,4,2,1,5,0,0
230879,-100,4,2,1,100,0,0
232593,-66.6666666666667,4,2,1,100,0,0
232808,-66.6666666666667,4,2,1,5,0,0
232879,-66.6666666666667,4,2,1,100,0,0
233165,-133.333333333333,4,2,1,100,0,0
233379,-133.333333333333,4,2,1,5,0,0
233451,-133.333333333333,4,2,1,100,0,0
234593,-133.333333333333,4,2,1,100,0,0
234808,-133.333333333333,4,2,1,5,0,0
234879,-50,4,2,1,100,0,0
235093,-50,4,2,1,5,0,0
235165,-50,4,2,1,100,0,0
235451,-100,4,2,1,100,0,0
235665,-100,4,2,1,5,0,0
235736,-100,4,2,1,100,0,0
237165,-50,4,2,1,100,0,0
237379,-50,4,2,1,5,0,0
237451,-50,4,2,1,100,0,0
237736,-66.6666666666667,4,2,1,100,0,0
237951,-66.6666666666667,4,2,1,5,0,0
238022,-100,4,2,1,100,0,0
238236,-100,4,2,1,5,0,0
238308,-80,4,2,1,100,0,0
239165,-100,4,2,1,100,0,0
239379,-100,4,2,1,5,0,0
239451,-100,4,2,1,100,0,0
240022,-50,4,2,1,100,0,0
240236,-50,4,2,1,5,0,0
240308,-133.333333333333,4,2,1,100,0,0
240736,-100,4,2,1,100,0,0
242308,-133.333333333333,4,2,1,100,0,0
242879,-100,4,2,1,100,0,0
244308,-100,4,2,1,100,0,0
244379,-100,4,2,1,5,0,0
244593,-100,4,2,1,100,0,0
244665,-100,4,2,1,5,0,0
244879,285.714285714286,4,2,1,100,1,0
244879,-80,4,2,1,100,0,0
245379,-80,4,2,1,5,0,0
245450,-80,4,2,1,100,0,0
245664,-80,4,2,1,5,0,0
245736,-80,4,2,1,100,0,0
247164,285.714285714286,4,2,1,100,1,0
247164,-66.6666666666667,4,2,1,100,0,0
247378,-66.6666666666667,4,2,1,5,0,0
247449,-66.6666666666667,4,2,1,100,0,0
247735,-50,4,2,1,100,0,0
247949,-50,4,2,1,5,0,0
248021,-100,4,2,1,100,0,0
248235,-100,4,2,1,5,0,0
248306,-133.333333333333,4,2,1,100,0,0
249092,-133.333333333333,4,2,1,5,0,0
249164,-66.6666666666667,4,2,1,100,0,0
249378,-66.6666666666667,4,2,1,5,0,0
249449,-66.6666666666667,4,2,1,100,0,0
250021,-50,4,2,1,100,0,0
250235,-50,4,2,1,5,0,0
250306,-133.333333333333,4,2,1,100,0,0
250521,-133.333333333333,4,2,1,5,0,0
250592,-100,4,2,1,100,0,0
252306,285.714285714286,4,2,1,100,1,0
252306,-66.6666666666667,4,2,1,100,0,0
252520,-66.6666666666667,4,2,1,5,0,0
252591,-66.6666666666667,4,2,1,100,0,0
252877,-133.333333333333,4,2,1,100,0,0
253091,-133.333333333333,4,2,1,5,0,0
253163,-100,4,2,1,100,0,0
254306,-100,4,2,1,100,0,0
254520,-66.6666666666667,4,2,1,5,0,0
254591,-66.6666666666667,4,2,1,100,0,0
255020,-100,4,2,1,100,0,0
256877,-66.6666666666667,4,2,1,100,0,0
257234,-66.6666666666667,4,2,1,5,0,0
257306,-66.6666666666667,4,2,1,100,0,0
257448,-57.1428571428571,4,2,1,100,0,0
257663,-57.1428571428571,4,2,1,5,0,0
257734,-80,4,2,1,100,0,0
257948,-80,4,2,1,5,0,0
258020,-100,4,2,1,100,0,0
259734,-50,4,2,1,100,0,0
259948,-50,4,2,1,5,0,0
260020,-133.333333333333,4,2,1,100,0,0
260234,-133.333333333333,4,2,1,5,0,0
260306,-133.333333333333,4,2,1,100,0,0
260591,-100,4,2,1,100,0,0
262020,285.714285714286,4,2,1,100,1,0
262020,-66.6666666666667,4,2,1,100,0,0
262377,-66.6666666666667,4,2,1,5,0,0
262448,-66.6666666666667,4,2,1,100,0,0
262591,-80,4,2,1,100,0,0
262805,-80,4,2,1,5,0,0
262877,-80,4,2,1,100,0,0
263448,285.714285714286,4,2,1,100,1,0
264019,-100,4,2,1,100,0,0
264090,-100,4,2,1,5,0,0
264305,-100,4,2,1,100,0,0
264376,-100,4,2,1,5,0,0
264590,-80,4,2,1,100,0,0
265090,-80,4,2,1,5,0,0
265162,-80,4,2,1,100,0,0
265376,-80,4,2,1,5,0,0
265448,-80,4,2,1,100,0,0
267448,285.714285714286,5,2,1,100,1,0
273162,-66.6666666666667,5,2,1,100,0,0
278875,285.714285714286,4,2,1,100,1,0
278875,-66.6666666666667,4,2,1,100,0,1
283160,285.714285714286,5,2,1,100,1,0
284588,285.714285714286,7,2,1,100,1,0
284588,-66.6666666666667,5,2,1,100,0,0
287445,-100,5,2,1,100,0,0
288588,-66.6666666666667,5,2,1,100,0,0
289659,-66.6666666666667,5,2,1,5,0,0
289730,-66.6666666666667,5,2,1,100,0,0
292585,285.714285714286,5,2,1,100,1,0
292585,-66.6666666666667,5,2,1,100,0,0
295727,-50,5,2,1,100,0,0
296584,285.714285714286,6,2,1,100,1,0
296584,-100,6,2,1,100,0,1
303441,285.714285714286,4,2,1,100,1,0
303441,-80,4,2,1,100,0,0
309726,-100,4,2,1,100,0,0
314012,-80,4,2,1,100,0,0
314155,-80,4,2,1,100,0,0
317155,-80,4,2,1,100,0,1
319441,285.714285714286,5,2,1,100,1,0
322869,285.714285714286,4,2,1,100,1,0
322869,-80,4,2,1,100,0,0
323511,-80,4,2,1,5,0,0
323583,-80,4,2,1,100,0,0
324940,-80,4,2,1,5,0,0
325011,-80,4,2,1,100,0,0
326297,-100,4,2,1,100,0,0
329438,285.714285714286,4,2,1,100,1,0
330580,285.714285714286,5,2,1,100,1,0
332008,285.714285714286,4,2,1,100,1,0
332293,-66.6666666666667,4,2,1,100,0,0
335436,-66.6666666666667,4,2,1,100,0,0
336722,-100,4,2,1,100,0,0
338293,285.714285714286,4,2,1,100,1,0
341578,-66.6666666666667,4,2,1,100,0,0
345150,-100,4,2,1,100,0,0
346435,-66.6666666666667,4,2,1,100,0,0
346864,-100,4,2,1,100,0,0
348150,-57.1428571428571,4,2,1,100,0,0
348364,-57.1428571428571,4,2,1,10,0,0
348435,-80,4,2,1,100,0,0
348650,-80,4,2,1,5,0,0
348721,-80,4,2,1,100,0,0
348793,-80,4,2,1,5,0,0
349007,-80,4,2,1,100,0,0
349435,-100,4,2,1,100,0,0

[Colours]
Combo1 : 153,171,215
Combo2 : 183,183,183
Combo3 : 182,205,218
Combo4 : 255,140,140

[HitObjects]
84,125,5741,5,8,0:0:0:0:
91,108,5813,1,8,0:0:0:0:
108,105,5884,1,8,0:0:0:0:
144,177,6027,1,8,0:0:0:0:
124,29,6170,5,8,0:0:0:0:
142,26,6241,1,8,0:0:0:0:
153,39,6313,1,8,0:0:0:0:
42,197,6456,1,8,0:0:0:0:
235,71,6599,5,8,0:0:0:0:
325,77,6741,1,8,0:0:0:0:
316,167,6884,1,8,0:0:0:0:
226,159,7027,1,8,0:0:0:0:
134,336,7170,5,8,0:0:0:0:
116,339,7241,1,8,0:0:0:0:
105,326,7313,1,8,0:0:0:0:
216,168,7456,1,8,0:0:0:0:
25,352,7599,5,8,0:0:0:0:
13,337,7670,1,8,0:0:0:0:
19,321,7741,1,8,0:0:0:0:
323,175,7884,1,8,0:0:0:0:
429,335,8027,5,8,0:0:0:0:
324,374,8170,1,8,0:3:0:0:
286,283,8313,1,8,0:3:0:0:
365,256,8456,1,4,0:3:0:0:
171,384,8599,5,12,0:0:0:0:
115,319,8742,2,0,B|78:312|78:312|73:309|73:309|28:301,1,87.5,0|0,3:0|3:0,0:0:0:0:
196,162,9027,1,8,0:0:0:0:
196,162,9170,2,0,B|241:169|241:169|245:172|245:172|282:179,1,87.5,0|0,3:0|3:0,0:0:0:0:
160,44,9456,5,10,0:0:0:0:
227,260,9599,1,0,3:0:0:0:
162,53,9742,1,10,0:0:0:0:
17,170,9884,5,0,3:0:0:0:
17,170,9956,1,0,3:0:0:0:
17,170,10027,1,10,0:0:0:0:
65,232,10170,2,0,B|77:226|77:226|149:238,1,87.5,0|0,3:0|3:0,0:0:0:0:
282,110,10456,1,8,0:0:0:0:
282,110,10599,2,0,B|291:119|291:119|364:132,1,87.5,0|0,3:0|3:0,0:0:0:0:
460,7,10884,5,10,0:0:0:0:
512,190,11027,1,0,3:0:0:0:
462,16,11170,1,10,0:0:0:0:
418,243,11313,1,0,3:0:0:0:
492,302,11456,5,10,0:0:0:0:
437,376,11599,2,0,L|350:360,1,87.5,0|0,3:0|3:0,0:0:0:0:
231,213,11884,1,8,0:0:0:0:
231,213,12027,2,0,L|318:229,1,87.5,0|0,3:0|3:0,0:0:0:0:
183,343,12313,5,10,0:0:0:0:
267,123,12456,1,0,3:0:0:0:
187,334,12599,1,10,0:0:0:0:
170,133,12742,2,0,L|125:125,1,43.75,0|0,3:0|3:0,0:0:0:0:
92,52,12884,5,10,0:0:0:0:
92,52,12956,1,8,0:3:0:0:
92,52,13027,2,0,P|73:61|59:77,1,43.75,8|8,0:3|0:3,0:0:0:0:
50,165,13170,2,0,P|56:185|54:207,1,43.75,8|8,0:0|0:3,0:0:0:0:
16,317,13313,5,8,0:0:0:0:
16,317,13384,1,4,0:3:0:0:
16,317,13456,2,0,P|30:300|50:291,1,43.75,4|4,0:3|0:3,0:0:0:0:
124,257,13599,2,0,P|145:260|163:273,1,43.75,8|4,0:0|0:3,0:0:0:0:
224,382,13742,5,8,0:0:0:0:
224,382,13813,1,8,0:3:0:0:
224,382,13884,2,0,P|216:361|218:339,1,43.75,4|4,0:3|0:3,0:0:0:0:
407,287,14027,5,8,0:0:0:0:
419,274,14099,1,8,0:3:0:0:
426,258,14170,1,4,0:3:0:0:
427,240,14242,1,4,0:3:0:0:
419,224,14313,5,12,0:0:0:0:
337,242,14456,2,0,B|285:255|285:255|279:254|279:254|239:265,1,87.5,0|0,3:0|3:0,0:0:0:0:
385,90,14742,1,8,0:0:0:0:
385,90,14884,2,0,B|422:71|422:71|460:96,1,87.5,0|0,3:0|3:0,0:0:0:0:
348,354,15170,5,10,0:0:0:0:
265,137,15313,1,0,3:0:0:0:
344,345,15456,1,10,0:0:0:0:
385,90,15599,1,0,3:0:0:0:
332,24,15742,5,10,0:0:0:0:
255,52,15884,2,0,B|244:41|244:41|172:54,1,87.5,0|0,3:0|3:0,0:0:0:0:
0,180,16170,1,8,0:0:0:0:
0,180,16313,2,0,B|10:190|10:190|82:177,1,87.5,0|0,3:0|3:0,0:0:0:0:
109,0,16599,5,10,0:0:0:0:
167,237,16742,1,0,3:0:0:0:
111,7,16884,1,10,0:0:0:0:
281,153,17027,1,0,3:0:0:0:
259,255,17170,5,10,0:0:0:0:
346,211,17313,1,0,3:0:0:0:
356,221,17384,1,0,3:0:0:0:
355,236,17456,1,8,0:0:0:0:
154,269,17599,5,0,3:0:0:0:
151,255,17670,1,0,3:0:0:0:
161,243,17742,1,8,0:0:0:0:
357,332,17884,5,0,3:0:0:0:
351,345,17956,1,0,3:0:0:0:
336,348,18027,1,8,0:0:0:0:
212,135,18170,5,0,3:0:0:0:
224,128,18242,1,0,3:0:0:0:
238,134,18313,1,8,0:0:0:0:
210,384,18456,5,0,3:0:0:0:
196,382,18527,1,0,3:0:0:0:
188,369,18599,5,10,0:0:0:0:
277,230,18742,1,10,0:0:0:0:
309,373,18884,5,10,0:0:0:0:
273,211,19027,1,10,0:0:0:0:
401,291,19170,5,10,0:0:0:0:
260,201,19313,1,10,0:0:0:0:
410,167,19456,5,10,0:0:0:0:
246,203,19599,1,10,0:0:0:0:
327,71,19742,5,10,0:0:0:0:
236,212,19884,1,10,0:0:0:0:
34,25,20027,5,4,0:0:0:0:
34,25,25600,5,0,3:0:0:0:
0,249,25743,2,12,B|71:261|71:261|78:260|78:260|155:274,2,157.500006008148,12|2|2,0:0|0:1|0:0,0:0:0:0:
0,257,27028,5,0,3:0:0:0:
243,356,27171,2,0,B|266:330|266:330|251:246|251:246|278:221,2,157.500006008148,12|2|2,0:0|0:1|0:0,0:0:0:0:
235,361,28457,5,0,3:0:0:0:
308,144,28600,2,0,B|279:137|279:137|269:138|269:138|239:132,2,70,8|8|8,0:0|0:0|0:0,0:0:0:0:
362,10,29028,5,2,3:1:0:0:
377,91,29171,1,8,0:0:0:0:
392,171,29314,1,8,0:0:0:0:
512,50,29457,6,0,L|441:38,1,70,0|8,3:2|0:0,0:0:0:0:
299,148,29743,2,0,L|228:135,1,70,2|8,3:2|0:0,0:0:0:0:
444,275,30028,6,0,B|473:281|473:281|483:280|483:280|512:287,2,70,10|8|8,0:0|0:0|0:0,0:0:0:0:
341,384,30457,5,2,3:2:0:0:
356,303,30600,1,8,0:0:0:0:
371,223,30743,1,8,0:0:0:0:
201,336,30885,6,0,L|270:323,1,70,0|8,3:2|0:0,0:0:0:0:
363,307,31171,1,8,0:0:0:0:
178,201,31314,5,8,0:0:0:0:
178,201,31385,1,8,0:0:0:0:
178,201,31457,1,2,3:2:0:0:
80,220,31600,1,8,0:0:0:0:
56,124,31743,1,8,0:0:0:0:
154,105,31885,1,8,0:0:0:0:
130,11,32028,1,8,0:0:0:0:
32,30,32171,1,8,0:0:0:0:
231,22,32314,5,8,0:3:0:0:
229,28,32385,1,8,0:3:0:0:
227,35,32457,1,8,0:3:0:0:
225,42,32528,1,8,0:3:0:0:
223,49,32600,5,0,3:0:0:0:
317,71,32742,1,8,0:0:0:0:
286,164,32885,1,8,0:0:0:0:
192,132,33028,1,8,0:0:0:0:
232,275,33171,5,8,0:0:0:0:
269,268,33242,1,8,0:0:0:0:
306,261,33314,1,8,0:0:0:0:
344,255,33385,1,8,0:0:0:0:
382,251,33457,5,8,0:3:0:0:
379,268,33528,1,8,0:3:0:0:
378,285,33600,1,8,0:3:0:0:
377,302,33671,1,8,0:3:0:0:
375,319,33742,2,0,L|371:366,3,35,4|4|4|4,0:3|0:3|0:3|0:3,0:0:0:0:
468,239,34028,6,0,P|466:212|450:193,1,52.5000020027161,4|8,3:2|0:0,0:0:0:0:
290,185,34171,1,8,0:0:0:0:
253,179,34242,1,8,0:0:0:0:
231,148,34314,1,8,0:0:0:0:
234,111,34385,1,8,0:0:0:0:
263,88,34457,2,0,P|288:83|311:95,1,52.5000020027161,8|8,0:3|0:3,0:0:0:0:
432,107,34600,5,8,0:0:0:0:
469,101,34671,1,8,0:0:0:0:
491,70,34742,1,8,0:0:0:0:
488,33,34814,1,8,0:0:0:0:
459,10,34885,2,0,P|434:5|411:17,1,52.5000020027161,4|8,3:2|0:0,0:0:0:0:
304,100,35027,2,0,P|281:112|255:107,1,52.5000020027161,8|8,0:0|0:0,0:0:0:0:
147,32,35170,5,0,3:0:0:0:
97,13,35242,1,8,0:0:0:0:
49,35,35313,1,8,0:0:0:0:
31,79,35385,1,8,0:0:0:0:
46,123,35456,1,8,0:0:0:0:
81,145,35527,1,8,0:0:0:0:
123,139,35599,1,8,0:0:0:0:
159,139,35670,1,8,0:0:0:0:
185,156,35742,5,8,0:0:0:0:
195,185,35813,1,8,0:0:0:0:
188,210,35885,1,8,0:3:0:0:
170,222,35956,1,4,0:3:0:0:
154,222,36028,6,0,B|109:229|109:229|103:233|103:233|50:242,1,105.000004005432,4|8,3:2|0:0,0:0:0:0:
192,314,36313,1,2,3:1:0:0:
192,314,36456,1,2,3:1:0:0:
195,125,36599,2,0,B|247:116|247:116|253:112|253:112|298:104,1,105.000004005432,8|0,0:0|3:0,0:0:0:0:
66,0,36885,6,0,B|42:50|42:50|71:90,1,105.000004005432,8|0,0:0|3:0,0:0:0:0:
302,288,37170,2,0,B|325:237|325:237|296:197,1,105.000004005432,2|0,3:1|3:0,0:0:0:0:
280,199,37385,1,0,3:0:0:0:
264,201,37456,1,8,0:0:0:0:
379,321,37599,5,0,3:0:0:0:
399,326,37670,1,0,3:0:0:0:
420,331,37742,1,8,0:0:0:0:
239,384,37885,1,8,0:0:0:0:
500,256,38028,6,0,B|454:247|454:247|447:249|447:249|396:239,1,105.000004005432,4|0,3:2|0:0,0:0:0:0:
297,104,38313,1,2,3:1:0:0:
297,104,38456,1,2,3:1:0:0:
197,141,38599,2,0,L|84:121,1,105.000004005432,8|0,0:0|3:0,0:0:0:0:
197,225,38885,6,0,L|270:238,1,70,8|0,0:0|3:0,0:0:0:0:
124,45,39170,2,0,L|55:32,1,70,2|0,0:1|3:0,0:0:0:0:
44,31,39385,1,0,3:0:0:0:
33,29,39456,5,10,0:0:0:0:
68,246,39598,1,0,3:0:0:0:
108,137,39741,1,10,0:0:0:0:
64,258,39884,1,8,0:0:0:0:
144,349,40028,6,0,B|197:339|197:339|202:341|202:341|248:333,2,105.000004005432,4|0|0,3:2|3:0|3:0,0:0:0:0:
230,119,40456,1,2,3:2:0:0:
230,119,40599,2,0,B|282:104|282:104|318:139,1,105.000004005432,0|0,0:0|3:0,0:0:0:0:
489,318,40885,2,0,B|425:329|425:329|405:358|405:358|348:368,1,157.500006008148,8|0,0:0|0:0,0:0:0:0:
341,370,41170,5,0,3:0:0:0:
446,215,41313,1,8,0:0:0:0:
446,215,41385,1,8,0:0:0:0:
446,215,41456,1,8,0:0:0:0:
329,133,41599,1,8,0:0:0:0:
239,220,41742,1,0,3:2:0:0:
168,174,41885,1,4,3:0:0:0:
209,16,42028,6,0,B|246:54|246:54|235:104,2,105.000004005432,4|8|8,3:2|0:0|0:0,0:0:0:0:
138,87,42455,1,0,3:2:0:0:
24,109,42599,6,0,L|127:90,1,105.000004005432,8|0,0:0|3:0,0:0:0:0:
343,143,42885,2,0,B|323:154|323:154|339:73,1,105.000004005432,10|0,0:0|0:0,0:0:0:0:
452,10,43169,5,8,0:0:0:0:
490,28,43265,1,8,0:0:0:0:
495,69,43360,1,8,0:0:0:0:
471,146,43455,5,8,0:3:0:0:
443,153,43551,1,8,0:3:0:0:
435,179,43646,1,8,0:3:0:0:
479,247,43741,5,4,0:3:0:0:
491,253,43837,1,4,0:3:0:0:
494,266,43932,1,4,0:3:0:0:
399,304,44028,6,0,B|354:295|354:295|347:297|347:297|295:287,2,105.000004005432,4|0|0,3:2|3:0|3:0,0:0:0:0:
437,384,44456,1,0,3:0:0:0:
363,215,44599,1,0,3:0:0:0:
363,215,44742,1,0,3:0:0:0:
232,360,44885,6,0,B|273:388|273:388|325:371,1,105.000004005432,8|0,0:0|3:0,0:0:0:0:
163,186,45169,2,0,B|215:169|215:169|257:198,1,105.000004005432,0|0,3:2|3:0,0:0:0:0:
51,309,45456,5,0,3:0:0:0:
61,307,45528,1,0,3:0:0:0:
71,305,45599,1,0,3:0:0:0:
155,287,45742,1,0,3:0:0:0:
337,364,45885,5,0,3:0:0:0:
347,362,45956,1,0,3:0:0:0:
357,360,46028,1,0,3:0:0:0:
409,287,46170,2,0,L|512:304,1,105.000004005432,0|0,3:0|3:0,0:0:0:0:
359,117,46456,5,2,3:1:0:0:
338,198,46599,1,2,3:1:0:0:
317,279,46742,1,2,3:1:0:0:
270,131,46885,2,0,B|227:164|227:164|241:212,1,105.000004005432,8|0,0:0|3:0,0:0:0:0:
491,54,47170,6,0,B|444:46|444:46|440:47|440:47|387:37,1,105.000004005432,0|0,3:0|3:0,0:0:0:0:
138,228,47456,2,0,B|191:218|191:218|194:219|194:219|241:211,1,105.000004005432,10|0,0:0|3:0,0:0:0:0:
305,20,47742,1,8,0:0:0:0:
305,20,47885,1,8,0:0:0:0:
387,378,48028,5,4,3:2:0:0:
460,160,48170,1,0,3:0:0:0:
262,88,48313,1,2,3:2:0:0:
198,264,48456,1,0,3:2:0:0:
36,213,48599,1,2,3:2:0:0:
89,77,48742,1,0,3:0:0:0:
46,346,48885,5,10,3:2:0:0:
182,288,49028,1,0,3:0:0:0:
124,154,49170,1,2,3:2:0:0:
262,104,49313,5,0,3:0:0:0:
299,202,49456,1,2,3:2:0:0:
396,163,49599,1,0,3:0:0:0:
444,256,49742,5,4,3:2:0:0:
389,287,49885,1,4,3:0:0:0:
417,343,50028,1,2,3:2:0:0:
356,383,50170,5,0,3:0:0:0:
343,365,50313,1,2,3:2:0:0:
325,376,50456,1,0,3:0:0:0:
274,274,50599,5,10,3:2:0:0:
205,323,50742,1,0,3:0:0:0:
154,255,50885,1,2,3:2:0:0:
221,204,51028,5,0,3:2:0:0:
145,104,51170,1,2,3:2:0:0:
1,197,51313,1,0,3:0:0:0:
134,371,51456,5,4,3:2:0:0:
273,101,51599,1,0,3:0:0:0:
221,10,51742,1,0,3:0:0:0:
86,204,51885,5,2,3:2:0:0:
343,191,52028,1,0,3:0:0:0:
388,113,52170,1,0,3:0:0:0:
178,100,52313,5,10,3:2:0:0:
296,283,52456,1,0,3:0:0:0:
373,283,52599,1,0,3:0:0:0:
285,128,52742,5,2,3:2:0:0:
200,292,52885,1,0,3:0:0:0:
237,356,53028,1,0,3:0:0:0:
208,193,53170,6,0,L|121:207,1,70,4|0,3:2|3:0,0:0:0:0:
62,152,53455,1,0,3:0:0:0:
361,276,53599,6,0,B|395:283|395:283|400:281|400:281|450:290,1,70,2|0,3:2|3:0,0:0:0:0:
490,344,53885,1,0,3:0:0:0:
473,70,54028,6,0,P|440:59|406:68,1,70,10|0,3:2|3:0,0:0:0:0:
340,14,54313,1,0,3:0:0:0:
274,191,54456,2,0,P|241:201|207:192,1,70,2|0,3:2|3:0,0:0:0:0:
144,249,54742,1,0,3:0:0:0:
225,70,54885,6,0,B|180:77|180:77|174:81|174:81|140:87,2,87.5,4|0|0,3:2|3:0|3:0,3:0:0:0:
270,315,55313,2,0,L|356:330,1,87.5,8|0,0:0|0:0,0:0:0:0:
372,241,55599,5,0,3:0:0:0:
372,241,55742,2,0,B|337:234|337:234|333:231|333:231|287:222,1,87.5,0|0,3:0|3:0,0:0:0:0:
498,44,56027,1,8,0:0:0:0:
498,44,56313,5,0,3:0:0:0:
502,56,56385,1,0,3:0:0:0:
506,68,56456,1,0,3:0:0:0:
421,91,56599,1,0,3:0:0:0:
398,6,56742,1,0,3:0:0:0:
313,29,56885,1,0,3:0:0:0:
336,114,57027,1,0,3:0:0:0:
340,126,57099,1,0,3:0:0:0:
344,138,57170,1,0,3:0:0:0:
246,141,57313,1,0,3:0:0:0:
223,56,57456,1,0,3:0:0:0:
38,232,57599,5,8,0:0:0:0:
38,232,57742,2,0,B|50:223|50:223|121:235,1,87.5,0|0,3:0|0:0,0:0:0:0:
303,224,58027,2,0,B|312:265|312:265|286:302,1,87.5,0|0,3:0|3:0,0:0:0:0:
172,384,58313,6,0,B|178:347|178:347|182:343|182:343|190:295,1,87.5,8|0,0:0|3:0,0:0:0:0:
392,176,58599,2,0,B|399:219|399:219|403:224|403:224|410:260,1,87.5,8|4,0:3|0:3,0:0:0:0:
218,110,58885,5,8,0:0:0:0:
237,25,59027,1,0,3:0:0:0:
322,44,59170,1,0,3:0:0:0:
303,129,59313,1,8,0:0:0:0:
133,159,59456,6,0,B|46:143,1,87.5,2|0,3:2|3:0,0:0:0:0:
0,67,59741,1,0,3:0:0:0:
137,330,59884,1,8,0:0:0:0:
50,285,60170,5,0,0:0:0:0:
50,285,60313,2,0,B|22:320|22:320|33:361,1,87.5,0|0,3:0|3:0,0:0:0:0:
329,297,60598,1,8,0:0:0:0:
304,384,60884,5,0,3:0:0:0:
316,381,60956,1,0,3:0:0:0:
328,379,61027,1,0,3:0:0:0:
318,298,61170,2,0,L|249:310,1,70,0|0,3:0|3:0,0:0:0:0:
172,322,61456,1,0,3:0:0:0:
314,212,61598,1,0,3:0:0:0:
326,214,61670,1,0,3:0:0:0:
338,217,61741,1,0,3:0:0:0:
234,198,61884,1,0,3:0:0:0:
154,184,62027,1,0,3:0:0:0:
281,38,62170,6,0,B|308:46|308:46|323:127|323:127|350:135,1,140,8|0,0:0|0:0,0:0:0:0:
216,107,62597,2,0,B|183:101|183:101|178:97|178:97|148:92,1,70,0|0,3:0|3:0,0:0:0:0:
377,270,62883,5,10,0:0:0:0:
475,226,63026,1,0,3:0:0:0:
409,369,63170,1,8,0:3:0:0:
409,369,63240,1,8,0:3:0:0:
409,369,63313,5,8,0:0:0:0:
373,383,63384,1,8,0:0:0:0:
334,383,63456,1,8,0:3:0:0:
307,365,63527,1,8,0:3:0:0:
296,343,63598,1,8,0:3:0:0:
299,325,63670,1,8,0:3:0:0:
306,317,63741,5,8,0:0:0:0:
257,324,63813,1,8,0:0:0:0:
208,332,63884,1,8,0:0:0:0:
159,340,63956,1,8,0:0:0:0:
135,356,64027,5,4,3:2:0:0:
239,120,64169,1,8,3:2:0:0:
177,261,64312,1,8,3:2:0:0:
49,124,64455,5,10,3:2:0:0:
77,208,64598,1,8,3:2:0:0:
51,133,64741,1,8,3:2:0:0:
274,42,64884,5,8,3:2:0:0:
171,270,65027,1,8,3:2:0:0:
236,127,65169,1,8,3:2:0:0:
21,41,65312,5,2,3:2:0:0:
55,211,65455,2,0,B|31:177|31:177|38:131,1,87.5,8|0,0:0|3:0,0:0:0:0:
49,124,65669,1,0,3:0:0:0:
60,118,65741,1,8,0:0:0:0:
139,164,65884,1,8,0:3:0:0:
247,31,66027,5,4,0:3:0:0:
335,1,66169,1,8,0:0:0:0:
356,291,66312,6,0,B|385:253|385:253|374:215,1,87.5,12|8,0:0|0:0,0:0:0:0:
297,166,66598,1,8,0:0:0:0:
174,353,66741,6,0,B|128:360|128:360|122:359|122:359|71:368,1,87.5,8|8,0:0|0:0,0:0:0:0:
0,374,67027,1,8,0:0:0:0:
132,140,67169,6,0,B|146:128|146:128|214:141,1,87.5,10|8,3:2|3:2,0:0:0:0:
300,155,67455,1,8,3:2:0:0:
17,285,67598,5,2,3:2:0:0:
124,248,67741,1,8,0:0:0:0:
25,280,67884,1,0,3:0:0:0:
245,216,68027,5,10,0:0:0:0:
116,378,68169,1,0,3:0:0:0:
13,94,68312,1,10,0:0:0:0:
7,103,68598,5,8,3:2:0:0:
9,155,68669,1,8,3:2:0:0:
48,189,68741,1,8,3:2:0:0:
99,194,68812,1,8,3:2:0:0:
145,167,68884,1,8,3:2:0:0:
191,140,68955,1,8,3:2:0:0:
242,145,69027,1,8,3:2:0:0:
281,179,69098,1,8,3:2:0:0:
283,231,69169,5,8,3:2:0:0:
241,245,69241,1,8,3:2:0:0:
223,284,69312,1,8,3:2:0:0:
228,327,69384,1,8,3:2:0:0:
261,354,69455,5,8,3:2:0:0:
290,334,69527,1,8,3:2:0:0:
324,328,69598,1,8,3:2:0:0:
357,338,69669,1,8,3:2:0:0:
383,360,69741,2,0,P|364:372|343:376,1,43.75,0|0,3:2|3:0,0:0:0:0:
394,214,69883,5,8,0:0:0:0:
408,203,69954,1,8,0:0:0:0:
425,198,70026,1,8,0:0:0:0:
442,201,70097,1,8,0:0:0:0:
455,212,70168,1,8,0:0:0:0:
461,228,70240,1,8,0:0:0:0:
459,245,70311,6,0,P|453:266|440:283,1,43.75,8|8,0:3|0:3,0:0:0:0:
512,384,70454,2,0,P|506:362|493:345,1,43.75,8|8,0:0|0:0,0:0:0:0:
309,247,70597,5,4,0:3:0:0:
300,244,70668,1,4,0:3:0:0:
291,241,70740,1,4,0:3:0:0:
282,238,70811,1,4,0:3:0:0:
275,235,70884,6,0,B|240:241|240:241|234:244|234:244|206:249,1,70,4|0,3:2|3:0,0:0:0:0:
312,56,71168,1,2,3:1:0:0:
312,56,71312,2,0,B|340:51|340:51|346:48|346:48|381:42,1,70,2|0,3:1|0:0,0:0:0:0:
440,105,71598,5,2,3:1:0:0:
212,19,71741,1,8,0:0:0:0:
135,65,71884,1,0,0:0:0:0:
215,30,72026,6,0,L|227:98,1,70,2|0,0:1|3:0,0:0:0:0:
229,109,72241,1,0,3:0:0:0:
231,119,72312,1,8,0:0:0:0:
190,216,72455,1,0,3:0:0:0:
321,116,72598,2,0,B|337:143|337:143|330:180,1,70,8|0,0:0|0:0,0:0:0:0:
139,285,72884,5,0,0:0:0:0:
139,285,73026,2,0,B|111:280|111:280|105:277|105:277|70:271,1,70,2|0,3:1|0:0,0:0:0:0:
0,170,73311,2,0,B|38:160|38:160|59:181,1,70,2|0,3:1|0:0,0:0:0:0:
6,333,73598,5,0,3:0:0:0:
3,342,73669,1,0,3:0:0:0:
1,352,73741,1,10,0:0:0:0:
139,285,73884,1,0,3:0:0:0:
211,311,74026,1,8,0:3:0:0:
151,360,74168,1,4,0:3:0:0:
408,384,74312,6,0,L|423:297,1,87.5,4|0,3:2|0:0,0:0:0:0:
374,81,74596,1,2,3:1:0:0:
469,150,74740,2,0,B|521:103|521:103|488:51,1,131.25,2|0,3:2|0:0,0:0:0:0:
472,42,75025,2,0,B|457:117|457:117|453:121|453:121|437:212,1,175,2|0,3:2|3:0,0:0:0:0:
512,295,75454,5,8,0:0:0:0:
279,375,75597,1,0,3:0:0:0:
346,254,75740,1,0,0:0:0:0:
375,333,75883,1,0,3:0:0:0:
379,340,75954,1,0,3:0:0:0:
383,347,76026,1,8,0:0:0:0:
206,247,76169,6,0,B|167:261|167:261|154:326|154:326|125:334,1,131.25,0|0,3:0|0:0,0:0:0:0:
117,336,76453,2,0,L|74:345,1,43.75,0|0,3:0|0:0,0:0:0:0:
24,244,76597,5,10,0:0:0:0:
247,332,76739,1,0,3:0:0:0:
78,125,76882,5,10,0:0:0:0:
123,350,77025,1,0,3:0:0:0:
260,173,77168,5,8,0:0:0:0:
175,194,77311,1,0,3:0:0:0:
195,17,77454,5,8,0:0:0:0:
393,56,77597,1,8,3:2:0:0:
446,136,77740,6,0,B|486:140|486:140|505:117,1,70,4|0,3:2|0:0,0:0:0:0:
255,82,78025,1,0,3:0:0:0:
255,82,78167,2,0,B|326:69|326:69|332:66|332:66|392:55,1,140,0|0,3:0|0:0,0:0:0:0:
310,155,78596,5,2,0:2:0:0:
255,82,78739,1,2,0:2:0:0:
130,149,78881,1,0,3:2:0:0:
204,0,79024,1,8,0:0:0:0:
125,55,79167,1,10,0:0:0:0:
244,213,79310,1,0,3:0:0:0:
49,350,79454,6,0,B|23:334|23:334|136:312,1,140,6|0,3:2|0:0,0:0:0:0:
372,336,79739,5,0,3:0:0:0:
400,359,79811,1,8,0:3:0:0:
435,362,79882,1,8,0:3:0:0:
468,345,79953,1,4,0:3:0:0:
484,312,80024,1,8,0:3:0:0:
478,276,80095,1,8,0:3:0:0:
453,249,80167,1,4,0:3:0:0:
417,243,80238,1,4,0:3:0:0:
382,257,80311,6,0,B|391:208|391:208|388:202|388:202|398:153,1,105.000004005432,12|0,0:0|0:0,0:0:0:0:
195,311,80596,2,0,L|204:362,1,52.5000020027161,0|0,3:0|3:2,0:0:0:0:
32,190,80882,5,8,0:0:0:0:
8,0,81025,1,0,0:0:0:0:
258,184,81168,5,0,3:2:0:0:
270,109,81311,1,0,3:2:0:0:
116,46,81453,5,10,0:0:0:0:
365,147,81596,1,0,3:2:0:0:
178,130,81739,5,10,0:0:0:0:
479,90,81882,1,0,3:2:0:0:
277,287,82025,6,0,L|258:183,1,105.000004005432,10|0,0:0|3:2,0:0:0:0:
492,0,82311,2,0,B|511:48|511:48|477:90,1,105.000004005432,8|0,0:0|3:2,0:0:0:0:
237,37,82596,5,0,3:2:0:0:
161,20,82739,1,8,0:0:0:0:
172,215,82882,5,0,3:2:0:0:
365,147,83025,1,8,0:0:0:0:
353,304,83168,5,0,3:2:0:0:
277,287,83311,1,8,0:0:0:0:
444,237,83453,6,0,L|512:249,1,70,2|8,3:2|0:0,0:0:0:0:
267,376,83738,2,0,B|245:328|245:328|276:286,1,105.000004005432,0|2,3:2|3:1,0:0:0:0:
365,147,84024,5,8,0:0:0:0:
365,147,84167,2,0,B|325:152|325:152|308:180|308:180|266:188,1,105.000004005432,8|0,0:0|3:2,0:0:0:0:
103,63,84453,6,0,B|87:35|87:35|173:5|173:5|196:89,1,210,10|0,0:0|0:0,0:0:0:0:
207,90,84739,2,0,L|197:141,1,52.5000020027161,8|8,0:0|0:0,0:0:0:0:
177,220,84882,5,8,0:0:0:0:
0,185,85025,1,8,0:0:0:0:
95,152,85168,1,8,0:3:0:0:
68,294,85311,1,8,0:3:0:0:
68,294,85382,1,0,3:0:0:0:
68,294,85453,2,0,L|0:281,1,70,8|0,0:0|3:0,0:0:0:0:
121,366,85739,6,0,P|136:350|154:339,1,43.75,8|8,0:0|0:0,0:0:0:0:
236,286,85882,1,8,0:3:0:0:
236,286,85953,1,8,0:3:0:0:
236,286,86025,2,0,P|257:289|276:300,1,43.75,8|8,0:0|0:0,0:0:0:0:
375,364,86168,5,8,0:3:0:0:
394,374,86239,1,8,0:3:0:0:
415,376,86311,1,4,0:3:0:0:
435,370,86382,1,4,0:3:0:0:
451,354,86453,6,0,P|460:334|461:312,1,43.75,8|8,0:0|0:0,0:0:0:0:
327,227,86596,2,0,P|339:245|357:256,1,43.75,8|8,0:3|0:3,0:0:0:0:
500,187,86739,2,0,P|478:188|459:198,1,43.75,4|4,0:3|3:0,0:0:0:0:
281,101,86882,5,12,3:2:0:0:
281,101,87024,2,0,B|289:50|289:50|293:47|293:47|302:0,1,105.000004005432,0|0,3:0|3:0,0:0:0:0:
144,114,87309,6,0,B|106:149|106:149|123:199,1,105.000004005432,2|0,3:2|0:0,0:0:0:0:
389,107,87596,2,0,B|427:72|427:72|409:21,1,105.000004005432,2|0,3:2|0:0,0:0:0:0:
189,24,87882,5,0,3:0:0:0:
192,33,87953,1,0,3:0:0:0:
195,42,88024,1,8,0:0:0:0:
281,101,88167,1,0,3:0:0:0:
123,199,88310,5,10,0:0:0:0:
329,170,88453,1,0,3:0:0:0:
31,102,88596,5,10,0:0:0:0:
4,220,88739,1,0,3:0:0:0:
215,226,88882,6,0,B|224:241|224:241|212:313|212:313|218:325,1,105.000004005432,2|0,0:0|3:0,0:0:0:0:
227,332,89096,1,0,3:0:0:0:
235,338,89167,5,8,0:0:0:0:
322,307,89309,1,0,3:0:0:0:
425,373,89453,1,4,0:3:0:0:
205,229,89596,1,4,0:3:0:0:
305,95,89739,6,0,B|346:87|346:87|361:93|361:93|407:84,1,105,4|0,3:2|0:0,0:0:0:0:
419,84,90024,1,0,3:0:0:0:
384,178,90167,1,0,3:0:0:0:
252,28,90310,5,2,0:0:0:0:
252,28,90453,2,0,L|103:54,1,140,0|0,3:0|3:0,0:0:0:0:
335,11,90881,5,10,0:0:0:0:
407,262,91024,2,0,B|413:300|413:300|513:282,1,140,0|8,3:0|0:0,0:0:0:0:
295,207,91452,5,2,3:2:0:0:
310,130,91596,1,0,3:0:0:0:
194,107,91739,1,0,3:0:0:0:
159,281,91881,1,0,3:0:0:0:
230,326,92024,5,2,0:0:0:0:
92,232,92167,1,0,3:0:0:0:
92,232,92310,2,0,B|66:236|66:236|58:234|58:234|23:241,1,70,0|0,3:0|0:0,0:0:0:0:
230,326,92596,5,2,3:2:0:0:
230,326,92739,1,0,3:0:0:0:
307,310,92881,2,0,B|342:303|342:303|350:305|350:305|375:300,1,70,0|0,3:0|3:0,0:0:0:0:
298,170,93167,5,10,0:0:0:0:
398,382,93310,2,0,B|442:370|442:370|462:257|462:257|510:247,1,210.000008010865,0|0,3:0|3:0,0:0:0:0:
510,253,93667,1,0,3:0:0:0:
510,258,93739,5,10,0:0:0:0:
394,210,93880,1,8,0:0:0:0:
442,94,94023,1,4,0:3:0:0:
326,46,94167,1,4,0:3:0:0:
211,247,94310,5,2,3:2:0:0:
128,264,94453,1,0,3:0:0:0:
226,345,94596,2,0,B|282:335|282:335|295:310|295:310|362:298,1,140,0|2,3:0|0:0,0:0:0:0:
130,73,95024,6,0,B|170:54|170:54|206:105|206:105|164:170,1,183.750001752377,8|0,0:0|0:0,0:0:0:0:
158,181,95310,2,0,B|94:169|94:169|90:166|90:166|29:156,1,131.25,0|0,3:0|0:0,0:0:0:0:
21,155,95596,6,0,L|28:198,1,43.75,8|0,0:0|0:0,0:0:0:0:
111,291,95881,6,0,L|103:334,1,43.75,0|0,3:0|3:0,0:0:0:0:
100,344,96023,1,8,0:0:0:0:
28,315,96167,1,0,3:0:0:0:
178,378,96310,6,0,L|195:282,2,70,2|0|0,3:1|3:0|0:0,0:0:0:0:
100,344,96738,1,8,0:0:0:0:
353,292,96881,5,2,3:2:0:0:
369,365,97024,1,0,3:0:0:0:
437,226,97167,5,10,0:0:0:0:
470,379,97309,1,0,3:0:0:0:
453,305,97453,1,8,0:3:0:0:
453,305,97596,1,4,0:3:0:0:
275,187,97739,6,0,B|269:176|269:176|256:182|256:182|241:175,19,28,2|0|0|0|0|0|0|0|0|0|0|0|0|0|0|0|0|0|0|0,0:0|0:0|0:0|0:0|0:0|0:0|0:0|0:0|0:0|0:0|0:0|0:0|0:0|0:0|0:0|0:0|0:0|0:0|0:0|0:0,0:0:0:0:
240,255,98881,6,0,B|197:262|197:262|193:260|193:260|126:271,1,105.000004005432,4|0,3:2|0:0,0:0:0:0:
47,60,99167,1,0,3:0:0:0:
47,60,99309,2,0,B|20:35|20:35|103:9|103:9|142:88,1,210.000008010865,2|0,3:2|0:0,0:0:0:0:
218,340,99739,6,0,B|255:377|255:377|304:360,1,105.000004005432,10|0,0:0|0:0,0:0:0:0:
415,140,100023,1,0,3:0:0:0:
415,140,100166,2,0,B|464:123|464:123|501:160,1,105.000004005432,2|0,3:2|0:0,0:0:0:0:
426,264,100452,1,0,0:0:0:0:
495,12,100595,1,2,3:2:0:0:
492,22,100880,5,0,3:0:0:0:
332,70,101023,1,2,0:0:0:0:
321,67,101095,1,0,0:0:0:0:
310,64,101166,1,0,0:0:0:0:
357,157,101309,1,0,0:0:0:0:
256,187,101453,5,10,0:0:0:0:
211,35,101596,1,0,0:0:0:0:
58,73,101739,1,0,3:0:0:0:
13,234,101881,2,0,B|71:244|71:244|78:243|78:243|155:256,1,140,2|0,3:2|0:0,0:0:0:0:
196,347,102309,5,2,3:2:0:0:
340,225,102453,2,0,L|443:243,1,105.000004005432,0|0,3:0|3:0,0:0:0:0:
268,166,102739,2,0,B|228:200|228:200|244:249,1,105.000004005432,2|0,3:2|0:0,0:0:0:0:
475,352,103023,5,0,0:0:0:0:
413,140,103166,1,10,0:0:0:0:
472,342,103309,1,0,3:0:0:0:
349,351,103453,6,0,B|361:332|361:332|280:346,1,105.000004005432,0|2,0:0|3:2,0:0:0:0:
175,315,103666,1,0,0:0:0:0:
165,317,103738,2,0,B|121:325|121:325|116:324|116:324|60:334,1,105.000004005432
253,252,104024,5,2,3:2:0:0:
275,170,104167,1,0,3:0:0:0:
152,139,104309,1,0,3:0:0:0:
191,3,104453,1,2,3:2:0:0:
54,83,104596,6,0,B|11:82|11:82|89:67,1,122.500001168251
412,30,104881,1,8,0:0:0:0:
492,131,105023,1,0,3:0:0:0:
402,32,105167,6,0,B|352:45|352:45|327:155|327:155|282:168,1,210,2|0,3:2|0:0,0:0:0:0:
172,113,105453,2,0,B|185:83|185:83|256:69|256:69|247:103,1,131.25,8|0,0:0|0:0,0:0:0:0:
231,230,105739,5,2,3:2:0:0:
476,225,105881,2,0,L|468:268,1,43.75,4|0,3:2|0:0,0:0:0:0:
444,335,106024,2,0,B|430:262|430:262|431:254|431:254|415:169,1,157.500006008148
412,172,106310,5,2,3:2:0:0:
322,201,106453,1,0,3:0:0:0:
321,383,106596,1,0,3:0:0:0:
231,354,106739,1,0,3:0:0:0:
197,155,106881,5,8,0:0:0:0:
197,155,106953,1,8,0:0:0:0:
197,155,107024,2,0,P|171:157|150:173,1,52.5000020027161,8|8,0:3|0:3,0:0:0:0:
62,187,107167,5,8,0:0:0:0:
62,187,107239,1,8,0:0:0:0:
62,187,107310,2,0,P|51:210|55:236,1,52.5000020027161,8|8,0:3|0:3,0:0:0:0:
31,323,107453,5,8,0:0:0:0:
31,323,107524,1,8,0:0:0:0:
31,323,107596,2,0,P|46:344|70:353,1,52.5000020027161,8|8,0:3|0:3,0:0:0:0:
171,273,107739,5,4,0:3:0:0:
181,271,107810,1,4,0:3:0:0:
191,269,107881,1,4,0:3:0:0:
201,267,107953,1,4,0:3:0:0:
211,265,108024,6,0,L|314:283,1,105.000004005432,4|0,3:2|3:0,0:0:0:0:
395,195,108239,1,0,3:0:0:0:
399,189,108310,2,0,B|358:157|358:157|306:168,1,105.000004005432,0|0,3:0|3:0,0:0:0:0:
188,368,108596,6,0,L|-7:333,1,175,2|0,0:0|3:0,0:0:0:0:
211,265,109023,1,0,3:0:0:0:
211,265,109167,2,0,B|255:273|255:273|261:271|261:271|296:278,1,87.5,10|0,0:0|3:0,0:0:0:0:
240,91,109453,1,0,3:0:0:0:
240,91,109596,1,0,3:0:0:0:
450,377,110024,5,0,3:0:0:0:
367,350,110167,1,0,3:0:0:0:
368,341,110239,1,0,3:0:0:0:
370,332,110310,1,2,3:2:0:0:
399,249,110453,1,0,3:0:0:0:
482,278,110596,1,0,3:0:0:0:
316,220,110739,5,0,0:0:0:0:
316,220,110881,1,2,3:2:0:0:
257,326,111024,5,0,3:0:0:0:
228,243,111167,1,0,3:0:0:0:
145,272,111310,1,0,3:0:0:0:
117,188,111453,5,10,0:0:0:0:
33,216,111596,1,0,3:0:0:0:
32,207,111667,1,0,3:0:0:0:
30,198,111739,1,0,3:0:0:0:
61,300,111880,1,0,0:0:0:0:
144,273,112024,5,2,3:2:0:0:
94,104,112167,1,0,3:0:0:0:
178,80,112310,1,0,3:0:0:0:
178,80,112453,1,0,3:0:0:0:
260,52,112739,5,0,3:0:0:0:
269,50,112810,1,0,3:0:0:0:
277,48,112881,1,0,3:0:0:0:
360,22,113023,1,0,3:0:0:0:
393,126,113167,1,2,3:2:0:0:
263,168,113310,1,0,3:0:0:0:
315,330,113453,1,0,3:0:0:0:
512,266,113596,1,0,3:0:0:0:
229,264,113739,5,10,0:0:0:0:
501,264,113881,1,8,0:0:0:0:
361,205,114024,1,0,3:0:0:0:
361,205,114167,1,0,3:0:0:0:
442,31,114310,6,0,B|386:1|386:1|364:123|364:123|386:118,1,210,8|0,3:2|0:0,0:0:0:0:
466,108,114596,2,0,B|514:100|514:100|515:107|515:107|467:115,1,105,2|0,3:2|0:0,0:0:0:0:
390,113,114881,6,0,L|336:122,1,52.5000020027161,2|0,3:2|0:0,0:0:0:0:
179,146,115024,2,0,L|230:136,1,52.5000020027161,4|0,3:2|0:0,0:0:0:0:
236,129,115167,6,0,B|166:141|166:141|160:140|160:140|78:154,1,157.500006008148
73,159,115453,5,2,3:2:0:0:
35,234,115596,1,0,3:0:0:0:
113,264,115739,1,0,3:0:0:0:
85,342,115881,1,0,3:0:0:0:
208,264,116024,6,0,L|276:251,1,70,10|0,0:0|0:0,0:0:0:0:
119,271,116310,5,0,3:0:0:0:
125,280,116453,1,0,3:0:0:0:
188,352,116596,6,0,L|222:345,1,35,8|0,3:2|0:0,0:0:0:0:
301,327,116739,2,0,L|335:320,1,35,0|0,3:0|0:0,0:0:0:0:
45,352,116881,6,0,B|45:309|45:309|40:336,1,70,2|0,3:1|0:0,0:0:0:0:
42,361,117167,6,0,B|23:373|23:373|37:292,1,105.000004005432,4|0,3:2|3:0,0:0:0:0:
143,245,117380,1,0,3:0:0:0:
151,246,117453,2,0,B|184:202|184:202|155:162,1,105.000004005432,0|0,3:0|3:0,0:0:0:0:
0,93,117738,5,2,3:2:0:0:
25,13,117881,1,0,3:0:0:0:
104,38,118024,1,0,3:0:0:0:
79,118,118167,1,0,3:0:0:0:
52,197,118309,5,10,0:0:0:0:
110,28,118452,1,0,3:0:0:0:
267,88,118596,1,0,3:0:0:0:
209,238,118738,1,0,3:0:0:0:
203,251,119167,5,0,3:0:0:0:
284,231,119310,1,0,3:0:0:0:
284,241,119381,1,0,3:0:0:0:
284,251,119453,1,2,3:2:0:0:
284,335,119596,1,0,3:0:0:0:
366,318,119738,5,0,3:0:0:0:
120,365,119881,1,0,3:0:0:0:
117,356,120024,1,2,3:2:0:0:
366,309,120167,5,0,3:0:0:0:
373,225,120310,1,0,3:0:0:0:
454,204,120453,1,0,3:0:0:0:
439,360,120595,1,10,0:0:0:0:
293,258,120739,5,0,3:0:0:0:
293,258,120810,1,0,3:0:0:0:
293,258,120881,1,0,3:0:0:0:
199,241,121024,1,0,3:0:0:0:
105,225,121166,1,2,3:2:0:0:
201,232,121310,5,0,3:0:0:0:
107,217,121452,1,0,3:0:0:0:
13,202,121596,1,0,3:0:0:0:
16,210,121881,5,0,3:0:0:0:
19,219,121953,1,0,3:0:0:0:
22,228,122024,1,0,3:0:0:0:
4,310,122167,1,0,3:0:0:0:
105,336,122310,1,2,3:2:0:0:
138,214,122453,1,0,3:0:0:0:
281,244,122596,1,0,3:0:0:0:
321,80,122739,1,0,3:0:0:0:
436,285,122881,5,10,0:0:0:0:
147,217,123024,1,8,0:0:0:0:
199,307,123166,5,0,3:0:0:0:
204,312,123309,1,0,3:0:0:0:
189,55,123453,6,0,B|143:28|143:28|72:61|72:61|102:133,1,210,8|0,3:2|0:0,0:0:0:0:
137,222,123739,6,0,B|115:268|115:268|150:227,1,105,2|0,3:1|0:0,0:0:0:0:
182,142,124024,2,0,B|202:139|202:139|213:149,1,35,2|0,3:2|0:0,0:0:0:0:
389,190,124167,6,0,B|293:173|293:173|287:168|287:168|171:146,1,210.000008010865,4|0,3:2|0:0,0:0:0:0:
320,202,124596,6,0,B|389:190,1,70,2|0,3:2|3:0,0:0:0:0:
144,71,124881,2,0,B|40:52,1,105.000004005432,0|0,3:0|3:0,0:0:0:0:
207,16,125167,5,10,0:0:0:0:
291,281,125310,1,8,0:3:0:0:
430,124,125453,5,4,0:3:0:0:
512,139,125595,1,4,0:3:0:0:
242,353,125739,5,8,0:0:0:0:
158,88,125881,1,0,3:0:0:0:
41,346,126023,5,8,0:0:0:0:
414,249,126166,1,8,0:0:0:0:
69,83,126310,6,0,B|74:49|74:49|82:40|82:40|88:12,2,70,4|0|0,3:2|3:0|3:0,0:0:0:0:
230,59,126739,1,0,3:0:0:0:
243,147,126881,2,0,B|274:99|274:99|243:62,1,105.000004005432,0|0,0:0|3:0,0:0:0:0:
166,249,127167,2,0,B|129:242|129:242|131:227|131:227|134:223|134:223|151:124,1,157.500006008148,0|0,3:0|0:0,0:0:0:0:
118,323,127453,5,10,0:0:0:0:
125,332,127738,5,0,0:3:0:0:
145,336,127810,1,0,0:3:0:0:
165,340,127881,1,0,0:3:0:0:
185,344,127952,1,0,0:3:0:0:
205,348,128024,1,0,0:3:0:0:
211,356,128310,5,0,3:0:0:0:
7,312,128452,5,0,3:0:0:0:
90,300,128738,5,0,3:0:0:0:
173,287,129024,5,2,3:2:0:0:
213,123,129167,1,2,3:2:0:0:
377,163,129309,1,0,3:0:0:0:
337,327,129452,1,0,3:0:0:0:
381,154,129595,6,0,B|386:131|386:131|384:126|384:126|415:24|415:24|455:12|455:12|485:42|485:42|473:93|473:93|411:103,1,315.000012016297,0|0,3:0|3:0,0:0:0:0:
306,146,130167,5,0,3:0:0:0:
295,143,130238,1,0,3:0:0:0:
284,140,130309,1,8,0:0:0:0:
205,189,130453,1,2,3:2:0:0:
311,42,130595,5,8,0:0:0:0:
428,233,130739,1,2,3:2:0:0:
115,231,130881,5,0,0:3:0:0:
82,214,130953,1,0,0:3:0:0:
67,179,131024,1,0,3:0:0:0:
74,143,131096,1,0,0:3:0:0:
100,117,131166,2,0,P|125:108|155:117,1,52.5000020027161
232,10,131310,2,0,B|361:32|361:32|366:35|366:35|510:61,1,280,2|0,3:2|3:0,0:0:0:0:
507,60,131667,1,0,0:0:0:0:
507,60,131738,6,0,L|455:69,1,52.5000020027161,10|0,0:0|0:0,0:0:0:0:
333,166,131880,2,0,L|384:156,1,52.5000020027161,0|0,3:0|0:0,0:0:0:0:
491,211,132023,1,8,0:0:0:0:
491,211,132166,1,8,0:0:0:0:
274,368,132308,5,4,3:2:0:0:
328,171,132451,1,0,3:0:0:0:
180,130,132594,1,0,3:0:0:0:
149,240,132737,1,0,3:0:0:0:
66,216,132879,5,0,0:0:0:0:
151,233,133023,1,0,3:0:0:0:
138,296,133165,1,0,3:0:0:0:
90,286,133308,1,0,0:1:0:0:
27,384,133451,6,0,L|95:371,1,70,10|0,0:0|0:0,0:0:0:0:
385,322,133736,5,0,3:3:0:0:
402,326,133808,1,0,3:3:0:0:
418,330,133879,1,0,3:3:0:0:
434,334,133950,1,0,3:3:0:0:
451,338,134022,1,0,3:3:0:0:
310,302,134309,1,0,3:0:0:0:
461,213,134451,6,0,L|454:178,1,35,2|0,3:2|0:0,0:0:0:0:
455,216,134735,6,0,L|448:181,1,35,2|0,3:2|0:0,0:0:0:0:
449,221,135022,6,0,L|442:186,1,35,2|0,3:2|0:0,0:0:0:0:
432,95,135165,1,2,3:2:0:0:
459,301,135308,1,0,3:0:0:0:
253,328,135451,1,0,3:0:0:0:
226,122,135594,1,0,3:0:0:0:
232,115,135737,6,0,B|179:123|179:123|146:189|146:189|86:198|86:198|81:201|81:201|127:195,1,236.250009012223
168,275,136023,5,0,3:3:0:0:
204,262,136094,1,0,3:3:0:0:
241,249,136166,1,0,3:3:0:0:
278,236,136237,1,0,3:3:0:0:
315,223,136308,6,0,B|346:253|346:253|337:287,1,78.7500030040742,8|0,0:0|0:0,0:0:0:0:
80,373,136450,1,2,3:2:0:0:
87,371,136594,6,0,B|56:341|56:341|64:306,1,78.7500030040742,8|0,0:0|0:0,0:0:0:0:
330,214,136737,2,0,B|377:251|377:251|350:345,1,157.500006008148,2|0,3:2|0:0,0:0:0:0:
343,350,137023,6,0,L|308:356,1,35,2|0,3:2|0:0,0:0:0:0:
343,358,137308,6,0,B|322:236|322:236|320:234|320:234|300:126,1,236.250009012223,2|0,3:2|0:0,0:0:0:0:
297,116,137594,1,0,3:0:0:0:
167,246,137737,5,8,3:2:0:0:
380,133,137879,1,0,3:0:0:0:
149,73,138022,5,8,0:0:0:0:
459,157,138165,1,8,0:0:0:0:
351,14,138308,5,2,3:2:0:0:
295,20,138379,1,0,0:0:0:0:
258,62,138450,2,0,P|249:87|251:113,1,52.5000020027161,0|0,3:0|0:0,0:0:0:0:
233,218,138593,5,0,3:0:0:0:
266,263,138665,1,0,0:0:0:0:
321,274,138736,2,0,P|346:269|368:254,1,52.5000020027161,0|0,3:0|0:0,0:0:0:0:
463,212,138879,5,0,0:0:0:0:
486,161,138950,1,0,0:0:0:0:
468,108,139022,2,0,P|451:88|427:76,1,52.5000020027161,0|0,3:0|0:0,0:0:0:0:
251,124,139165,5,0,0:0:0:0:
226,133,139236,1,0,0:0:0:0:
189,124,139308,1,0,3:0:0:0:
162,85,139379,1,0,0:0:0:0:
177,29,139449,5,10,0:0:0:0:
227,58,139521,1,0,0:0:0:0:
240,113,139592,1,0,0:0:0:0:
211,163,139664,1,0,0:0:0:0:
163,195,139735,1,0,0:0:0:0:
140,248,139807,1,0,0:0:0:0:
148,303,139879,2,0,P|157:328|174:348,1,52.5000020027161,8|0,0:0|0:0,0:0:0:0:
379,336,140022,5,2,3:2:0:0:
365,274,140093,1,0,0:0:0:0:
327,236,140165,1,0,3:0:0:0:
285,237,140236,1,0,0:0:0:0:
264,259,140308,2,0,P|264:284|278:307,3,52.5000020027161,0|0|0|0,3:0|0:0|3:0|0:0,0:0:0:0:
137,314,140593,5,0,0:0:0:0:
143,305,140665,1,0,0:0:0:0:
147,295,140735,1,0,3:0:0:0:
147,284,140808,1,0,0:0:0:0:
142,274,140879,1,0,3:0:0:0:
134,266,140950,1,0,0:0:0:0:
129,256,141022,1,0,0:0:0:0:
128,245,141093,1,0,0:0:0:0:
131,235,141165,2,0,P|138:214|152:197,3,43.75,2|0|0|0,3:2|0:0|3:0|0:0,0:0:0:0:
72,158,141450,2,0,P|65:137|51:120,3,43.75,0|0|0|0,3:0|0:0|3:0|0:0,0:0:0:0:
179,55,141736,5,10,0:0:0:0:
169,44,141879,2,0,B|92:30|92:30|90:26|90:26|-5:10,1,175,0|0,3:0|3:0,0:0:0:0:
4,22,142236,1,0,3:0:0:0:
9,33,142308,1,8,0:0:0:0:
23,132,142450,1,0,3:0:0:0:
147,115,142592,1,8,0:0:0:0:
168,270,142735,1,8,0:0:0:0:
361,243,142879,6,0,B|386:279|386:279|363:316,1,87.5,4|0,3:2|3:0,0:0:0:0:
222,375,143164,1,0,3:0:0:0:
232,380,143308,2,0,B|250:367|250:367|269:260,1,131.25,0|0,3:0|0:0,0:0:0:0:
275,254,143593,6,0,B|249:259|249:259|281:250,1,52.5000020027161,8|0,0:0|0:0,0:0:0:0:
372,240,143879,1,0,3:0:0:0:
310,168,144022,6,0,B|292:147|292:147|316:171,1,52.5000020027161,2|0,0:0|0:0,0:0:0:0:
399,150,144165,1,8,0:0:0:0:
402,138,144236,1,0,0:0:0:0:
346,324,144450,6,0,B|337:349|337:349|345:316,1,52.5000020027161,0|0,3:0|3:0,0:0:0:0:
375,233,144592,1,8,0:0:0:0:
476,263,144736,1,0,3:0:0:0:
471,38,144879,1,2,3:1:0:0:
305,69,145022,1,0,3:0:0:0:
298,61,145308,5,8,0:0:0:0:
396,95,145450,1,0,3:0:0:0:
392,109,145521,1,0,0:0:0:0:
388,123,145593,1,0,3:0:0:0:
385,138,145664,1,0,0:0:0:0:
381,152,145736,1,10,0:0:0:0:
277,184,145878,2,0,B|283:243|283:243|283:240|283:240|226:297|226:297|241:380,1,210.000008010865,0|0,3:0|3:0,0:0:0:0:
339,339,146307,5,8,0:0:0:0:
193,206,146449,1,8,0:3:0:0:
182,210,146522,1,8,0:3:0:0:
172,214,146592,1,8,0:0:0:0:
93,242,146736,1,8,0:0:0:0:
33,2,146879,1,8,0:0:0:0:
76,77,147021,1,8,0:3:0:0:
0,121,147165,1,8,0:3:0:0:
200,19,147307,5,8,0:0:0:0:
269,225,147450,1,8,0:0:0:0:
485,131,147593,5,4,3:0:0:0:
297,372,147736,1,4,3:0:0:0:
175,12,147881,1,4,3:2:0:0:
256,192,147951,12,0,152022,0:0:0:0:
361,77,170326,6,0,L|438:63,1,78.7500030040742,2|0,3:2|3:0,0:0:0:0:
414,199,170898,2,0,L|362:208,1,52.5000020027161,0|0,0:0|3:0,0:0:0:0:
448,61,171469,6,0,B|436:125|436:125|438:130|438:130|426:198,1,140,8|0,0:0|0:0,0:0:0:0:
401,309,172326,1,0,3:0:0:0:
405,300,172469,1,0,0:0:0:0:
460,284,172612,6,0,L|391:296,1,52.5000020027161,0|0,3:0|0:0,0:0:0:0:
300,246,173041,1,0,3:0:0:0:
290,248,173183,2,0,L|255:254,2,26.2500010013581,0|0|0,0:0|0:0|3:0,0:0:0:0:
333,384,173755,6,0,L|308:246,1,140,8|0,0:0|0:0,0:0:0:0:
101,219,174612,2,0,L|66:212,1,26.2500010013581,0|0,3:0|0:0,0:0:0:0:
46,110,174898,6,0,B|66:116|76:131|76:131|134:143,1,78.7500030040742,0|0,3:0|3:0,0:0:0:0:
182,184,175469,2,0,P|193:170|199:154,2,26.2500010013581,0|0|0,0:0|0:0|3:0,0:0:0:0:
99,0,176040,6,0,L|123:137,1,140,8|0,0:0|0:0,0:0:0:0:
355,90,176898,2,0,L|382:85,1,26.2500010013581,0|0,3:0|0:0,0:0:0:0:
300,35,177183,5,0,3:0:0:0:
260,189,177326,1,0,0:0:0:0:
270,187,177612,5,0,3:0:0:0:
184,197,177755,2,0,L|158:201,2,26.2500010013581,0|0|0,0:0|0:0|3:0,0:0:0:0:
355,170,178326,5,8,0:0:0:0:
91,253,178755,5,8,0:3:0:0:
83,259,178826,1,8,0:3:0:0:
82,269,178898,1,8,0:3:0:0:
163,289,179040,1,8,0:3:0:0:
119,359,179183,1,4,0:3:0:0:
94,350,179326,1,4,0:3:0:0:
241,235,179469,6,0,B|261:237|265:257|265:257|277:325,1,105,2|0,3:2|3:0,0:0:0:0:
373,352,180040,2,0,L|398:356,2,26.2500010013581,0|0|0,0:0|0:0|3:0,0:0:0:0:
233,235,180612,6,0,L|257:97,1,140,8|0,0:0|0:0,0:0:0:0:
377,16,181469,1,0,3:0:0:0:
389,14,181612,1,0,0:0:0:0:
436,74,181755,6,0,L|465:69,2,26.2500010013581,0|0|0,3:0|0:0|0:0,0:0:0:0:
412,152,182183,2,0,L|386:156,2,26.2500010013581,0|0|0,3:0|0:0|0:0,0:0:0:0:
462,216,182612,2,0,L|487:211,1,26.2500010013581,0|0,0:0|3:0,0:0:0:0:
512,0,182898,5,8,0:0:0:0:
481,178,183326,1,2,3:2:0:0:
455,357,183755,1,2,3:2:0:0:
391,284,184040,6,0,B|354:290|354:290|349:289|349:289|310:296,1,78.7500030040742,2|0,3:2|3:0,0:0:0:0:
227,271,184612,2,0,L|222:296,1,26.2500010013581
155,346,184898,1,0,3:0:0:0:
0,168,185183,6,0,L|140:192,1,140,8|0,0:0|0:0,0:0:0:0:
209,166,186040,1,0,3:0:0:0:
202,153,186183,1,0,0:0:0:0:
137,204,186326,6,0,B|131:231|131:231|134:237,2,35,0|0|0,3:0|0:0|0:0,0:0:0:0:
73,156,186755,2,0,B|69:149|69:149|75:122,2,35,0|0|0,3:0|0:0|0:0,0:0:0:0:
202,153,187183,5,0,3:0:0:0:
209,166,187326,1,8,0:3:0:0:
278,17,187469,5,8,0:0:0:0:
268,19,187612,2,0,L|233:25,1,35,0|0,3:0|0:0,0:0:0:0:
326,198,187898,1,8,0:0:0:0:
336,200,188040,2,0,L|370:206,1,35,0|0,3:0|0:0,0:0:0:0:
271,384,188326,1,2,0:1:0:0:
61,40,188612,6,0,B|56:48|55:57|55:57|63:108,1,70,2|0,3:2|0:0,0:0:0:0:
161,162,189040,1,0,3:0:0:0:
160,173,189183,2,0,L|153:207,2,35,0|0|0,0:0|0:0|3:0,0:0:0:0:
264,5,189755,6,0,L|304:178,1,161.000003070831,8|0,0:0|0:0,0:0:0:0:
306,169,190612,1,0,3:0:0:0:
425,150,190755,1,8,0:0:0:0:
466,218,190898,2,0,L|500:226,2,35,0|0|0,3:0|0:0|0:0,0:0:0:0:
419,143,191326,2,0,L|385:151,2,35,0|0|0,3:0|0:0|0:0,0:0:0:0:
492,81,191755,1,0,3:0:0:0:
492,81,191898,1,0,3:0:0:0:
457,297,192040,6,0,B|414:260|357:304|366:310|376:320|345:396|265:354,1,221.375004222393,8|0,0:0|0:0,0:0:0:0:
268,352,192898,1,0,3:0:0:0:
93,261,193040,1,8,0:0:0:0:
21,326,193183,2,0,L|25:360,2,35,0|0|0,3:0|0:0|0:0,0:0:0:0:
102,338,193612,2,0,L|106:372,2,35,0|0|0,3:0|0:0|0:0,0:0:0:0:
186,355,194040,1,0,3:0:0:0:
158,129,194326,6,0,B|91:141|91:141|85:140|85:140|-3:156,1,161.000003070831,8|0,0:0|0:0,0:0:0:0:
78,63,195183,2,0,L|126:55,1,35,0|0,3:0|0:0,0:0:0:0:
149,228,195469,5,0,3:0:0:0:
136,226,195612,2,0,L|88:218,1,35
172,124,195898,2,0,L|206:118,2,35,0|0|0,3:0|0:0|0:0,0:0:0:0:
90,218,196326,1,0,3:0:0:0:
373,384,196612,5,8,0:0:0:0:
381,372,197183,1,0,0:0:0:0:
446,48,197755,6,0,B|405:55|405:55|393:77|393:77|355:84,1,105.000004005432,2|0,3:2|0:0,0:0:0:0:
284,33,198183,1,0,3:0:0:0:
274,30,198326,2,0,L|202:17,1,70,0|0,0:0|3:0,0:0:0:0:
319,253,198898,6,0,L|351:67,1,175,8|0,0:0|0:0,0:0:0:0:
353,69,199755,1,0,3:0:0:0:
435,175,199898,1,8,0:0:0:0:
242,268,200040,6,0,L|190:277,2,43.75,0|0|0,3:0|0:0|0:0,0:0:0:0:
326,316,200469,2,0,L|370:309,2,43.75,0|0|0,3:0|0:0|0:0,0:0:0:0:
265,372,200898,1,0,0:0:0:0:
320,312,201040,1,0,3:0:0:0:
91,243,201183,5,8,0:0:0:0:
441,171,201612,1,2,3:2:0:0:
91,99,202040,1,2,3:2:0:0:
238,37,202326,6,0,B|268:75|268:75|233:131,1,105.000004005432,2|0,3:2|0:0,0:0:0:0:
153,181,202755,1,0,3:0:0:0:
156,192,202898,2,0,L|170:272,1,70,0|0,0:0|3:0,0:0:0:0:
58,101,203469,6,0,B|2:166|2:166|50:241,1,175,8|0,0:0|0:0,0:0:0:0:
247,322,204326,2,0,L|240:287,1,35,0|0,3:0|0:0,0:0:0:0:
227,212,204612,5,0,3:0:0:0:
307,191,204755,1,8,0:0:0:0:
331,318,204898,1,8,0:0:0:0:
459,290,205040,1,8,0:0:0:0:
469,287,205112,1,8,0:0:0:0:
479,285,205183,6,0,L|485:241,1,43.75,8|8,0:0|0:0,0:0:0:0:
297,138,205469,2,0,L|303:181,1,43.75,8|8,0:3|0:3,0:0:0:0:
457,81,205755,1,8,0:3:0:0:
442,79,205898,1,8,0:3:0:0:
442,158,206040,1,4,0:3:0:0:
468,1,206183,5,2,0:1:0:0:
430,80,206326,1,4,0:3:0:0:
475,3,206469,1,8,0:3:0:0:
416,81,206612,1,4,0:3:0:0:
328,25,206755,1,8,0:3:0:0:
153,158,206898,6,0,L|49:140,1,105.000004005432,2|0,3:2|0:0,0:0:0:0:
136,68,207326,1,0,3:0:0:0:
169,237,207469,2,0,L|227:247,1,52.5000020027161
126,312,207755,1,0,3:0:0:0:
455,323,208040,6,0,B|428:299|428:299|301:322,1,157.500006008148,8|2,0:0|0:1,0:0:0:0:
241,368,208611,5,2,0:1:0:0:
110,316,208898,1,0,3:0:0:0:
461,74,209183,6,0,B|493:67|493:67|510:160|510:160|481:167,1,157.500006008148,2|0,3:2|0:0,0:0:0:0:
361,66,209755,2,0,B|358:36|358:36|379:31,2,52.5000020027161,2|0|0,3:1|0:0|0:0,0:0:0:0:
377,144,210183,1,0,3:0:0:0:
451,350,210326,6,0,B|458:304|458:304|457:299|457:299|467:244,1,105.000004005432,8|0,0:0|0:0,0:0:0:0:
479,165,210755,1,8,0:3:0:0:
360,268,210898,1,8,0:3:0:0:
262,189,211040,1,0,3:0:0:0:
168,240,211183,1,4,0:3:0:0:
108,184,211326,1,4,0:3:0:0:
51,354,211469,6,0,L|-4:344,2,52.5000020027161,2|0|0,3:2|0:0|0:0,0:0:0:0:
163,302,211898,2,0,B|178:278|178:278|172:254,1,52.5000020027161,2|0,3:1|0:0,0:0:0:0:
6,63,212183,2,0,B|0:35|0:35|12:14,2,52.5000020027161,2|0|0,3:1|0:0|0:0,0:0:0:0:
0,166,212612,2,0,L|161:137,1,157.500006008148,8|0,0:0|0:0,0:0:0:0:
206,62,213183,1,8,0:3:0:0:
261,135,213326,1,8,0:3:0:0:
331,78,213469,1,4,0:3:0:0:
459,335,213755,6,0,B|479:345|479:345|464:264,1,105.000004005432,2|0,3:2|0:0,0:0:0:0:
374,187,214326,2,0,L|316:197,1,52.5000020027161,2|0,3:1|0:0,0:0:0:0:
455,105,214612,1,0,0:0:0:0:
450,83,214755,1,0,3:0:0:0:
312,198,214898,1,8,0:0:0:0:
301,193,215183,5,8,0:3:0:0:
220,216,215326,1,8,0:3:0:0:
138,237,215469,1,8,0:3:0:0:
177,127,215612,5,4,0:3:0:0:
197,130,215755,1,4,0:3:0:0:
217,133,215898,1,4,0:3:0:0:
304,302,216040,6,0,L|355:292,2,52.5000020027161,0|0|0,3:0|0:0|0:0,0:0:0:0:
195,374,216469,6,0,B|219:380|219:380|243:365,1,52.5000020027161,2|0,3:1|0:0,0:0:0:0:
464,126,216755,2,0,B|488:120|488:120|512:135,1,52.5000020027161,2|0,3:1|0:0,0:0:0:0:
398,59,217040,1,0,3:0:0:0:
309,291,217183,6,0,L|484:260,1,157.500006008148,8|0,0:0|0:0,0:0:0:0:
251,364,217755,5,8,0:0:0:0:
190,299,217898,1,0,3:0:0:0:
333,211,218040,5,8,0:0:0:0:
104,358,218183,1,8,0:0:0:0:
76,121,218326,6,0,P|3:130|0:202,1,157.500006008148,2|0,3:2|0:0,0:0:0:0:
75,242,218898,2,0,L|134:233,1,52.5000020027161,2|0,3:1|0:0,0:0:0:0:
209,165,219183,1,0,0:0:0:0:
276,212,219326,1,0,0:0:0:0:
431,64,219468,1,10,0:0:0:0:
424,56,219755,5,8,0:3:0:0:
383,76,219898,1,8,0:3:0:0:
295,103,220040,5,0,0:0:0:0:
257,77,220183,1,0,3:0:0:0:
162,64,220326,5,4,0:3:0:0:
165,18,220469,1,4,0:3:0:0:
67,128,220612,5,0,3:0:0:0:
227,237,220755,2,0,L|236:185,1,52.5000020027161,8|8,0:0|0:0,0:0:0:0:
47,2,221040,2,0,L|56:53,1,52.5000020027161,4|4,0:3|0:3,0:0:0:0:
322,197,221326,6,0,L|331:145,2,52.5000020027161,0|0|8,0:0|0:0|0:3,0:0:0:0:
76,159,221755,1,8,0:3:0:0:
201,382,221898,2,0,L|210:330,1,52.5000020027161
295,282,222183,1,0,0:3:0:0:
247,17,222326,5,10,0:0:0:0:
94,246,222612,5,4,0:3:0:0:
510,160,222898,5,4,0:0:0:0:
510,160,226755,5,0,3:0:0:0:
287,58,226898,1,8,0:0:0:0:
356,143,227040,5,0,3:0:0:0:
442,74,227183,1,0,3:0:0:0:
449,72,227451,6,0,B|428:187|428:187|425:191|425:191|400:329,1,262.500010013581,2|0,3:2|0:0,0:0:0:0:
400,341,227879,1,0,0:0:0:0:
457,200,228022,6,0,B|465:150|465:150|332:173,1,183.750001752377,2|0,3:2|0:0,0:0:0:0:
272,273,228308,2,0,B|252:287|252:287|168:273|168:273|150:286,1,131.25,0|0,3:0|0:0,0:0:0:0:
65,323,228593,6,0,B|37:327|37:327|21:240|21:240|44:236,1,140,10|0,0:0|0:0,0:0:0:0:
132,193,229022,2,0,B|159:188|159:188|175:275|175:275|152:279,1,140,0|0,3:0|0:0,0:0:0:0:
68,317,229451,2,0,L|0:304,1,70,2|0,3:2|0:0,0:0:0:0:
125,187,229736,1,0,3:0:0:0:
114,105,229879,5,8,0:0:0:0:
101,108,230022,1,8,0:0:0:0:
88,111,230165,1,4,0:3:0:0:
176,43,230308,6,0,B|247:55|247:55|254:54|254:54|398:77,1,210,4|0,3:2|0:0,0:0:0:0:
245,26,230593,2,0,L|167:39,1,78.7500030040742,2|0,3:2|0:0,0:0:0:0:
157,37,230879,5,8,0:0:0:0:
23,4,231022,2,0,B|1:30|1:30|9:64,1,70,0|0,3:0|0:0,0:0:0:0:
80,114,231308,1,0,3:0:0:0:
338,62,231451,5,8,0:0:0:0:
222,206,231593,1,0,3:0:0:0:
323,222,231736,5,0,3:0:0:0:
263,292,231879,1,0,3:0:0:0:
478,329,232022,5,8,0:0:0:0:
403,276,232165,1,0,3:0:0:0:
345,346,232308,1,0,3:0:0:0:
270,293,232450,1,0,3:0:0:0:
37,363,232593,6,0,B|59:343|59:343|157:362|157:362|181:339,1,157.500006008148,2|0,3:2|0:0,0:0:0:0:
183,334,232879,1,8,0:0:0:0:
269,305,233022,1,0,3:0:0:0:
481,366,233165,6,0,B|509:336|509:336|488:305,1,78.7500030040742,2|0,3:2|0:0,0:0:0:0:
478,298,233450,1,0,3:0:0:0:
392,327,233593,1,0,3:0:0:0:
512,93,233736,1,8,0:0:0:0:
507,84,234022,5,0,3:0:0:0:
418,117,234165,1,0,3:0:0:0:
446,207,234308,5,8,0:0:0:0:
391,26,234451,1,8,0:0:0:0:
270,177,234593,6,0,B|239:155|239:155|255:117,1,78.7500030040742,0|0,3:0|0:0,0:0:0:0:
261,115,234879,6,0,B|314:164|314:164|283:265|283:265|254:279,1,210,2|0,3:2|0:0,0:0:0:0:
244,283,235165,1,8,0:0:0:0:
123,268,235308,1,0,3:0:0:0:
111,274,235451,2,0,L|7:255,1,105,2|0,3:2|0:0,0:0:0:0:
0,253,235736,6,0,L|68:242,1,70,0|0,3:0|3:0,0:0:0:0:
6,383,236022,1,10,0:0:0:0:
111,147,236165,2,0,L|179:136,2,70,0|0|0,3:0|0:0|0:0,0:0:0:0:
39,35,236593,5,8,0:0:0:0:
30,41,236665,1,8,0:0:0:0:
26,50,236736,2,0,P|20:66|19:85,1,35,8|8,0:3|0:3,0:0:0:0:
117,154,236879,5,8,0:0:0:0:
126,160,236951,1,8,0:0:0:0:
130,169,237022,2,0,P|135:185|136:204,1,35,4|4,0:3|0:3,0:0:0:0:
83,325,237165,6,0,B|42:370|42:370|15:224,1,210,2|0,3:2|0:0,0:0:0:0:
15,214,237451,1,8,0:0:0:0:
153,28,237593,1,0,3:0:0:0:
157,17,237736,6,0,B|124:-2|124:-2|53:29|53:29|46:69,1,157.500006008148,2|0,3:2|0:0,0:0:0:0:
122,175,238022,2,0,B|144:189|144:189|195:166|195:166|199:137,1,105,0|0,3:0|0:0,0:0:0:0:
201,138,238308,6,0,B|244:145|244:145|249:145|249:145|289:151,1,87.5,10|0,0:0|0:0,0:0:0:0:
343,231,238593,1,0,0:0:0:0:
444,90,238736,2,0,B|476:70|476:70|526:111|526:111|496:176,1,175,0|0,3:0|0:0,0:0:0:0:
357,342,239165,2,0,L|338:238,1,105,2|0,3:2|0:0,0:0:0:0:
343,231,239451,5,0,3:0:0:0:
415,169,239593,1,8,0:0:0:0:
353,97,239736,1,8,0:0:0:0:
343,91,239879,1,0,3:0:0:0:
228,155,240022,6,0,B|222:183|222:183|12:145,1,210,4|0,3:2|0:0,0:0:0:0:
161,164,240308,6,0,B|160:160|160:160|245:144,1,78.7500030040742,2|0,3:2|0:0,0:0:0:0:
239,139,240593,1,8,0:0:0:0:
275,26,240736,2,0,B|298:4|298:4|336:7,1,70,0|0,3:0|0:0,0:0:0:0:
330,88,241022,1,0,3:0:0:0:
328,101,241165,5,8,0:0:0:0:
386,251,241308,1,0,3:0:0:0:
498,210,241451,1,8,0:3:0:0:
470,133,241593,1,4,0:3:0:0:
309,190,241736,5,8,0:0:0:0:
270,289,241879,1,0,3:0:0:0:
196,262,242022,1,8,0:3:0:0:
215,211,242165,1,4,0:3:0:0:
386,251,242308,6,0,L|404:354,1,105.000004005432,2|0,3:2|0:0,0:0:0:0:
476,285,242736,1,0,3:0:0:0:
329,177,242879,2,0,B|301:194|301:194|300:231,1,70,2|0,3:2|0:0,0:0:0:0:
495,365,243165,5,0,3:0:0:0:
490,283,243308,1,0,3:0:0:0:
321,354,243451,2,0,L|252:341,1,70,10|0,0:0|0:0,0:0:0:0:
340,178,243736,2,0,L|408:190,1,70,0|0,0:0|3:0,0:0:0:0:
339,50,244022,1,8,0:0:0:0:
249,70,244165,1,8,0:0:0:0:
126,0,244308,6,0,L|160:6,1,35,0|0,3:0|0:0,0:0:0:0:
202,153,244593,6,0,L|236:159,1,35,0|0,3:0|0:0,0:0:0:0:
76,330,244879,6,0,L|45:157,1,175,2|0,3:2|0:0,0:0:0:0:
16,18,245307,2,0,L|23:61,1,43.75,0|0,3:0|0:0,0:0:0:0:
156,87,245450,6,0,L|26:68,1,131.25,4|0,3:2|0:0,0:0:0:0:
39,157,245736,2,0,B|69:189|69:189|109:173,1,87.5,2|0,3:2|0:0,0:0:0:0:
210,4,246021,5,8,0:0:0:0:
223,5,246093,1,8,0:0:0:0:
232,12,246164,2,0,P|249:27|258:47,1,43.75,8|8,0:3|0:3,0:0:0:0:
281,124,246307,5,8,0:0:0:0:
284,136,246379,1,8,0:0:0:0:
293,144,246450,2,0,P|309:157|330:163,1,43.75,8|8,0:3|0:3,0:0:0:0:
419,162,246593,5,8,0:0:0:0:
430,159,246664,1,8,0:0:0:0:
440,152,246736,2,0,P|455:137|464:117,1,43.75,8|8,0:3|0:3,0:0:0:0:
394,42,246879,5,4,0:3:0:0:
381,39,246950,1,4,0:3:0:0:
369,45,247021,1,4,0:3:0:0:
359,54,247093,1,4,0:3:0:0:
356,64,247164,6,0,B|368:132|368:132|366:137|366:137|384:229,1,157.500006008148,4|0,3:2|0:0,0:0:0:0:
386,231,247449,1,8,0:0:0:0:
356,384,247592,1,0,3:0:0:0:
478,232,247735,6,0,B|511:236|511:236|495:346|495:346|430:334,1,210,2|0,3:2|0:0,0:0:0:0:
330,303,248021,2,0,B|255:289|255:289|249:318,1,105,0|0,3:0|0:0,0:0:0:0:
248,328,248306,6,0,L|144:309,1,105.000004005432,10|0,0:0|0:0,0:0:0:0:
104,200,248735,1,0,3:0:0:0:
104,200,248878,2,0,L|181:213,1,78.7500030040742,2|0,0:0|0:0,0:0:0:0:
26,239,249164,6,0,L|181:212,1,157.500006008148,0|0,3:0|0:0,0:0:0:0:
193,212,249449,5,2,3:2:0:0:
226,79,249592,1,8,0:0:0:0:
137,93,249735,1,8,0:0:0:0:
239,76,249878,1,0,3:0:0:0:
86,19,250021,6,0,B|50:1|50:1|0:67|0:67|33:147,1,210,2|0,3:2|0:0,0:0:0:0:
106,207,250306,2,0,B|119:245|119:245|90:271,1,78.7500030040742,0|0,3:0|0:0,0:0:0:0:
83,276,250592,6,0,L|5:289,1,70,8|0,0:0|3:0,0:0:0:0:
168,383,250878,2,0,L|180:314,1,70,0|0,0:0|3:0,0:0:0:0:
269,110,251164,5,8,0:0:0:0:
306,214,251306,1,0,3:0:0:0:
191,233,251449,1,0,3:0:0:0:
200,194,251592,1,0,3:0:0:0:
370,330,251735,5,8,0:0:0:0:
397,252,251878,1,8,0:0:0:0:
311,237,252021,1,2,3:1:0:0:
318,267,252164,1,0,3:0:0:0:
170,348,252306,6,0,B|183:268|183:268|186:263|186:263|199:193,1,157.500006008148,2|0,3:2|0:0,0:0:0:0:
202,183,252591,5,8,0:0:0:0:
133,78,252734,1,0,3:0:0:0:
239,13,252877,2,0,B|275:1|275:1|297:35,1,78.7500030040742,2|0,3:2|0:0,0:0:0:0:
302,47,253163,2,0,L|233:58,1,70,0|0,3:0|0:0,0:0:0:0:
383,102,253448,2,0,L|394:170,2,70,10|0|0,0:0|0:0|0:0,0:0:0:0:
480,41,253877,5,0,3:0:0:0:
482,34,253948,1,0,3:0:0:0:
484,27,254020,1,8,0:0:0:0:
378,93,254163,1,8,0:0:0:0:
478,270,254306,6,0,B|501:255|501:255|510:197|510:197|494:175,1,105,2|0,3:2|0:0,0:0:0:0:
486,176,254591,2,0,B|432:166|432:166|355:228|355:228|299:218,1,210.000008010865,2|8,3:1|0:0,0:0:0:0:
190,84,255020,1,0,3:0:0:0:
181,86,255163,2,0,L|42:109,1,140,2|0,0:0|3:0,0:0:0:0:
35,111,255734,5,8,0:0:0:0:
95,238,255877,1,0,3:0:0:0:
150,15,256020,5,8,0:0:0:0:
95,225,256163,1,0,3:0:0:0:
103,219,256234,1,0,3:0:0:0:
112,214,256306,1,8,0:0:0:0:
242,205,256448,5,2,3:2:0:0:
335,234,256591,1,2,3:2:0:0:
359,143,256734,1,2,3:2:0:0:
161,327,256877,6,0,B|73:311|73:311|69:310|69:310|28:302|28:302|42:221|42:221|99:232,1,262.500010013581,2|0,3:2|0:0,0:0:0:0:
95,234,257306,1,0,3:0:0:0:
172,154,257448,6,0,B|213:170|213:170|225:257|225:257|273:275,1,183.750001752377,2|0,3:2|0:0,0:0:0:0:
296,372,257734,2,0,B|325:346|325:346|438:366,1,131.25,0|0,3:0|0:0,0:0:0:0:
427,363,258020,6,0,B|487:325|487:325|454:256,1,140,10|0,0:0|0:0,0:0:0:0:
373,200,258448,2,0,B|384:132|384:132|385:125|385:125|396:59,1,140,0|0,3:0|0:0,0:0:0:0:
459,9,258877,1,0,3:0:0:0:
292,135,259020,1,8,0:0:0:0:
377,214,259163,5,10,0:0:0:0:
283,132,259306,1,8,0:0:0:0:
110,251,259448,2,0,L|41:238,1,70,8|0,0:0|3:0,0:0:0:0:
29,69,259734,6,0,L|235:32,1,210,4|0,3:2|0:0,0:0:0:0:
103,89,260020,2,0,L|24:75,1,78.7500030040742,2|0,3:2|0:0,0:0:0:0:
22,84,260306,5,8,0:0:0:0:
126,194,260448,1,0,3:0:0:0:
243,106,260591,2,0,B|266:134|266:134|245:161,1,70
72,345,260876,5,8,0:0:0:0:
19,176,261020,1,8,0:0:0:0:
127,279,261163,5,0,3:0:0:0:
148,191,261306,1,0,3:0:0:0:
189,372,261448,5,8,0:0:0:0:
252,168,261591,1,8,0:0:0:0:
367,329,261734,5,2,3:2:0:0:
345,248,261877,1,2,3:2:0:0:
459,384,262020,6,0,B|480:253|480:253|478:248|478:248|502:111,1,262.500010013581,2|0,3:2|0:0,0:0:0:0:
500,117,262448,1,0,3:0:0:0:
312,109,262591,6,0,B|299:40|299:40|360:30,1,131.25,2|0,3:2|0:0,0:0:0:0:
369,34,262877,2,0,L|471:18,1,87.5,0|0,3:0|0:0,0:0:0:0:
264,176,263162,2,0,B|222:169|222:169|218:166|218:166|177:159,1,87.5,10|0,0:0|0:0,0:0:0:0:
122,83,263448,5,0,0:0:0:0:
36,300,263590,1,0,3:0:0:0:
33,309,263661,1,0,3:0:0:0:
30,318,263733,1,8,0:0:0:0:
0,171,263876,1,8,0:0:0:0:
222,262,264019,6,0,L|228:296,1,35,2|0,3:1|0:0,0:0:0:0:
136,346,264305,6,0,L|142:380,1,35,2|0,3:2|0:0,0:0:0:0:
494,224,264590,6,0,L|310:189,1,175,4|0,3:2|0:0,0:0:0:0:
239,150,265019,2,0,L|230:204,1,43.75,2|0,3:2|0:0,0:0:0:0:
344,320,265162,6,0,L|321:190,1,131.25,2|0,3:2|0:0,0:0:0:0:
406,101,265448,2,0,B|438:134|438:134|417:170,1,87.5,0|0,3:0|0:0,0:0:0:0:
189,275,265732,5,8,0:0:0:0:
96,245,266019,1,0,3:0:0:0:
383,12,266305,5,8,0:0:0:0:
476,42,266590,1,0,3:0:0:0:
143,142,266876,5,8,0:0:0:0:
141,137,266948,1,8,0:0:0:0:
140,132,267019,1,8,0:0:0:0:
139,127,267090,1,8,0:0:0:0:
137,122,267162,1,8,0:0:0:0:
136,117,267233,1,8,0:0:0:0:
135,113,267305,1,8,0:0:0:0:
133,108,267376,1,8,0:0:0:0:
131,101,267448,6,0,B|101:106|101:106|96:105|96:105|61:111,1,70,0|8,3:0|0:0,0:0:0:0:
222,90,267733,2,0,B|256:84|256:84|261:86|261:86|291:80,1,70,0|0,3:0|3:0,0:0:0:0:
358,5,268019,1,8,0:0:0:0:
378,93,268162,1,0,3:0:0:0:
467,75,268305,1,0,3:0:0:0:
297,80,268448,2,0,B|283:112|283:112|306:139,2,70,8|0|0,0:0|0:0|3:0,0:0:0:0:
416,216,268876,6,0,B|429:207|429:207|439:154,1,70,0|8,3:0|0:0,0:0:0:0:
407,298,269162,2,0,B|393:306|393:306|383:359,1,70,8|0,0:0|3:0,0:0:0:0:
500,232,269448,1,8,0:0:0:0:
409,219,269590,1,0,0:0:0:0:
318,205,269733,1,0,3:0:0:0:
410,304,269876,2,0,B|418:339|418:339|402:345|402:345|397:330,2,70,8|0|0,0:0|0:0|3:0,0:0:0:0:
268,367,270305,5,0,3:0:0:0:
148,172,270448,1,8,0:0:0:0:
79,229,270590,2,0,B|50:208|50:208|11:217,1,70,0|0,3:0|3:0,0:0:0:0:
193,350,270876,2,0,B|160:358|160:358|131:337,1,70,8|0,0:0|0:0,0:0:0:0:
83,240,271162,1,0,3:0:0:0:
180,39,271305,2,0,L|155:176,1,140,8|0,0:0|0:0,0:0:0:0:
328,263,271733,5,8,3:0:0:0:
366,232,271805,1,8,0:3:0:0:
374,184,271876,1,8,0:3:0:0:
344,144,271948,1,8,0:3:0:0:
296,134,272019,5,8,3:0:0:0:
275,114,272090,1,8,0:3:0:0:
273,85,272162,1,8,0:3:0:0:
291,64,272233,1,8,0:3:0:0:
319,64,272305,5,4,3:0:0:0:
323,58,272376,1,4,0:3:0:0:
327,52,272448,1,4,0:3:0:0:
331,47,272519,1,4,0:3:0:0:
336,42,272590,2,0,L|393:31,3,35,2|4|4|4,3:2|0:3|0:3|0:3,0:0:0:0:
208,147,272876,5,2,3:2:0:0:
162,138,272948,1,4,3:3:0:0:
117,130,273019,1,4,3:3:0:0:
71,123,273090,1,4,3:3:0:0:
49,125,273162,6,0,B|55:82|55:82|53:77|53:77|62:22,1,105.000004005432,4|8,3:2|0:0,0:0:0:0:
120,228,273448,1,0,3:0:0:0:
28,250,273590,1,0,3:0:0:0:
66,380,273733,1,10,0:0:0:0:
156,352,273876,1,0,0:0:0:0:
152,342,274019,1,0,3:0:0:0:
342,331,274162,6,0,B|376:291|376:291|352:244,2,105.000004005432,8|2|0,0:0|0:0|3:0,0:0:0:0:
245,358,274590,1,0,3:0:0:0:
274,181,274733,1,8,0:0:0:0:
180,169,274876,1,10,0:0:0:0:
165,262,275019,1,0,3:0:0:0:
281,178,275162,6,0,B|306:151|306:151|292:77|292:77|229:46|229:46|222:18,1,210.000008010865,8|2,0:0|3:2,0:0:0:0:
121,3,275590,2,0,B|101:15|101:15|91:73|91:73|106:90,1,105.000004005432,0|0,3:0|0:0,0:0:0:0:
186,154,275876,1,0,3:0:0:0:
313,58,276019,5,4,3:2:0:0:
503,85,276162,1,8,0:0:0:0:
407,74,276305,1,8,0:0:0:0:
397,164,276448,1,0,3:0:0:0:
494,177,276590,6,0,B|486:223|486:223|482:227|482:227|472:279,1,105.000004005432,10|0,0:0|0:0,0:0:0:0:
512,365,276876,1,0,3:0:0:0:
285,375,277019,2,0,B|270:323|270:323|306:287,1,105.000004005432,8|0,0:0|0:0,0:0:0:0:
492,168,277305,1,0,3:0:0:0:
399,227,277448,6,0,B|391:204|391:204|311:190,1,105.000004005432,2|0,3:2|0:0,0:0:0:0:
152,144,277733,2,0,B|145:166|145:166|65:180,1,105.000004005432,2|0,3:2|0:0,0:0:0:0:
220,3,278019,2,0,B|251:-3|251:-3|306:54|306:54|244:131,1,210.000008010865,8|0,0:0|0:0,0:0:0:0:
159,135,278448,1,8,0:0:0:0:
77,96,278590,1,2,3:2:0:0:
41,182,278733,1,0,3:0:0:0:
45,324,278875,5,8,3:2:0:0:
79,362,278946,1,8,0:0:0:0:
130,369,279017,1,8,0:0:0:0:
175,341,279089,1,8,0:0:0:0:
190,291,279160,1,8,0:0:0:0:
174,240,279232,1,8,0:0:0:0:
128,211,279303,2,0,P|104:218|79:209,1,52.5000020027161,8|8,3:2|0:0,0:0:0:0:
10,94,279446,5,8,0:0:0:0:
3,86,279517,1,8,0:0:0:0:
0,75,279589,2,0,P|6:49|25:32,1,52.5000020027161,8|8,0:0|0:0,0:0:0:0:
173,14,279732,5,8,0:3:0:0:
183,11,279803,1,8,0:3:0:0:
194,14,279875,2,0,P|213:32|218:57,1,52.5000020027161,4|4,0:3|0:3,0:0:0:0:
321,178,280017,5,8,3:2:0:0:
284,141,280089,1,8,0:0:0:0:
288,90,280160,1,8,0:0:0:0:
327,56,280232,1,8,0:0:0:0:
379,57,280303,1,8,0:0:0:0:
418,93,280375,1,8,0:0:0:0:
416,146,280446,2,0,P|405:169|409:195,1,52.5000020027161,8|8,0:0|0:0,0:0:0:0:
475,341,280589,5,8,0:0:0:0:
489,347,280660,1,8,0:0:0:0:
504,342,280732,2,0,P|489:320|464:311,1,52.5000020027161,8|8,0:3|0:3,0:0:0:0:
303,294,280875,5,4,0:3:0:0:
290,303,280946,1,4,0:3:0:0:
287,318,281017,2,0,P|313:316|333:298,1,52.5000020027161,4|4,0:3|0:3,0:0:0:0:
502,133,281160,5,10,3:2:0:0:
468,79,281232,1,8,0:0:0:0:
407,62,281303,1,8,0:0:0:0:
350,91,281375,1,8,0:0:0:0:
333,151,281446,1,8,0:0:0:0:
316,211,281517,1,8,0:0:0:0:
259,240,281589,1,8,0:0:0:0:
198,223,281660,1,8,0:0:0:0:
179,227,281732,5,8,0:0:0:0:
154,207,281803,1,8,0:0:0:0:
147,175,281875,1,8,0:3:0:0:
166,150,281946,1,8,0:3:0:0:
170,136,282017,5,4,0:3:0:0:
184,130,282089,1,4,0:3:0:0:
199,132,282160,2,0,L|189:183,1,52.5000020027161,0|0,3:0|3:0,0:0:0:0:
116,320,282303,6,0,B|113:298|113:298|114:292|114:292|109:268,1,52.5000020027161,8|0,0:0|3:0,0:0:0:0:
286,279,282446,2,0,B|290:302|290:302|289:309|289:309|293:330,1,52.5000020027161,8|0,0:3|3:0,0:0:0:0:
38,384,282589,2,0,B|21:364|21:364|28:338,1,52.5000020027161,8|0,0:0|3:0,0:0:0:0:
214,114,282732,6,0,B|211:136|211:136|212:142|212:142|207:166,1,52.5000020027161,8|0,0:0|3:0,0:0:0:0:
404,251,282875,2,0,B|408:228|408:228|407:221|407:221|411:200,1,52.5000020027161,4|0,0:3|3:0,0:0:0:0:
145,5,283017,2,0,B|128:25|128:25|135:51,1,52.5000020027161,8|0,0:0|3:0,0:0:0:0:
483,42,283160,5,8,0:0:0:0:
493,308,284588,6,0,B|473:315|473:315|437:295|437:295|395:287,1,105.000004005432,4|8,3:2|0:0,0:0:0:0:
290,353,284873,1,2,3:1:0:0:
290,353,285016,1,2,3:1:0:0:
412,190,285159,2,0,B|375:152|375:152|328:174,1,105.000004005432,8|2,0:0|3:1,0:0:0:0:
138,343,285445,6,0,B|117:359|117:359|131:282,1,105.000004005432,8|0,0:0|3:0,0:0:0:0:
171,121,285730,2,0,B|191:137|191:137|177:60,1,105.000004005432,2|0,0:1|3:0,0:0:0:0:
173,43,285945,1,0,3:0:0:0:
169,27,286016,1,8,0:0:0:0:
76,155,286159,5,0,3:0:0:0:
56,160,286230,1,0,3:0:0:0:
35,165,286302,1,8,0:0:0:0:
130,274,286445,1,8,0:0:0:0:
239,210,286588,6,0,B|288:219|288:219|295:217|295:217|341:226,1,105.000004005432,2|0,3:2|0:0,0:0:0:0:
307,123,286873,1,2,3:1:0:0:
307,123,287016,1,2,3:1:0:0:
233,298,287159,2,0,L|120:278,1,105.000004005432,8|0,0:0|3:0,0:0:0:0:
318,307,287445,6,0,L|331:380,1,70,8|0,0:0|3:0,0:0:0:0:
153,175,287730,2,0,L|140:106,1,70,2|0,0:1|3:0,0:0:0:0:
131,99,287945,1,0,3:0:0:0:
122,93,288016,5,8,0:0:0:0:
319,142,288159,1,0,3:0:0:0:
427,66,288302,1,8,0:0:0:0:
315,135,288445,1,8,0:0:0:0:
501,195,288588,6,0,B|489:247|489:247|485:245|485:245|440:235,2,105.000004005432,2|0|0,3:2|3:0|3:0,0:0:0:0:
293,24,289016,1,2,3:2:0:0:
293,24,289159,2,0,B|311:127,1,105.000004005432,0|0,0:0|3:0,0:0:0:0:
319,305,289445,2,0,B|283:318|283:318|296:244|296:244|336:226,1,157.500006008148,8|0,0:0|0:0,0:0:0:0:
346,223,289730,5,2,3:1:0:0:
441,332,289873,1,8,0:0:0:0:
441,332,289945,1,8,0:0:0:0:
441,332,290016,1,8,0:0:0:0:
360,381,290159,1,8,0:0:0:0:
311,297,290302,1,0,3:2:0:0:
222,324,290445,1,4,3:0:0:0:
50,217,290588,6,0,B|31:268|31:268|70:300,2,105.000004005432,2|8|8,3:2|0:0|0:0,0:0:0:0:
138,116,291016,1,0,3:2:0:0:
160,230,291159,6,0,L|141:127,1,105.000004005432,8|0,0:0|3:0,0:0:0:0:
279,250,291445,2,0,B|296:236|296:236|287:174|287:174|269:167,1,105.000004005432,8|0,0:0|0:0,0:0:0:0:
34,96,291730,5,8,0:0:0:0:
42,54,291826,1,8,0:0:0:0:
80,40,291921,1,8,0:0:0:0:
154,4,292016,5,8,0:3:0:0:
175,7,292111,1,8,0:3:0:0:
181,25,292207,1,8,0:3:0:0:
249,72,292302,5,4,0:3:0:0:
248,83,292397,1,4,0:3:0:0:
239,86,292492,1,4,0:3:0:0:
241,164,292585,6,0,B|232:209|232:209|234:216|234:216|224:268,2,105.000004005432,4|0|0,3:2|3:0|3:0,0:0:0:0:
319,44,293013,1,0,3:0:0:0:
142,118,293156,1,0,3:0:0:0:
142,118,293299,1,0,3:0:0:0:
227,278,293442,6,0,B|268:306|268:306|320:289,1,105.000004005432,8|0,0:0|3:0,0:0:0:0:
393,124,293727,2,0,B|445:107|445:107|487:136,1,105.000004005432,0|0,3:2|3:0,0:0:0:0:
410,318,294013,5,0,3:2:0:0:
420,320,294085,1,0,3:0:0:0:
430,322,294156,1,0,3:0:0:0:
360,218,294299,1,0,3:2:0:0:
395,113,294442,5,0,3:0:0:0:
405,111,294513,1,0,3:0:0:0:
415,109,294585,1,0,3:2:0:0:
346,1,294727,2,0,L|449:18,1,105.000004005432,0|0,3:0|3:0,0:0:0:0:
276,99,295013,5,0,3:2:0:0:
195,120,295156,1,0,3:2:0:0:
114,141,295299,1,0,3:2:0:0:
185,14,295442,2,0,B|206:34|206:34|192:116,1,105.000004005432,8|0,0:0|3:0,0:0:0:0:
138,310,295727,6,0,B|108:341|108:341|99:368|99:368|82:343|82:343|48:323,1,140,0|0,3:2|3:0,0:0:0:0:
300,171,296013,2,0,B|330:202|330:202|339:229|339:229|356:204|356:204|389:184,1,140,8|0,3:2|3:0,0:0:0:0:
239,20,296299,1,8,3:2:0:0:
239,20,296442,1,8,3:2:0:0:
102,342,296584,5,6,3:2:0:0:
21,100,296726,1,0,3:0:0:0:
239,20,296869,1,2,3:2:0:0:
310,215,297012,1,0,3:0:0:0:
489,159,297155,1,2,3:2:0:0:
430,8,297298,1,0,3:0:0:0:
319,247,297441,5,10,3:2:0:0:
183,189,297584,1,0,3:0:0:0:
241,55,297726,1,2,3:2:0:0:
158,39,297869,5,0,3:0:0:0:
117,135,298012,1,2,3:2:0:0:
22,93,298155,1,0,3:0:0:0:
6,173,298298,5,4,3:2:0:0:
61,204,298441,1,0,3:0:0:0:
33,260,298584,1,2,3:2:0:0:
112,274,298726,5,0,3:0:0:0:
125,256,298869,1,2,3:2:0:0:
143,267,299012,1,0,3:0:0:0:
177,197,299155,5,10,3:2:0:0:
246,246,299298,1,0,3:0:0:0:
297,178,299441,1,2,3:2:0:0:
441,384,299584,5,0,3:0:0:0:
310,310,299726,1,2,3:2:0:0:
379,205,299869,1,0,3:0:0:0:
231,96,300012,5,4,3:2:0:0:
159,92,300084,1,0,3:0:0:0:
99,132,300155,1,0,3:0:0:0:
72,198,300226,1,0,3:0:0:0:
96,266,300298,1,0,3:0:0:0:
152,300,300369,1,0,3:0:0:0:
213,297,300441,1,2,3:2:0:0:
257,263,300512,1,0,3:0:0:0:
275,215,300584,1,0,3:0:0:0:
303,183,300655,1,0,3:0:0:0:
334,175,300726,1,0,3:0:0:0:
356,181,300798,1,0,3:0:0:0:
367,190,300869,5,8,3:2:0:0:
332,237,300941,1,0,3:0:0:0:
276,244,301012,1,0,3:0:0:0:
222,225,301084,1,0,3:0:0:0:
170,204,301155,1,0,3:0:0:0:
114,212,301226,1,0,3:0:0:0:
71,249,301298,5,2,3:2:0:0:
98,217,301369,1,0,3:0:0:0:
114,178,301441,1,0,3:0:0:0:
119,136,301512,1,0,3:0:0:0:
113,93,301584,1,0,3:0:0:0:
98,54,301654,1,0,3:0:0:0:
69,23,301726,5,2,3:2:0:0:
62,31,301798,1,0,3:0:0:0:
61,41,301869,1,0,3:0:0:0:
64,50,301941,1,0,3:0:0:0:
72,55,302012,1,0,3:0:0:0:
82,57,302084,1,0,3:0:0:0:
92,55,302155,5,2,3:2:0:0:
118,32,302226,1,0,3:0:0:0:
152,23,302298,1,0,3:0:0:0:
185,33,302369,1,0,3:0:0:0:
209,57,302441,1,0,3:0:0:0:
214,91,302512,1,0,3:0:0:0:
200,123,302584,5,8,3:2:0:0:
176,97,302655,1,0,3:0:0:0:
185,59,302726,1,0,3:0:0:0:
221,36,302798,1,0,3:0:0:0:
265,44,302869,1,0,3:0:0:0:
297,80,302941,1,0,3:0:0:0:
301,132,303012,1,2,3:2:0:0:
272,180,303084,1,0,3:0:0:0:
220,208,303155,1,0,3:0:0:0:
189,262,303226,1,0,3:0:0:0:
200,324,303298,1,0,3:0:0:0:
245,366,303369,1,0,3:0:0:0:
311,374,303441,6,0,B|325:352|325:352|393:340,1,87.5,4|0,3:2|3:0,0:0:0:0:
468,372,303726,1,0,0:0:0:0:
508,213,303869,2,0,B|470:219|470:219|464:217|464:217|421:223,1,87.5,8|0,0:0|0:0,0:0:0:0:
318,262,304155,5,0,3:0:0:0:
318,262,304298,2,0,B|290:226|290:226|315:192,1,87.5,0|0,3:2|3:0,0:0:0:0:
424,42,304583,1,8,0:0:0:0:
327,157,304869,5,0,3:2:0:0:
323,169,304941,1,0,3:0:0:0:
320,181,305012,1,0,3:0:0:0:
236,154,305155,1,0,3:2:0:0:
208,237,305298,1,0,3:0:0:0:
125,210,305441,1,0,3:0:0:0:
153,127,305583,1,0,3:0:0:0:
156,115,305655,1,0,3:0:0:0:
160,103,305726,1,0,3:0:0:0:
83,60,305869,1,0,3:0:0:0:
166,86,306012,1,0,3:0:0:0:
0,128,306155,5,8,0:0:0:0:
0,128,306298,2,0,B|12:136|12:136|25:207,1,87.5,0|0,3:0|0:0,0:0:0:0:
163,346,306583,2,0,B|154:334|154:334|166:263,1,87.5,0|0,3:0|0:0,0:0:0:0:
260,190,306869,6,0,B|284:227|284:227|261:264,1,87.5,8|8,0:0|0:3,0:0:0:0:
74,383,307155,2,0,B|50:346|50:346|72:308,1,87.5,4|4,0:3|0:3,0:0:0:0:
218,110,307441,5,8,0:0:0:0:
237,25,307583,1,0,3:0:0:0:
322,44,307726,1,0,3:0:0:0:
303,129,307869,1,8,0:0:0:0:
133,159,308012,6,0,B|46:143,1,87.5,2|0,3:2|3:0,0:0:0:0:
0,216,308298,1,0,3:0:0:0:
146,4,308441,2,0,B|171:38|171:38|156:81,1,87.5,8|0,0:0|0:0,0:0:0:0:
0,217,308726,5,0,0:0:0:0:
0,217,308869,2,0,B|-14:259|-14:259|10:294,1,87.5,0|0,3:0|3:0,0:0:0:0:
173,257,309155,1,8,0:0:0:0:
182,262,309441,5,0,3:0:0:0:
179,274,309512,1,0,3:0:0:0:
177,285,309583,1,0,3:0:0:0:
283,268,309726,2,0,L|271:199,1,70,0|0,3:2|3:0,0:0:0:0:
383,249,310012,1,0,3:0:0:0:
477,233,310155,1,0,3:2:0:0:
480,221,310226,1,0,3:0:0:0:
482,210,310298,1,0,3:0:0:0:
498,322,310441,1,0,3:0:0:0:
401,342,310583,1,0,3:0:0:0:
271,199,310726,6,0,B|244:207|244:207|229:288|229:288|202:296,1,140,8|0,0:0|0:0,0:0:0:0:
93,213,311155,2,0,B|127:202|127:202|154:222,1,70,0|0,3:2|3:0,0:0:0:0:
25,381,311441,5,8,0:0:0:0:
193,301,311583,1,0,3:0:0:0:
140,371,311726,1,8,0:3:0:0:
79,309,311869,1,4,0:3:0:0:
304,278,312012,5,10,0:0:0:0:
308,293,312155,1,0,3:0:0:0:
404,363,312298,1,8,0:3:0:0:
181,186,312441,1,4,0:3:0:0:
475,58,312583,5,4,3:2:0:0:
399,270,312726,1,8,0:0:0:0:
449,134,312869,1,8,0:0:0:0:
325,191,313012,5,2,3:2:0:0:
278,40,313155,1,8,0:0:0:0:
322,178,313298,1,8,0:0:0:0:
155,77,313441,5,0,3:0:0:0:
89,288,313583,1,8,0:0:0:0:
121,175,313726,1,8,0:0:0:0:
173,343,313869,5,2,3:2:0:0:
9,237,314012,1,0,3:0:0:0:
219,142,314155,1,8,0:3:0:0:
220,154,314226,1,8,0:3:0:0:
223,166,314298,2,0,L|228:190,1,21.875,8|8,0:3|0:0,0:0:0:0:
120,164,314441,6,0,L|135:77,1,87.5,4|4,0:3|0:3,0:0:0:0:
312,219,314726,1,8,0:0:0:0:
25,240,314869,6,0,B|18:277|18:277|15:284|15:284|7:325,1,87.5,4|8,3:2|0:0,0:0:0:0:
0,156,315155,1,8,0:0:0:0:
219,142,315298,6,0,B|225:104|225:104|228:97|228:97|236:56,1,87.5,2|8,3:2|0:0,0:0:0:0:
244,226,315583,1,8,0:0:0:0:
109,144,315726,6,0,B|123:165|123:165|118:210|118:210|129:222,1,87.5,2|8,3:2|0:0,0:0:0:0:
81,66,316012,1,8,0:0:0:0:
59,293,316155,5,2,3:2:0:0:
211,146,316298,1,8,0:0:0:0:
329,221,316441,1,8,0:0:0:0:
341,218,316512,1,8,0:0:0:0:
353,215,316583,2,0,L|457:196,1,87.5,8|0,0:0|3:0,0:0:0:0:
219,57,316869,1,8,0:0:0:0:
230,60,317155,5,10,3:2:0:0:
293,39,317226,1,0,3:0:0:0:
356,61,317298,1,10,3:2:0:0:
380,121,317369,1,0,3:0:0:0:
357,182,317441,1,10,3:2:0:0:
302,215,317512,1,0,3:0:0:0:
240,197,317583,1,10,3:2:0:0:
192,151,317655,1,0,3:0:0:0:
128,144,317726,1,10,3:2:0:0:
68,171,317798,1,0,3:0:0:0:
42,230,317869,1,10,3:2:0:0:
59,293,317941,1,0,3:0:0:0:
113,330,318012,1,10,3:2:0:0:
179,332,318083,1,0,3:0:0:0:
231,289,318155,1,10,3:2:0:0:
296,279,318226,1,0,3:0:0:0:
352,314,318298,6,0,P|365:332|371:353,1,43.75,8|0,3:2|3:0,0:0:0:0:
219,279,318441,2,0,P|225:257|238:240,1,43.75,8|0,3:2|3:0,0:0:0:0:
391,163,318583,6,0,P|379:145|373:124,1,43.75,8|0,3:2|3:0,0:0:0:0:
279,58,318726,2,0,P|274:79|261:96,1,43.75,8|0,3:2|3:0,0:0:0:0:
155,165,318869,5,2,3:2:0:0:
115,183,318941,1,8,0:0:0:0:
72,179,319012,1,8,0:0:0:0:
39,151,319083,1,8,0:0:0:0:
27,153,319155,5,8,0:0:0:0:
3,92,319226,1,8,0:0:0:0:
28,30,319298,1,8,0:0:0:0:
86,11,319369,1,8,0:0:0:0:
135,31,319441,6,0,B|119:67|119:67|139:96,1,70,4|0,3:2|0:0,0:0:0:0:
288,68,319726,1,0,3:0:0:0:
288,68,319869,2,0,B|283:40|283:40|280:34|280:34|274:-1,1,70,2|0,3:1|0:0,0:0:0:0:
348,136,320155,5,2,3:1:0:0:
262,299,320298,1,8,0:0:0:0:
340,364,320441,1,0,0:0:0:0:
249,298,320583,6,0,L|237:230,1,70,2|0,0:1|3:0,0:0:0:0:
235,218,320798,1,0,3:0:0:0:
234,207,320869,1,8,0:0:0:0:
159,276,321012,1,0,3:0:0:0:
328,223,321155,2,0,B|341:189|341:189|319:165,1,70,8|0,0:0|0:0,0:0:0:0:
122,104,321441,5,0,0:0:0:0:
122,104,321583,2,0,B|127:132|127:132|130:138|130:138|136:173,1,70,2|0,3:1|0:0,0:0:0:0:
13,307,321869,2,0,B|27:227,1,70,2|0,3:1|0:0,0:0:0:0:
193,236,322155,5,0,3:0:0:0:
196,245,322226,1,0,3:0:0:0:
198,255,322298,1,10,0:0:0:0:
288,264,322441,1,0,3:0:0:0:
312,351,322583,1,8,3:0:0:0:
401,369,322726,1,4,3:0:0:0:
409,379,322869,6,0,L|424:292,1,87.5,4|0,3:2|0:0,0:0:0:0:
286,111,323154,1,2,3:2:0:0:
464,172,323297,2,0,B|463:194|463:194|397:165|397:165|404:123,1,131.25,2|0,3:2|0:0,0:0:0:0:
404,35,323583,2,0,B|389:110|389:110|385:114|385:114|369:205,1,175,2|0,3:2|3:0,0:0:0:0:
194,56,324011,5,10,0:0:0:0:
274,288,324154,1,0,3:0:0:0:
153,221,324297,1,0,0:0:0:0:
232,192,324440,1,0,3:0:0:0:
239,188,324511,1,0,3:0:0:0:
246,184,324583,1,8,0:0:0:0:
93,74,324726,6,0,B|105:44|105:44|172:32|172:32|193:55,1,131.25,0|0,3:0|0:0,0:0:0:0:
195,64,325011,2,0,L|186:107,1,43.75,0|0,3:0|0:0,0:0:0:0:
47,190,325154,5,8,0:0:0:0:
223,352,325297,1,0,3:0:0:0:
174,226,325440,5,8,0:0:0:0:
67,293,325583,1,0,3:0:0:0:
14,70,325726,5,8,0:0:0:0:
99,91,325869,1,0,3:0:0:0:
176,210,326011,5,8,0:0:0:0:
374,249,326154,1,8,3:2:0:0:
434,182,326297,6,0,B|474:178|474:178|493:201,1,70,12|0,3:2|3:0,0:0:0:0:
220,319,326583,2,0,B|187:313|187:313|182:311|182:311|148:305,1,70,8|8,0:0|0:0,0:0:0:0:
255,193,328440,5,0,0:0:0:0:
263,196,328583,2,0,B|294:201|294:201|299:203|299:203|331:209,1,70,0|0,0:0|3:0,0:0:0:0:
184,340,328869,1,8,3:2:0:0:
176,335,329154,5,8,0:0:0:0:
73,130,329297,1,8,0:0:0:0:
33,219,329438,5,4,3:2:0:0:
124,241,329580,1,0,0:0:0:0:
213,104,329723,2,0,L|281:116,2,70,2|0|0,0:0|0:0|3:0,0:0:0:0:
159,10,330152,1,0,3:0:0:0:
73,130,330295,2,0,B|61:91|61:91|80:68,1,70,10|0,0:0|0:0,0:0:0:0:
312,45,330580,5,0,3:0:0:0:
252,190,330722,1,0,3:0:0:0:
414,146,330865,5,8,0:0:0:0:
404,125,331008,1,0,3:0:0:0:
495,187,331151,5,8,0:0:0:0:
512,111,331294,1,4,0:3:0:0:
385,229,331437,5,0,3:0:0:0:
432,29,331580,1,8,0:0:0:0:
298,151,331722,5,0,3:2:0:0:
315,75,331865,1,8,0:0:0:0:
307,69,332008,6,0,L|294:0,1,70,2|8,3:2|0:0,0:0:0:0:
145,85,332293,2,0,B|149:108|149:108|201:128|201:128|205:153,1,105.000004005432,0|0,3:2|3:0,0:0:0:0:
230,302,332579,5,8,0:0:0:0:
230,302,332722,2,0,B|178:317|178:317|148:275,1,105.000004005432,8|0,0:0|3:2,0:0:0:0:
0,127,333008,6,0,B|88:142|88:142|108:137|108:137|206:154,1,210.000008010865,8|8,0:0|0:3,0:0:0:0:
282,219,333436,1,4,0:3:0:0:
311,98,333579,1,8,0:0:0:0:
321,94,333650,1,8,0:0:0:0:
331,90,333722,1,8,0:0:0:0:
290,6,333865,1,8,0:0:0:0:
205,39,334008,1,8,0:0:0:0:
194,45,334150,1,8,0:3:0:0:
95,23,334293,5,8,0:3:0:0:
42,17,334365,1,0,0:0:0:0:
3,44,334436,1,8,0:3:0:0:
1,86,334508,1,0,0:0:0:0:
16,113,334579,1,4,0:3:0:0:
38,125,334650,1,0,0:0:0:0:
59,127,334722,2,0,P|84:129|107:142,1,52.5000020027161,4|0,0:3|0:0,0:0:0:0:
189,191,334865,5,8,0:3:0:0:
223,240,334936,1,0,0:0:0:0:
219,295,335008,1,8,0:3:0:0:
176,321,335079,1,0,0:0:0:0:
141,321,335150,1,4,0:3:0:0:
116,305,335222,1,0,0:0:0:0:
101,284,335293,2,0,P|84:258|57:243,1,52.5000020027161,4|0,0:3|0:0,0:0:0:0:
27,333,335436,6,0,B|42:244|42:244|41:238|41:238|58:126,1,210.000008010865,4|0,3:2|0:0,0:0:0:0:
232,24,335865,2,0,B|217:20|217:20|128:42,1,105.000004005432,2|0,3:2|0:0,0:0:0:0:
368,159,336150,2,0,B|379:168|379:168|469:186,1,105.000004005432,2|0,3:2|0:0,0:0:0:0:
293,99,336436,5,0,3:0:0:0:
283,103,336508,1,0,3:0:0:0:
273,107,336579,1,8,0:0:0:0:
373,156,336722,2,0,B|398:127|398:127|389:96,1,70,0|2,3:0|0:1,0:0:0:0:
195,136,337008,1,0,3:0:0:0:
323,19,337150,5,8,0:0:0:0:
395,272,337293,1,0,3:0:0:0:
234,221,337436,5,8,0:3:0:0:
202,298,337579,1,4,0:3:0:0:
472,195,337722,5,8,0:0:0:0:
418,384,337865,1,0,3:0:0:0:
297,285,338008,5,8,0:3:0:0:
286,310,338150,1,4,0:3:0:0:
184,114,338293,1,8,3:2:0:0:
153,105,341578,6,0,P|128:95|102:97,1,52.5000020027161,0|0,3:0|3:0,0:0:0:0:
48,195,341721,1,8,3:2:0:0:
57,226,341793,1,8,0:3:0:0:
81,248,341864,1,8,0:3:0:0:
112,252,341935,1,8,0:3:0:0:
142,243,342007,2,0,P|162:227|173:204,1,52.5000020027161,4|4,0:3|0:3,0:0:0:0:
269,157,342150,2,0,P|248:141|237:118,1,52.5000020027161,0|8,0:0|3:2,0:0:0:0:
281,8,342293,2,0,P|305:-2|330:0,1,52.5000020027161,8|8,0:3|0:3,0:0:0:0:
406,86,342435,5,2,3:1:0:0:
410,88,342507,1,2,3:1:0:0:
415,89,342578,1,2,3:1:0:0:
512,323,342864,6,0,B|471:315|471:315|456:321|456:321|410:312,1,105,4|0,3:2|3:0,0:0:0:0:
391,190,343150,1,0,3:0:0:0:
376,187,343293,2,0,B|307:174|307:174|279:163|279:163|285:189|285:189|270:272,2,210.000008010865,0|0|0,3:0|3:0|3:0,0:0:0:0:
462,125,344007,5,10,0:0:0:0:
403,307,344150,2,0,B|410:354|410:354|221:390,1,210.000008010865,0|8,3:0|0:0,0:0:0:0:
116,342,344578,5,2,3:2:0:0:
39,357,344721,1,0,3:0:0:0:
16,241,344864,1,0,3:0:0:0:
190,206,345007,1,0,3:0:0:0:
201,205,345150,5,2,0:0:0:0:
173,110,345293,1,0,3:0:0:0:
185,111,345435,2,0,B|211:115|211:115|219:113|219:113|254:120,1,70,0|0,3:0|3:0,0:0:0:0:
309,31,345721,5,2,3:2:0:0:
309,31,345864,1,0,3:0:0:0:
232,15,346007,2,0,B|197:8|197:8|189:10|189:10|164:5,1,70,0|0,3:0|0:0,0:0:0:0:
391,44,346293,5,10,0:0:0:0:
311,244,346435,2,0,B|267:232|267:232|247:119|247:119|199:109,1,210.000008010865,0|0,3:0|3:0,0:0:0:0:
199,115,346793,1,0,3:0:0:0:
199,120,346864,5,8,0:0:0:0:
114,144,347007,1,0,3:0:0:0:
70,38,347150,1,0,3:0:0:0:
199,0,347293,1,0,3:0:0:0:
321,74,347435,5,4,3:2:0:0:
413,49,347578,1,0,3:0:0:0:
313,82,347720,2,0,B|323:138|323:138|348:151|348:151|360:218,1,140,0|2,3:0|0:0,0:0:0:0:
219,355,348150,6,0,B|176:368|176:368|147:313|147:313|197:254,1,183.750001752377,8|0,0:0|0:0,0:0:0:0:
198,244,348435,2,0,B|262:220|262:220|296:273,1,131.25,0|0,3:0|0:0,0:0:0:0:
303,285,348721,6,0,L|353:291,1,43.75,8|0,0:0|0:0,0:0:0:0:
488,312,349007,6,0,L|445:304,1,43.75,4|4,0:3|0:3,0:0:0:0:
435,301,349150,1,8,0:0:0:0:
464,229,349293,1,0,3:0:0:0:
496,69,349435,2,0,L|483:0,1,70,0|2,3:0|0:0,0:0:0:0:
457,225,349864,5,8,0:0:0:0:
478,151,350007,1,0,3:0:0:0:
497,76,350150,1,0,0:0:0:0:
451,220,350293,5,10,0:0:0:0:
250,166,350435,1,0,0:0:0:0:
174,223,350578,2,0,B|137:223|137:223|116:197,1,70,0|0,0:0|3:0,0:0:0:0:
114,190,350793,1,0,3:0:0:0:
112,183,350864,5,8,0:0:0:0:
151,45,351007,1,8,0:0:0:0:
153,39,351078,1,8,0:0:0:0:
155,33,351150,5,8,0:0:0:0:
66,11,351293,1,8,0:0:0:0:
46,99,351435,1,8,0:0:0:0:
267,145,351578,5,8,0:3:0:0:
293,63,351721,1,8,0:3:0:0:
160,26,351864,1,2,3:2:0:0:
86,290,352007,1,4,3:2:0:0:
256,192,352078,12,0,355435,0:0:0:0:
