osu file format v14

[General]
AudioFilename: Avenged Sevenfold - So Far Away.mp3
AudioLeadIn: 0
PreviewTime: 89648
Countdown: 0
SampleSet: Soft
StackLeniency: 0.7
Mode: 2
LetterboxInBreaks: 0
WidescreenStoryboard: 1

[Editor]
Bookmarks: 1425,17214,33003,58267,74056,89846,102477,115109,143530,171951,184582,197214,203530,209994,222966,235970,262735
DistanceSpacing: 1.4
BeatDivisor: 4
GridSize: 8
TimelineZoom: 1.450006

[Metadata]
Title:So Far Away
TitleUnicode:So Far Away
Artist:Avenged Sevenfold
ArtistUnicode:Avenged Sevenfold
Creator:chickenbible
Version:Nightmare
Source:
Tags:Jimmy the rev Sullivan a7x crowley Synyster Gates M. Shadows Zacky Vengeance Jonny Christ
BeatmapID:1732186
BeatmapSetID:826551

[Difficulty]
HPDrainRate:6
CircleSize:4
OverallDifficulty:8.9
ApproachRate:8.9
SliderMultiplier:1.8
SliderTickRate:1

[Events]
//Background and Video events
0,0,"save me.jpg",0,0
//Break Periods
2,208467,209379
//Storyboard Layer 0 (Background)
//Storyboard Layer 1 (Fail)
//Storyboard Layer 2 (Pass)
//Storyboard Layer 3 (Foreground)
//Storyboard Sound Samples

[TimingPoints]
1425,394.736842105263,4,2,2,50,1,0
3793,-100,4,2,1,50,0,0
7543,-100,4,2,2,50,0,0
7740,-100,4,2,1,50,0,0
17017,-66.6666666666667,4,2,1,50,0,0
17609,-100,4,2,1,50,0,0
20174,-100,4,2,2,30,0,0
20372,-100,4,2,1,50,0,0
33003,-80,4,2,1,65,0,1
58267,-100,4,2,1,50,0,0
89846,-80,4,2,1,65,0,1
113924,-80,4,2,1,40,0,1
114122,-80,4,2,1,42,0,1
114319,-80,4,2,1,44,0,1
114517,-80,4,2,1,46,0,1
114911,-80,4,2,1,48,0,1
115109,-100,4,2,1,50,0,0
171951,-80,4,2,1,65,0,1
203530,-80,4,2,1,65,0,0
203727,-66.6666666666667,4,2,1,40,0,0
204319,-66.6666666666667,4,2,1,35,0,0
205109,-66.6666666666667,4,2,1,30,0,0
205898,-66.6666666666667,4,2,1,25,0,0
206688,-66.6666666666667,4,2,1,20,0,0
207477,-66.6666666666667,4,2,1,15,0,0
208267,-80,4,2,80,10,0,0
209994,405.405405405405,4,2,2,25,1,0
209994,-100,4,2,2,25,0,0
211252,405.405405405405,4,2,2,25,1,0
213237,405.405405405405,4,2,2,25,1,0
219759,405.405405405405,4,2,2,25,1,0
222966,405.405405405405,4,2,2,50,1,0
223371,425.531914893617,4,2,2,25,1,0
224222,410.958904109589,4,2,2,25,1,0
225450,405.405405405405,4,2,2,25,1,0
226259,408.163265306122,4,2,2,25,1,0
229503,389.61038961039,4,2,2,25,1,0
231123,405.405405405405,4,2,2,25,1,0
232727,405.405405405405,4,2,2,40,1,0
232727,-100,4,2,2,40,0,0
234348,-100,4,2,2,30,0,0
234551,-100,4,2,2,30,0,0
234754,-100,4,2,2,35,0,0
235159,-100,4,2,2,40,0,0
235564,-100,4,2,2,45,0,0
235666,-100,4,2,2,30,0,0
235767,-100,4,2,2,45,0,0
235868,-100,4,2,1,35,0,0
235970,-100,4,2,1,50,0,0
268402,-80,4,2,1,65,0,1
311983,-80,4,2,2,65,0,1
312389,-80,4,2,1,65,0,1
315429,-100,4,2,1,50,0,0
316311,428.571428571429,4,2,1,50,1,0
316311,-100,4,2,1,50,0,0
317382,789.473684210526,4,2,1,45,1,0
317382,-166.666666666667,4,2,1,45,0,0
318171,-166.666666666667,4,2,1,40,0,0
318960,-166.666666666667,4,2,1,35,0,0
319750,-166.666666666667,4,2,1,30,0,0
320539,-166.666666666667,4,2,1,25,0,0
321329,-166.666666666667,4,2,1,20,0,0
322118,-166.666666666667,4,2,80,15,0,0

[Colours]
Combo1 : 253,104,104
Combo2 : 140,154,189
Combo3 : 128,64,64
Combo4 : 181,155,138

[HitObjects]
128,192,1425,5,12,0:0:0:0:
320,192,3793,6,0,L|359:98,1,90,6|2,0:0|0:0,0:0:0:0:
200,136,4385,2,0,L|145:231,1,90,2|6,0:0|0:0,0:0:0:0:
367,181,6951,6,0,L|367:83,1,90,8|8,0:0|0:3,0:0:0:0:
248,108,7346,2,0,L|344:108,1,90,2|2,0:0|0:0,0:0:0:0:
73,108,7740,2,0,L|255:171,2,180,6|0|8,0:0|0:0|0:0,0:0:0:0:
222,163,8924,2,0,L|121:163,1,90
394,103,9319,6,0,L|219:162,2,180,2|2|8,0:0|0:0|0:0,0:0:0:0:
475,100,10306,1,0,0:0:0:0:
481,41,10503,1,0,0:0:0:0:
422,27,10701,1,0,0:0:0:0:
260,74,10898,6,0,L|79:134,2,180,2|0|8,0:0|0:0|0:0,0:0:0:0:
97,197,12082,2,0,P|32:152|117:18,1,270,6|0,0:0|0:0,0:0:0:0:
200,104,12872,1,0,0:0:0:0:
98,103,13069,1,2,0:0:0:0:
240,104,13267,5,8,0:0:0:0:
304,48,13464,1,0,0:0:0:0:
160,104,13661,1,8,0:0:0:0:
96,48,13859,1,8,0:0:0:0:
376,48,14056,5,6,0:0:0:0:
176,136,16424,2,0,L|120:37,1,90,6|2,0:0|0:0,0:0:0:0:
296,64,17017,2,0,L|161:146,2,135.000005149842,2|0|0,0:0|0:0|0:0,0:0:0:0:
88,104,18793,5,8,0:0:0:0:
256,104,19188,1,8,0:3:0:0:
56,112,19582,2,0,L|56:5,1,90,8|8,0:0|0:3,0:0:0:0:
176,47,19977,2,0,L|71:47,1,90,2|2,0:0|0:0,0:0:0:0:
356,47,20372,6,0,L|176:108,2,180,6|0|8,0:0|0:0|0:0,0:0:0:0:
196,47,21556,2,0,L|196:139,1,90
467,48,21951,2,0,L|284:48,1,180,2|2,0:0|0:0,0:0:0:0:
392,48,22543,1,0,0:0:0:0:
288,112,22740,5,8,0:0:0:0:
229,110,22938,1,0,0:0:0:0:
227,51,23135,1,0,0:0:0:0:
286,47,23332,1,0,0:0:0:0:
120,56,23530,6,0,L|296:127,2,180,2|0|8,0:0|0:0|0:0,0:0:0:0:
184,56,24517,1,0,0:0:0:0:
378,185,24714,2,0,P|450:161|369:46,1,270,6|0,0:0|0:0,0:0:0:0:
279,127,25503,1,0,0:0:0:0:
381,126,25701,1,2,0:0:0:0:
199,127,25898,5,8,0:0:0:0:
135,71,26096,1,0,0:0:0:0:
293,126,26293,1,8,0:0:0:0:
357,70,26490,1,8,0:0:0:0:
77,70,26688,6,0,L|258:133,2,180,6|0|8,0:0|0:0|0:0,0:0:0:0:
257,70,27872,2,0,L|153:70,2,90,0|2|2,0:0|0:0|0:0,0:0:0:0:
72,80,28661,1,2,0:0:0:0:
254,121,29056,2,0,P|320:80|352:-18,1,180,8|0,0:0|0:0,0:0:0:0:
119,144,29846,6,0,P|72:96|54:-21,1,180,6|0,0:0|0:0,0:0:0:0:
224,56,30635,1,8,0:0:0:0:
64,120,31030,2,0,L|65:13,1,90
168,56,31424,5,2,0:0:0:0:
256,56,31622,1,0,0:0:0:0:
168,56,31819,1,0,0:0:0:0:
80,56,32017,1,2,0:0:0:0:
340,165,32214,2,0,L|340:70,1,90,8|0,0:0|0:0,0:0:0:0:
75,156,32609,2,0,L|171:156,1,90,8|8,0:0|0:0,0:0:0:0:
448,88,33003,6,0,L|321:88,2,112.5,6|0|0,0:0|0:0|0:0,0:0:0:0:
200,168,33793,2,0,P|144:128|208:12,1,225,8|0,0:0|0:0,0:0:0:0:
313,72,34385,1,0,0:0:0:0:
200,168,34582,6,0,L|85:168,1,112.5,2|0,0:0|0:0,0:0:0:0:
232,72,34977,2,0,L|351:72,1,112.5,2|0,0:0|0:0,0:0:0:0:
52,62,35372,2,0,L|219:115,2,168.75,8|0|0,0:0|0:0|0:0,0:0:0:0:
336,132,36161,6,0,L|113:195,2,225,2|0|8,0:0|0:0|0:0,0:0:0:0:
128,140,37346,2,0,L|128:19,1,112.5
248,60,37740,2,0,L|363:60,2,112.5,2|0|2,0:0|0:0|0:0,0:0:0:0:
48,140,38530,2,0,L|48:20,1,112.5,8|0,0:0|0:0,0:0:0:0:
160,140,38924,2,0,L|43:140,1,112.5
384,56,39319,6,0,L|163:122,2,225,2|0|8,0:0|0:0|0:0,0:0:0:0:
184,152,40503,2,0,L|184:35,1,112.5
304,72,40898,2,0,L|422:72,2,112.5,2|0|2,0:0|0:0|0:0,0:0:0:0:
104,176,41688,5,8,0:0:0:0:
29,167,41885,1,0,0:0:0:0:
27,92,42082,1,0,0:0:0:0:
101,79,42280,1,0,0:0:0:0:
263,79,42477,6,0,L|37:79,1,225,2|0,0:0|0:0,0:0:0:0:
161,79,43069,1,0,0:0:0:0:
337,184,43267,2,0,P|404:114|304:79,1,225,8|0,0:0|0:0,0:0:0:0:
224,80,43859,1,0,0:0:0:0:
344,80,44056,6,0,L|461:80,1,112.5,2|0,0:0|0:0,0:0:0:0:
304,16,44451,2,0,L|436:16,1,112.5,0|2,0:0|0:0,0:0:0:0:
96,144,44846,2,0,L|96:29,1,112.5,8|0,0:0|0:0,0:0:0:0:
360,136,45240,2,0,L|476:136,1,112.5,8|8,0:0|0:0,0:0:0:0:
112,136,45635,6,0,L|341:206,2,225,6|0|8,0:0|0:0|0:0,0:0:0:0:
320,128,46819,2,0,L|320:256,1,112.5
200,128,47214,2,0,L|200:253,1,112.5,2|0,0:0|0:0,0:0:0:0:
336,128,47609,1,2,0:0:0:0:
96,128,48003,6,0,L|96:10,1,112.5,8|0,0:0|0:0,0:0:0:0:
208,48,48398,2,0,L|86:48,1,112.5
392,48,48793,6,0,L|170:127,2,225,2|0|8,0:0|0:0|0:0,0:0:0:0:
176,104,49977,2,0,L|176:-15,1,112.5
288,24,50372,2,0,L|419:24,2,112.5,2|0|2,0:0|0:0|0:0,0:0:0:0:
62,25,51161,2,0,L|180:24,1,112.5,8|0,0:0|0:0,0:0:0:0:
288,136,51556,2,0,L|288:20,1,112.5
112,224,51951,6,0,P|37:187|121:113,1,225,2|0,0:0|0:0,0:0:0:0:
192,128,52543,1,0,0:0:0:0:
352,224,52740,6,0,P|424:151|336:98,1,225,8|0,0:0|0:0,0:0:0:0:
272,128,53332,1,0,0:0:0:0:
144,184,53530,2,0,L|259:184,2,112.5,2|0|2,0:0|0:0|0:0,0:0:0:0:
376,112,54319,2,0,L|376:229,1,112.5,8|0,0:0|0:0,0:0:0:0:
264,112,54714,2,0,P|191:122|171:44,1,168.75
308,134,55109,6,0,P|385:154|453:38,1,225,2|0,0:0|0:0,0:0:0:0:
360,48,55701,1,0,0:0:0:0:
480,48,55898,2,0,L|256:143,1,225,8|0,0:0|0:0,0:0:0:0:
396,46,56490,1,0,0:0:0:0:
136,128,56688,6,0,L|136:10,1,112.5,2|0,0:0|0:0,0:0:0:0:
396,46,57082,2,0,L|511:46,1,112.5,2|2,0:0|0:0,0:0:0:0:
216,120,57477,1,8,0:0:0:0:
355,118,57674,1,0,0:0:0:0:
179,70,57872,1,8,0:0:0:0:
355,118,58069,1,8,0:0:0:0:
94,68,58267,1,6,0:0:0:0:
320,192,58661,6,0,L|320:77,1,90
112,128,59056,1,8,0:0:0:0:
288,128,59451,2,0,L|346:40,1,90,2|8,0:0|0:0,0:0:0:0:
144,128,60043,1,8,0:3:0:0:
336,152,60438,2,0,L|335:51,1,90,8|8,0:0|0:0,0:0:0:0:
191,86,60832,2,0,L|284:86,2,90,0|8|4,0:0|0:3|0:3,0:0:0:0:
448,168,61424,6,0,P|488:112|447:16,1,180,4|8,0:0|0:0,0:0:0:0:
376,72,62017,1,0,0:0:0:0:
454,73,62214,1,8,0:3:0:0:
160,153,62609,2,0,L|160:49,1,90,8|8,0:0|0:0,0:0:0:0:
336,72,63201,1,8,0:3:0:0:
160,63,63596,1,8,0:0:0:0:
280,80,63793,2,0,L|372:80,1,90,8|0,0:0|0:0,0:0:0:0:
136,160,64188,2,0,L|136:46,1,90,2|2,0:0|0:0,0:0:0:0:
392,80,64582,6,0,L|207:145,2,180,6|0|8,0:0|0:0|0:0,0:0:0:0:
184,144,65767,2,0,L|184:37,1,90
307,80,66161,2,0,P|374:41|291:32,1,180,2|2,0:0|0:0,0:0:0:0:
194,13,66753,1,0,0:0:0:0:
291,113,66951,5,8,0:0:0:0:
349,103,67148,1,0,0:0:0:0:
349,43,67346,1,0,0:0:0:0:
290,35,67543,1,0,0:0:0:0:
80,40,67740,6,2,L|267:117,2,180,2|2|10,0:0|0:0|0:0,0:0:0:0:
351,234,68924,2,0,P|440:175|324:89,1,270,6|0,0:0|0:0,0:0:0:0:
264,96,69714,1,0,0:0:0:0:
176,96,69911,1,2,0:0:0:0:
336,96,70109,2,0,L|431:96,1,90,8|0,0:0|0:0,0:0:0:0:
208,168,70503,2,0,L|208:67,1,90,8|8,0:0|0:0,0:0:0:0:
464,96,70898,6,0,P|491:163|398:175,1,180,6|0,0:0|0:0,0:0:0:0:
320,184,71490,1,2,0:0:0:0:
408,184,71688,1,8,0:0:0:0:
216,96,72082,5,8,0:0:0:0:
304,96,72280,1,8,0:0:0:0:
112,64,72674,5,8,0:0:0:0:
200,64,72872,1,0,0:0:0:0:
112,64,73069,1,2,0:0:0:0:
370,176,73267,2,0,L|449:122,1,90,8|0,0:0|0:0,0:0:0:0:
161,183,73661,2,0,L|161:76,1,90,8|8,0:0|0:0,0:0:0:0:
432,104,74056,6,0,L|335:104,1,90,4|0,0:0|0:0,0:0:0:0:
252,104,74451,2,0,L|365:104,1,90,0|2,0:0|0:0,0:0:0:0:
80,104,74846,1,8,0:0:0:0:
264,104,75240,5,0,0:0:0:0:
176,104,75438,2,0,P|110:57|193:26,1,180,8|8,0:0|0:0,0:0:0:0:
286,31,76030,2,0,L|381:31,1,90,8|8,0:0|0:3,0:0:0:0:
106,163,76424,2,0,L|106:70,1,90,4|4,0:3|0:3,0:0:0:0:
377,148,76819,2,0,L|449:86,1,90,8|4,0:0|0:3,0:0:0:0:
156,96,77214,6,0,L|333:159,2,180,6|0|8,0:0|0:0|0:0,0:0:0:0:
358,96,78398,2,0,L|358:187,1,90
223,95,78793,2,0,L|413:95,1,180,2|2,0:0|0:0,0:0:0:0:
300,94,79385,1,0,0:0:0:0:
30,192,79582,6,0,L|30:91,1,90,8|0,0:0|0:0,0:0:0:0:
151,129,79977,2,0,L|44:130,1,90
334,128,80372,6,0,L|152:190,2,180,2|0|8,0:0|0:0|0:0,0:0:0:0:
422,128,81359,1,0,0:0:0:0:
154,128,81556,2,0,P|96:67|170:72,1,180,6|0,0:0|0:0,0:0:0:0:
286,72,82148,6,0,L|383:72,2,90,0|0|2,0:0|0:0|0:0,0:0:0:0:
30,72,82740,2,0,L|30:165,1,90,8|0,0:0|0:0,0:0:0:0:
294,64,83135,1,8,0:0:0:0:
150,64,83332,1,8,0:0:0:0:
414,176,83530,6,0,L|226:247,2,180,6|0|8,0:0|0:0|0:0,0:0:0:0:
206,184,84714,2,0,L|206:67,1,90,0|2,0:0|0:0,0:0:0:0:
334,120,85109,2,0,L|186:258,1,180,2|2,0:0|0:0,0:0:0:0:
390,72,85898,2,0,L|295:72,2,90,8|0|0,0:0|0:0|0:0,0:0:0:0:
130,72,86688,6,0,L|314:72,1,180,6|2,0:0|0:0,0:0:0:0:
104,71,87477,1,8,0:0:0:0:
326,72,87872,2,0,L|326:169,1,90,2|0,0:0|0:0,0:0:0:0:
70,80,88267,6,0,L|184:80,2,90,2|0|8,0:0|0:0|0:0,0:0:0:0:
161,79,88859,1,2,0:0:0:0:
421,206,89056,1,8,0:0:0:0:
291,143,89253,1,8,0:0:0:0:
421,206,89451,1,8,0:0:0:0:
161,79,89648,1,8,0:0:0:0:
454,144,89846,6,0,L|339:144,2,112.5,6|0|0,0:0|0:0|0:0,0:0:0:0:
372,144,90438,1,0,0:0:0:0:
110,144,90635,2,0,P|54:144|57:10,1,225,8|0,0:0|0:0,0:0:0:0:
166,56,91227,1,0,0:0:0:0:
334,152,91424,6,0,L|334:38,1,112.5,2|0,0:0|0:0,0:0:0:0:
222,72,91819,2,0,L|337:72,1,112.5,2|0,0:0|0:0,0:0:0:0:
46,72,92214,2,0,L|224:151,2,168.75,8|0|0,0:0|0:0|0:0,0:0:0:0:
374,72,93003,6,0,L|151:156,2,225,2|0|8,0:0|0:0|0:0,0:0:0:0:
126,144,94188,2,0,L|126:27,1,112.5
238,64,94582,2,0,L|109:64,2,112.5,2|0|2,0:0|0:0|0:0,0:0:0:0:
318,64,95174,1,0,0:0:0:0:
54,64,95372,2,0,L|170:64,1,112.5,8|0,0:0|0:0,0:0:0:0:
267,64,95767,2,0,L|146:64,1,112.5
463,64,96161,6,0,L|241:152,2,225,2|0|8,0:0|0:0|0:0,0:0:0:0:
191,81,97346,2,0,L|308:81,1,112.5
399,82,97740,6,0,L|399:196,1,112.5,2|0,0:0|0:0,0:0:0:0:
230,178,98135,2,0,L|459:254,1,225,2|8,0:0|0:0,0:0:0:0:
286,163,98727,1,0,0:0:0:0:
288,88,98924,1,0,0:0:0:0:
362,77,99122,1,0,0:0:0:0:
102,176,99319,6,0,P|54:176|106:74,1,225,2|0,0:0|0:0,0:0:0:0:
211,111,99911,1,0,0:0:0:0:
476,112,100109,1,8,0:0:0:0:
211,111,100503,2,0,L|339:111,1,112.5
13,125,100898,6,0,L|13:244,1,112.5,2|0,0:0|0:0,0:0:0:0:
120,124,101293,2,0,L|244:124,1,112.5,0|2,0:0|0:0,0:0:0:0:
492,119,101688,2,0,L|492:3,1,112.5,8|0,0:0|0:0,0:0:0:0:
237,66,102082,2,0,L|100:66,1,112.5,8|8,0:0|0:0,0:0:0:0:
430,120,102477,6,0,L|204:188,2,225,6|0|8,0:0|0:0|0:0,0:0:0:0:
182,136,103661,2,0,L|182:21,1,112.5
62,56,104056,2,0,L|181:56,1,112.5,2|0,0:0|0:0,0:0:0:0:
287,56,104451,2,0,L|172:56,1,112.5,2|0,0:0|0:0,0:0:0:0:
457,48,104846,6,0,L|457:165,1,112.5,8|0,0:0|0:0,0:0:0:0:
326,48,105240,2,0,L|453:48,1,112.5
126,48,105635,6,0,L|333:137,2,225,2|0|8,0:0|0:0|0:0,0:0:0:0:
374,152,106819,2,0,L|374:37,1,112.5
486,72,107214,2,0,L|364:72,2,112.5,2|0|2,0:0|0:0|0:0,0:0:0:0:
404,72,107806,1,0,0:0:0:0:
142,72,108003,5,8,0:0:0:0:
30,72,108201,1,0,0:0:0:0:
142,72,108398,1,0,0:0:0:0:
30,72,108596,1,0,0:0:0:0:
310,72,108793,6,0,L|87:148,2,225,2|0|8,0:0|0:0|0:0,0:0:0:0:
62,104,109977,2,0,L|62:231,1,112.5
174,104,110372,2,0,L|46:104,2,112.5,2|0|2,0:0|0:0|0:0,0:0:0:0:
422,112,111161,2,0,L|422:229,1,112.5,8|0,0:0|0:0,0:0:0:0:
310,112,111556,2,0,P|237:122|217:44,1,168.75
352,118,111951,6,0,L|492:-60,2,225,2|0|8,0:0|0:0|0:0,0:0:0:0:
150,96,113135,2,0,L|247:181,1,112.5,0|2,0:0|0:0,0:0:0:0:
494,96,113530,6,0,L|494:-18,1,112.5,6|0,0:0|0:0,0:0:0:0:
214,48,113924,2,0,L|94:48,1,112.5,2|2,0:0|0:0,0:0:0:0:
438,56,114319,2,0,L|314:56,1,112.5,8|4,0:0|0:3,0:0:0:0:
30,144,114714,2,0,L|30:28,1,112.5,8|8,0:0|0:0,0:0:0:0:
326,176,115109,6,0,P|419:181|350:80,1,270,6|2,0:0|0:0,0:0:0:0:
166,112,116096,1,2,0:0:0:0:
326,176,116293,2,0,P|404:129|302:23,1,270,8|8,0:0|0:3,0:0:0:0:
222,16,117082,1,0,0:0:0:0:
315,17,117280,1,2,0:0:0:0:
54,151,117477,6,0,L|141:103,1,90,8|0,0:0|0:0,0:0:0:0:
396,143,117872,2,0,L|396:50,1,90,8|2,0:3|0:0,0:0:0:0:
118,88,118267,6,0,P|53:112|65:210,1,180,6|0,0:0|0:0,0:0:0:0:
155,174,118859,1,2,0:0:0:0:
62,176,119056,1,0,0:0:0:0:
155,174,119253,1,2,0:0:0:0:
428,162,119451,6,0,P|505:161|420:90,1,270,8|8,0:0|0:3,0:0:0:0:
328,90,120240,1,0,0:0:0:0:
421,90,120438,1,2,0:0:0:0:
161,139,120635,6,0,L|161:233,1,90,8|0,0:0|0:0,0:0:0:0:
422,135,121030,2,0,L|459:52,1,90,0|8,0:0|0:3,0:0:0:0:
185,162,121424,6,0,P|124:114|197:82,1,180,6|0,0:0|0:0,0:0:0:0:
301,87,122017,2,0,L|301:180,1,90
181,96,122411,1,2,0:0:0:0:
454,198,122609,6,0,P|513:150|392:102,1,270,8|8,0:0|0:3,0:0:0:0:
273,104,123398,1,0,0:0:0:0:
394,100,123596,1,2,0:0:0:0:
134,119,123793,6,0,L|134:21,1,90,10|0,0:0|0:0,0:0:0:0:
394,100,124188,2,0,L|452:32,1,90,8|4,0:3|0:3,0:0:0:0:
175,149,124582,6,0,P|146:61|245:61,1,180,6|0,0:0|0:0,0:0:0:0:
335,76,125174,2,0,P|400:117|330:145,1,180,2|2,0:0|0:0,0:0:0:0:
58,196,125767,6,0,P|1:155|73:103,1,180,8|0,0:0|0:0,0:0:0:0:
190,108,126359,1,2,0:0:0:0:
65,100,126556,1,8,0:3:0:0:
190,108,126753,1,2,0:0:0:0:
451,115,126951,6,0,L|451:207,1,90,8|2,0:0|0:0,0:0:0:0:
190,108,127346,2,0,L|100:108,1,90,2|4,0:0|0:3,0:0:0:0:
400,174,127740,6,0,P|479:142|398:28,1,270,6|8,0:0|0:3,0:0:0:0:
280,66,128530,1,0,0:0:0:0:
399,62,128727,1,2,0:0:0:0:
124,144,128924,6,0,P|98:61|194:56,1,180,8|0,0:0|0:0,0:0:0:0:
296,78,129517,2,0,P|360:111|291:147,1,180,8|2,0:3|0:0,0:0:0:0:
37,180,130109,2,0,L|37:77,1,90,8|2,0:0|0:0,0:0:0:0:
293,127,130503,2,0,L|383:127,1,90,4|4,0:3|0:3,0:0:0:0:
85,185,130898,6,0,P|36:152|100:81,1,180,6|0,0:0|0:0,0:0:0:0:
219,72,131490,2,0,P|230:133|132:137,1,180,0|2,0:0|0:0,0:0:0:0:
414,164,132082,6,0,P|469:115|399:68,1,180,8|0,0:0|0:0,0:0:0:0:
283,78,132674,2,0,P|273:143|370:143,1,180,2|2,0:0|0:0,0:0:0:0:
87,181,133267,6,0,L|87:88,1,90,8|0,0:0|0:0,0:0:0:0:
348,117,133661,2,0,L|439:117,1,90,2|2,0:0|0:0,0:0:0:0:
120,123,134056,6,0,L|301:123,1,180,6|0,0:0|0:0,0:0:0:0:
165,54,134648,1,0,0:0:0:0:
300,58,134846,2,0,L|300:154,1,90,0|2,0:0|0:0,0:0:0:0:
23,181,135240,6,0,L|206:181,1,180,8|0,0:0|0:0,0:0:0:0:
80,104,135832,1,0,0:0:0:0:
336,157,136030,2,0,L|157:157,1,180,0|8,0:0|0:0,0:0:0:0:
278,73,136622,1,0,0:0:0:0:
24,98,136819,2,0,L|123:98,1,90,4|4,0:3|0:3,0:0:0:0:
372,127,137214,6,0,L|446:57,1,90,6|0,0:0|0:0,0:0:0:0:
165,130,137609,1,0,0:0:0:0:
285,125,137806,2,0,P|344:92|281:27,1,180,10|2,0:3|0:0,0:0:0:0:
24,140,138398,6,0,P|4:68|89:45,1,180,8|0,0:0|0:0,0:0:0:0:
192,103,138990,2,0,L|192:14,1,90,8|0,0:3|0:0,0:0:0:0:
59,43,139385,1,2,0:0:0:0:
335,142,139582,2,0,L|335:47,1,90,8|2,0:0|0:0,0:0:0:0:
59,112,139977,2,0,L|152:112,1,90,8|2,0:0|0:0,0:0:0:0:
420,104,140372,6,0,L|330:104,2,90,6|0|0,0:0|0:0|0:0,0:0:0:0:
149,169,140964,1,0,0:0:0:0:
275,167,141161,2,0,L|353:108,1,90,0|2,0:0|0:0,0:0:0:0:
58,171,141556,6,0,L|58:72,1,90,8|0,0:0|0:0,0:0:0:0:
156,108,141951,1,0,0:0:0:0:
301,106,142148,2,0,L|207:106,2,90,8|8|2,0:0|0:0|0:0,0:0:0:0:
38,134,142740,6,0,L|38:40,1,90,8|2,0:0|0:0,0:0:0:0:
316,132,143135,2,0,L|411:132,1,90,8|8,0:0|0:0,0:0:0:0:
86,163,143530,6,0,B|6:109|17:17|17:17|207:17,1,360,6|8,0:0|0:0,0:0:0:0:
371,166,144714,2,0,L|370:68,1,90
253,100,145109,2,0,L|353:100,1,90,2|0,0:0|0:0,0:0:0:0:
179,192,145503,2,0,L|89:192,1,90,2|0,0:0|0:0,0:0:0:0:
375,185,145898,6,0,L|375:80,1,90,8|0,0:0|0:0,0:0:0:0:
256,115,146293,2,0,L|346:115,1,90
60,126,146688,6,0,P|121:45|227:31,1,180,2|0,0:0|0:0,0:0:0:0:
452,126,147477,2,0,P|388:45|291:32,1,180,8|0,0:0|0:0,0:0:0:0:
446,37,148069,1,0,0:0:0:0:
185,166,148267,6,0,L|185:74,1,90,2|0,0:0|0:0,0:0:0:0:
79,77,148661,2,0,L|175:77,1,90,2|2,0:0|0:0,0:0:0:0:
424,152,149056,2,0,P|484:97|410:59,1,180,8|8,0:0|0:0,0:0:0:0:
157,92,149648,1,8,0:0:0:0:
424,152,149846,6,0,P|475:106|399:30,1,180,6|0,0:0|0:0,0:0:0:0:
316,118,150438,1,0,0:0:0:0:
42,194,150635,2,0,P|14:118|86:61,1,180,8|0,0:0|0:0,0:0:0:0:
173,114,151227,1,0,0:0:0:0:
433,120,151424,6,0,L|433:29,1,90,2|0,0:0|0:0,0:0:0:0:
315,56,151819,2,0,L|409:56,1,90,2|0,0:0|0:0,0:0:0:0:
119,138,152214,2,0,L|119:46,1,90,8|0,0:0|0:0,0:0:0:0:
237,73,152609,2,0,L|130:73,1,90
431,186,153003,6,0,P|491:139|429:85,1,180,2|0,0:0|0:0,0:0:0:0:
341,92,153596,1,2,0:0:0:0:
81,186,153793,2,0,P|21:139|83:85,1,180,8|0,0:0|0:0,0:0:0:0:
171,92,154385,1,2,0:0:0:0:
430,147,154582,6,0,L|430:57,1,90,8|0,0:0|0:0,0:0:0:0:
312,79,154977,2,0,L|403:79,1,90,0|2,0:0|0:0,0:0:0:0:
99,130,155372,2,0,L|99:40,1,90,8|0,0:0|0:0,0:0:0:0:
376,90,155767,2,0,L|465:90,1,90,8|8,0:0|0:0,0:0:0:0:
166,177,156161,6,0,P|84:174|101:92,1,180,6|0,0:0|0:0,0:0:0:0:
384,177,156951,2,0,P|463:174|449:92,1,180,8|0,0:0|0:0,0:0:0:0:
363,101,157543,1,0,0:0:0:0:
102,173,157740,6,0,L|86:67,1,90,2|0,0:0|0:0,0:0:0:0:
240,124,158135,2,0,P|302:84|230:62,1,180,2|8,0:0|0:0,0:0:0:0:
115,57,158727,1,0,0:0:0:0:
235,58,158924,2,0,L|142:58,1,90
416,161,159319,6,0,P|471:93|404:80,1,180,2|0,0:0|0:0,0:0:0:0:
320,82,159911,1,0,0:0:0:0:
59,163,160109,2,0,P|3:108|71:82,1,180,8|0,0:0|0:0,0:0:0:0:
155,84,160701,1,0,0:0:0:0:
414,129,160898,6,0,L|414:37,1,90,2|0,0:0|0:0,0:0:0:0:
295,61,161293,2,0,L|385:61,1,90,2|2,0:0|0:0,0:0:0:0:
99,152,161688,2,0,L|99:59,1,90,8|0,0:0|0:0,0:0:0:0:
374,72,162082,2,0,L|323:-5,1,90,8|8,0:0|0:0,0:0:0:0:
56,180,162477,6,0,P|15:128|92:80,1,180,6|0,0:0|0:0,0:0:0:0:
375,186,163267,2,0,P|416:133|339:86,1,180,8|0,0:0|0:0,0:0:0:0:
254,86,163859,1,0,0:0:0:0:
380,88,164056,6,0,L|301:146,1,90,2|0,0:0|0:0,0:0:0:0:
50,233,164451,2,0,P|8:174|104:145,1,180,2|8,0:0|0:0,0:0:0:0:
174,137,165043,1,0,0:0:0:0:
434,137,165240,2,0,L|342:209,1,90
92,202,165635,6,0,P|45:158|134:125,1,180,2|0,0:0|0:0,0:0:0:0:
210,121,166227,1,0,0:0:0:0:
469,125,166424,2,0,L|399:189,1,90,8|0,0:0|0:0,0:0:0:0:
143,139,166819,2,0,L|143:49,1,90
265,77,167214,6,0,L|171:77,2,90,2|0|0,0:0|0:0|0:0,0:0:0:0:
359,78,167806,1,2,0:0:0:0:
99,102,168003,2,0,L|181:152,1,90,8|0,0:0|0:0,0:0:0:0:
441,108,168398,2,0,L|441:16,1,90,8|8,0:0|0:0,0:0:0:0:
147,75,168793,6,0,L|248:75,1,90,6|0,0:0|0:0,0:0:0:0:
331,80,169188,2,0,L|331:171,1,90
71,198,169582,2,0,L|147:270,1,90,8|0,0:0|0:0,0:0:0:0:
396,200,169977,2,0,L|396:108,1,90,0|2,0:0|0:0,0:0:0:0:
136,145,170372,5,8,0:0:0:0:
256,142,170569,2,0,L|162:143,1,90
452,143,170964,1,8,0:0:0:0:
183,140,171161,1,8,0:0:0:0:
309,120,171359,1,2,0:0:0:0:
44,122,171556,2,0,L|44:27,1,90,8|8,0:0|0:0,0:0:0:0:
404,117,171951,6,0,L|272:117,1,112.5,6|0,0:0|0:0,0:0:0:0:
169,50,172346,2,0,L|169:173,1,112.5
427,171,172740,2,0,P|483:119|380:87,1,225,8|0,0:0|0:0,0:0:0:0:
283,91,173332,1,0,0:0:0:0:
22,134,173530,6,0,L|135:134,1,112.5,2|0,0:0|0:0,0:0:0:0:
247,134,173924,2,0,L|117:134,1,112.5,2|0,0:0|0:0,0:0:0:0:
421,78,174319,2,0,L|256:139,2,168.75,8|0|0,0:0|0:0|0:0,0:0:0:0:
136,135,175109,6,0,L|353:213,2,225,2|0|8,0:0|0:0|0:0,0:0:0:0:
35,137,176096,1,0,0:0:0:0:
157,132,176293,2,0,L|40:132,1,112.5
340,128,176688,6,0,L|454:128,1,112.5,2|0,0:0|0:0,0:0:0:0:
299,60,177082,2,0,L|421:60,1,112.5,2|0,0:0|0:0,0:0:0:0:
96,161,177477,2,0,L|96:42,1,112.5,8|0,0:0|0:0,0:0:0:0:
226,74,177872,2,0,L|111:74,1,112.5,8|8,0:0|0:0,0:0:0:0:
431,152,178267,6,0,L|217:243,2,225,6|0|8,0:0|0:0|0:0,0:0:0:0:
105,179,179451,2,0,L|105:55,1,112.5
235,86,179846,2,0,L|112:86,1,112.5,2|0,0:0|0:0,0:0:0:0:
420,201,180240,2,0,P|463:144|374:33,1,225,2|8,0:0|0:0,0:0:0:0:
290,98,180832,1,0,0:0:0:0:
200,96,181030,1,0,0:0:0:0:
111,95,181227,1,0,0:0:0:0:
392,240,181424,6,0,P|450:201|381:92,1,225,2|0,0:0|0:0,0:0:0:0:
291,119,182017,1,0,0:0:0:0:
32,239,182214,2,0,P|-8:186|100:132,1,225,8|0,0:0|0:0,0:0:0:0:
195,137,182806,1,0,0:0:0:0:
456,239,183003,6,0,L|456:126,1,112.5,2|0,0:0|0:0,0:0:0:0:
326,152,183398,2,0,L|441:152,1,112.5,0|2,0:0|0:0,0:0:0:0:
130,202,183793,2,0,L|130:88,1,112.5,8|0,0:0|0:0,0:0:0:0:
416,138,184188,2,0,L|299:224,1,112.5,8|8,0:0|0:0,0:0:0:0:
43,143,184582,6,0,L|255:216,2,225,6|0|8,0:0|0:0|0:0,0:0:0:0:
369,199,185767,2,0,L|369:85,1,112.5
215,202,186161,2,0,L|331:202,1,112.5,2|0,0:0|0:0,0:0:0:0:
443,131,186556,2,0,L|359:210,1,112.5,2|0,0:0|0:0,0:0:0:0:
101,164,186951,6,0,L|101:51,1,112.5,8|0,0:0|0:0,0:0:0:0:
231,80,187346,2,0,L|113:80,1,112.5
434,124,187740,6,0,L|228:217,2,225,2|0|8,0:0|0:0|0:0,0:0:0:0:
336,125,188727,1,0,0:0:0:0:
481,72,188924,2,0,L|376:126,1,112.5
121,190,189319,6,0,L|121:70,1,112.5,2|0,0:0|0:0,0:0:0:0:
279,95,189714,2,0,L|163:95,1,112.5,2|0,0:0|0:0,0:0:0:0:
477,200,190109,2,0,L|362:200,1,112.5,8|0,0:0|0:0,0:0:0:0:
95,199,190503,2,0,L|95:83,1,112.5,8|8,0:0|0:0,0:0:0:0:
406,260,190898,6,0,P|462:201|393:94,1,225,6|0,0:0|0:0,0:0:0:0:
306,123,191490,1,0,0:0:0:0:
45,235,191688,2,0,P|1:156|103:105,1,225,8|0,0:0|0:0,0:0:0:0:
194,101,192280,1,0,0:0:0:0:
454,216,192477,6,0,L|454:103,1,112.5,2|0,0:0|0:0,0:0:0:0:
313,127,192872,2,0,L|434:127,1,112.5,2|0,0:0|0:0,0:0:0:0:
143,101,193267,2,0,L|221:189,1,112.5,8|0,0:0|0:0,0:0:0:0:
474,241,193661,2,0,L|357:241,1,112.5
79,273,194056,6,0,P|23:230|115:153,1,225,2|0,0:0|0:0,0:0:0:0:
205,146,194648,1,0,0:0:0:0:
465,245,194846,2,0,P|501:191|405:91,1,225,8|0,0:0|0:0,0:0:0:0:
313,128,195438,1,2,0:0:0:0:
41,139,195635,6,0,L|145:195,1,112.5,6|0,0:0|0:0,0:0:0:0:
405,221,196030,2,0,L|405:108,1,112.5,0|8,0:0|0:0,0:0:0:0:
110,127,196424,2,0,L|224:127,1,112.5,8|2,0:0|0:0,0:0:0:0:
381,130,196819,1,8,0:3:0:0:
212,128,197017,1,2,0:0:0:0:
476,265,197214,6,0,P|515:206|416:92,1,225,6|0,0:0|0:0,0:0:0:0:
341,145,197806,1,2,0:0:0:0:
65,229,198003,2,0,P|27:176|126:72,1,225,8|0,0:0|0:0,0:0:0:0:
209,99,198596,1,0,0:0:0:0:
469,260,198793,6,0,L|469:147,1,112.5,2|0,0:0|0:0,0:0:0:0:
331,171,199188,2,0,L|463:171,1,112.5,2|0,0:0|0:0,0:0:0:0:
128,228,199582,2,0,L|128:111,1,112.5,8|0,0:0|0:0,0:0:0:0:
266,142,199977,2,0,L|141:142,1,112.5,0|8,0:0|0:0,0:0:0:0:
470,280,200372,6,0,P|520:190|426:162,1,225,4|0,0:0|0:0,0:0:0:0:
337,166,200964,1,2,0:0:0:0:
53,245,201161,2,0,P|1:146|85:93,1,225,8|0,0:0|0:0,0:0:0:0:
170,118,201753,1,0,0:0:0:0:
456,192,201951,6,0,L|456:69,1,112.5,8|0,0:0|0:0,0:0:0:0:
309,102,202346,2,0,L|427:102,1,112.5,8|0,0:3|0:0,0:0:0:0:
81,101,202740,2,0,L|195:101,1,112.5,8|8,0:0|0:3,0:0:0:0:
480,100,203135,2,0,L|360:100,1,112.5,4|0,0:3|0:0,0:0:0:0:
71,171,203530,5,4,0:0:0:0:
256,192,203727,12,0,208267,0:0:0:0:
163,173,209994,6,0,P|111:109|173:60,1,180,8|8,0:0|0:0,0:0:0:0:
256,100,210602,1,8,0:0:0:0:
110,138,210804,2,0,L|110:33,1,90,8|8,0:0|0:0,0:0:0:0:
416,55,211252,1,8,0:0:0:0:
168,101,211657,6,0,L|350:189,1,180,8|0,0:0|0:0,0:0:0:0:
41,52,212468,2,0,L|211:141,1,180,8|0,0:0|0:0,0:0:0:0:
380,201,213237,6,0,L|196:201,1,180,8|8,0:0|0:0,0:0:0:0:
328,134,213845,1,8,0:0:0:0:
182,149,214048,2,0,L|182:45,1,90,0|8,0:0|0:0,0:0:0:0:
442,140,214453,1,8,0:0:0:0:
182,187,214858,6,0,L|27:304,1,180,8|0,0:0|0:0,0:0:0:0:
345,71,215669,2,0,L|163:71,1,180,8|0,0:0|0:0,0:0:0:0:
411,225,216480,6,0,P|461:173|381:136,1,180,8|8,0:0|0:0,0:0:0:0:
295,139,217088,1,8,0:0:0:0:
164,78,217291,2,0,L|262:78,2,90,8|8|8,0:0|0:0|0:0,0:0:0:0:
69,79,217899,1,0,0:0:0:0:
330,214,218102,6,0,P|395:169|330:149,1,180,8|8,0:0|0:0,0:0:0:0:
248,149,218710,1,8,0:0:0:0:
410,152,218912,2,0,L|410:50,1,90,8|8,0:0|0:0,0:0:0:0:
147,80,219318,1,8,0:0:0:0:
418,79,219759,6,0,L|231:144,2,180,8|8|8,0:0|0:0|0:0,0:0:0:0:
210,79,220975,1,0,0:0:0:0:
418,79,221380,5,8,0:0:0:0:
288,80,221786,1,0,0:0:0:0:
59,93,222191,1,8,0:0:0:0:
187,95,222596,1,0,0:0:0:0:
446,197,222966,6,0,P|481:155|395:121,1,180,10|8,0:0|0:0,0:0:0:0:
310,131,223583,1,8,0:0:0:0:
454,143,223796,2,0,L|454:31,1,90,8|8,0:0|0:0,0:0:0:0:
309,64,224222,2,0,L|402:145,1,90,8|0,0:0|0:0,0:0:0:0:
108,200,224632,6,0,P|50:159|121:107,1,180,8|0,0:0|0:0,0:0:0:0:
377,245,225450,2,0,P|436:204|373:145,1,180,8|0,0:0|0:0,0:0:0:0:
114,123,226259,6,0,L|301:183,1,180,10|8,0:0|0:0,0:0:0:0:
159,62,226871,1,8,0:0:0:0:
289,63,227075,2,0,L|193:63,1,90,0|8,0:0|0:0,0:0:0:0:
466,58,227483,1,8,0:0:0:0:
218,106,227891,6,0,L|374:221,1,180,8|0,0:0|0:0,0:0:0:0:
74,213,228707,2,0,L|255:152,1,180,8|0,0:0|0:0,0:0:0:0:
118,141,229320,1,0,0:0:0:0:
359,198,229503,6,0,P|424:147|341:105,1,180,10|0,0:0|0:0,0:0:0:0:
98,183,230087,2,0,P|43:143|108:83,1,180,8|0,0:0|0:0,0:0:0:0:
197,82,230671,2,0,L|94:82,1,90,8|0,0:0|0:0,0:0:0:0:
425,196,231123,6,0,P|482:148|420:72,1,180,8|8,0:0|0:0,0:0:0:0:
167,117,231731,1,8,0:0:0:0:
304,118,231933,2,0,L|206:118,2,90,8|8|8,0:0|0:0|0:0,0:0:0:0:
408,121,232541,1,0,0:0:0:0:
125,132,232727,6,0,L|331:132,2,180,14|8|8,0:0|0:0|0:0,0:0:0:0:
305,132,233740,2,0,L|305:28,1,90,0|2,0:0|0:0,0:0:0:0:
124,130,234145,1,2,0:0:0:0:
401,126,234348,6,0,L|315:182,1,90,2|2,0:0|0:0,0:0:0:0:
60,123,234754,2,0,L|152:123,1,90,2|2,0:0|0:0,0:0:0:0:
420,73,235159,2,0,L|420:165,1,90,2|2,0:0|0:0,0:0:0:0:
137,167,235564,2,0,L|105:119,1,45,10|0,0:0|0:0,0:0:0:0:
315,165,235767,2,0,L|348:121,1,45,10|0,0:0|0:0,0:0:0:0:
93,130,235970,6,0,P|51:89|120:11,1,180,6|0,0:0|0:0,0:0:0:0:
200,28,236578,1,2,0:0:0:0:
462,182,236781,2,0,P|508:135|430:101,1,180,8|0,0:0|0:0,0:0:0:0:
348,102,237389,1,0,0:0:0:0:
83,84,237591,6,0,L|260:173,1,180,2|2,0:0|0:0,0:0:0:0:
117,31,238199,1,0,0:0:0:0:
394,84,238402,2,0,L|225:171,1,180,8|0,0:0|0:0,0:0:0:0:
369,28,239010,1,0,0:0:0:0:
77,214,239213,6,0,P|14:166|88:129,1,180,2|0,0:0|0:0,0:0:0:0:
166,127,239821,1,2,0:0:0:0:
437,211,240024,2,0,P|494:158|426:115,1,180,8|0,0:0|0:0,0:0:0:0:
338,115,240632,1,0,0:0:0:0:
73,233,240835,6,0,P|22:159|85:127,1,180,2|2,0:0|0:0,0:0:0:0:
192,125,241443,1,0,0:0:0:0:
57,58,241645,2,0,L|152:58,1,90,8|0,0:0|0:0,0:0:0:0:
414,135,242051,2,0,L|414:40,1,90,8|8,0:0|0:0,0:0:0:0:
112,228,242456,6,0,L|255:342,1,180,6|0,0:0|0:0,0:0:0:0:
123,161,243064,1,2,0:0:0:0:
407,169,243267,2,0,L|216:253,1,180,8|0,0:0|0:0,0:0:0:0:
138,184,243875,1,0,0:0:0:0:
407,169,244078,6,0,P|464:129|383:89,1,180,2|2,0:0|0:0,0:0:0:0:
306,88,244686,1,0,0:0:0:0:
42,182,244889,2,0,L|42:76,1,90,8|0,0:0|0:0,0:0:0:0:
325,152,245294,2,0,L|397:80,1,90
96,212,245699,6,0,P|56:181|132:122,1,180,2|0,0:0|0:0,0:0:0:0:
219,121,246308,1,2,0:0:0:0:
75,57,246510,2,0,L|166:57,1,90,8|0,0:0|0:0,0:0:0:0:
431,153,246916,2,0,L|431:51,1,90,0|2,0:0|0:0,0:0:0:0:
137,102,247321,6,0,L|226:102,1,90,8|0,0:0|0:0,0:0:0:0:
87,41,247727,2,0,L|184:41,1,90,2|2,0:0|0:0,0:0:0:0:
444,151,248132,2,0,L|444:56,1,90,8|0,0:0|0:0,0:0:0:0:
295,83,248537,1,8,0:3:0:0:
444,61,248740,1,4,0:3:0:0:
128,189,248943,6,0,L|221:189,1,90,6|0,0:0|0:0,0:0:0:0:
344,191,249348,2,0,L|344:95,1,90,0|2,0:0|0:0,0:0:0:0:
67,160,249754,2,0,P|16:108|105:57,1,180,8|0,0:0|0:0,0:0:0:0:
175,52,250362,1,0,0:0:0:0:
441,169,250564,6,0,L|441:78,1,90,2|0,0:0|0:0,0:0:0:0:
317,86,250970,2,0,L|417:86,1,90,2|0,0:0|0:0,0:0:0:0:
120,182,251375,2,0,P|69:116|127:54,1,180,8|0,0:0|0:0,0:0:0:0:
214,81,251983,1,0,0:0:0:0:
480,175,252186,6,0,L|480:78,1,90,2|0,0:0|0:0,0:0:0:0:
345,101,252591,2,0,L|440:101,1,90,0|2,0:0|0:0,0:0:0:0:
119,180,252997,2,0,P|57:138|137:95,1,180,8|0,0:0|0:0,0:0:0:0:
216,101,253605,1,0,0:0:0:0:
481,158,253808,6,0,P|505:109|410:49,1,180,2|2,0:0|0:0,0:0:0:0:
329,83,254416,1,0,0:0:0:0:
52,194,254618,2,0,P|22:145|114:118,1,180,8|8,0:0|0:0,0:0:0:0:
375,113,255226,1,8,0:0:0:0:
91,189,255429,6,0,P|54:145|141:106,1,180,6|0,0:0|0:0,0:0:0:0:
221,107,256037,1,2,0:0:0:0:
487,183,256240,2,0,L|487:87,1,90,8|0,0:0|0:0,0:0:0:0:
359,118,256645,2,0,L|461:118,1,90
168,211,257051,6,0,P|131:174|210:110,1,180,2|2,0:0|0:0,0:0:0:0:
294,111,257659,1,0,0:0:0:0:
18,140,257862,2,0,L|18:45,1,90,8|0,0:0|0:0,0:0:0:0:
134,62,258267,2,0,L|40:62,1,90
331,203,258672,6,0,P|394:155|328:123,1,180,2|0,0:0|0:0,0:0:0:0:
198,124,259281,1,2,0:0:0:0:
464,143,259483,2,0,L|464:39,1,90,8|0,0:0|0:0,0:0:0:0:
344,81,259889,1,2,0:0:0:0:
64,192,260091,6,0,L|158:192,1,90,8|0,0:0|0:0,0:0:0:0:
421,181,260497,1,8,0:0:0:0:
154,192,260699,2,0,L|154:94,1,90,8|0,0:0|0:0,0:0:0:0:
421,181,261105,2,0,L|315:181,1,90,8|8,0:0|0:3,0:0:0:0:
64,194,261510,2,0,L|108:90,1,90,12|4,0:3|0:3,0:0:0:0:
392,207,261916,6,0,P|453:158|381:108,1,180,6|0,0:0|0:0,0:0:0:0:
304,109,262524,1,2,0:0:0:0:
37,184,262727,2,0,P|4:128|91:101,1,180,8|0,0:0|0:0,0:0:0:0:
182,107,263335,1,2,0:0:0:0:
448,196,263537,6,0,P|492:157|412:114,1,180,6|0,0:0|0:0,0:0:0:0:
330,122,264145,1,2,0:0:0:0:
64,149,264348,2,0,L|64:54,1,90,8|0,0:0|0:0,0:0:0:0:
330,122,264754,2,0,L|413:83,1,90
117,178,265159,6,0,P|61:138|127:84,1,180,6|8,0:0|0:0,0:0:0:0:
394,82,265767,1,0,0:0:0:0:
121,171,265970,2,0,L|121:78,1,90,8|0,0:3|0:0,0:0:0:0:
394,82,266375,1,8,0:0:0:0:
120,83,266578,6,0,L|183:156,1,90,8|0,0:3|0:0,0:0:0:0:
445,195,266983,2,0,P|488:157|405:115,1,180,8|2,0:0|0:0,0:0:0:0:
139,131,267591,2,0,L|139:41,1,90,8|2,0:0|0:0,0:0:0:0:
430,98,267997,2,0,L|353:170,1,90,2|8,0:0|0:0,0:0:0:0:
72,202,268402,6,0,P|30:163|106:42,1,225,6|0,0:0|0:0,0:0:0:0:
387,190,269010,2,0,L|294:280,1,112.5,2|8,0:0|0:0,0:0:0:0:
25,155,269416,2,0,L|141:156,2,112.5,0|0|2,0:0|0:0|0:0,0:0:0:0:
312,167,270024,6,0,L|312:51,1,112.5,8|0,0:0|0:0,0:0:0:0:
175,87,270429,1,0,0:0:0:0:
323,91,270632,1,2,0:0:0:0:
53,182,270835,2,0,L|281:182,1,225,8|0,0:0|0:0,0:0:0:0:
118,182,271443,1,2,0:0:0:0:
387,267,271645,6,0,P|421:195|327:226,1,225,14|0,0:0|0:0,0:0:0:0:
189,188,272254,1,2,0:0:0:0:
451,207,272456,2,0,P|502:165|395:123,1,225,8|0,0:0|0:0,0:0:0:0:
302,120,273064,1,2,0:0:0:0:
31,203,273267,6,0,P|2:106|98:111,1,225,8|0,0:0|0:0,0:0:0:0:
205,112,273875,1,2,0:0:0:0:
465,215,274078,2,0,L|465:98,1,112.5,8|0,0:0|0:0,0:0:0:0:
331,118,274483,2,0,L|456:118,1,112.5,2|2,0:0|0:0,0:0:0:0:
151,190,274889,6,0,P|94:157|195:80,1,225,14|0,0:0|0:0,0:0:0:0:
294,77,275497,1,2,0:0:0:0:
35,183,275699,2,0,P|-8:138|101:72,1,225,8|0,0:0|0:0,0:0:0:0:
200,83,276308,1,2,0:0:0:0:
460,205,276510,6,0,P|509:145|421:47,1,225,8|0,0:0|0:0,0:0:0:0:
322,101,277118,1,2,0:0:0:0:
62,184,277321,2,0,L|62:65,1,112.5,8|8,0:0|0:0,0:0:0:0:
322,162,277726,2,0,L|424:108,1,112.5,2|2,0:0|0:0,0:0:0:0:
106,187,278132,6,0,P|37:145|123:73,1,225,12|0,0:0|0:0,0:0:0:0:
219,69,278740,1,2,0:0:0:0:
489,141,278943,2,0,L|489:27,1,112.5,8|0,0:0|0:0,0:0:0:0:
209,130,279348,2,0,L|325:131,1,112.5,2|2,0:0|0:0,0:0:0:0:
21,160,279754,6,0,L|21:42,1,112.5,8|8,0:0|0:0,0:0:0:0:
161,62,280159,2,0,L|48:62,1,112.5,2|8,0:3|0:3,0:0:0:0:
351,110,280564,2,0,L|351:-3,1,112.5,8|8,0:0|0:0,0:0:0:0:
48,62,280970,2,0,L|130:154,1,112.5,8|2,0:3|0:0,0:0:0:0:
439,191,281375,6,0,L|439:75,1,112.5,6|0,0:0|0:0,0:0:0:0:
281,117,281781,2,0,L|395:117,1,112.5,0|2,0:0|0:0,0:0:0:0:
35,194,282186,2,0,L|35:63,1,112.5,8|0,0:0|0:0,0:0:0:0:
174,105,282591,2,0,L|58:105,1,112.5,0|2,0:0|0:0,0:0:0:0:
370,187,282997,6,0,L|370:73,1,112.5,8|0,0:0|0:0,0:0:0:0:
220,72,283402,1,0,0:0:0:0:
370,74,283605,1,2,0:0:0:0:
108,205,283808,2,0,P|57:153|161:108,1,225,8|0,0:0|0:0,0:0:0:0:
272,115,284416,1,2,0:0:0:0:
12,136,284618,6,0,P|-11:63|119:47,1,225,14|0,0:0|0:0,0:0:0:0:
195,37,285226,1,2,0:0:0:0:
472,94,285429,2,0,L|355:171,1,112.5,8|0,0:0|0:0,0:0:0:0:
114,107,285835,2,0,L|221:164,1,112.5,0|2,0:0|0:0,0:0:0:0:
480,213,286240,6,0,P|518:171|435:46,1,225,8|0,0:0|0:0,0:0:0:0:
339,94,286848,1,2,0:0:0:0:
62,108,287051,2,0,L|158:174,1,112.5,8|0,0:0|0:0,0:0:0:0:
429,102,287456,2,0,L|429:216,1,112.5,2|2,0:0|0:0,0:0:0:0:
128,206,287862,6,0,P|71:157|169:93,1,225,14|0,0:0|0:0,0:0:0:0:
277,88,288470,1,2,0:0:0:0:
13,170,288672,2,0,P|-12:87|98:73,1,225,8|0,0:0|0:0,0:0:0:0:
204,86,289281,1,2,0:0:0:0:
464,204,289483,6,0,P|514:132|411:106,1,225,8|0,0:0|0:0,0:0:0:0:
316,109,290091,1,2,0:0:0:0:
51,118,290294,2,0,L|143:183,1,112.5,8|8,0:0|0:0,0:0:0:0:
414,102,290699,2,0,L|307:166,1,112.5,2|2,0:0|0:0,0:0:0:0:
37,198,291105,6,0,P|2:109|107:84,1,225,12|2,0:0|0:0,0:0:0:0:
248,181,291713,2,0,P|365:159|326:81,1,225,2|2,0:0|0:0,0:0:0:0:
63,214,292321,6,0,P|4:160|96:93,1,225,6|2,0:0|0:0,0:0:0:0:
363,95,292929,2,0,L|245:94,2,112.5,8|8|2,0:0|0:0|0:0,0:0:0:0:
78,160,293537,2,0,L|78:45,1,112.5,8|2,0:0|0:0,0:0:0:0:
362,99,293943,2,0,L|464:157,1,112.5,2|0,0:0|0:0,0:0:0:0:
116,201,294348,6,0,L|322:304,1,225,4|0,0:0|0:0,0:0:0:0:
159,137,294956,1,2,0:0:0:0:
468,104,295159,2,0,L|244:209,1,225,8|0,0:0|0:0,0:0:0:0:
422,41,295767,1,2,0:0:0:0:
118,184,295970,6,0,L|325:280,1,225,8|0,0:0|0:0,0:0:0:0:
164,138,296578,1,2,0:0:0:0:
445,117,296781,2,0,L|353:216,1,112.5,8|0,0:0|0:0,0:0:0:0:
63,134,297186,2,0,L|166:232,1,112.5,0|2,0:0|0:0,0:0:0:0:
441,200,297591,6,0,P|499:160|433:51,1,225,12|2,0:0|0:0,0:0:0:0:
265,94,298199,2,0,L|390:95,2,112.5,8|2|2,0:0|0:0|0:0,0:0:0:0:
468,188,298808,6,0,P|503:131|388:97,1,225,8|2,0:0|0:0,0:0:0:0:
185,225,299416,2,0,P|110:185|208:124,1,225,8|2,0:3|0:0,0:0:0:0:
481,185,300024,2,0,L|365:185,1,112.5,8|2,0:0|0:0,0:0:0:0:
31,178,300429,2,0,L|151:178,1,112.5,2|2,0:0|0:0,0:0:0:0:
425,182,300835,6,0,P|497:154|406:93,1,225,6|0,0:0|0:0,0:0:0:0:
306,110,301443,1,2,0:0:0:0:
37,168,301645,2,0,P|6:54|91:42,1,225,8|0,0:0|0:0,0:0:0:0:
195,59,302254,1,2,0:0:0:0:
457,125,302456,6,0,L|285:209,2,168.75,8|0|2,0:0|0:0|0:0,0:0:0:0:
172,218,303267,2,0,L|172:103,1,112.5,8|0,0:0|0:0,0:0:0:0:
322,206,303672,2,0,L|435:206,1,112.5,2|2,0:0|0:0,0:0:0:0:
118,212,304078,6,0,P|47:173|123:94,1,225,12|2,0:0|0:0,0:0:0:0:
282,205,304686,2,0,P|394:179|339:102,1,225,8|2,0:0|0:0,0:0:0:0:
92,228,305294,6,0,P|21:193|100:113,1,225,8|2,0:0|0:0,0:0:0:0:
375,114,305902,2,0,L|251:114,2,112.5,8|8|4,0:3|0:3|0:3,0:0:0:0:
82,117,306510,2,0,L|170:188,1,112.5,2|8,0:0|0:3,0:0:0:0:
473,191,306916,2,0,L|356:243,1,112.5,4|0,0:3|0:0,0:0:0:0:
64,238,307321,6,0,P|-2:213|71:128,1,225,6|0,0:0|0:0,0:0:0:0:
174,124,307929,1,2,0:0:0:0:
466,236,308132,2,0,P|518:193|434:90,1,225,8|0,0:0|0:0,0:0:0:0:
327,136,308740,1,2,0:0:0:0:
27,227,308943,6,0,P|-22:134|61:73,1,225,8|0,0:0|0:0,0:0:0:0:
174,94,309551,1,2,0:0:0:0:
457,202,309754,2,0,L|456:87,1,112.5,8|0,0:0|0:0,0:0:0:0:
292,122,310159,2,0,L|419:122,1,112.5,2|0,0:0|0:0,0:0:0:0:
69,202,310564,6,0,P|15:161|114:115,1,225,12|2,0:0|0:0,0:0:0:0:
274,113,311172,2,0,L|151:113,2,112.5,8|0|2,0:0|0:0|0:0,0:0:0:0:
11,201,311781,5,8,0:0:0:0:
186,161,311983,1,2,0:0:0:0:
147,134,312085,1,2,0:0:0:0:
108,108,312186,1,2,0:0:0:0:
277,98,312389,1,8,0:3:0:0:
13,92,312591,2,0,L|125:92,1,112.5,8|0,0:3|0:0,0:0:0:0:
442,170,312997,6,0,L|442:57,1,112.5,8|8,0:0|0:3,0:0:0:0:
172,116,313402,2,0,L|77:206,1,112.5,4|4,0:3|0:3,0:0:0:0:
452,257,313808,6,0,P|504:208|405:147,1,225,6|0,0:0|0:0,0:0:0:0:
317,148,314416,1,2,0:0:0:0:
47,228,314618,2,0,P|-11:152|90:118,1,225,8|2,0:0|0:0,0:0:0:0:
186,124,315226,1,0,0:0:0:0:
456,112,315429,6,0,L|289:112,2,135,12|8|2,0:0|0:0|0:0,0:0:0:0:
111,112,316311,2,0,L|278:112,2,135,12|8|2,0:0|0:0|0:0,0:0:0:0:
449,60,317382,5,14,0:0:0:0:
256,192,317776,12,0,322118,0:0:0:0:
