osu file format v14

[General]
AudioFilename: saveme.ogg
AudioLeadIn: 0
PreviewTime: 250285
Countdown: 0
SampleSet: Normal
StackLeniency: 0.7
Mode: 1
LetterboxInBreaks: 0
WidescreenStoryboard: 1

[Editor]
DistanceSpacing: 1.4
BeatDivisor: 3
GridSize: 8
TimelineZoom: 2.519999

[Metadata]
Title:Save Me
TitleUnicode:Save Me
Artist:Avenged Sevenfold
ArtistUnicode:Avenged Sevenfold
Creator:seal--
Version:Misery
Source:
Tags:nightmare metal rock a7x english marathon heavy progressive metalcore Matthew Charles Sanders M. Shadows Jimmy Sullivan James The Rev Johnny Christ Zacky Vengeance Stevie Blacke David Palmer Synyster Syn Gates Mike Portnoy Ted Jensen Andy Walace Mike Elizondo Adam Hawkins male vocal vocals vocalist Warner Records Inc. 2010
BeatmapID:3990789
BeatmapSetID:1931752

[Difficulty]
HPDrainRate:4
CircleSize:3
OverallDifficulty:7
ApproachRate:9
SliderMultiplier:1.4
SliderTickRate:1

[Events]
//Background and Video events
0,0,"bg.jpg",0,0
//Break Periods
2,368710,382320
//Storyboard Layer 0 (Background)
//Storyboard Layer 1 (Fail)
//Storyboard Layer 2 (Pass)
//Storyboard Layer 3 (Foreground)
//Storyboard Layer 4 (Overlay)
//Storyboard Sound Samples

[TimingPoints]
185,315.789473684211,6,1,0,30,1,0
13914,-133.364617550446,6,1,0,30,0,0
14072,-128.597285067873,6,1,0,40,0,0
14230,-124.159021406728,6,1,0,45,0,0
14388,-120.016891891892,6,1,0,50,0,0
14546,-116.14221495709,6,1,0,55,0,0
14704,-112.509897070467,6,1,0,60,0,0
14862,-109.097888675624,6,1,0,65,0,0
15020,-105.886736214605,6,1,0,70,0,0
15178,-102.859211002533,6,1,0,75,0,0
15335,-100.017596339961,6,1,0,80,0,0
29547,-100,6,1,0,80,0,0
29626,-99.5850622406639,6,1,0,80,0,0
29705,-99.1735537190083,6,1,0,80,0,0
29784,-98.7654320987654,6,1,0,80,0,0
29863,-98.3606557377049,6,1,0,80,0,0
29942,-97.9591836734694,6,1,0,80,0,0
30021,-97.5609756097561,6,1,0,80,0,0
30100,-97.165991902834,6,1,0,80,0,0
30179,-96.7741935483871,6,1,0,80,0,0
30257,-96.3904422979156,6,1,0,80,0,0
30336,-96.0048610056205,6,1,0,80,0,0
30415,-95.6223522291709,6,1,0,80,0,0
30495,-95.2428793891596,6,1,0,80,0,0
37126,-95.2380952380952,6,1,0,80,0,0
37205,-95.6175298804781,6,1,0,80,0,0
37284,-96,6,1,0,80,0,0
37363,-96.3855421686747,6,1,0,80,0,0
37442,-96.7741935483871,6,1,0,80,0,0
37521,-97.165991902834,6,1,0,80,0,0
37600,-97.5609756097561,6,1,0,80,0,0
37679,-97.9591836734694,6,1,0,80,0,0
37757,-98.355553249987,6,1,0,80,0,0
37836,-98.760287529951,6,1,0,80,0,0
37915,-99.1683665463675,6,1,0,80,0,0
37994,-99.5798319327731,6,1,0,80,0,0
38073,-99.9947260165603,6,1,0,80,0,0
38391,-100,6,1,0,80,0,0
43521,-100.015748559613,6,1,0,80,0,0
43600,-100.062974364271,6,1,0,80,0,0
43679,-100.1416176197,6,1,0,80,0,0
43757,-100.249991032949,6,1,0,80,0,0
43836,-100.390733643821,6,1,0,80,0,0
43915,-100.56247056036,6,1,0,80,0,0
43994,-100.764974349029,6,1,0,80,0,0
44073,-100.997971753779,6,1,0,80,0,0
44152,-101.261141541495,6,1,0,80,0,0
44231,-101.554112046357,6,1,0,80,0,0
44310,-101.87645842827,6,1,0,80,0,0
44389,-102.227699663758,6,1,0,80,0,0
44468,-102.607295291347,6,1,0,80,0,0
44547,-103.014641937591,6,1,0,80,0,0
44626,-103.449069654455,6,1,0,80,0,0
44705,-103.909838103866,6,1,0,80,0,0
44784,-104.396132630788,6,1,0,80,0,0
44863,-104.907060272207,6,1,0,80,0,0
44942,-105.441645755876,6,1,0,80,0,0
45021,-105.998827549492,6,1,0,80,0,0
45100,-106.577454028071,6,1,0,80,0,0
45179,-107.176279834578,6,1,0,80,0,0
45257,-107.786031776448,6,1,0,80,0,0
45336,-108.420917788045,6,1,0,80,0,0
45415,-109.07169315692,6,1,0,80,0,0
45494,-109.736709430864,6,1,0,80,0,0
45573,-110.414212259916,6,1,0,80,0,0
45652,-111.102340864654,6,1,0,80,0,0
52285,-111.098766803689,6,1,0,80,0,0
52363,-110.080634064452,6,1,0,80,0,0
52442,-109.080992637033,6,1,0,80,0,0
52521,-108.099343296489,6,1,0,80,0,0
52600,-107.135204628241,6,1,0,80,0,0
52679,-106.188112240835,6,1,0,80,0,0
52757,-105.269294512505,6,1,0,80,0,0
52836,-104.354763927068,6,1,0,80,0,0
52915,-103.455986516673,6,1,0,80,0,0
52994,-102.572558724413,6,1,0,80,0,0
53073,-101.704090660829,6,1,0,80,0,0
53152,-100.850205530166,6,1,0,80,0,0
53231,-100.01053908529,6,1,0,80,0,0
59863,-100,6,1,0,80,0,0
59942,-99.5850622406639,6,1,0,80,0,0
60021,-99.1735537190083,6,1,0,80,0,0
60100,-98.7654320987654,6,1,0,80,0,0
60179,-98.3606557377049,6,1,0,80,0,0
60257,-97.9642451172884,6,1,0,80,0,0
60336,-97.565995986209,6,1,0,80,0,0
60415,-97.1709717097171,6,1,0,80,0,0
60494,-96.7791332754836,6,1,0,80,0,0
60652,-96.0048610056205,6,1,0,80,0,0
60731,-95.6223522291709,6,1,0,80,0,0
60810,-95.2428793891596,6,1,0,80,0,0
67284,-95.2380952380952,6,1,0,80,0,0
67363,-95.266619833795,6,1,0,80,0,0
67442,-95.3519367682041,6,1,0,80,0,0
67521,-95.4932745020478,6,1,0,80,0,0
67600,-95.6893440031575,6,1,0,80,0,0
67679,-95.9383345261524,6,1,0,80,0,0
67757,-96.2338118019539,6,1,0,80,0,0
67836,-96.5805168868657,6,1,0,80,0,0
67915,-96.971579658447,6,1,0,80,0,0
67994,-97.4030681340473,6,1,0,80,0,0
68073,-97.8705190456633,6,1,0,80,0,0
68152,-98.3689480212632,6,1,0,80,0,0
68231,-98.8928678887543,6,1,0,80,0,0
68310,-99.4363169857325,6,1,0,80,0,0
68389,-99.9928992574116,6,1,0,80,0,0
81494,-100.004873531849,6,1,0,80,0,0
81573,-99.6213224584911,6,1,0,80,0,0
81652,-99.2407022295304,6,1,0,80,0,0
81731,-98.8629793794565,6,1,0,80,0,0
81810,-98.488120950324,6,1,0,80,0,0
81889,-98.1160944821651,6,1,0,80,0,0
81968,-97.7468680036202,6,1,0,80,0,0
82047,-97.380410022779,6,1,0,80,0,0
82126,-97.0166895182261,6,1,0,80,0,0
82205,-96.6556759302873,6,1,0,80,0,0
82284,-96.2973391524708,6,1,0,80,0,0
82363,-95.9416495230971,6,1,0,80,0,0
82442,-95.5885778171146,6,1,0,80,0,0
82521,-95.2380952380952,6,1,0,80,0,0
82600,-94.8901734104046,6,1,0,80,0,0
82679,-94.5447843715444,6,1,0,80,0,0
82757,-94.2062253236617,6,1,0,80,0,0
82836,-93.8657883902841,6,1,0,80,0,0
82915,-93.5278030993619,6,1,0,80,0,0
82994,-93.1922430628094,6,1,0,80,0,0
83073,-92.8590822698887,6,1,0,80,0,0
83152,-92.5282950804888,6,1,0,80,0,0
83231,-92.1998562185478,6,1,0,80,0,0
83310,-91.8737407656145,6,1,0,80,0,0
83389,-91.5499241545463,6,1,0,80,0,0
83468,-91.2283821633397,6,1,0,80,0,0
83547,-90.9090909090909,6,1,0,80,0,0
83704,-100,6,1,0,80,0,0
97757,-99.9999862434465,6,1,0,80,0,0
97915,-99.6639596161333,6,1,0,80,0,0
98073,-98.6833448733765,6,1,0,80,0,0
98231,-97.1599465532186,6,1,0,80,0,0
98389,-95.2424378511545,6,1,0,80,0,0
98547,-93.1019470230141,6,1,0,80,0,0
98705,-90.9090909090909,6,1,0,80,0,0
99022,-95.2380952380952,6,1,0,80,0,0
105021,-90.9090909090909,6,1,0,80,0,0
105100,-90.9290245986112,6,1,0,80,0,0
105179,-90.9886855809402,6,1,0,80,0,0
105257,-91.0861575046962,6,1,0,80,0,0
105336,-91.2232468168305,6,1,0,80,0,0
105415,-91.3979703119201,6,1,0,80,0,0
105494,-91.6090623729352,6,1,0,80,0,0
105573,-91.8549713397014,6,1,0,80,0,0
105652,-92.1338582841168,6,1,0,80,0,0
105731,-92.4435966232644,6,1,0,80,0,0
105810,-92.7817730797668,6,1,0,80,0,0
105889,-93.1456905554801,6,1,0,80,0,0
105968,-93.5366195865682,6,1,0,80,0,0
106127,-92.2041399658845,6,1,0,80,0,0
106285,-90.9090909090909,6,1,0,80,0,0
106601,-95.2380952380952,6,1,0,80,0,0
111967,-90.9090909090909,6,1,0,80,0,0
112048,-91.1163045673562,6,1,0,80,0,0
112127,-91.3244650086755,6,1,0,80,0,0
112206,-91.5335787368482,6,1,0,80,0,0
112285,-91.7436523153797,6,1,0,80,0,0
112364,-91.9546923681682,6,1,0,80,0,0
112443,-92.1667055802008,6,1,0,80,0,0
112522,-92.3796986982595,6,1,0,80,0,0
112601,-92.5936785316367,6,1,0,80,0,0
112680,-92.808651952861,6,1,0,80,0,0
112758,-93.0218857698312,6,1,0,80,0,0
112837,-93.2388544434603,6,1,0,80,0,0
112916,-93.4568376194845,6,1,0,80,0,0
112994,-93.6758424299953,6,1,0,80,0,0
113073,-93.8958760740939,6,1,0,80,0,0
113152,-94.1169458186803,6,1,0,80,0,0
113231,-94.3390589992532,6,1,0,80,0,0
113310,-94.562223020721,6,1,0,80,0,0
113389,-94.7864453582255,6,1,0,80,0,0
113468,-95.0117335579758,6,1,0,80,0,0
113547,-95.2380952380952,6,1,0,80,0,0
113863,-111.111111111111,6,1,0,80,0,0
114178,-111.111111111111,6,1,0,70,0,0
119232,-111.111111111111,6,1,0,70,0,0
119311,-110.10347633996,6,1,0,70,0,0
119390,-109.101382488479,6,1,0,70,0,0
119469,-108.117364996004,6,1,0,70,0,0
119548,-107.150939126499,6,1,0,70,0,0
119627,-106.201637321969,6,1,0,70,0,0
119706,-105.269008448199,6,1,0,70,0,0
119785,-104.35261707989,6,1,0,70,0,0
119864,-103.45204282281,6,1,0,70,0,0
119943,-102.566879670746,6,1,0,70,0,0
120022,-101.696735395189,6,1,0,70,0,0
120101,-100.841230965818,6,1,0,70,0,0
120180,-100,6,1,0,70,0,0
120258,-99.1830749895266,6,1,0,70,0,0
120337,-98.3691700425885,6,1,0,70,0,0
120416,-97.5685143210385,6,1,0,70,0,0
120495,-96.7807869187532,6,1,0,70,0,0
120574,-96.0056772100568,6,1,0,70,0,0
120653,-95.2428844413155,6,1,0,70,0,0
120732,-94.4921173418479,6,1,0,70,0,0
120811,-93.7530937530938,6,1,0,70,0,0
120890,-93.0255402750491,6,1,0,70,0,0
120969,-92.3091919290379,6,1,0,70,0,0
121048,-91.603791835945,6,1,0,70,0,0
121127,-90.9090909090909,6,1,0,70,0,0
121441,-100,6,1,0,80,0,0
152075,-111.111111111111,6,1,0,80,0,0
158389,-105.299402636089,6,1,0,80,0,0
158547,-103.120593849151,6,1,0,80,0,0
158705,-101.030123110775,6,1,0,83,0,0
158784,-100.016352483486,6,1,0,84,0,0
158863,-99.022724774055,6,1,0,85,0,0
158942,-98.0486455492998,6,1,0,86,0,0
159021,-97.0935435377786,6,1,0,87,0,0
159179,-95.2380952380952,6,1,0,88,0,0
159342,-86.972493915599,6,1,0,90,0,1
165027,-86.9565217391304,6,1,0,90,0,0
165180,-84.0336134453781,6,1,0,88,0,0
165337,-81.3008130081301,6,1,0,86,0,0
165495,-78.7401574803149,6,1,0,84,0,0
165969,-81.3008130081301,6,1,0,86,0,0
166127,-84.0336134453781,6,1,0,84,0,0
166285,-86.9565217391304,6,1,0,82,0,0
166443,-90.0900900900901,6,1,0,80,0,0
166921,-90.9090909090909,6,1,0,90,0,1
196363,-91.9540229885057,6,1,0,90,0,1
196442,-93.0232558139535,6,1,0,88,0,1
196521,-94.1176470588235,6,1,0,86,0,1
196600,-95.2380952380952,6,1,0,85,0,1
196679,-96.3855421686747,6,1,0,83,0,1
196757,-97.5459175798734,6,1,0,81,0,1
196836,-98.75,6,1,0,80,0,1
196915,-99.984179718399,6,1,0,78,0,1
196994,-101.249599487344,6,1,0,76,0,1
197073,-102.54746065228,6,1,0,75,0,1
197152,-103.87902695595,6,1,0,73,0,1
197237,-105.245628642798,6,1,0,71,0,0
197390,-107.52688172043,6,1,0,70,0,0
197548,-111.111111111111,6,1,0,70,0,0
204495,-71.4285714285714,6,1,0,90,0,0
204809,-100,6,1,0,80,0,0
235443,-111.111111111111,6,1,0,80,0,0
241757,-105.28656401134,6,1,0,80,0,0
241915,-101.713119596155,6,1,0,82,0,0
241994,-100.015842002429,6,1,0,82,0,0
242073,-98.374279333091,6,1,0,83,0,0
242152,-96.7857325361541,6,1,0,84,0,0
242231,-95.2476741262258,6,1,0,85,0,0
242310,-93.7577347656057,6,1,0,86,0,0
242389,-92.3136910854413,6,1,0,87,0,0
242468,-90.9134546152739,6,1,0,87,0,0
242547,-89.5550617050452,6,1,0,88,0,0
242626,-88.2366643372933,6,1,0,89,0,0
242711,-86.9565217391304,6,1,0,90,0,1
248395,-86.9565217391304,6,1,0,90,0,0
248546,-84.0336134453781,6,1,0,88,0,0
248704,-81.3008130081301,6,1,0,86,0,0
248862,-78.7401574803149,6,1,0,84,0,0
249335,-81.3008130081301,6,1,0,86,0,0
249493,-84.0336134453781,6,1,0,84,0,0
249651,-86.9565217391304,6,1,0,82,0,0
249811,-90.0900900900901,6,1,0,80,0,0
250290,-90.9090909090909,6,1,0,90,0,1
279731,-90.9436404890392,6,1,0,90,0,1
279810,-91.0486326322708,6,1,0,90,0,1
279889,-91.2227525171547,6,1,0,89,0,1
279968,-91.4637864422638,6,1,0,89,0,1
280047,-91.7686208651509,6,1,0,88,0,1
280126,-92.1332359854511,6,1,0,88,0,1
280205,-92.5527024100123,6,1,0,87,0,1
280284,-93.0211844646853,6,1,0,87,0,1
280442,-94.0774214718459,6,1,0,86,0,1
280600,-95.2380952380952,6,1,0,85,0,1
282573,-95.688270763264,6,1,0,85,0,1
282652,-96.1485766478916,6,1,0,84,0,1
282810,-97.0826032155922,6,1,0,83,0,1
282968,-98.0349548319002,6,1,0,81,0,1
283047,-98.5181718920605,6,1,0,80,0,1
283126,-99.0061761294165,6,1,0,79,0,1
283284,-99.9968335391533,6,1,0,78,0,1
283442,-101.007516392132,6,1,0,76,0,1
283521,-101.520558073745,6,1,0,76,0,1
283600,-102.038838088468,6,1,0,75,0,1
283679,-102.562437075769,6,1,0,74,0,1
283757,-103.084707034438,6,1,0,73,0,1
283915,-104.159108150005,6,1,0,72,0,1
284073,-105.256141052561,6,1,0,70,0,1
284395,315.789473684211,4,1,0,60,1,0
284395,-111.111111111111,4,1,0,60,0,0
288179,-109.89010989011,4,1,0,62,0,0
288495,-108.695652173913,4,1,0,64,0,0
288811,-107.52688172043,4,1,0,66,0,0
288969,-106.951871657754,4,1,0,66,0,0
289126,-106.382978723404,4,1,0,68,0,0
289285,-105.820105820106,4,1,0,68,0,0
289442,-105.263157894737,4,1,0,70,0,0
305863,-131.578947368421,4,1,0,30,0,0
306021,-128.205128205128,4,1,0,35,0,0
306179,-125,4,1,0,40,0,0
306337,-121.951219512195,4,1,0,45,0,0
306495,-119.047619047619,4,1,0,50,0,0
306653,-116.279069767442,4,1,0,55,0,0
306811,-113.636363636364,4,1,0,60,0,0
306968,-111.111111111111,4,1,0,65,0,0
307125,-105.263157894737,4,1,0,75,0,0
307204,-104.752425976611,4,1,0,76,0,0
307283,-104.240173320953,4,1,0,76,0,0
307362,-103.73290624615,4,1,0,77,0,0
307441,-103.230552320235,4,1,0,77,0,0
307520,-102.733040507565,4,1,0,78,0,0
307599,-102.240301135329,4,1,0,78,0,0
307678,-101.752265861027,4,1,0,79,0,0
307757,-101.268867640868,4,1,0,79,0,0
307836,-100.790040699066,4,1,0,80,0,0
307915,-100.315720498004,4,1,0,80,0,0
307994,-99.8458437092375,4,1,0,80,0,0
308073,-99.3803481853054,4,1,0,81,0,0
308152,-98.9191729323308,4,1,0,81,0,0
308231,-98.4622580833772,4,1,0,82,0,0
308310,-98.009544872541,4,1,0,82,0,0
308389,-97.5609756097561,4,1,0,83,0,0
308467,-97.1220946998097,4,1,0,83,0,0
308546,-96.6815937535882,4,1,0,84,0,0
308625,-96.2450705835286,4,1,0,84,0,0
308704,-95.8124715521165,4,1,0,85,0,0
308783,-95.3837439818748,4,1,0,85,0,0
308862,-94.9588361339799,4,1,0,85,0,0
308941,-94.5376971874474,4,1,0,86,0,0
309020,-94.1202772188688,4,1,0,86,0,0
309178,-93.2963988919667,4,1,0,87,0,0
309257,-92.8898449997242,4,1,0,88,0,0
309336,-92.4868189806678,4,1,0,88,0,0
309415,-92.0872751134686,4,1,0,89,0,0
309494,-91.6911684634651,4,1,0,89,0,0
309573,-91.2984548658173,4,1,0,90,0,0
309658,-90.9090909090909,4,1,0,90,0,1
328836,-91.6030534351145,4,1,0,90,0,1
328915,-92.3076923076923,4,1,0,89,0,1
328994,-93.0232558139535,4,1,0,88,0,1
329073,-93.75,4,1,0,87,0,1
329152,-94.488188976378,4,1,0,86,0,1
329237,-95.2380952380952,4,1,0,85,0,0
329389,-96.7741935483871,4,1,0,84,0,0
329467,-97.550936406668,4,1,0,83,0,0
329625,-99.163179916318,4,1,0,81,0,0
329704,-99.9894525893893,4,1,0,80,0,0
329868,-90.9090909090909,4,1,0,90,0,1
336336,-91.9540229885057,4,1,0,90,0,1
336415,-92.485549132948,4,1,0,90,0,1
336494,-93.0232558139535,4,1,0,90,0,1
336573,-93.5672514619883,4,1,0,90,0,1
336652,-94.1176470588235,4,1,0,90,0,1
336731,-94.6745562130177,4,1,0,90,0,1
336811,-95.2380952380952,4,1,0,90,0,1
337125,-97.5534460137377,4,1,0,85,0,1
337447,-99.9920892334467,4,1,0,80,0,0
346283,-100,4,1,0,80,0,0
346362,-100.551938862157,4,1,0,81,0,0
346441,-101.117199174554,4,1,0,82,0,0
346520,-101.688850722771,4,1,0,82,0,0
346599,-102.267002518892,4,1,0,83,0,0
346678,-102.851766068327,4,1,0,84,0,0
346757,-103.443255441508,4,1,0,84,0,0
346836,-104.041587348074,4,1,0,85,0,0
346915,-104.646881213639,4,1,0,86,0,0
346994,-105.259259259259,4,1,0,87,0,0
347073,-105.878846583712,4,1,0,87,0,0
347152,-106.505771248688,4,1,0,88,0,0
347231,-107.140164367036,4,1,0,89,0,0
347310,-107.782160194175,4,1,0,89,0,0
347395,-108.431896222816,4,1,0,90,0,1
347705,-111.102423768569,4,1,0,90,0,1
356547,-86.9565217391304,4,1,0,90,0,1
356704,-90.069786,4,1,0,90,0,1
356862,-93.29452,4,1,0,90,0,1
357020,-96.63469,4,1,0,90,0,1
357178,-100.09446,4,1,0,90,0,1
357336,-103.6781,4,1,0,90,0,1
357494,-107.39003,4,1,0,90,0,1
357653,-111.111111111111,4,1,0,90,0,1
364705,-109.289617486339,4,1,0,90,0,1
364811,-107.52688172043,4,1,0,90,0,1
364916,-105.820105820106,4,1,0,90,0,1
365022,-104.166666666667,4,1,0,90,0,1
365127,-102.564102564103,4,1,0,90,0,1
365232,-100,4,1,0,90,0,1
367126,-102.040816326531,4,1,0,90,0,1
367284,-104.166666666667,4,1,0,85,0,1
367442,-106.382978723404,4,1,0,80,0,1
367600,-108.695652173913,4,1,0,75,0,1
367763,315.789473684211,6,1,0,70,1,0
367763,-111.111111111111,6,1,0,70,0,0
368073,-181.818181818182,6,1,0,50,0,0
382915,-125,6,1,0,50,0,0
397362,-124.223602484472,6,1,0,51,0,0
397441,-123.456790123457,6,1,0,52,0,0
397599,-121.951219512195,6,1,0,54,0,0
397678,-121.212121212121,6,1,0,55,0,0
397757,-120.481927710843,6,1,0,56,0,0
397914,-119.056589556175,6,1,0,58,0,0
397993,-118.352059925094,6,1,0,59,0,0
398073,-117.647058823529,6,1,0,60,0,0
412600,-116.279069767442,6,1,0,62,0,0
412758,-114.942528735632,6,1,0,64,0,0
412915,-113.636363636364,6,1,0,66,0,0
413231,-111.111111111111,6,1,0,70,0,0
416178,-112.898284313725,6,1,0,70,0,0
416283,-114.743889148373,6,1,0,70,0,0
416388,-116.650838873061,6,1,0,70,0,0
416493,-118.622243682601,6,1,0,70,0,0
416599,-120.681185524808,6,1,0,70,0,0
416704,-122.792402532489,6,1,0,70,0,0
416809,-124.978802781075,6,1,0,70,0,0
417020,-117.647058823529,6,1,0,70,0,0
443072,-115.950018375597,6,1,0,70,0,0
443151,-115.114475964608,6,1,0,70,0,0
443230,-114.290889331643,6,1,0,70,0,0
443388,-112.678571428571,6,1,0,70,0,0
443546,-111.111111111111,6,1,0,70,0,0
444888,-110.604998832049,6,1,0,70,0,0
444967,-110.097076091379,6,1,0,70,0,0
445125,-109.095098208628,6,1,0,70,0,0
445283,-108.111193561276,6,1,0,70,0,0
445441,-107.144877524467,6,1,0,70,0,0
445757,-105.263157894737,6,1,0,70,0,0
445835,-105.30433581255,6,1,0,70,0,0
445914,-105.429871343571,6,1,0,70,0,0
445993,-105.63941395797,6,1,0,70,0,0
446072,-105.932356773497,6,1,0,70,0,0
446151,-106.307829288684,6,1,0,70,0,0
446230,-106.764677886469,6,1,0,70,0,0
446309,-107.301441085385,6,1,0,70,0,0
446388,-107.916319837986,6,1,0,70,0,0
446467,-108.607143292666,6,1,0,70,0,0
446546,-109.371330579919,6,1,0,70,0,0
446625,-110.205849361003,6,1,0,70,0,0
446704,-111.107172087781,6,1,0,70,0,0
446783,-112.071231167313,6,1,0,70,0,0
446862,-113.093374500704,6,1,0,70,0,0
446941,-114.168323166394,6,1,0,70,0,0
447020,-115.290133332479,6,1,0,70,0,0
447099,-116.452164794651,6,1,0,70,0,0
447178,-117.647058823529,6,1,0,70,0,0
447336,-100,6,1,0,80,0,0
453179,-76.9230769230769,6,1,0,70,0,0
454920,-100,6,1,0,90,0,1
468499,-100,6,1,0,90,0,0
468599,-100.081823048223,6,1,0,89,0,0
468704,-100.327200512415,6,1,0,88,0,0
468810,-100.735842931649,6,1,0,88,0,0
468914,-101.307219608946,6,1,0,87,0,0
469020,-102.048243612422,6,1,0,86,0,0
469125,-102.943658115973,6,1,0,86,0,0
469230,-103.997863247745,6,1,0,85,0,0
469335,-105.208316079163,6,1,0,84,0,0
469441,-106.585256030931,6,1,0,83,0,0
469546,-108.098042007007,6,1,0,83,0,0
469651,-109.752894406324,6,1,0,82,0,0
469757,-111.559713581328,6,1,0,81,0,0
469862,-113.474550879747,6,1,0,81,0,0
469967,-115.501703769415,6,1,0,80,0,0
470078,-100,6,1,0,90,0,1
483257,-99.981741104338,6,1,0,90,0,1
483341,-99.9279894681781,6,1,0,90,0,0
483414,-99.837680756586,6,1,0,90,0,0
483493,-99.711798497726,6,1,0,90,0,0
483572,-99.5510698330849,6,1,0,90,0,0
483651,-99.3564166793632,6,1,0,90,0,0
483730,-99.1289457920218,6,1,0,90,0,0
483809,-98.8699370397159,6,1,0,90,0,0
483888,-98.5808301231544,6,1,0,90,0,0
483967,-98.2632099956926,6,1,0,90,0,0
484046,-97.9187912589298,6,1,0,90,0,0
484125,-97.5494018145985,6,1,0,90,0,0
484204,-97.156966054313,6,1,0,90,0,0
484283,-96.743487861757,6,1,0,90,0,0
484362,-96.3110336883728,6,1,0,90,0,0
484441,-95.8617159444885,6,1,0,90,0,0
484520,-95.3976769241379,6,1,0,90,0,0
484599,-94.9210734547133,6,1,0,90,0,0
484678,-94.4340624331886,6,1,0,90,0,0
484757,-93.9387873800583,6,1,0,90,0,0
484835,-93.4437429642043,6,1,0,90,0,0
484914,-92.9382950908549,6,1,0,90,0,0
484993,-92.4307907729453,6,1,0,90,0,0
485072,-91.9232095637484,6,1,0,90,0,0
485151,-91.4174682609003,6,1,0,90,0,0
485236,-90.9090909090909,6,1,0,90,0,1
506493,-92.0109550725482,6,1,0,90,0,1
506599,-93.1618384565461,6,1,0,89,0,1
506705,-94.3306051735468,6,1,0,88,0,1
506809,-95.5290701191845,6,1,0,87,0,1
506914,-96.758379802684,6,1,0,86,0,1
507020,-98.0319115912336,6,1,0,85,0,1
507125,-99.3269170283701,6,1,0,84,0,1
507230,-100.656594632498,6,1,0,84,0,1
507335,-102.022355753699,6,1,0,83,0,1
507441,-103.439240091713,6,1,0,82,0,1
507546,-104.882098970442,6,1,0,81,0,1
507652,-106.360348861944,6,1,0,80,0,1
507809,-98.0782254545274,6,1,0,85,0,1
507967,-90.9509032057891,6,1,0,90,0,1
508284,-90.9090909090909,6,1,0,90,0,1
514678,-91.603791835945,6,1,0,90,0,1
514757,-92.3091919290379,6,1,0,89,0,1
514835,-93.0164031038208,6,1,0,89,0,1
514914,-93.7438131063156,6,1,0,89,0,1
514993,-94.4826898134291,6,1,0,88,0,1
515072,-95.2333065164923,6,1,0,88,0,1
515151,-95.9959452610238,6,1,0,87,0,1
515230,-96.7708972000817,6,1,0,87,0,1
515309,-97.5584629648707,6,1,0,86,0,1
515388,-98.3589530535937,6,1,0,86,0,1
515467,-99.1726882396062,6,1,0,85,0,1
515547,-100,6,1,0,85,0,1
518467,-100.496752006114,6,1,0,85,0,1
518546,-101.004928630865,6,1,0,84,0,1
518704,-102.036857419981,6,1,0,83,0,1
518862,-103.090089501535,6,1,0,82,0,1
519020,-102.040816326531,6,1,0,81,0,1
519179,-101.010101010101,6,1,0,80,0,1
519341,-100,6,1,0,80,0,0
548783,-99.9145217415731,6,1,0,81,0,0
548862,-99.6604153694597,6,1,0,82,0,0
548941,-99.2445458772121,6,1,0,82,0,0
549020,-98.6779659358373,6,1,0,83,0,0
549099,-97.9753716710454,6,1,0,84,0,0
549178,-97.1544131218801,6,1,0,85,0,0
549257,-96.2349187893397,6,1,0,86,0,0
549335,-95.2511063652092,6,1,0,87,0,0
549414,-94.1993343815163,6,1,0,87,0,0
549493,-93.1135039143214,6,1,0,88,0,0
549572,-92.0146790220347,6,1,0,89,0,0
549652,-90.9090909090909,6,1,0,90,0,0
549810,-87.719298245614,6,1,0,92,0,0
549968,-84.7457627118644,6,1,0,94,0,0
550126,-81.9672131147541,6,1,0,96,0,0
550600,-84.7457627118644,6,1,0,94,0,0
550758,-81.9672131147541,6,1,0,96,0,0
550915,-79.3650793650794,6,1,0,98,0,0
551073,-76.9230769230769,6,1,0,100,0,0
551547,-79.3650793650794,6,1,0,98,0,0
551705,-81.9672131147541,6,1,0,96,0,0
551863,-84.7457627118644,6,1,0,94,0,0
552021,-87.719298245614,6,1,0,92,0,0
552494,-84.7457627118644,6,1,0,94,0,0
552652,-87.719298245614,6,1,0,92,0,0
552810,-90.9090909090909,6,1,0,90,0,0
552968,-94.3396226415094,6,1,0,88,0,0
553447,315.789473684211,4,1,0,80,1,0
553599,-90.9090909090908,4,1,0,80,0,0
554710,-111.111111111111,4,1,0,80,0,0
555972,-115.384029839385,4,1,0,80,0,0
557235,-119.9987333555,4,1,0,80,0,0
558499,-125.00206165163,4,1,0,80,0,0
559762,-130.436279149815,4,1,0,80,0,0
561025,-136.364454200327,4,1,0,80,0,0
562284,-142.857142857143,4,1,0,30,0,0
563547,-142.857142857143,4,1,0,50,0,0
573652,-133.333333333333,4,1,0,60,0,0
583757,-125,4,1,0,70,0,0
593704,-121.212121212121,4,1,0,70,0,0
593863,-117.647058823529,4,1,0,70,0,0
600967,-115.942028985507,4,1,0,70,0,0
601046,-115.107913669065,4,1,0,70,0,0
601125,-114.285714285714,4,1,0,70,0,0
601283,-112.676056338028,4,1,0,70,0,0
601441,-111.111111111111,4,1,0,70,0,0
601598,-111.211538389729,4,1,0,70,0,0
601677,-111.3380325457,4,1,0,70,0,0
601756,-111.515379938228,4,1,0,70,0,0
601914,-112.022612380798,4,1,0,70,0,0
602072,-112.733128072236,4,1,0,70,0,0
602151,-113.164539134938,4,1,0,70,0,0
602230,-113.646644658374,4,1,0,70,0,0
602309,-114.17935986259,4,1,0,70,0,0
602388,-114.762569789233,4,1,0,70,0,0
602546,-116.079822485066,4,1,0,70,0,0
602625,-116.813420920094,4,1,0,70,0,0
602704,-117.596608321278,4,1,0,70,0,0
602783,-118.42900401711,4,1,0,70,0,0
602862,-119.310145769563,4,1,0,70,0,0
603019,-121.203682518541,4,1,0,70,0,0
603098,-122.226712047012,4,1,0,70,0,0
603177,-123.295596783999,4,1,0,70,0,0
603256,-124.409282992973,4,1,0,70,0,0
603335,-125.566556281926,4,1,0,70,0,0
603414,-126.766026184987,4,1,0,70,0,0
603493,-128.006110371743,4,1,0,70,0,0
603572,-129.285018644433,4,1,0,70,0,0
603651,-130.600736917555,4,1,0,70,0,0
603809,-133.333333333333,4,1,0,70,0,0
603968,-111.111111111111,4,1,0,80,0,0
613125,-110.236220472441,4,1,0,80,0,0
613283,-109.375,4,1,0,80,0,0
613441,-108.527131782946,4,1,0,80,0,0
613598,-107.697551000536,4,1,0,80,0,0
613756,-106.875392568971,4,1,0,80,0,0
614073,-105.263157894737,4,1,0,80,0,0
623467,-104.712041884817,4,1,0,80,0,0
623546,-104.166666666667,4,1,0,80,0,0
623625,-103.626943005181,4,1,0,80,0,0
623704,-103.092783505155,4,1,0,80,0,0
623783,-102.564102564103,4,1,0,80,0,0
623862,-102.040816326531,4,1,0,80,0,0
623941,-101.522842639594,4,1,0,80,0,0
624019,-101.016559043539,4,1,0,80,0,0
624098,-100.508905852417,4,1,0,80,0,0
624178,-100,4,1,0,80,0,0
629236,-86.9565217391304,4,1,0,90,0,1
633098,-86.7236584612216,4,1,0,91,0,1
633177,-86.4890775867972,4,1,0,91,0,1
633256,-86.2557623356667,4,1,0,92,0,1
633335,-86.0237024928484,4,1,0,92,0,1
633414,-85.7928879529939,4,1,0,93,0,1
633493,-85.5633087189215,4,1,0,94,0,1
633572,-85.3349549001723,4,1,0,94,0,1
633651,-85.1078167115903,4,1,0,95,0,1
633730,-84.8818844719245,4,1,0,96,0,1
633809,-84.6571486024533,4,1,0,96,0,1
633888,-84.4335996256309,4,1,0,97,0,1
633967,-84.2112281637552,4,1,0,97,0,1
634046,-83.9900249376559,4,1,0,98,0,1
634125,-83.7699807654043,4,1,0,99,0,1
634204,-83.5510865610426,4,1,0,99,0,1
634289,-83.3333333333333,4,1,0,100,0,0
634599,-100,4,1,0,80,0,0
636598,-100.041828277812,4,1,0,80,0,0
636704,-100.170582540729,4,1,0,79,0,0
636809,-100.383945269355,4,1,0,79,0,0
636914,-100.682900165719,4,1,0,78,0,0
637019,-101.067685031696,4,1,0,78,0,0
637125,-101.54349207174,4,1,0,78,0,0
637230,-102.10168305045,4,1,0,77,0,0
637335,-102.746703753994,4,1,0,77,0,0
637441,-103.486330866912,4,1,0,76,0,0
637546,-104.306990394163,4,1,0,76,0,0
637651,-105.215595196525,4,1,0,75,0,0
637756,-106.212443127684,4,1,0,75,0,0
637862,-107.30851028045,4,1,0,75,0,0
637967,-108.483212012092,4,1,0,74,0,0
638072,-109.746403356785,4,1,0,74,0,0
638177,-111.097817830242,4,1,0,73,0,0
638283,-112.551061498299,4,1,0,73,0,0
638388,-114.077879468559,4,1,0,73,0,0
638598,-117.386883715781,4,1,0,72,0,0
638704,-119.182613354302,4,1,0,71,0,0
638809,-121.040919423555,4,1,0,71,0,0
638914,-122.974955664746,4,1,0,70,0,0
639020,-124.980570169449,4,1,0,70,0,0
639336,-100,4,1,0,80,0,0
640599,-142.884851619577,4,1,0,80,0,0
642179,-142.884851619577,4,1,0,50,0,0
642335,-138.636221065178,4,1,0,52,0,0
642493,-134.632957660676,4,1,0,54,0,0
642651,-130.854402273669,4,1,0,56,0,0
642809,-127.282151701895,4,1,0,59,0,0
642967,-123.899758928071,4,1,0,61,0,0
643125,-120.692479930097,4,1,0,63,0,0
643283,-117.647058823529,4,1,0,65,0,0
643441,-114.751544732333,4,1,0,67,0,0
643598,-112.012164216928,4,1,0,69,0,0
643756,-109.384280340527,4,1,0,71,0,0
643914,-106.876873972338,4,1,0,74,0,0
644072,-104.481845688351,4,1,0,76,0,0
644230,-102.191806159253,4,1,0,78,0,0
644389,-100,6,1,0,80,0,0
644394,315.789473684211,6,1,0,80,1,0

[HitObjects]
146,157,185,5,0,0:0:0:0:
182,136,500,1,0,0:0:0:0:
154,142,658,1,8,0:0:0:0:
128,162,816,1,0,0:0:0:0:
122,155,974,1,0,0:0:0:0:
160,158,1132,1,0,0:0:0:0:
145,138,1448,1,0,0:0:0:0:
145,138,1606,1,8,0:0:0:0:
145,138,1763,1,8,0:0:0:0:
156,156,1921,1,0,0:0:0:0:
156,152,2079,1,0,0:0:0:0:
154,165,2395,1,0,0:0:0:0:
133,174,2553,1,8,0:0:0:0:
127,177,2711,1,8,0:0:0:0:
127,177,2869,1,0,0:0:0:0:
127,177,3027,1,0,0:0:0:0:
145,152,3185,1,0,0:0:0:0:
145,152,3342,1,8,0:0:0:0:
133,158,3500,1,0,0:0:0:0:
133,158,3658,1,8,0:0:0:0:
133,158,3816,1,8,0:0:0:0:
146,157,3974,1,0,0:0:0:0:
106,143,4290,1,0,0:0:0:0:
106,143,4448,1,8,0:0:0:0:
106,143,4606,1,8,0:0:0:0:
106,143,4763,1,0,0:0:0:0:
179,157,4921,1,0,0:0:0:0:
165,152,5237,1,0,0:0:0:0:
165,152,5395,1,8,0:0:0:0:
165,152,5553,1,0,0:0:0:0:
166,154,5711,1,0,0:0:0:0:
154,156,5869,1,0,0:0:0:0:
154,156,6185,1,0,0:0:0:0:
168,145,6342,1,8,0:0:0:0:
154,156,6500,1,8,0:0:0:0:
168,145,6658,1,0,0:0:0:0:
134,152,6816,1,0,0:0:0:0:
160,155,6974,1,0,0:0:0:0:
159,155,7132,1,8,0:0:0:0:
159,167,7290,1,8,0:0:0:0:
159,167,7448,1,0,0:0:0:0:
134,152,7606,1,8,0:0:0:0:
146,157,7763,1,0,0:0:0:0:
163,141,8079,1,0,0:0:0:0:
162,141,8237,1,8,0:0:0:0:
162,141,8395,1,0,0:0:0:0:
156,164,8553,1,0,0:0:0:0:
145,149,8711,1,0,0:0:0:0:
163,141,9027,1,0,0:0:0:0:
163,141,9185,1,8,0:0:0:0:
162,141,9342,1,8,0:0:0:0:
162,141,9500,1,0,0:0:0:0:
156,152,9658,1,0,0:0:0:0:
154,165,9974,1,0,0:0:0:0:
163,141,10132,1,8,0:0:0:0:
154,161,10290,1,8,0:0:0:0:
162,141,10448,1,0,0:0:0:0:
160,157,10606,1,0,0:0:0:0:
146,175,10763,1,0,0:0:0:0:
154,165,10921,1,8,0:0:0:0:
179,170,11079,1,0,0:0:0:0:
155,167,11237,1,8,0:0:0:0:
155,167,11395,1,8,0:0:0:0:
146,157,11553,1,0,0:0:0:0:
162,140,11869,1,0,0:0:0:0:
162,140,12027,1,8,0:0:0:0:
122,122,12185,1,8,0:0:0:0:
122,122,12342,1,0,0:0:0:0:
160,158,12500,1,0,0:0:0:0:
162,140,12816,1,0,0:0:0:0:
162,140,12974,1,8,0:0:0:0:
154,161,13132,1,0,0:0:0:0:
156,164,13290,1,0,0:0:0:0:
160,158,13448,1,8,0:0:0:0:
142,152,13921,1,0,0:0:0:0:
142,152,14079,1,0,0:0:0:0:
142,152,14237,1,0,0:0:0:0:
133,146,14395,1,8,0:0:0:0:
142,152,14553,1,8,0:0:0:0:
142,152,14711,1,8,0:0:0:0:
133,159,14869,1,8,0:0:0:0:
139,144,15027,1,8,0:0:0:0:
142,152,15185,1,8,0:0:0:0:
140,146,15342,1,4,0:0:0:0:
142,152,15658,1,0,0:0:0:0:
140,144,15816,1,8,0:0:0:0:
136,144,15974,1,0,0:0:0:0:
136,144,16053,1,0,0:0:0:0:
136,144,16132,1,0,0:0:0:0:
136,144,16211,1,0,0:0:0:0:
136,144,16290,1,8,0:0:0:0:
141,137,16606,1,8,0:0:0:0:
137,137,16763,1,0,0:0:0:0:
138,136,16921,1,8,0:0:0:0:
136,144,17000,1,8,0:0:0:0:
136,144,17079,1,8,0:0:0:0:
136,144,17158,1,8,0:0:0:0:
133,136,17237,1,0,0:0:0:0:
133,136,17553,1,0,0:0:0:0:
145,142,17711,1,8,0:0:0:0:
128,125,17869,1,0,0:0:0:0:
144,137,18027,1,0,0:0:0:0:
136,136,18185,1,8,0:0:0:0:
133,136,18263,1,8,0:0:0:0:
133,136,18342,1,0,0:0:0:0:
133,136,18421,1,0,0:0:0:0:
133,136,18500,1,8,0:0:0:0:
133,136,18579,1,0,0:0:0:0:
138,134,18658,1,8,0:0:0:0:
138,134,18737,1,8,0:0:0:0:
138,134,18816,1,0,0:0:0:0:
138,134,18895,1,0,0:0:0:0:
139,131,18974,1,0,0:0:0:0:
139,128,19053,1,0,0:0:0:0:
139,128,19132,1,8,0:0:0:0:
130,128,19448,1,0,0:0:0:0:
130,128,19606,1,8,0:0:0:0:
116,126,19763,1,0,0:0:0:0:
113,126,19842,1,8,0:0:0:0:
113,126,19921,1,0,0:0:0:0:
113,126,20000,1,0,0:0:0:0:
113,126,20079,1,8,0:0:0:0:
123,126,20395,1,0,0:0:0:0:
120,123,20553,1,8,0:0:0:0:
135,123,20711,1,8,0:0:0:0:
135,123,20790,1,0,0:0:0:0:
135,123,20869,1,8,0:0:0:0:
139,131,20948,1,8,0:0:0:0:
139,128,21027,1,0,0:0:0:0:
103,123,21342,1,0,0:0:0:0:
105,123,21500,1,0,0:0:0:0:
110,136,21658,1,8,0:0:0:0:
110,134,21816,1,0,0:0:0:0:
101,119,21974,1,8,0:0:0:0:
101,119,22053,1,8,0:0:0:0:
103,123,22132,1,0,0:0:0:0:
103,123,22211,1,0,0:0:0:0:
103,123,22290,1,8,0:0:0:0:
103,123,22369,1,8,0:0:0:0:
105,123,22448,1,0,0:0:0:0:
105,123,22527,1,8,0:0:0:0:
107,125,22606,1,0,0:0:0:0:
107,125,22685,1,0,0:0:0:0:
107,125,22763,1,0,0:0:0:0:
107,125,22842,1,0,0:0:0:0:
121,140,22921,1,8,0:0:0:0:
122,123,23237,1,0,0:0:0:0:
119,136,23395,1,8,0:0:0:0:
126,127,23553,1,8,0:0:0:0:
130,127,23632,1,8,0:0:0:0:
125,120,23711,1,0,0:0:0:0:
136,144,23790,1,0,0:0:0:0:
136,144,23869,1,8,0:0:0:0:
132,132,24185,1,8,0:0:0:0:
132,128,24342,1,0,0:0:0:0:
133,141,24500,1,0,0:0:0:0:
141,126,24579,1,0,0:0:0:0:
130,127,24658,1,8,0:0:0:0:
133,141,24737,1,8,0:0:0:0:
121,136,24816,1,0,0:0:0:0:
133,136,25132,1,0,0:0:0:0:
145,142,25290,1,8,0:0:0:0:
145,136,25448,1,8,0:0:0:0:
144,137,25606,1,0,0:0:0:0:
136,136,25763,1,8,0:0:0:0:
138,133,25842,1,8,0:0:0:0:
133,136,25921,1,0,0:0:0:0:
133,136,26000,1,8,0:0:0:0:
133,136,26079,1,0,0:0:0:0:
133,136,26158,1,0,0:0:0:0:
135,142,26237,1,8,0:0:0:0:
138,133,26316,1,0,0:0:0:0:
135,147,26395,1,8,0:0:0:0:
134,135,26474,1,8,0:0:0:0:
134,135,26553,1,8,0:0:0:0:
134,135,26632,1,8,0:0:0:0:
139,128,26711,1,0,0:0:0:0:
130,128,27027,1,0,0:0:0:0:
130,128,27185,1,8,0:0:0:0:
135,123,27342,1,0,0:0:0:0:
128,133,27421,1,8,0:0:0:0:
128,132,27500,1,0,0:0:0:0:
122,142,27579,1,0,0:0:0:0:
121,135,27658,1,8,0:0:0:0:
123,126,27974,1,8,0:0:0:0:
128,118,28132,1,0,0:0:0:0:
121,118,28290,1,8,0:0:0:0:
126,121,28369,1,0,0:0:0:0:
126,121,28448,1,8,0:0:0:0:
126,121,28527,1,8,0:0:0:0:
117,124,28606,1,0,0:0:0:0:
103,123,28921,1,0,0:0:0:0:
105,123,29079,1,0,0:0:0:0:
110,136,29237,1,8,0:0:0:0:
97,127,29395,1,8,0:0:0:0:
105,128,29553,1,0,0:0:0:0:
105,128,29632,1,0,0:0:0:0:
103,123,29711,1,8,0:0:0:0:
103,123,29790,1,0,0:0:0:0:
103,123,29869,1,8,0:0:0:0:
103,123,29948,1,8,0:0:0:0:
105,123,30027,1,0,0:0:0:0:
105,123,30106,1,0,0:0:0:0:
107,125,30185,1,8,0:0:0:0:
105,109,30263,1,8,0:0:0:0:
104,109,30342,1,0,0:0:0:0:
103,109,30421,1,0,0:0:0:0:
106,123,30500,1,12,0:0:0:0:
116,118,30816,1,8,0:0:0:0:
116,116,30974,1,8,0:0:0:0:
110,116,31132,1,0,0:0:0:0:
110,116,31211,1,0,0:0:0:0:
107,125,31290,1,0,0:0:0:0:
111,117,31369,1,0,0:0:0:0:
111,117,31448,1,8,0:0:0:0:
116,118,31606,1,0,0:0:0:0:
116,118,31763,1,8,0:0:0:0:
116,116,31921,1,0,0:0:0:0:
115,110,32079,1,8,0:0:0:0:
115,110,32158,1,8,0:0:0:0:
116,106,32237,1,8,0:0:0:0:
116,106,32316,1,8,0:0:0:0:
116,106,32395,1,0,0:0:0:0:
123,106,32711,1,8,0:0:0:0:
123,106,32869,1,8,0:0:0:0:
124,103,32948,1,8,0:0:0:0:
124,103,33027,1,0,0:0:0:0:
124,103,33185,1,0,0:0:0:0:
123,102,33342,1,8,0:0:0:0:
123,102,33421,1,8,0:0:0:0:
123,106,33500,1,0,0:0:0:0:
123,106,33579,1,8,0:0:0:0:
123,106,33658,1,0,0:0:0:0:
123,106,33737,1,0,0:0:0:0:
123,106,33816,1,0,0:0:0:0:
123,106,33895,1,0,0:0:0:0:
124,103,33974,1,8,0:0:0:0:
124,103,34053,1,8,0:0:0:0:
124,103,34132,1,0,0:0:0:0:
124,103,34211,1,0,0:0:0:0:
123,102,34290,1,12,0:0:0:0:
126,98,34606,1,0,0:0:0:0:
126,98,34763,1,8,0:0:0:0:
123,97,34921,1,0,0:0:0:0:
124,103,35000,1,8,0:0:0:0:
128,93,35079,1,0,0:0:0:0:
117,98,35158,1,0,0:0:0:0:
124,103,35237,1,8,0:0:0:0:
126,98,35395,1,0,0:0:0:0:
126,98,35553,1,8,0:0:0:0:
116,94,35711,1,0,0:0:0:0:
123,97,35869,1,8,0:0:0:0:
123,97,35948,1,0,0:0:0:0:
124,93,36027,1,8,0:0:0:0:
123,93,36106,1,8,0:0:0:0:
121,93,36185,1,0,0:0:0:0:
130,93,36342,1,0,0:0:0:0:
126,98,36500,1,8,0:0:0:0:
130,92,36658,1,0,0:0:0:0:
123,97,36737,1,0,0:0:0:0:
123,97,36816,1,8,0:0:0:0:
123,97,36974,1,0,0:0:0:0:
123,93,37132,1,8,0:0:0:0:
126,97,37211,1,8,0:0:0:0:
130,93,37290,1,0,0:0:0:0:
130,93,37369,1,0,0:0:0:0:
126,98,37448,1,8,0:0:0:0:
126,98,37527,1,8,0:0:0:0:
130,92,37606,1,8,0:0:0:0:
130,92,37685,1,0,0:0:0:0:
123,97,37763,1,8,0:0:0:0:
125,90,37842,1,0,0:0:0:0:
125,90,37921,1,8,0:0:0:0:
125,90,38000,1,8,0:0:0:0:
106,123,38079,1,4,0:0:0:0:
117,100,38395,1,8,0:0:0:0:
117,100,38553,1,0,0:0:0:0:
126,127,38711,1,8,0:0:0:0:
122,126,38790,1,8,0:0:0:0:
125,120,38869,1,0,0:0:0:0:
136,144,38948,1,0,0:0:0:0:
136,144,39027,1,8,0:0:0:0:
132,113,39342,1,0,0:0:0:0:
132,114,39500,1,8,0:0:0:0:
132,136,39658,1,0,0:0:0:0:
132,136,39737,1,0,0:0:0:0:
136,124,39816,1,8,0:0:0:0:
133,123,39895,1,8,0:0:0:0:
132,136,39974,1,0,0:0:0:0:
133,136,40290,1,0,0:0:0:0:
145,142,40448,1,8,0:0:0:0:
145,136,40606,1,8,0:0:0:0:
144,137,40763,1,0,0:0:0:0:
136,136,40921,1,8,0:0:0:0:
138,133,41000,1,8,0:0:0:0:
133,136,41079,1,0,0:0:0:0:
133,136,41158,1,0,0:0:0:0:
133,136,41237,1,8,0:0:0:0:
133,136,41316,1,0,0:0:0:0:
135,142,41395,1,8,0:0:0:0:
138,133,41474,1,0,0:0:0:0:
135,147,41553,1,8,0:0:0:0:
134,135,41632,1,8,0:0:0:0:
134,135,41711,1,0,0:0:0:0:
134,135,41790,1,0,0:0:0:0:
139,128,41869,1,8,0:0:0:0:
130,128,42185,1,0,0:0:0:0:
130,128,42342,1,8,0:0:0:0:
135,123,42500,1,0,0:0:0:0:
128,133,42579,1,8,0:0:0:0:
128,132,42658,1,0,0:0:0:0:
122,142,42737,1,0,0:0:0:0:
121,135,42816,1,8,0:0:0:0:
123,126,43132,1,8,0:0:0:0:
128,118,43290,1,0,0:0:0:0:
121,118,43448,1,8,0:0:0:0:
122,136,43527,1,8,0:0:0:0:
113,126,43606,1,0,0:0:0:0:
117,128,43685,1,0,0:0:0:0:
126,122,43763,1,8,0:0:0:0:
126,120,43842,1,8,0:0:0:0:
127,116,43921,1,8,0:0:0:0:
127,116,44000,1,0,0:0:0:0:
122,114,44079,1,8,0:0:0:0:
122,114,44158,1,8,0:0:0:0:
122,114,44237,1,0,0:0:0:0:
122,114,44316,1,0,0:0:0:0:
127,108,44395,1,8,0:0:0:0:
122,130,44474,1,0,0:0:0:0:
121,122,44553,1,8,0:0:0:0:
121,122,44632,1,8,0:0:0:0:
124,110,44711,1,0,0:0:0:0:
111,113,44790,1,0,0:0:0:0:
125,113,44869,1,0,0:0:0:0:
118,109,44948,1,0,0:0:0:0:
111,113,45027,1,8,0:0:0:0:
137,109,45106,1,8,0:0:0:0:
111,113,45185,1,8,0:0:0:0:
128,112,45263,1,0,0:0:0:0:
137,108,45342,1,8,0:0:0:0:
127,108,45421,1,0,0:0:0:0:
128,113,45500,1,8,0:0:0:0:
134,111,45579,1,8,0:0:0:0:
140,146,45658,1,4,0:0:0:0:
142,152,45974,1,0,0:0:0:0:
140,144,46132,1,8,0:0:0:0:
136,144,46290,1,0,0:0:0:0:
136,144,46369,1,0,0:0:0:0:
136,144,46448,1,0,0:0:0:0:
136,144,46527,1,0,0:0:0:0:
136,144,46606,1,8,0:0:0:0:
141,137,46921,1,8,0:0:0:0:
137,137,47079,1,0,0:0:0:0:
138,136,47237,1,8,0:0:0:0:
132,134,47316,1,8,0:0:0:0:
132,133,47395,1,8,0:0:0:0:
145,137,47474,1,8,0:0:0:0:
133,136,47553,1,0,0:0:0:0:
133,136,47869,1,0,0:0:0:0:
145,142,48027,1,8,0:0:0:0:
128,125,48185,1,0,0:0:0:0:
144,137,48342,1,0,0:0:0:0:
138,127,48500,1,8,0:0:0:0:
138,129,48579,1,8,0:0:0:0:
138,129,48658,1,0,0:0:0:0:
138,129,48737,1,0,0:0:0:0:
138,129,48816,1,8,0:0:0:0:
138,129,48895,1,8,0:0:0:0:
145,142,48974,1,0,0:0:0:0:
149,173,49053,1,0,0:0:0:0:
152,143,49132,1,8,0:0:0:0:
152,141,49211,1,0,0:0:0:0:
141,148,49290,1,8,0:0:0:0:
141,148,49369,1,8,0:0:0:0:
148,157,49448,1,0,0:0:0:0:
130,128,49763,1,0,0:0:0:0:
130,128,49921,1,8,0:0:0:0:
134,126,50079,1,8,0:0:0:0:
134,126,50158,1,8,0:0:0:0:
139,128,50237,1,0,0:0:0:0:
139,128,50316,1,0,0:0:0:0:
140,128,50395,1,8,0:0:0:0:
123,126,50711,1,8,0:0:0:0:
120,123,50869,1,8,0:0:0:0:
113,126,51027,1,0,0:0:0:0:
128,128,51106,1,0,0:0:0:0:
128,128,51185,1,8,0:0:0:0:
128,128,51263,1,8,0:0:0:0:
128,128,51342,1,0,0:0:0:0:
103,123,51658,1,0,0:0:0:0:
105,123,51816,1,0,0:0:0:0:
110,136,51974,1,8,0:0:0:0:
110,134,52132,1,0,0:0:0:0:
101,119,52290,1,8,0:0:0:0:
101,119,52369,1,8,0:0:0:0:
103,123,52448,1,0,0:0:0:0:
103,123,52527,1,0,0:0:0:0:
103,123,52606,1,8,0:0:0:0:
103,123,52685,1,8,0:0:0:0:
105,123,52763,1,0,0:0:0:0:
105,123,52842,1,8,0:0:0:0:
107,125,52921,1,0,0:0:0:0:
107,125,53000,1,0,0:0:0:0:
107,125,53079,1,0,0:0:0:0:
107,125,53158,1,0,0:0:0:0:
121,140,53237,1,8,0:0:0:0:
122,134,53395,1,0,0:0:0:0:
122,123,53553,1,0,0:0:0:0:
119,136,53711,1,8,0:0:0:0:
126,127,53869,1,0,0:0:0:0:
126,128,53948,1,8,0:0:0:0:
126,128,54027,1,0,0:0:0:0:
136,144,54106,1,0,0:0:0:0:
136,144,54185,1,8,0:0:0:0:
109,144,54342,1,0,0:0:0:0:
132,132,54500,1,8,0:0:0:0:
132,128,54658,1,0,0:0:0:0:
135,140,54816,1,8,0:0:0:0:
135,141,54895,1,0,0:0:0:0:
135,141,54974,1,8,0:0:0:0:
135,134,55053,1,8,0:0:0:0:
136,144,55132,1,0,0:0:0:0:
149,103,55290,1,8,0:0:0:0:
133,136,55448,1,0,0:0:0:0:
145,142,55606,1,8,0:0:0:0:
145,136,55763,1,8,0:0:0:0:
144,137,55921,1,0,0:0:0:0:
136,136,56079,1,8,0:0:0:0:
138,133,56158,1,8,0:0:0:0:
133,136,56237,1,0,0:0:0:0:
133,136,56316,1,8,0:0:0:0:
133,136,56395,1,0,0:0:0:0:
133,136,56474,1,0,0:0:0:0:
135,142,56553,1,8,0:0:0:0:
138,133,56632,1,0,0:0:0:0:
135,147,56711,1,8,0:0:0:0:
134,135,56790,1,8,0:0:0:0:
134,135,56869,1,0,0:0:0:0:
134,135,56948,1,0,0:0:0:0:
139,128,57027,1,8,0:0:0:0:
138,118,57185,1,0,0:0:0:0:
130,128,57342,1,0,0:0:0:0:
130,128,57500,1,8,0:0:0:0:
135,123,57658,1,0,0:0:0:0:
128,136,57737,1,0,0:0:0:0:
126,136,57816,1,0,0:0:0:0:
122,142,57895,1,0,0:0:0:0:
121,135,57974,1,8,0:0:0:0:
127,136,58132,1,0,0:0:0:0:
123,126,58290,1,8,0:0:0:0:
128,118,58448,1,0,0:0:0:0:
135,123,58606,1,8,0:0:0:0:
129,109,58685,1,8,0:0:0:0:
129,109,58763,1,8,0:0:0:0:
129,109,58842,1,8,0:0:0:0:
129,108,58921,1,0,0:0:0:0:
145,129,59079,1,8,0:0:0:0:
103,123,59237,1,0,0:0:0:0:
105,123,59395,1,0,0:0:0:0:
110,136,59553,1,8,0:0:0:0:
115,132,59711,1,0,0:0:0:0:
119,124,59869,1,8,0:0:0:0:
105,128,59948,1,0,0:0:0:0:
103,123,60027,1,8,0:0:0:0:
103,123,60106,1,8,0:0:0:0:
114,121,60185,1,0,0:0:0:0:
103,123,60263,1,8,0:0:0:0:
105,123,60342,1,0,0:0:0:0:
116,108,60421,1,0,0:0:0:0:
94,110,60500,1,12,0:0:0:0:
148,110,60658,1,8,0:0:0:0:
147,110,60737,1,8,0:0:0:0:
106,123,60816,1,4,0:0:0:0:
117,117,60974,1,0,0:0:0:0:
116,118,61132,1,8,0:0:0:0:
114,121,61211,1,8,0:0:0:0:
113,117,61290,1,0,0:0:0:0:
95,111,61448,1,8,0:0:0:0:
94,110,61527,1,8,0:0:0:0:
94,110,61606,1,0,0:0:0:0:
95,111,61685,1,0,0:0:0:0:
94,110,61763,1,8,0:0:0:0:
116,118,61921,1,8,0:0:0:0:
116,118,62000,1,0,0:0:0:0:
116,118,62079,1,8,0:0:0:0:
116,116,62237,1,0,0:0:0:0:
115,110,62395,1,0,0:0:0:0:
115,110,62474,1,0,0:0:0:0:
116,114,62553,1,8,0:0:0:0:
116,114,62632,1,8,0:0:0:0:
116,112,62711,1,0,0:0:0:0:
138,96,62869,1,0,0:0:0:0:
129,86,63027,1,8,0:0:0:0:
129,87,63106,1,8,0:0:0:0:
115,101,63185,1,0,0:0:0:0:
125,89,63342,1,8,0:0:0:0:
124,103,63500,1,0,0:0:0:0:
123,102,63658,1,8,0:0:0:0:
123,102,63737,1,8,0:0:0:0:
123,106,63816,1,0,0:0:0:0:
123,106,63895,1,8,0:0:0:0:
123,106,63974,1,0,0:0:0:0:
123,106,64053,1,0,0:0:0:0:
81,113,64132,1,8,0:0:0:0:
101,112,64211,1,0,0:0:0:0:
101,112,64290,1,8,0:0:0:0:
101,112,64369,1,8,0:0:0:0:
131,98,64448,1,8,0:0:0:0:
124,103,64527,1,8,0:0:0:0:
123,102,64606,1,0,0:0:0:0:
131,96,64763,1,0,0:0:0:0:
126,98,64921,1,0,0:0:0:0:
131,99,65000,1,0,0:0:0:0:
126,98,65079,1,8,0:0:0:0:
123,97,65237,1,0,0:0:0:0:
124,103,65316,1,8,0:0:0:0:
128,93,65395,1,0,0:0:0:0:
117,98,65474,1,0,0:0:0:0:
124,103,65553,1,8,0:0:0:0:
123,93,65711,1,0,0:0:0:0:
123,92,65790,1,8,0:0:0:0:
126,98,65869,1,8,0:0:0:0:
116,94,66027,1,0,0:0:0:0:
123,97,66185,1,8,0:0:0:0:
123,97,66263,1,0,0:0:0:0:
124,93,66342,1,8,0:0:0:0:
123,93,66421,1,8,0:0:0:0:
121,93,66500,1,0,0:0:0:0:
130,93,66658,1,0,0:0:0:0:
126,98,66816,1,8,0:0:0:0:
130,92,66974,1,0,0:0:0:0:
123,97,67132,1,8,0:0:0:0:
123,97,67290,1,0,0:0:0:0:
136,94,67369,1,0,0:0:0:0:
123,93,67448,1,8,0:0:0:0:
126,97,67527,1,8,0:0:0:0:
130,93,67606,1,0,0:0:0:0:
130,93,67685,1,0,0:0:0:0:
126,98,67763,1,8,0:0:0:0:
121,82,67842,1,0,0:0:0:0:
130,92,67921,1,8,0:0:0:0:
130,92,68000,1,8,0:0:0:0:
126,91,68079,1,0,0:0:0:0:
126,91,68158,1,8,0:0:0:0:
126,91,68237,1,0,0:0:0:0:
126,91,68316,1,0,0:0:0:0:
123,93,68395,1,12,0:0:0:0:
118,89,68553,1,0,0:0:0:0:
117,100,68869,1,0,0:0:0:0:
126,127,69027,1,8,0:0:0:0:
122,126,69106,1,8,0:0:0:0:
125,120,69185,1,0,0:0:0:0:
136,144,69263,1,0,0:0:0:0:
136,144,69342,1,8,0:0:0:0:
132,113,69500,1,0,0:0:0:0:
132,114,69816,1,8,0:0:0:0:
128,147,69974,1,0,0:0:0:0:
138,132,70053,1,0,0:0:0:0:
129,138,70132,1,8,0:0:0:0:
135,134,70211,1,0,0:0:0:0:
134,122,70290,1,8,0:0:0:0:
133,136,70448,1,0,0:0:0:0:
145,142,70763,1,8,0:0:0:0:
145,136,70921,1,8,0:0:0:0:
144,137,71079,1,0,0:0:0:0:
136,136,71237,1,8,0:0:0:0:
138,133,71316,1,8,0:0:0:0:
133,136,71395,1,0,0:0:0:0:
133,136,71553,1,8,0:0:0:0:
133,136,71632,1,0,0:0:0:0:
132,126,71711,1,0,0:0:0:0:
138,133,71790,1,0,0:0:0:0:
135,147,71869,1,8,0:0:0:0:
134,135,72027,1,0,0:0:0:0:
139,128,72185,1,8,0:0:0:0:
130,128,72342,1,0,0:0:0:0:
130,128,72658,1,8,0:0:0:0:
135,123,72816,1,0,0:0:0:0:
128,133,72895,1,8,0:0:0:0:
128,132,72974,1,0,0:0:0:0:
122,142,73053,1,0,0:0:0:0:
121,135,73132,1,8,0:0:0:0:
123,126,73290,1,0,0:0:0:0:
128,118,73606,1,0,0:0:0:0:
121,118,73763,1,8,0:0:0:0:
122,136,73842,1,8,0:0:0:0:
113,126,73921,1,0,0:0:0:0:
126,122,74079,1,8,0:0:0:0:
126,120,74158,1,0,0:0:0:0:
127,116,74237,1,8,0:0:0:0:
127,116,74316,1,8,0:0:0:0:
123,126,74395,1,0,0:0:0:0:
134,109,74553,1,0,0:0:0:0:
129,111,74711,1,8,0:0:0:0:
129,110,74869,1,0,0:0:0:0:
124,110,75027,1,8,0:0:0:0:
129,99,75106,1,0,0:0:0:0:
129,99,75185,1,0,0:0:0:0:
129,99,75263,1,0,0:0:0:0:
131,107,75342,1,8,0:0:0:0:
130,104,75421,1,8,0:0:0:0:
148,108,75500,1,0,0:0:0:0:
130,102,75579,1,0,0:0:0:0:
119,109,75658,1,12,0:0:0:0:
92,116,75816,1,4,0:0:0:0:
140,146,75974,1,12,0:0:0:0:
134,120,76132,1,0,0:0:0:0:
134,120,76290,1,0,0:0:0:0:
134,120,76448,1,8,0:0:0:0:
141,118,76527,1,0,0:0:0:0:
141,118,76606,1,8,0:0:0:0:
134,120,76763,1,0,0:0:0:0:
128,91,76921,1,8,0:0:0:0:
128,91,77079,1,0,0:0:0:0:
136,109,77237,1,0,0:0:0:0:
128,91,77395,1,8,0:0:0:0:
128,91,77474,1,8,0:0:0:0:
128,91,77553,1,0,0:0:0:0:
131,100,77711,1,0,0:0:0:0:
140,146,77869,1,8,0:0:0:0:
147,122,77948,1,0,0:0:0:0:
135,131,78027,1,8,0:0:0:0:
145,121,78106,1,8,0:0:0:0:
134,120,78185,1,0,0:0:0:0:
141,131,78342,1,8,0:0:0:0:
106,135,78421,1,0,0:0:0:0:
139,125,78500,1,8,0:0:0:0:
134,120,78658,1,0,0:0:0:0:
133,116,78816,1,0,0:0:0:0:
137,107,78895,1,0,0:0:0:0:
131,100,78974,1,8,0:0:0:0:
135,106,79132,1,8,0:0:0:0:
137,106,79211,1,8,0:0:0:0:
134,109,79290,1,8,0:0:0:0:
131,100,79448,1,8,0:0:0:0:
131,100,79606,1,0,0:0:0:0:
140,146,79763,1,8,0:0:0:0:
134,120,79921,1,0,0:0:0:0:
134,120,80079,1,0,0:0:0:0:
134,120,80237,1,8,0:0:0:0:
129,119,80316,1,8,0:0:0:0:
134,120,80395,1,0,0:0:0:0:
134,120,80553,1,0,0:0:0:0:
131,100,80711,1,8,0:0:0:0:
129,100,80790,1,0,0:0:0:0:
131,100,80869,1,8,0:0:0:0:
131,100,81027,1,0,0:0:0:0:
131,100,81185,1,0,0:0:0:0:
161,108,81263,1,0,0:0:0:0:
131,100,81342,1,8,0:0:0:0:
131,100,81500,1,0,0:0:0:0:
149,123,81579,1,0,0:0:0:0:
140,146,81658,1,8,0:0:0:0:
137,128,81737,1,8,0:0:0:0:
135,131,81816,1,8,0:0:0:0:
138,128,81895,1,8,0:0:0:0:
134,120,81974,1,0,0:0:0:0:
135,130,82053,1,0,0:0:0:0:
141,131,82132,1,0,0:0:0:0:
135,130,82211,1,0,0:0:0:0:
139,125,82290,1,8,0:0:0:0:
130,125,82369,1,0,0:0:0:0:
135,111,82448,1,8,0:0:0:0:
136,111,82527,1,8,0:0:0:0:
131,100,82606,1,8,0:0:0:0:
136,111,82685,1,0,0:0:0:0:
131,100,82763,1,8,0:0:0:0:
136,111,82842,1,8,0:0:0:0:
131,100,82921,1,0,0:0:0:0:
133,107,83000,1,0,0:0:0:0:
134,109,83079,1,8,0:0:0:0:
135,103,83158,1,0,0:0:0:0:
131,100,83237,1,8,0:0:0:0:
135,104,83316,1,8,0:0:0:0:
131,100,83395,1,0,0:0:0:0:
137,93,83474,1,0,0:0:0:0:
133,90,83553,1,12,0:0:0:0:
133,83,83711,1,0,0:0:0:0:
133,80,84027,1,0,0:0:0:0:
139,68,84342,1,0,0:0:0:0:
139,68,84421,1,0,0:0:0:0:
139,68,84500,1,8,0:0:0:0:
135,67,84658,1,8,0:0:0:0:
140,73,84816,1,0,0:0:0:0:
141,68,84974,1,8,0:0:0:0:
146,65,85132,1,0,0:0:0:0:
146,65,85211,1,8,0:0:0:0:
144,65,85290,1,0,0:0:0:0:
147,62,85448,1,8,0:0:0:0:
140,73,85763,1,0,0:0:0:0:
146,81,85921,1,8,0:0:0:0:
151,77,86237,1,0,0:0:0:0:
148,77,86316,1,0,0:0:0:0:
148,77,86395,1,8,0:0:0:0:
150,80,86553,1,0,0:0:0:0:
149,80,86711,1,8,0:0:0:0:
149,80,86790,1,8,0:0:0:0:
146,81,86869,1,0,0:0:0:0:
146,81,86948,1,0,0:0:0:0:
151,77,87027,1,8,0:0:0:0:
151,77,87185,1,8,0:0:0:0:
148,77,87342,1,0,0:0:0:0:
150,80,87500,1,8,0:0:0:0:
147,88,87816,1,8,0:0:0:0:
146,81,87974,1,8,0:0:0:0:
151,77,88053,1,8,0:0:0:0:
145,89,88132,1,0,0:0:0:0:
145,82,88211,1,0,0:0:0:0:
145,82,88290,1,8,0:0:0:0:
145,85,88448,1,0,0:0:0:0:
147,88,88606,1,8,0:0:0:0:
147,88,88763,1,0,0:0:0:0:
149,87,88921,1,8,0:0:0:0:
149,87,89237,1,0,0:0:0:0:
147,88,89711,1,8,0:0:0:0:
149,87,89869,1,0,0:0:0:0:
149,87,90027,1,0,0:0:0:0:
149,87,90185,1,8,0:0:0:0:
149,87,90263,1,8,0:0:0:0:
147,88,90342,1,0,0:0:0:0:
151,82,90500,1,8,0:0:0:0:
151,82,90579,1,8,0:0:0:0:
151,82,90658,1,0,0:0:0:0:
142,83,90737,1,0,0:0:0:0:
142,82,90816,1,8,0:0:0:0:
149,87,90974,1,0,0:0:0:0:
161,94,91053,1,0,0:0:0:0:
133,90,91132,1,12,0:0:0:0:
133,83,91290,1,0,0:0:0:0:
133,80,91606,1,0,0:0:0:0:
133,73,91763,1,8,0:0:0:0:
139,68,91921,1,0,0:0:0:0:
139,68,92000,1,0,0:0:0:0:
139,68,92079,1,8,0:0:0:0:
140,66,92237,1,0,0:0:0:0:
141,68,92553,1,8,0:0:0:0:
146,65,92711,1,0,0:0:0:0:
146,65,92790,1,8,0:0:0:0:
144,65,92869,1,0,0:0:0:0:
147,62,93027,1,8,0:0:0:0:
140,73,93185,1,0,0:0:0:0:
146,81,93500,1,8,0:0:0:0:
142,78,93658,1,0,0:0:0:0:
143,71,93816,1,8,0:0:0:0:
152,98,93895,1,8,0:0:0:0:
152,82,93974,1,0,0:0:0:0:
150,80,94132,1,0,0:0:0:0:
152,79,94290,1,0,0:0:0:0:
151,80,94369,1,0,0:0:0:0:
156,77,94448,1,8,0:0:0:0:
156,77,94527,1,8,0:0:0:0:
152,77,94606,1,8,0:0:0:0:
152,77,94685,1,8,0:0:0:0:
152,77,94763,1,0,0:0:0:0:
153,76,94842,1,0,0:0:0:0:
155,89,94921,1,8,0:0:0:0:
150,80,95079,1,0,0:0:0:0:
147,88,95395,1,8,0:0:0:0:
146,81,95553,1,8,0:0:0:0:
145,89,95711,1,0,0:0:0:0:
145,82,95869,1,8,0:0:0:0:
151,77,95948,1,8,0:0:0:0:
145,85,96027,1,0,0:0:0:0:
147,88,96185,1,8,0:0:0:0:
147,88,96342,1,0,0:0:0:0:
152,80,96421,1,0,0:0:0:0:
149,87,96500,1,8,0:0:0:0:
142,84,96658,1,8,0:0:0:0:
149,87,96816,1,0,0:0:0:0:
121,111,96895,1,0,0:0:0:0:
143,96,96974,1,8,0:0:0:0:
201,80,97053,1,0,0:0:0:0:
145,102,97132,1,8,0:0:0:0:
147,88,97290,1,0,0:0:0:0:
191,111,97369,1,0,0:0:0:0:
149,87,97448,1,8,0:0:0:0:
149,87,97527,1,8,0:0:0:0:
149,87,97606,1,0,0:0:0:0:
149,87,97763,1,8,0:0:0:0:
147,88,97921,1,0,0:0:0:0:
129,99,98079,1,0,0:0:0:0:
129,99,98237,1,12,0:0:0:0:
149,87,98395,1,12,0:0:0:0:
149,87,98553,1,4,0:0:0:0:
106,123,98711,1,12,0:0:0:0:
96,123,99027,1,0,0:0:0:0:
96,123,99185,1,0,0:0:0:0:
96,123,99342,1,8,0:0:0:0:
96,127,99421,1,8,0:0:0:0:
96,123,99500,1,0,0:0:0:0:
96,123,99658,1,8,0:0:0:0:
96,123,99974,1,8,0:0:0:0:
96,123,100132,1,0,0:0:0:0:
96,123,100290,1,0,0:0:0:0:
96,123,100369,1,8,0:0:0:0:
96,123,100448,1,0,0:0:0:0:
96,123,100527,1,0,0:0:0:0:
96,123,100606,1,8,0:0:0:0:
96,123,100921,1,0,0:0:0:0:
96,123,101079,1,0,0:0:0:0:
96,110,101158,1,0,0:0:0:0:
96,123,101237,1,8,0:0:0:0:
96,123,101395,1,0,0:0:0:0:
96,123,101553,1,8,0:0:0:0:
90,120,101632,1,8,0:0:0:0:
90,120,101711,1,0,0:0:0:0:
96,123,101790,1,0,0:0:0:0:
96,123,101869,1,8,0:0:0:0:
93,116,102027,1,0,0:0:0:0:
96,123,102185,1,12,0:0:0:0:
97,114,102500,1,12,0:0:0:0:
96,123,102816,1,0,0:0:0:0:
96,123,102974,1,0,0:0:0:0:
96,123,103132,1,8,0:0:0:0:
98,114,103211,1,0,0:0:0:0:
96,123,103290,1,0,0:0:0:0:
96,123,103448,1,8,0:0:0:0:
96,123,103763,1,8,0:0:0:0:
96,123,103921,1,0,0:0:0:0:
101,128,104000,1,8,0:0:0:0:
96,123,104079,1,0,0:0:0:0:
96,123,104237,1,0,0:0:0:0:
96,123,104395,1,8,0:0:0:0:
96,123,104711,1,0,0:0:0:0:
96,123,104869,1,0,0:0:0:0:
96,123,105027,1,8,0:0:0:0:
102,119,105106,1,8,0:0:0:0:
96,123,105185,1,0,0:0:0:0:
102,119,105263,1,0,0:0:0:0:
96,123,105342,1,8,0:0:0:0:
96,123,105421,1,0,0:0:0:0:
96,123,105500,1,0,0:0:0:0:
96,123,105579,1,0,0:0:0:0:
96,123,105658,1,8,0:0:0:0:
96,123,105737,1,8,0:0:0:0:
94,115,105816,1,0,0:0:0:0:
94,115,105895,1,0,0:0:0:0:
96,123,105974,1,12,0:0:0:0:
96,123,106132,1,4,0:0:0:0:
97,114,106290,1,12,0:0:0:0:
88,119,106606,1,0,0:0:0:0:
96,123,106763,1,8,0:0:0:0:
94,115,106921,1,8,0:0:0:0:
96,116,107000,1,0,0:0:0:0:
94,115,107079,1,0,0:0:0:0:
94,124,107237,1,8,0:0:0:0:
96,123,107553,1,8,0:0:0:0:
96,123,107711,1,0,0:0:0:0:
96,123,107869,1,0,0:0:0:0:
95,122,107948,1,0,0:0:0:0:
93,124,108027,1,8,0:0:0:0:
96,123,108106,1,0,0:0:0:0:
96,123,108185,1,8,0:0:0:0:
96,123,108500,1,0,0:0:0:0:
96,123,108658,1,0,0:0:0:0:
96,110,108737,1,0,0:0:0:0:
96,123,108816,1,8,0:0:0:0:
96,123,108974,1,0,0:0:0:0:
96,123,109132,1,8,0:0:0:0:
75,136,109290,1,0,0:0:0:0:
90,120,109448,1,0,0:0:0:0:
90,120,109527,1,0,0:0:0:0:
92,130,109606,1,8,0:0:0:0:
96,123,109763,1,12,0:0:0:0:
96,123,109921,1,0,0:0:0:0:
97,114,110079,1,12,0:0:0:0:
96,123,110395,1,0,0:0:0:0:
90,120,110553,1,8,0:0:0:0:
100,117,110711,1,0,0:0:0:0:
98,114,110790,1,0,0:0:0:0:
96,123,110869,1,0,0:0:0:0:
96,123,111027,1,8,0:0:0:0:
96,123,111342,1,8,0:0:0:0:
96,123,111500,1,0,0:0:0:0:
101,128,111579,1,8,0:0:0:0:
96,123,111658,1,0,0:0:0:0:
96,123,111816,1,0,0:0:0:0:
96,123,111974,1,8,0:0:0:0:
96,123,112053,1,8,0:0:0:0:
96,123,112132,1,0,0:0:0:0:
96,123,112211,1,0,0:0:0:0:
96,123,112290,1,8,0:0:0:0:
96,123,112369,1,0,0:0:0:0:
96,123,112448,1,8,0:0:0:0:
96,123,112527,1,8,0:0:0:0:
64,64,112606,1,0,0:0:0:0:
64,64,112685,1,0,0:0:0:0:
96,123,112763,1,0,0:0:0:0:
96,123,112842,1,0,0:0:0:0:
96,123,112921,1,8,0:0:0:0:
96,123,113000,1,8,0:0:0:0:
448,64,113079,1,8,0:0:0:0:
96,123,113158,1,0,0:0:0:0:
96,123,113237,1,8,0:0:0:0:
96,123,113316,1,8,0:0:0:0:
64,64,113395,1,0,0:0:0:0:
96,123,113474,1,0,0:0:0:0:
448,64,113553,1,8,0:0:0:0:
99,130,113869,1,4,0:0:0:0:
142,152,114185,1,0,0:0:0:0:
140,144,114342,1,8,0:0:0:0:
136,144,114500,1,0,0:0:0:0:
136,144,114579,1,0,0:0:0:0:
136,144,114658,1,0,0:0:0:0:
136,144,114737,1,0,0:0:0:0:
136,144,114816,1,8,0:0:0:0:
141,137,115132,1,8,0:0:0:0:
137,137,115290,1,0,0:0:0:0:
138,136,115448,1,8,0:0:0:0:
136,144,115527,1,8,0:0:0:0:
136,144,115606,1,8,0:0:0:0:
136,144,115685,1,8,0:0:0:0:
133,136,115763,1,0,0:0:0:0:
133,136,116079,1,0,0:0:0:0:
145,142,116237,1,8,0:0:0:0:
128,125,116395,1,0,0:0:0:0:
144,137,116553,1,0,0:0:0:0:
136,136,116711,1,8,0:0:0:0:
133,136,116790,1,8,0:0:0:0:
133,136,116869,1,0,0:0:0:0:
133,136,116948,1,0,0:0:0:0:
133,136,117027,1,8,0:0:0:0:
133,136,117106,1,8,0:0:0:0:
133,131,117185,1,0,0:0:0:0:
138,134,117263,1,8,0:0:0:0:
138,134,117342,1,0,0:0:0:0:
138,134,117421,1,0,0:0:0:0:
139,131,117500,1,0,0:0:0:0:
139,128,117579,1,0,0:0:0:0:
139,128,117658,1,8,0:0:0:0:
130,128,117974,1,0,0:0:0:0:
130,128,118132,1,8,0:0:0:0:
135,123,118290,1,0,0:0:0:0:
135,123,118369,1,8,0:0:0:0:
135,123,118448,1,0,0:0:0:0:
139,131,118527,1,0,0:0:0:0:
139,128,118606,1,8,0:0:0:0:
123,126,118921,1,8,0:0:0:0:
130,127,119079,1,0,0:0:0:0:
109,125,119237,1,8,0:0:0:0:
113,126,119316,1,8,0:0:0:0:
113,126,119395,1,0,0:0:0:0:
113,126,119474,1,0,0:0:0:0:
113,126,119553,1,8,0:0:0:0:
114,123,119632,1,8,0:0:0:0:
114,123,119711,1,8,0:0:0:0:
114,123,119790,1,8,0:0:0:0:
103,123,119869,1,0,0:0:0:0:
113,123,119948,1,8,0:0:0:0:
105,123,120027,1,0,0:0:0:0:
128,130,120106,1,0,0:0:0:0:
110,136,120185,1,8,0:0:0:0:
127,126,120263,1,8,0:0:0:0:
110,134,120342,1,0,0:0:0:0:
127,126,120421,1,0,0:0:0:0:
101,119,120500,1,8,0:0:0:0:
113,136,120579,1,0,0:0:0:0:
109,118,120658,1,8,0:0:0:0:
114,123,120737,1,8,0:0:0:0:
114,123,120816,1,0,0:0:0:0:
118,116,120895,1,0,0:0:0:0:
113,123,120974,1,0,0:0:0:0:
114,125,121053,1,0,0:0:0:0:
448,320,121132,1,12,0:0:0:0:
127,126,121448,1,4,0:0:0:0:
116,118,121763,1,8,0:0:0:0:
118,116,121921,1,8,0:0:0:0:
110,116,122079,1,0,0:0:0:0:
118,114,122237,1,0,0:0:0:0:
97,130,122316,1,0,0:0:0:0:
120,117,122395,1,8,0:0:0:0:
116,118,122553,1,8,0:0:0:0:
116,118,122711,1,8,0:0:0:0:
116,118,122790,1,8,0:0:0:0:
116,116,122869,1,0,0:0:0:0:
118,116,122948,1,0,0:0:0:0:
115,110,123027,1,8,0:0:0:0:
116,114,123185,1,8,0:0:0:0:
116,112,123342,1,0,0:0:0:0:
88,115,123421,1,0,0:0:0:0:
138,96,123500,1,0,0:0:0:0:
129,86,123658,1,8,0:0:0:0:
115,101,123816,1,0,0:0:0:0:
132,68,124132,1,8,0:0:0:0:
131,73,124211,1,0,0:0:0:0:
131,73,124290,1,0,0:0:0:0:
128,98,124448,1,0,0:0:0:0:
128,98,124527,1,0,0:0:0:0:
128,98,124606,1,8,0:0:0:0:
128,98,124685,1,0,0:0:0:0:
128,98,124763,1,8,0:0:0:0:
128,98,124842,1,8,0:0:0:0:
128,98,124921,1,0,0:0:0:0:
134,98,125079,1,8,0:0:0:0:
135,98,125237,1,0,0:0:0:0:
135,98,125553,1,8,0:0:0:0:
128,98,125711,1,0,0:0:0:0:
128,98,125869,1,0,0:0:0:0:
134,98,126027,1,8,0:0:0:0:
138,92,126106,1,8,0:0:0:0:
138,92,126185,1,0,0:0:0:0:
135,98,126342,1,0,0:0:0:0:
135,98,126500,1,0,0:0:0:0:
135,98,126579,1,0,0:0:0:0:
136,102,126658,1,8,0:0:0:0:
136,102,126737,1,0,0:0:0:0:
136,102,126816,1,8,0:0:0:0:
138,92,126974,1,0,0:0:0:0:
137,85,127132,1,0,0:0:0:0:
137,85,127448,1,8,0:0:0:0:
137,85,127527,1,8,0:0:0:0:
137,85,127606,1,0,0:0:0:0:
139,66,127763,1,0,0:0:0:0:
140,84,127921,1,0,0:0:0:0:
133,80,128000,1,0,0:0:0:0:
137,85,128079,1,8,0:0:0:0:
160,120,128237,1,8,0:0:0:0:
137,85,128395,1,0,0:0:0:0:
137,85,128474,1,0,0:0:0:0:
137,85,128553,1,0,0:0:0:0:
137,85,128632,1,0,0:0:0:0:
140,84,128711,1,8,0:0:0:0:
136,74,129027,1,0,0:0:0:0:
116,118,129342,1,8,0:0:0:0:
116,118,129500,1,0,0:0:0:0:
110,116,129658,1,0,0:0:0:0:
116,118,129816,1,8,0:0:0:0:
97,130,129895,1,0,0:0:0:0:
120,117,129974,1,8,0:0:0:0:
107,131,130132,1,0,0:0:0:0:
107,123,130290,1,0,0:0:0:0:
116,118,130369,1,8,0:0:0:0:
116,116,130448,1,0,0:0:0:0:
118,116,130527,1,0,0:0:0:0:
115,110,130606,1,8,0:0:0:0:
116,114,130763,1,0,0:0:0:0:
116,112,130921,1,8,0:0:0:0:
201,128,131000,1,8,0:0:0:0:
138,96,131079,1,0,0:0:0:0:
129,86,131237,1,8,0:0:0:0:
115,101,131395,1,0,0:0:0:0:
132,68,131711,1,8,0:0:0:0:
113,77,131790,1,8,0:0:0:0:
131,73,131869,1,0,0:0:0:0:
128,98,132027,1,8,0:0:0:0:
128,98,132185,1,8,0:0:0:0:
128,98,132263,1,0,0:0:0:0:
128,98,132342,1,8,0:0:0:0:
128,98,132421,1,8,0:0:0:0:
128,98,132500,1,0,0:0:0:0:
134,98,132658,1,8,0:0:0:0:
135,98,132816,1,0,0:0:0:0:
135,98,133132,1,8,0:0:0:0:
128,98,133290,1,0,0:0:0:0:
128,98,133448,1,0,0:0:0:0:
134,98,133606,1,8,0:0:0:0:
138,92,133685,1,0,0:0:0:0:
138,92,133763,1,0,0:0:0:0:
135,98,133921,1,8,0:0:0:0:
135,98,134079,1,0,0:0:0:0:
135,98,134158,1,0,0:0:0:0:
136,94,134237,1,8,0:0:0:0:
137,94,134316,1,8,0:0:0:0:
136,102,134395,1,8,0:0:0:0:
138,92,134553,1,0,0:0:0:0:
137,85,134711,1,0,0:0:0:0:
137,85,135027,1,8,0:0:0:0:
137,85,135106,1,8,0:0:0:0:
137,85,135185,1,0,0:0:0:0:
139,66,135342,1,0,0:0:0:0:
138,71,135500,1,8,0:0:0:0:
136,78,135579,1,8,0:0:0:0:
137,85,135658,1,0,0:0:0:0:
137,85,135816,1,8,0:0:0:0:
137,85,135974,1,0,0:0:0:0:
137,85,136053,1,0,0:0:0:0:
137,85,136132,1,0,0:0:0:0:
137,85,136211,1,0,0:0:0:0:
140,84,136290,1,8,0:0:0:0:
136,85,136369,1,8,0:0:0:0:
140,84,136448,1,0,0:0:0:0:
140,84,136527,1,0,0:0:0:0:
136,74,136606,1,12,0:0:0:0:
116,118,136921,1,8,0:0:0:0:
118,116,137079,1,8,0:0:0:0:
110,116,137237,1,0,0:0:0:0:
118,114,137395,1,0,0:0:0:0:
97,130,137474,1,0,0:0:0:0:
120,117,137553,1,8,0:0:0:0:
116,118,137711,1,8,0:0:0:0:
116,118,137869,1,8,0:0:0:0:
116,118,137948,1,0,0:0:0:0:
116,116,138027,1,0,0:0:0:0:
118,116,138106,1,0,0:0:0:0:
115,110,138185,1,8,0:0:0:0:
130,97,138342,1,0,0:0:0:0:
130,98,138421,1,0,0:0:0:0:
130,98,138500,1,8,0:0:0:0:
138,96,138658,1,0,0:0:0:0:
129,86,138816,1,8,0:0:0:0:
115,101,138974,1,0,0:0:0:0:
132,68,139290,1,8,0:0:0:0:
131,73,139369,1,0,0:0:0:0:
131,73,139448,1,0,0:0:0:0:
128,98,139606,1,0,0:0:0:0:
128,98,139685,1,0,0:0:0:0:
128,98,139763,1,8,0:0:0:0:
129,86,139842,1,8,0:0:0:0:
126,100,139921,1,0,0:0:0:0:
128,98,140000,1,8,0:0:0:0:
128,98,140079,1,0,0:0:0:0:
134,101,140158,1,0,0:0:0:0:
134,98,140237,1,8,0:0:0:0:
134,101,140316,1,8,0:0:0:0:
135,98,140395,1,0,0:0:0:0:
135,98,140711,1,8,0:0:0:0:
128,98,140869,1,0,0:0:0:0:
128,98,141027,1,0,0:0:0:0:
134,98,141185,1,8,0:0:0:0:
138,92,141263,1,0,0:0:0:0:
138,92,141342,1,0,0:0:0:0:
135,98,141500,1,0,0:0:0:0:
135,85,141658,1,8,0:0:0:0:
135,88,141737,1,0,0:0:0:0:
136,88,141816,1,8,0:0:0:0:
139,86,141895,1,8,0:0:0:0:
140,82,141974,1,0,0:0:0:0:
138,92,142132,1,8,0:0:0:0:
139,83,142290,1,0,0:0:0:0:
137,85,142606,1,8,0:0:0:0:
137,85,142685,1,8,0:0:0:0:
137,85,142763,1,0,0:0:0:0:
139,66,142921,1,0,0:0:0:0:
140,84,143079,1,0,0:0:0:0:
133,80,143158,1,8,0:0:0:0:
137,85,143237,1,0,0:0:0:0:
137,85,143395,1,8,0:0:0:0:
137,85,143553,1,0,0:0:0:0:
137,85,143632,1,0,0:0:0:0:
137,85,143711,1,8,0:0:0:0:
137,85,143790,1,0,0:0:0:0:
140,84,143869,1,8,0:0:0:0:
132,88,143948,1,8,0:0:0:0:
132,84,144027,1,0,0:0:0:0:
132,88,144106,1,0,0:0:0:0:
122,94,144185,1,8,0:0:0:0:
116,118,144500,1,8,0:0:0:0:
116,118,144658,1,0,0:0:0:0:
110,116,144816,1,0,0:0:0:0:
116,118,144974,1,8,0:0:0:0:
97,130,145053,1,0,0:0:0:0:
120,117,145132,1,8,0:0:0:0:
107,131,145290,1,0,0:0:0:0:
107,123,145448,1,0,0:0:0:0:
116,118,145527,1,0,0:0:0:0:
117,104,145606,1,8,0:0:0:0:
117,104,145685,1,8,0:0:0:0:
110,116,145763,1,0,0:0:0:0:
116,114,145921,1,8,0:0:0:0:
116,114,146000,1,8,0:0:0:0:
116,112,146079,1,0,0:0:0:0:
129,86,146395,1,8,0:0:0:0:
115,101,146553,1,0,0:0:0:0:
118,83,146711,1,0,0:0:0:0:
132,68,146869,1,8,0:0:0:0:
128,73,146948,1,0,0:0:0:0:
128,73,147027,1,8,0:0:0:0:
128,98,147185,1,0,0:0:0:0:
128,98,147342,1,8,0:0:0:0:
128,98,147421,1,0,0:0:0:0:
128,98,147500,1,8,0:0:0:0:
128,98,147579,1,8,0:0:0:0:
128,98,147658,1,0,0:0:0:0:
130,97,147737,1,0,0:0:0:0:
146,88,147816,1,0,0:0:0:0:
145,84,147895,1,0,0:0:0:0:
145,82,147974,1,8,0:0:0:0:
135,98,148290,1,8,0:0:0:0:
128,98,148448,1,0,0:0:0:0:
128,98,148606,1,0,0:0:0:0:
134,98,148763,1,8,0:0:0:0:
138,92,148842,1,8,0:0:0:0:
138,92,148921,1,0,0:0:0:0:
135,98,149079,1,0,0:0:0:0:
135,98,149237,1,0,0:0:0:0:
135,98,149316,1,0,0:0:0:0:
136,94,149395,1,8,0:0:0:0:
137,94,149474,1,0,0:0:0:0:
136,102,149553,1,8,0:0:0:0:
138,92,149711,1,0,0:0:0:0:
132,97,149869,1,8,0:0:0:0:
148,91,150185,1,8,0:0:0:0:
135,98,150342,1,0,0:0:0:0:
139,66,150500,1,0,0:0:0:0:
138,71,150658,1,8,0:0:0:0:
136,78,150737,1,8,0:0:0:0:
137,85,150816,1,0,0:0:0:0:
137,85,150974,1,8,0:0:0:0:
137,85,151132,1,0,0:0:0:0:
137,85,151290,1,8,0:0:0:0:
140,84,151448,1,0,0:0:0:0:
140,84,151606,1,0,0:0:0:0:
136,74,151763,1,12,0:0:0:0:
134,80,152079,1,0,0:0:0:0:
133,85,152237,1,8,0:0:0:0:
133,85,152395,1,0,0:0:0:0:
138,77,152553,1,0,0:0:0:0:
135,79,152711,1,8,0:0:0:0:
142,81,153027,1,0,0:0:0:0:
142,81,153185,1,0,0:0:0:0:
142,81,153342,1,8,0:0:0:0:
138,77,153500,1,0,0:0:0:0:
142,81,153658,1,8,0:0:0:0:
142,81,153974,1,0,0:0:0:0:
142,81,154132,1,0,0:0:0:0:
142,81,154290,1,8,0:0:0:0:
144,76,154448,1,0,0:0:0:0:
142,81,154606,1,8,0:0:0:0:
142,81,154685,1,8,0:0:0:0:
142,81,154763,1,0,0:0:0:0:
135,84,154921,1,8,0:0:0:0:
142,81,155079,1,0,0:0:0:0:
142,81,155158,1,0,0:0:0:0:
142,81,155237,1,8,0:0:0:0:
144,76,155395,1,0,0:0:0:0:
142,81,155553,1,12,0:0:0:0:
135,79,155869,1,0,0:0:0:0:
142,81,156027,1,0,0:0:0:0:
142,81,156185,1,8,0:0:0:0:
142,81,156342,1,0,0:0:0:0:
144,76,156500,1,8,0:0:0:0:
142,81,156816,1,8,0:0:0:0:
142,81,156974,1,0,0:0:0:0:
142,81,157132,1,0,0:0:0:0:
144,76,157290,1,0,0:0:0:0:
142,81,157448,1,8,0:0:0:0:
142,81,157763,1,0,0:0:0:0:
142,81,157921,1,0,0:0:0:0:
142,81,158079,1,8,0:0:0:0:
143,83,158237,1,0,0:0:0:0:
142,81,158395,1,12,0:0:0:0:
142,81,158553,1,0,0:0:0:0:
142,91,158711,1,8,0:0:0:0:
145,88,158790,1,8,0:0:0:0:
142,81,158869,1,0,0:0:0:0:
145,88,158948,1,0,0:0:0:0:
142,81,159027,1,8,0:0:0:0:
143,83,159185,1,0,0:0:0:0:
142,81,159342,1,8,0:0:0:0:
145,72,159421,1,0,0:0:0:0:
142,81,159500,1,0,0:0:0:0:
157,88,159579,1,0,0:0:0:0:
157,88,159658,1,8,0:0:0:0:
165,70,159737,1,8,0:0:0:0:
147,74,159816,1,0,0:0:0:0:
150,88,159895,1,0,0:0:0:0:
145,88,159974,1,8,0:0:0:0:
150,88,160053,1,0,0:0:0:0:
149,93,160132,1,0,0:0:0:0:
149,93,160211,1,0,0:0:0:0:
149,88,160290,1,8,0:0:0:0:
155,88,160369,1,8,0:0:0:0:
149,88,160448,1,8,0:0:0:0:
156,77,160527,1,0,0:0:0:0:
148,72,160606,1,8,0:0:0:0:
149,88,160685,1,8,0:0:0:0:
165,70,160763,1,0,0:0:0:0:
165,66,160842,1,0,0:0:0:0:
165,66,160921,1,8,0:0:0:0:
160,74,161000,1,0,0:0:0:0:
160,74,161079,1,8,0:0:0:0:
160,74,161158,1,8,0:0:0:0:
169,83,161237,1,0,0:0:0:0:
170,84,161316,1,0,0:0:0:0:
142,81,161395,1,0,0:0:0:0:
142,81,161474,1,0,0:0:0:0:
142,81,161553,1,8,0:0:0:0:
142,81,161632,1,8,0:0:0:0:
155,78,161711,1,0,0:0:0:0:
155,78,161790,1,0,0:0:0:0:
168,109,161869,1,8,0:0:0:0:
168,110,161948,1,8,0:0:0:0:
160,74,162027,1,8,0:0:0:0:
160,74,162106,1,8,0:0:0:0:
149,78,162185,1,0,0:0:0:0:
142,110,162263,1,0,0:0:0:0:
168,109,162342,1,0,0:0:0:0:
168,109,162421,1,0,0:0:0:0:
155,78,162500,1,8,0:0:0:0:
157,81,162579,1,0,0:0:0:0:
170,82,162658,1,8,0:0:0:0:
167,82,162737,1,8,0:0:0:0:
149,88,162816,1,8,0:0:0:0:
149,88,162895,1,0,0:0:0:0:
170,84,162974,1,8,0:0:0:0:
165,82,163053,1,8,0:0:0:0:
164,81,163132,1,0,0:0:0:0:
149,67,163211,1,0,0:0:0:0:
448,64,163290,1,8,0:0:0:0:
146,72,163369,1,0,0:0:0:0:
145,70,163448,1,8,0:0:0:0:
151,74,163527,1,8,0:0:0:0:
151,74,163606,1,0,0:0:0:0:
151,74,163685,1,0,0:0:0:0:
153,76,163763,1,8,0:0:0:0:
151,82,163842,1,0,0:0:0:0:
151,82,163921,1,0,0:0:0:0:
151,82,164000,1,0,0:0:0:0:
151,78,164079,1,8,0:0:0:0:
151,78,164158,1,8,0:0:0:0:
145,70,164237,1,8,0:0:0:0:
145,70,164316,1,0,0:0:0:0:
146,72,164395,1,8,0:0:0:0:
151,74,164474,1,8,0:0:0:0:
145,70,164553,1,0,0:0:0:0:
145,70,164632,1,0,0:0:0:0:
151,74,164711,1,8,0:0:0:0:
145,70,164790,1,8,0:0:0:0:
145,70,164869,1,0,0:0:0:0:
143,71,164948,1,0,0:0:0:0:
144,74,165027,1,12,0:0:0:0:
143,77,165185,1,4,0:0:0:0:
143,77,165342,1,4,0:0:0:0:
144,74,165500,1,12,0:0:0:0:
144,74,165974,1,4,0:0:0:0:
144,74,166132,1,12,0:0:0:0:
143,77,166290,1,12,0:0:0:0:
143,77,166448,1,4,0:0:0:0:
145,82,166921,1,12,0:0:0:0:
142,152,167237,1,0,0:0:0:0:
140,144,167395,1,8,0:0:0:0:
136,144,167553,1,0,0:0:0:0:
136,144,167711,1,0,0:0:0:0:
136,144,167790,1,0,0:0:0:0:
136,144,167869,1,8,0:0:0:0:
141,137,168185,1,8,0:0:0:0:
137,137,168342,1,0,0:0:0:0:
138,136,168500,1,8,0:0:0:0:
136,144,168579,1,0,0:0:0:0:
136,144,168658,1,8,0:0:0:0:
136,144,168737,1,8,0:0:0:0:
133,136,168816,1,0,0:0:0:0:
133,136,169132,1,0,0:0:0:0:
145,142,169290,1,8,0:0:0:0:
128,125,169448,1,0,0:0:0:0:
148,130,169527,1,0,0:0:0:0:
148,130,169606,1,8,0:0:0:0:
136,136,169763,1,8,0:0:0:0:
133,136,169842,1,8,0:0:0:0:
133,136,169921,1,0,0:0:0:0:
133,136,170000,1,0,0:0:0:0:
133,136,170079,1,8,0:0:0:0:
138,134,170237,1,0,0:0:0:0:
132,136,170316,1,0,0:0:0:0:
128,144,170395,1,8,0:0:0:0:
139,128,170711,1,0,0:0:0:0:
130,128,171027,1,0,0:0:0:0:
130,128,171185,1,8,0:0:0:0:
135,123,171342,1,0,0:0:0:0:
135,123,171421,1,8,0:0:0:0:
135,123,171500,1,0,0:0:0:0:
139,131,171579,1,0,0:0:0:0:
139,128,171658,1,8,0:0:0:0:
123,126,171974,1,8,0:0:0:0:
116,121,172132,1,0,0:0:0:0:
126,132,172290,1,8,0:0:0:0:
144,112,172369,1,0,0:0:0:0:
144,112,172448,1,8,0:0:0:0:
144,112,172527,1,8,0:0:0:0:
144,112,172606,1,0,0:0:0:0:
152,128,172921,1,8,0:0:0:0:
105,123,173079,1,0,0:0:0:0:
110,136,173237,1,8,0:0:0:0:
110,134,173395,1,0,0:0:0:0:
101,119,173553,1,8,0:0:0:0:
113,126,173632,1,8,0:0:0:0:
103,123,173711,1,8,0:0:0:0:
103,123,173790,1,8,0:0:0:0:
103,123,173869,1,0,0:0:0:0:
109,129,173948,1,0,0:0:0:0:
107,133,174027,1,0,0:0:0:0:
105,123,174106,1,0,0:0:0:0:
107,125,174185,1,8,0:0:0:0:
86,121,174342,1,0,0:0:0:0:
86,121,174421,1,0,0:0:0:0:
121,140,174500,1,8,0:0:0:0:
138,117,174658,1,0,0:0:0:0:
122,123,174816,1,0,0:0:0:0:
119,136,174974,1,8,0:0:0:0:
126,127,175132,1,8,0:0:0:0:
122,126,175211,1,8,0:0:0:0:
125,120,175290,1,0,0:0:0:0:
136,144,175369,1,0,0:0:0:0:
136,144,175448,1,8,0:0:0:0:
130,123,175606,1,0,0:0:0:0:
132,132,175763,1,8,0:0:0:0:
132,128,175921,1,0,0:0:0:0:
128,147,176079,1,0,0:0:0:0:
127,141,176158,1,0,0:0:0:0:
127,141,176237,1,8,0:0:0:0:
135,134,176316,1,8,0:0:0:0:
136,144,176395,1,0,0:0:0:0:
150,130,176553,1,0,0:0:0:0:
133,136,176711,1,0,0:0:0:0:
143,130,176790,1,0,0:0:0:0:
145,142,176869,1,8,0:0:0:0:
145,136,177027,1,8,0:0:0:0:
144,137,177185,1,0,0:0:0:0:
136,136,177342,1,8,0:0:0:0:
138,133,177421,1,8,0:0:0:0:
133,136,177500,1,0,0:0:0:0:
126,150,177579,1,0,0:0:0:0:
146,138,177658,1,8,0:0:0:0:
146,138,177737,1,8,0:0:0:0:
141,151,177816,1,8,0:0:0:0:
141,150,177895,1,0,0:0:0:0:
141,150,177974,1,8,0:0:0:0:
136,136,178290,1,0,0:0:0:0:
118,131,178606,1,8,0:0:0:0:
129,120,178763,1,0,0:0:0:0:
128,143,178921,1,8,0:0:0:0:
128,133,179000,1,8,0:0:0:0:
128,132,179079,1,0,0:0:0:0:
122,142,179158,1,0,0:0:0:0:
121,135,179237,1,8,0:0:0:0:
123,126,179553,1,8,0:0:0:0:
128,118,179711,1,0,0:0:0:0:
121,118,179869,1,8,0:0:0:0:
122,136,179948,1,8,0:0:0:0:
113,126,180027,1,0,0:0:0:0:
117,128,180106,1,0,0:0:0:0:
117,124,180185,1,0,0:0:0:0:
103,123,180500,1,0,0:0:0:0:
105,123,180658,1,0,0:0:0:0:
110,136,180816,1,8,0:0:0:0:
113,142,180974,1,0,0:0:0:0:
113,142,181053,1,0,0:0:0:0:
113,142,181132,1,8,0:0:0:0:
105,128,181211,1,0,0:0:0:0:
103,123,181290,1,8,0:0:0:0:
113,142,181369,1,0,0:0:0:0:
103,123,181448,1,8,0:0:0:0:
103,123,181527,1,8,0:0:0:0:
105,123,181606,1,0,0:0:0:0:
105,123,181685,1,0,0:0:0:0:
107,125,181763,1,8,0:0:0:0:
111,123,181921,1,8,0:0:0:0:
106,123,182079,1,4,0:0:0:0:
142,152,182395,1,0,0:0:0:0:
140,144,182553,1,8,0:0:0:0:
136,144,182711,1,0,0:0:0:0:
136,144,182790,1,0,0:0:0:0:
136,144,182869,1,0,0:0:0:0:
136,144,182948,1,0,0:0:0:0:
136,144,183027,1,8,0:0:0:0:
141,137,183342,1,8,0:0:0:0:
137,137,183500,1,0,0:0:0:0:
138,136,183658,1,0,0:0:0:0:
132,134,183737,1,0,0:0:0:0:
132,133,183816,1,8,0:0:0:0:
145,137,183895,1,8,0:0:0:0:
133,136,183974,1,0,0:0:0:0:
133,136,184290,1,0,0:0:0:0:
145,142,184448,1,8,0:0:0:0:
128,144,184606,1,8,0:0:0:0:
136,144,184685,1,8,0:0:0:0:
144,137,184763,1,0,0:0:0:0:
138,127,184921,1,8,0:0:0:0:
138,129,185000,1,0,0:0:0:0:
138,129,185079,1,8,0:0:0:0:
138,129,185158,1,8,0:0:0:0:
138,129,185237,1,0,0:0:0:0:
145,142,185395,1,0,0:0:0:0:
128,144,185474,1,0,0:0:0:0:
152,143,185553,1,8,0:0:0:0:
148,157,185869,1,0,0:0:0:0:
130,128,186185,1,0,0:0:0:0:
130,128,186342,1,8,0:0:0:0:
135,123,186500,1,0,0:0:0:0:
135,123,186579,1,8,0:0:0:0:
135,123,186658,1,0,0:0:0:0:
139,131,186737,1,0,0:0:0:0:
139,128,186816,1,8,0:0:0:0:
123,126,187132,1,0,0:0:0:0:
120,123,187290,1,8,0:0:0:0:
113,126,187448,1,8,0:0:0:0:
113,126,187527,1,8,0:0:0:0:
113,126,187606,1,0,0:0:0:0:
113,126,187685,1,0,0:0:0:0:
113,126,187763,1,0,0:0:0:0:
103,123,188079,1,0,0:0:0:0:
105,123,188237,1,0,0:0:0:0:
110,136,188395,1,8,0:0:0:0:
110,134,188553,1,0,0:0:0:0:
138,105,188632,1,0,0:0:0:0:
101,119,188711,1,8,0:0:0:0:
138,105,188790,1,8,0:0:0:0:
106,135,188869,1,8,0:0:0:0:
106,135,188948,1,8,0:0:0:0:
106,135,189027,1,0,0:0:0:0:
138,105,189106,1,8,0:0:0:0:
101,134,189185,1,0,0:0:0:0:
100,135,189263,1,0,0:0:0:0:
100,135,189342,1,8,0:0:0:0:
100,135,189421,1,8,0:0:0:0:
107,125,189500,1,0,0:0:0:0:
107,125,189579,1,0,0:0:0:0:
121,140,189658,1,8,0:0:0:0:
138,105,189816,1,0,0:0:0:0:
122,123,189974,1,0,0:0:0:0:
119,136,190132,1,8,0:0:0:0:
126,127,190290,1,8,0:0:0:0:
126,128,190369,1,0,0:0:0:0:
126,128,190448,1,0,0:0:0:0:
136,144,190527,1,0,0:0:0:0:
136,144,190606,1,8,0:0:0:0:
143,117,190763,1,0,0:0:0:0:
132,132,190921,1,8,0:0:0:0:
132,128,191079,1,0,0:0:0:0:
128,147,191237,1,0,0:0:0:0:
134,141,191316,1,0,0:0:0:0:
134,141,191395,1,8,0:0:0:0:
134,141,191474,1,8,0:0:0:0:
136,144,191553,1,0,0:0:0:0:
160,114,191711,1,0,0:0:0:0:
133,136,191869,1,0,0:0:0:0:
92,149,191948,1,0,0:0:0:0:
145,142,192027,1,8,0:0:0:0:
145,136,192185,1,8,0:0:0:0:
144,137,192342,1,0,0:0:0:0:
136,136,192500,1,8,0:0:0:0:
138,133,192579,1,8,0:0:0:0:
133,136,192658,1,0,0:0:0:0:
150,139,192737,1,0,0:0:0:0:
150,140,192816,1,8,0:0:0:0:
148,125,192895,1,8,0:0:0:0:
149,134,192974,1,0,0:0:0:0:
138,133,193053,1,0,0:0:0:0:
148,125,193132,1,8,0:0:0:0:
134,135,193290,1,8,0:0:0:0:
139,128,193448,1,0,0:0:0:0:
124,126,193606,1,8,0:0:0:0:
130,128,193763,1,0,0:0:0:0:
130,128,193921,1,8,0:0:0:0:
135,123,194079,1,0,0:0:0:0:
128,133,194158,1,8,0:0:0:0:
128,132,194237,1,0,0:0:0:0:
122,142,194316,1,0,0:0:0:0:
121,135,194395,1,8,0:0:0:0:
121,168,194553,1,0,0:0:0:0:
123,126,194711,1,8,0:0:0:0:
128,118,194869,1,0,0:0:0:0:
129,109,195027,1,0,0:0:0:0:
129,109,195106,1,0,0:0:0:0:
129,109,195185,1,8,0:0:0:0:
129,109,195263,1,8,0:0:0:0:
129,108,195342,1,0,0:0:0:0:
146,108,195500,1,8,0:0:0:0:
103,123,195658,1,0,0:0:0:0:
105,123,195816,1,0,0:0:0:0:
110,136,195974,1,8,0:0:0:0:
115,132,196132,1,0,0:0:0:0:
119,124,196290,1,8,0:0:0:0:
105,128,196369,1,0,0:0:0:0:
103,123,196448,1,8,0:0:0:0:
103,123,196527,1,8,0:0:0:0:
114,121,196606,1,0,0:0:0:0:
103,123,196685,1,8,0:0:0:0:
105,123,196763,1,0,0:0:0:0:
116,108,196842,1,0,0:0:0:0:
109,115,196921,1,8,0:0:0:0:
109,116,197000,1,8,0:0:0:0:
111,123,197079,1,0,0:0:0:0:
111,115,197158,1,0,0:0:0:0:
136,74,197237,1,12,0:0:0:0:
138,95,197395,1,8,0:0:0:0:
58,124,197553,1,0,0:0:0:0:
152,144,197869,1,0,0:0:0:0:
125,102,198185,1,8,0:0:0:0:
127,102,198342,1,8,0:0:0:0:
104,144,198500,1,0,0:0:0:0:
127,102,198816,1,0,0:0:0:0:
125,102,199132,1,8,0:0:0:0:
127,102,199290,1,8,0:0:0:0:
106,144,199448,1,0,0:0:0:0:
106,144,199763,1,0,0:0:0:0:
142,81,200079,1,8,0:0:0:0:
142,81,200158,1,8,0:0:0:0:
142,81,200237,1,0,0:0:0:0:
142,81,200316,1,0,0:0:0:0:
148,72,200395,1,8,0:0:0:0:
147,72,200474,1,8,0:0:0:0:
159,71,200553,1,0,0:0:0:0:
152,82,200632,1,8,0:0:0:0:
151,86,200711,1,0,0:0:0:0:
151,87,200790,1,0,0:0:0:0:
160,88,200869,1,8,0:0:0:0:
144,76,200948,1,0,0:0:0:0:
142,81,201027,1,8,0:0:0:0:
24,144,201185,1,8,0:0:0:0:
24,144,201342,1,0,0:0:0:0:
24,144,201658,1,0,0:0:0:0:
107,82,201974,1,8,0:0:0:0:
24,144,202132,1,8,0:0:0:0:
24,144,202290,1,0,0:0:0:0:
24,144,202606,1,0,0:0:0:0:
24,144,202921,1,8,0:0:0:0:
24,144,203079,1,8,0:0:0:0:
128,119,204500,1,8,0:0:0:0:
127,126,204816,1,4,0:0:0:0:
116,118,205132,1,8,0:0:0:0:
118,116,205290,1,8,0:0:0:0:
110,116,205448,1,0,0:0:0:0:
118,114,205606,1,0,0:0:0:0:
97,130,205685,1,0,0:0:0:0:
120,117,205763,1,8,0:0:0:0:
116,118,205921,1,8,0:0:0:0:
116,118,206079,1,0,0:0:0:0:
116,118,206158,1,8,0:0:0:0:
116,116,206237,1,0,0:0:0:0:
118,116,206316,1,0,0:0:0:0:
115,110,206395,1,8,0:0:0:0:
116,114,206553,1,8,0:0:0:0:
116,114,206632,1,8,0:0:0:0:
116,112,206711,1,0,0:0:0:0:
138,96,206869,1,0,0:0:0:0:
129,86,207027,1,8,0:0:0:0:
127,104,207106,1,0,0:0:0:0:
144,93,207185,1,8,0:0:0:0:
132,68,207500,1,8,0:0:0:0:
131,73,207579,1,8,0:0:0:0:
131,73,207658,1,0,0:0:0:0:
128,98,207816,1,0,0:0:0:0:
128,98,207895,1,0,0:0:0:0:
128,98,207974,1,8,0:0:0:0:
138,97,208053,1,8,0:0:0:0:
139,88,208132,1,0,0:0:0:0:
128,98,208211,1,8,0:0:0:0:
128,98,208290,1,0,0:0:0:0:
134,98,208448,1,8,0:0:0:0:
135,98,208606,1,0,0:0:0:0:
135,98,208921,1,8,0:0:0:0:
128,98,209079,1,0,0:0:0:0:
128,98,209237,1,0,0:0:0:0:
134,98,209395,1,8,0:0:0:0:
138,92,209474,1,0,0:0:0:0:
138,92,209553,1,0,0:0:0:0:
135,98,209711,1,0,0:0:0:0:
135,98,209869,1,0,0:0:0:0:
135,98,209948,1,0,0:0:0:0:
136,102,210027,1,8,0:0:0:0:
136,102,210106,1,0,0:0:0:0:
136,102,210185,1,8,0:0:0:0:
143,97,210342,1,8,0:0:0:0:
137,85,210500,1,0,0:0:0:0:
137,85,210816,1,8,0:0:0:0:
137,85,210895,1,8,0:0:0:0:
137,85,210974,1,0,0:0:0:0:
139,66,211132,1,0,0:0:0:0:
140,84,211290,1,0,0:0:0:0:
133,80,211369,1,8,0:0:0:0:
137,85,211448,1,0,0:0:0:0:
137,85,211606,1,8,0:0:0:0:
147,69,211763,1,8,0:0:0:0:
150,75,211842,1,8,0:0:0:0:
137,85,211921,1,0,0:0:0:0:
137,85,212000,1,0,0:0:0:0:
140,84,212079,1,8,0:0:0:0:
66,154,212237,1,8,0:0:0:0:
136,74,212395,1,0,0:0:0:0:
116,118,212711,1,8,0:0:0:0:
116,118,212869,1,0,0:0:0:0:
110,116,213027,1,0,0:0:0:0:
116,118,213185,1,8,0:0:0:0:
97,130,213263,1,0,0:0:0:0:
120,117,213342,1,8,0:0:0:0:
107,131,213500,1,0,0:0:0:0:
107,123,213658,1,0,0:0:0:0:
119,126,213737,1,0,0:0:0:0:
116,116,213816,1,0,0:0:0:0:
118,116,213895,1,0,0:0:0:0:
115,110,213974,1,8,0:0:0:0:
116,114,214132,1,8,0:0:0:0:
116,114,214211,1,8,0:0:0:0:
116,112,214290,1,0,0:0:0:0:
129,86,214606,1,8,0:0:0:0:
115,101,214763,1,0,0:0:0:0:
138,96,214921,1,0,0:0:0:0:
132,68,215079,1,8,0:0:0:0:
131,75,215158,1,8,0:0:0:0:
131,73,215237,1,0,0:0:0:0:
128,98,215395,1,0,0:0:0:0:
128,98,215553,1,8,0:0:0:0:
128,98,215632,1,0,0:0:0:0:
128,98,215711,1,8,0:0:0:0:
128,98,215790,1,8,0:0:0:0:
128,98,215869,1,0,0:0:0:0:
134,98,216027,1,8,0:0:0:0:
135,98,216185,1,0,0:0:0:0:
135,98,216500,1,8,0:0:0:0:
128,98,216658,1,0,0:0:0:0:
128,98,216816,1,0,0:0:0:0:
134,98,216974,1,8,0:0:0:0:
138,92,217053,1,0,0:0:0:0:
138,92,217132,1,0,0:0:0:0:
135,98,217290,1,0,0:0:0:0:
135,98,217448,1,0,0:0:0:0:
142,98,217527,1,8,0:0:0:0:
144,92,217606,1,0,0:0:0:0:
144,92,217685,1,0,0:0:0:0:
136,91,217763,1,8,0:0:0:0:
141,97,217921,1,8,0:0:0:0:
137,85,218079,1,0,0:0:0:0:
137,85,218395,1,8,0:0:0:0:
137,85,218474,1,8,0:0:0:0:
137,85,218553,1,0,0:0:0:0:
139,66,218711,1,0,0:0:0:0:
140,73,218869,1,8,0:0:0:0:
140,74,218948,1,0,0:0:0:0:
140,74,219027,1,0,0:0:0:0:
140,73,219185,1,8,0:0:0:0:
137,85,219342,1,0,0:0:0:0:
137,85,219421,1,0,0:0:0:0:
143,58,219500,1,8,0:0:0:0:
137,85,219579,1,0,0:0:0:0:
140,84,219658,1,8,0:0:0:0:
136,85,219737,1,8,0:0:0:0:
140,84,219816,1,0,0:0:0:0:
140,84,219895,1,0,0:0:0:0:
136,74,219974,1,12,0:0:0:0:
116,118,220290,1,8,0:0:0:0:
118,116,220448,1,8,0:0:0:0:
110,116,220606,1,0,0:0:0:0:
118,114,220763,1,0,0:0:0:0:
97,130,220842,1,0,0:0:0:0:
120,117,220921,1,8,0:0:0:0:
116,118,221079,1,0,0:0:0:0:
116,118,221237,1,8,0:0:0:0:
116,104,221316,1,8,0:0:0:0:
116,116,221395,1,0,0:0:0:0:
118,116,221474,1,0,0:0:0:0:
115,110,221553,1,8,0:0:0:0:
130,97,221711,1,0,0:0:0:0:
130,135,221790,1,0,0:0:0:0:
130,98,221869,1,8,0:0:0:0:
129,86,222185,1,8,0:0:0:0:
129,87,222263,1,8,0:0:0:0:
115,101,222342,1,0,0:0:0:0:
138,96,222500,1,0,0:0:0:0:
132,68,222658,1,8,0:0:0:0:
131,73,222737,1,0,0:0:0:0:
131,73,222816,1,0,0:0:0:0:
128,98,222974,1,0,0:0:0:0:
128,98,223053,1,0,0:0:0:0:
128,98,223132,1,8,0:0:0:0:
140,90,223211,1,0,0:0:0:0:
140,87,223290,1,8,0:0:0:0:
128,98,223369,1,8,0:0:0:0:
128,98,223448,1,0,0:0:0:0:
134,101,223527,1,0,0:0:0:0:
134,98,223606,1,8,0:0:0:0:
134,101,223685,1,8,0:0:0:0:
135,98,223763,1,0,0:0:0:0:
135,98,224079,1,8,0:0:0:0:
128,98,224237,1,0,0:0:0:0:
128,98,224395,1,0,0:0:0:0:
134,98,224553,1,8,0:0:0:0:
138,92,224632,1,8,0:0:0:0:
138,92,224711,1,0,0:0:0:0:
135,98,224869,1,0,0:0:0:0:
135,85,225027,1,8,0:0:0:0:
135,88,225106,1,0,0:0:0:0:
136,88,225185,1,8,0:0:0:0:
139,86,225263,1,8,0:0:0:0:
140,82,225342,1,0,0:0:0:0:
128,102,225500,1,8,0:0:0:0:
132,88,225658,1,0,0:0:0:0:
137,85,225974,1,8,0:0:0:0:
137,85,226053,1,8,0:0:0:0:
137,85,226132,1,0,0:0:0:0:
139,66,226290,1,0,0:0:0:0:
140,84,226448,1,0,0:0:0:0:
132,73,226527,1,0,0:0:0:0:
132,75,226606,1,8,0:0:0:0:
137,85,226763,1,8,0:0:0:0:
137,85,226921,1,0,0:0:0:0:
137,85,227000,1,0,0:0:0:0:
137,85,227079,1,8,0:0:0:0:
144,88,227158,1,0,0:0:0:0:
140,84,227237,1,8,0:0:0:0:
132,88,227316,1,8,0:0:0:0:
132,84,227395,1,0,0:0:0:0:
132,88,227474,1,0,0:0:0:0:
122,94,227553,1,8,0:0:0:0:
116,118,227869,1,8,0:0:0:0:
116,118,228027,1,0,0:0:0:0:
110,116,228185,1,0,0:0:0:0:
116,118,228342,1,8,0:0:0:0:
97,130,228421,1,0,0:0:0:0:
120,117,228500,1,8,0:0:0:0:
107,131,228658,1,0,0:0:0:0:
107,123,228816,1,0,0:0:0:0:
109,114,228895,1,0,0:0:0:0:
108,113,228974,1,8,0:0:0:0:
116,118,229053,1,0,0:0:0:0:
110,116,229132,1,8,0:0:0:0:
116,114,229290,1,8,0:0:0:0:
116,114,229369,1,8,0:0:0:0:
116,112,229448,1,0,0:0:0:0:
129,86,229763,1,8,0:0:0:0:
134,69,229921,1,8,0:0:0:0:
118,83,230079,1,0,0:0:0:0:
146,71,230237,1,0,0:0:0:0:
147,70,230316,1,0,0:0:0:0:
128,73,230395,1,8,0:0:0:0:
128,98,230553,1,0,0:0:0:0:
149,87,230711,1,8,0:0:0:0:
149,87,230790,1,8,0:0:0:0:
149,87,230869,1,0,0:0:0:0:
149,87,230948,1,0,0:0:0:0:
149,87,231027,1,8,0:0:0:0:
149,87,231106,1,8,0:0:0:0:
138,94,231185,1,8,0:0:0:0:
138,94,231263,1,8,0:0:0:0:
137,94,231342,1,0,0:0:0:0:
135,98,231658,1,8,0:0:0:0:
128,98,231816,1,0,0:0:0:0:
128,98,231974,1,0,0:0:0:0:
134,98,232132,1,8,0:0:0:0:
138,92,232211,1,0,0:0:0:0:
138,92,232290,1,0,0:0:0:0:
149,118,232448,1,8,0:0:0:0:
135,98,232606,1,0,0:0:0:0:
135,98,232685,1,0,0:0:0:0:
138,92,232763,1,8,0:0:0:0:
138,92,232842,1,0,0:0:0:0:
136,102,232921,1,8,0:0:0:0:
138,92,233079,1,0,0:0:0:0:
131,119,233237,1,8,0:0:0:0:
137,85,233553,1,8,0:0:0:0:
137,85,233632,1,8,0:0:0:0:
137,85,233711,1,0,0:0:0:0:
144,89,233869,1,8,0:0:0:0:
138,77,234027,1,0,0:0:0:0:
136,78,234106,1,8,0:0:0:0:
137,85,234185,1,0,0:0:0:0:
137,85,234342,1,8,0:0:0:0:
137,85,234500,1,0,0:0:0:0:
137,85,234658,1,8,0:0:0:0:
140,84,234816,1,0,0:0:0:0:
140,84,234974,1,0,0:0:0:0:
136,74,235132,1,12,0:0:0:0:
134,80,235448,1,0,0:0:0:0:
133,85,235606,1,8,0:0:0:0:
133,85,235763,1,0,0:0:0:0:
138,77,235921,1,0,0:0:0:0:
135,79,236079,1,8,0:0:0:0:
142,81,236395,1,0,0:0:0:0:
142,81,236553,1,0,0:0:0:0:
142,81,236711,1,8,0:0:0:0:
138,77,236869,1,0,0:0:0:0:
142,81,237027,1,8,0:0:0:0:
142,81,237342,1,0,0:0:0:0:
142,81,237500,1,0,0:0:0:0:
142,81,237658,1,8,0:0:0:0:
144,76,237816,1,0,0:0:0:0:
142,81,237974,1,8,0:0:0:0:
142,81,238053,1,8,0:0:0:0:
142,81,238132,1,0,0:0:0:0:
148,76,238290,1,8,0:0:0:0:
122,110,238448,1,0,0:0:0:0:
122,110,238527,1,0,0:0:0:0:
142,81,238606,1,12,0:0:0:0:
142,81,238921,1,12,0:0:0:0:
135,79,239237,1,0,0:0:0:0:
142,81,239395,1,0,0:0:0:0:
142,81,239553,1,8,0:0:0:0:
142,81,239711,1,0,0:0:0:0:
144,76,239869,1,8,0:0:0:0:
142,81,240185,1,8,0:0:0:0:
142,81,240342,1,0,0:0:0:0:
142,81,240500,1,0,0:0:0:0:
144,76,240658,1,0,0:0:0:0:
142,81,240816,1,8,0:0:0:0:
142,81,241132,1,0,0:0:0:0:
142,81,241290,1,0,0:0:0:0:
142,81,241448,1,8,0:0:0:0:
143,83,241606,1,0,0:0:0:0:
142,81,241763,1,12,0:0:0:0:
142,81,241921,1,0,0:0:0:0:
148,91,242000,1,0,0:0:0:0:
142,91,242079,1,8,0:0:0:0:
165,80,242158,1,8,0:0:0:0:
165,80,242237,1,0,0:0:0:0:
165,80,242316,1,0,0:0:0:0:
165,80,242395,1,8,0:0:0:0:
165,80,242474,1,0,0:0:0:0:
158,70,242553,1,0,0:0:0:0:
165,80,242632,1,0,0:0:0:0:
142,81,242711,1,8,0:0:0:0:
145,72,242790,1,0,0:0:0:0:
142,81,242869,1,0,0:0:0:0:
157,88,242948,1,0,0:0:0:0:
157,88,243027,1,8,0:0:0:0:
165,70,243106,1,8,0:0:0:0:
149,65,243185,1,8,0:0:0:0:
149,65,243263,1,8,0:0:0:0:
148,50,243342,1,0,0:0:0:0:
146,72,243421,1,0,0:0:0:0:
131,70,243500,1,0,0:0:0:0:
131,71,243579,1,0,0:0:0:0:
131,71,243658,1,8,0:0:0:0:
131,71,243737,1,8,0:0:0:0:
155,48,243816,1,8,0:0:0:0:
156,77,243895,1,0,0:0:0:0:
148,72,243974,1,8,0:0:0:0:
156,77,244053,1,8,0:0:0:0:
165,70,244132,1,0,0:0:0:0:
165,66,244211,1,0,0:0:0:0:
165,66,244290,1,8,0:0:0:0:
160,74,244369,1,0,0:0:0:0:
160,74,244448,1,8,0:0:0:0:
160,74,244527,1,8,0:0:0:0:
169,83,244606,1,0,0:0:0:0:
170,84,244685,1,0,0:0:0:0:
142,81,244763,1,0,0:0:0:0:
142,81,244842,1,0,0:0:0:0:
142,81,244921,1,8,0:0:0:0:
142,81,245000,1,8,0:0:0:0:
155,78,245079,1,0,0:0:0:0:
155,78,245158,1,0,0:0:0:0:
168,109,245237,1,8,0:0:0:0:
168,110,245316,1,8,0:0:0:0:
168,110,245395,1,8,0:0:0:0:
168,110,245474,1,8,0:0:0:0:
168,109,245553,1,0,0:0:0:0:
165,61,245632,1,0,0:0:0:0:
168,109,245711,1,0,0:0:0:0:
168,109,245790,1,0,0:0:0:0:
155,78,245869,1,8,0:0:0:0:
173,95,245948,1,8,0:0:0:0:
173,95,246027,1,8,0:0:0:0:
173,95,246106,1,0,0:0:0:0:
160,74,246185,1,8,0:0:0:0:
169,83,246263,1,0,0:0:0:0:
170,84,246342,1,8,0:0:0:0:
165,82,246421,1,8,0:0:0:0:
164,81,246500,1,0,0:0:0:0:
149,67,246579,1,0,0:0:0:0:
153,76,246658,1,0,0:0:0:0:
146,72,246737,1,0,0:0:0:0:
145,70,246816,1,8,0:0:0:0:
151,74,246895,1,8,0:0:0:0:
151,74,246974,1,8,0:0:0:0:
151,74,247053,1,0,0:0:0:0:
153,76,247132,1,8,0:0:0:0:
151,82,247211,1,0,0:0:0:0:
151,82,247290,1,0,0:0:0:0:
151,82,247369,1,0,0:0:0:0:
154,76,247448,1,8,0:0:0:0:
151,78,247527,1,8,0:0:0:0:
145,70,247606,1,0,0:0:0:0:
145,70,247685,1,0,0:0:0:0:
146,72,247763,1,8,0:0:0:0:
151,60,247842,1,8,0:0:0:0:
145,70,247921,1,8,0:0:0:0:
149,57,248000,1,0,0:0:0:0:
149,57,248079,1,8,0:0:0:0:
145,70,248158,1,8,0:0:0:0:
145,70,248237,1,0,0:0:0:0:
143,71,248316,1,0,0:0:0:0:
144,74,248395,1,12,0:0:0:0:
143,77,248553,1,4,0:0:0:0:
143,77,248711,1,4,0:0:0:0:
144,74,248869,1,12,0:0:0:0:
144,74,249342,1,4,0:0:0:0:
144,74,249500,1,12,0:0:0:0:
143,77,249658,1,12,0:0:0:0:
143,77,249816,1,4,0:0:0:0:
133,84,250290,1,12,0:0:0:0:
142,152,250606,1,0,0:0:0:0:
140,144,250763,1,8,0:0:0:0:
136,144,250921,1,0,0:0:0:0:
136,144,251079,1,0,0:0:0:0:
136,144,251158,1,0,0:0:0:0:
136,144,251237,1,8,0:0:0:0:
141,137,251553,1,8,0:0:0:0:
137,137,251711,1,0,0:0:0:0:
138,136,251869,1,8,0:0:0:0:
136,144,251948,1,0,0:0:0:0:
136,144,252027,1,8,0:0:0:0:
136,144,252106,1,8,0:0:0:0:
133,136,252185,1,0,0:0:0:0:
133,136,252500,1,0,0:0:0:0:
145,142,252658,1,8,0:0:0:0:
128,125,252816,1,0,0:0:0:0:
138,136,252895,1,0,0:0:0:0:
148,130,252974,1,8,0:0:0:0:
136,136,253132,1,8,0:0:0:0:
129,127,253211,1,8,0:0:0:0:
142,134,253290,1,0,0:0:0:0:
142,134,253369,1,8,0:0:0:0:
142,134,253448,1,0,0:0:0:0:
138,134,253606,1,0,0:0:0:0:
132,136,253685,1,0,0:0:0:0:
128,144,253763,1,8,0:0:0:0:
136,136,254079,1,0,0:0:0:0:
130,128,254395,1,0,0:0:0:0:
130,128,254553,1,8,0:0:0:0:
135,123,254711,1,0,0:0:0:0:
135,123,254790,1,0,0:0:0:0:
135,123,254869,1,8,0:0:0:0:
130,131,254948,1,0,0:0:0:0:
130,131,255027,1,8,0:0:0:0:
123,126,255342,1,8,0:0:0:0:
130,128,255500,1,0,0:0:0:0:
126,123,255658,1,0,0:0:0:0:
128,121,255737,1,0,0:0:0:0:
142,169,255816,1,8,0:0:0:0:
104,128,255895,1,8,0:0:0:0:
113,126,255974,1,0,0:0:0:0:
152,120,256290,1,8,0:0:0:0:
105,123,256448,1,0,0:0:0:0:
110,136,256606,1,8,0:0:0:0:
110,134,256763,1,0,0:0:0:0:
107,120,256842,1,0,0:0:0:0:
101,119,256921,1,8,0:0:0:0:
96,131,257000,1,8,0:0:0:0:
103,123,257079,1,0,0:0:0:0:
103,123,257158,1,0,0:0:0:0:
103,123,257237,1,8,0:0:0:0:
103,123,257316,1,0,0:0:0:0:
105,123,257395,1,8,0:0:0:0:
109,115,257474,1,0,0:0:0:0:
105,128,257553,1,8,0:0:0:0:
118,120,257632,1,8,0:0:0:0:
112,116,257711,1,0,0:0:0:0:
112,114,257790,1,0,0:0:0:0:
105,112,257869,1,8,0:0:0:0:
161,115,258027,1,0,0:0:0:0:
122,123,258185,1,0,0:0:0:0:
119,136,258342,1,8,0:0:0:0:
126,127,258500,1,8,0:0:0:0:
122,126,258579,1,8,0:0:0:0:
125,120,258658,1,0,0:0:0:0:
136,144,258737,1,0,0:0:0:0:
136,144,258816,1,8,0:0:0:0:
130,123,258974,1,0,0:0:0:0:
132,132,259132,1,8,0:0:0:0:
132,128,259290,1,0,0:0:0:0:
128,147,259448,1,0,0:0:0:0:
135,126,259527,1,0,0:0:0:0:
139,133,259606,1,8,0:0:0:0:
135,125,259685,1,8,0:0:0:0:
136,135,259763,1,0,0:0:0:0:
143,134,259921,1,8,0:0:0:0:
133,136,260079,1,0,0:0:0:0:
143,130,260158,1,0,0:0:0:0:
145,142,260237,1,8,0:0:0:0:
145,136,260395,1,8,0:0:0:0:
144,137,260553,1,0,0:0:0:0:
136,136,260711,1,8,0:0:0:0:
138,133,260790,1,8,0:0:0:0:
126,145,260869,1,8,0:0:0:0:
126,150,260948,1,0,0:0:0:0:
146,138,261027,1,8,0:0:0:0:
133,136,261106,1,8,0:0:0:0:
138,135,261185,1,0,0:0:0:0:
141,150,261263,1,0,0:0:0:0:
141,150,261342,1,8,0:0:0:0:
145,136,261421,1,0,0:0:0:0:
138,124,261500,1,8,0:0:0:0:
144,137,261579,1,8,0:0:0:0:
136,136,261658,1,0,0:0:0:0:
130,128,261974,1,0,0:0:0:0:
130,128,262132,1,8,0:0:0:0:
135,123,262290,1,0,0:0:0:0:
128,133,262369,1,8,0:0:0:0:
128,132,262448,1,0,0:0:0:0:
122,142,262527,1,0,0:0:0:0:
121,135,262606,1,8,0:0:0:0:
123,126,262921,1,8,0:0:0:0:
128,118,263079,1,0,0:0:0:0:
121,118,263237,1,8,0:0:0:0:
122,136,263316,1,8,0:0:0:0:
113,126,263395,1,0,0:0:0:0:
117,128,263474,1,0,0:0:0:0:
122,133,263553,1,8,0:0:0:0:
124,132,263711,1,0,0:0:0:0:
121,138,263790,1,0,0:0:0:0:
114,134,263869,1,8,0:0:0:0:
120,137,263948,1,8,0:0:0:0:
106,130,264027,1,8,0:0:0:0:
106,130,264106,1,8,0:0:0:0:
106,130,264185,1,0,0:0:0:0:
120,137,264263,1,0,0:0:0:0:
97,127,264342,1,8,0:0:0:0:
120,137,264421,1,8,0:0:0:0:
105,128,264500,1,0,0:0:0:0:
105,128,264579,1,0,0:0:0:0:
103,123,264658,1,8,0:0:0:0:
124,132,264737,1,0,0:0:0:0:
103,123,264816,1,8,0:0:0:0:
114,134,264895,1,8,0:0:0:0:
112,126,264974,1,0,0:0:0:0:
111,127,265053,1,0,0:0:0:0:
111,127,265132,1,12,0:0:0:0:
120,137,265448,1,4,0:0:0:0:
142,152,265763,1,0,0:0:0:0:
140,144,265921,1,8,0:0:0:0:
136,144,266079,1,0,0:0:0:0:
136,144,266158,1,0,0:0:0:0:
136,144,266237,1,0,0:0:0:0:
136,144,266316,1,0,0:0:0:0:
136,144,266395,1,8,0:0:0:0:
141,137,266711,1,8,0:0:0:0:
137,137,266869,1,0,0:0:0:0:
136,144,267027,1,0,0:0:0:0:
132,134,267106,1,0,0:0:0:0:
132,133,267185,1,8,0:0:0:0:
145,137,267263,1,8,0:0:0:0:
144,139,267342,1,0,0:0:0:0:
133,136,267658,1,0,0:0:0:0:
145,142,267816,1,8,0:0:0:0:
136,128,267974,1,8,0:0:0:0:
136,128,268053,1,8,0:0:0:0:
144,137,268132,1,0,0:0:0:0:
145,137,268290,1,8,0:0:0:0:
139,135,268369,1,8,0:0:0:0:
138,129,268448,1,0,0:0:0:0:
138,129,268527,1,0,0:0:0:0:
138,129,268606,1,8,0:0:0:0:
145,142,268763,1,0,0:0:0:0:
149,173,268842,1,0,0:0:0:0:
152,143,268921,1,8,0:0:0:0:
148,157,269237,1,0,0:0:0:0:
130,128,269553,1,0,0:0:0:0:
130,128,269711,1,8,0:0:0:0:
135,123,269869,1,0,0:0:0:0:
135,123,269948,1,0,0:0:0:0:
135,123,270027,1,0,0:0:0:0:
139,131,270106,1,0,0:0:0:0:
139,128,270185,1,8,0:0:0:0:
123,126,270500,1,8,0:0:0:0:
120,123,270658,1,0,0:0:0:0:
113,126,270816,1,8,0:0:0:0:
122,126,270895,1,8,0:0:0:0:
121,126,270974,1,8,0:0:0:0:
123,125,271053,1,8,0:0:0:0:
113,126,271132,1,0,0:0:0:0:
103,123,271448,1,0,0:0:0:0:
105,123,271606,1,0,0:0:0:0:
110,136,271763,1,8,0:0:0:0:
110,134,271921,1,0,0:0:0:0:
116,95,272000,1,0,0:0:0:0:
116,95,272079,1,8,0:0:0:0:
116,95,272158,1,8,0:0:0:0:
122,132,272237,1,0,0:0:0:0:
103,123,272395,1,8,0:0:0:0:
103,123,272474,1,0,0:0:0:0:
96,125,272553,1,0,0:0:0:0:
86,118,272632,1,0,0:0:0:0:
86,118,272711,1,8,0:0:0:0:
99,120,272790,1,8,0:0:0:0:
107,125,272869,1,0,0:0:0:0:
107,125,272948,1,0,0:0:0:0:
121,140,273027,1,8,0:0:0:0:
146,87,273185,1,0,0:0:0:0:
122,123,273342,1,0,0:0:0:0:
119,136,273500,1,8,0:0:0:0:
126,127,273658,1,8,0:0:0:0:
126,128,273737,1,0,0:0:0:0:
126,128,273816,1,0,0:0:0:0:
136,144,273895,1,0,0:0:0:0:
136,144,273974,1,8,0:0:0:0:
146,87,274132,1,0,0:0:0:0:
132,132,274290,1,8,0:0:0:0:
132,128,274448,1,0,0:0:0:0:
128,147,274606,1,8,0:0:0:0:
127,141,274685,1,0,0:0:0:0:
126,128,274763,1,8,0:0:0:0:
135,134,274842,1,8,0:0:0:0:
117,130,274921,1,0,0:0:0:0:
146,121,275079,1,8,0:0:0:0:
133,136,275237,1,0,0:0:0:0:
132,132,275316,1,0,0:0:0:0:
132,128,275395,1,8,0:0:0:0:
145,136,275553,1,8,0:0:0:0:
144,137,275711,1,0,0:0:0:0:
136,136,275869,1,8,0:0:0:0:
138,133,275948,1,8,0:0:0:0:
133,136,276027,1,0,0:0:0:0:
133,136,276106,1,8,0:0:0:0:
133,136,276185,1,0,0:0:0:0:
133,136,276263,1,0,0:0:0:0:
135,142,276342,1,8,0:0:0:0:
135,130,276421,1,0,0:0:0:0:
135,147,276500,1,8,0:0:0:0:
134,135,276658,1,8,0:0:0:0:
96,112,276737,1,8,0:0:0:0:
139,128,276816,1,0,0:0:0:0:
132,109,276974,1,8,0:0:0:0:
130,128,277132,1,0,0:0:0:0:
130,128,277290,1,8,0:0:0:0:
127,121,277448,1,8,0:0:0:0:
127,119,277527,1,8,0:0:0:0:
132,119,277606,1,0,0:0:0:0:
122,142,277685,1,0,0:0:0:0:
134,135,277763,1,8,0:0:0:0:
138,126,277921,1,0,0:0:0:0:
123,126,278079,1,8,0:0:0:0:
128,118,278237,1,0,0:0:0:0:
129,109,278395,1,0,0:0:0:0:
129,109,278474,1,0,0:0:0:0:
129,109,278553,1,8,0:0:0:0:
127,112,278711,1,0,0:0:0:0:
127,111,278790,1,0,0:0:0:0:
127,111,278869,1,8,0:0:0:0:
127,110,278948,1,0,0:0:0:0:
125,112,279027,1,8,0:0:0:0:
123,112,279106,1,0,0:0:0:0:
115,116,279185,1,8,0:0:0:0:
128,118,279263,1,8,0:0:0:0:
129,109,279342,1,8,0:0:0:0:
110,114,279421,1,8,0:0:0:0:
122,121,279500,1,0,0:0:0:0:
122,121,279579,1,0,0:0:0:0:
119,124,279658,1,8,0:0:0:0:
112,141,279737,1,8,0:0:0:0:
126,141,279816,1,0,0:0:0:0:
126,138,279895,1,8,0:0:0:0:
114,121,279974,1,0,0:0:0:0:
121,135,280053,1,0,0:0:0:0:
105,123,280132,1,0,0:0:0:0:
116,108,280211,1,0,0:0:0:0:
118,114,280290,1,12,0:0:0:0:
111,123,280448,1,12,0:0:0:0:
136,74,280606,1,4,0:0:0:0:
133,104,280921,1,0,0:0:0:0:
133,104,281079,1,8,0:0:0:0:
133,104,281237,1,0,0:0:0:0:
128,85,281395,1,0,0:0:0:0:
129,85,281474,1,0,0:0:0:0:
126,85,281553,1,8,0:0:0:0:
125,87,281869,1,0,0:0:0:0:
125,87,282027,1,8,0:0:0:0:
129,85,282185,1,8,0:0:0:0:
128,85,282342,1,0,0:0:0:0:
126,85,282500,1,8,0:0:0:0:
126,85,282579,1,0,0:0:0:0:
117,91,282658,1,0,0:0:0:0:
125,87,282816,1,0,0:0:0:0:
139,82,282974,1,8,0:0:0:0:
115,83,283053,1,8,0:0:0:0:
138,84,283132,1,0,0:0:0:0:
138,79,283290,1,0,0:0:0:0:
127,65,283448,1,8,0:0:0:0:
124,78,283527,1,0,0:0:0:0:
127,65,283606,1,8,0:0:0:0:
124,78,283685,1,8,0:0:0:0:
127,65,283763,1,0,0:0:0:0:
127,65,283921,1,0,0:0:0:0:
448,64,284079,1,12,0:0:0:0:
127,65,284395,1,4,0:0:0:0:
129,62,284710,1,0,0:0:0:0:
127,65,285026,1,8,0:0:0:0:
127,65,285184,1,0,0:0:0:0:
129,62,285500,1,0,0:0:0:0:
129,62,285658,1,0,0:0:0:0:
127,65,285973,1,0,0:0:0:0:
129,62,286289,1,8,0:0:0:0:
129,62,286447,1,0,0:0:0:0:
128,53,286921,1,0,0:0:0:0:
129,62,287237,1,0,0:0:0:0:
137,47,287552,1,8,0:0:0:0:
139,50,287710,1,0,0:0:0:0:
143,46,288184,1,0,0:0:0:0:
144,46,288500,1,0,0:0:0:0:
148,50,288816,1,8,0:0:0:0:
148,50,288973,1,8,0:0:0:0:
148,50,289131,1,8,0:0:0:0:
144,46,289289,1,8,0:0:0:0:
144,46,289447,1,4,0:0:0:0:
148,50,289763,1,8,0:0:0:0:
131,55,289921,1,8,0:0:0:0:
144,46,290000,1,8,0:0:0:0:
124,76,290079,1,0,0:0:0:0:
144,59,290237,1,8,0:0:0:0:
144,46,290395,1,0,0:0:0:0:
145,48,290552,1,0,0:0:0:0:
152,59,290631,1,0,0:0:0:0:
137,58,290710,1,8,0:0:0:0:
137,58,290868,1,8,0:0:0:0:
137,58,291026,1,0,0:0:0:0:
137,58,291184,1,8,0:0:0:0:
137,58,291342,1,0,0:0:0:0:
137,58,291500,1,0,0:0:0:0:
179,86,291579,1,0,0:0:0:0:
137,58,291658,1,8,0:0:0:0:
137,58,291816,1,8,0:0:0:0:
144,46,291973,1,0,0:0:0:0:
145,48,292131,1,0,0:0:0:0:
148,50,292289,1,8,0:0:0:0:
152,45,292447,1,8,0:0:0:0:
142,50,292526,1,8,0:0:0:0:
148,50,292605,1,0,0:0:0:0:
154,55,292763,1,8,0:0:0:0:
152,59,292921,1,0,0:0:0:0:
145,48,293079,1,0,0:0:0:0:
158,52,293158,1,0,0:0:0:0:
137,58,293237,1,8,0:0:0:0:
137,58,293395,1,8,0:0:0:0:
137,58,293552,1,0,0:0:0:0:
137,58,293710,1,8,0:0:0:0:
137,58,293868,1,0,0:0:0:0:
137,58,294026,1,0,0:0:0:0:
137,58,294184,1,8,0:0:0:0:
142,49,294263,1,0,0:0:0:0:
137,58,294342,1,8,0:0:0:0:
142,49,294421,1,8,0:0:0:0:
144,46,294500,1,4,0:0:0:0:
145,48,294658,1,0,0:0:0:0:
148,50,294816,1,8,0:0:0:0:
171,53,294973,1,8,0:0:0:0:
171,53,295052,1,8,0:0:0:0:
142,49,295131,1,0,0:0:0:0:
142,49,295289,1,8,0:0:0:0:
139,62,295447,1,0,0:0:0:0:
145,48,295605,1,0,0:0:0:0:
138,49,295684,1,0,0:0:0:0:
137,58,295763,1,8,0:0:0:0:
137,58,295921,1,8,0:0:0:0:
137,58,296079,1,0,0:0:0:0:
137,58,296237,1,8,0:0:0:0:
120,74,296395,1,0,0:0:0:0:
127,67,296552,1,0,0:0:0:0:
114,47,296631,1,0,0:0:0:0:
122,53,296710,1,8,0:0:0:0:
137,58,296868,1,8,0:0:0:0:
144,46,297026,1,0,0:0:0:0:
145,48,297184,1,0,0:0:0:0:
148,50,297342,1,8,0:0:0:0:
167,45,297500,1,8,0:0:0:0:
166,44,297579,1,8,0:0:0:0:
142,50,297658,1,0,0:0:0:0:
144,46,297816,1,8,0:0:0:0:
145,48,297973,1,0,0:0:0:0:
145,48,298131,1,0,0:0:0:0:
137,58,298289,1,8,0:0:0:0:
148,50,298368,1,8,0:0:0:0:
148,50,298447,1,0,0:0:0:0:
148,50,298526,1,8,0:0:0:0:
137,58,298605,1,0,0:0:0:0:
148,50,298684,1,0,0:0:0:0:
137,58,298763,1,8,0:0:0:0:
144,50,298842,1,0,0:0:0:0:
144,53,298921,1,8,0:0:0:0:
141,66,299000,1,0,0:0:0:0:
137,58,299079,1,0,0:0:0:0:
145,48,299158,1,0,0:0:0:0:
137,58,299237,1,8,0:0:0:0:
145,59,299395,1,0,0:0:0:0:
148,50,299552,1,12,0:0:0:0:
256,192,299710,12,0,303342,0:0:0:0:
220,153,303973,5,8,0:0:0:0:
206,143,304026,1,8,0:0:0:0:
223,140,304237,1,0,0:0:0:0:
215,143,304289,1,0,0:0:0:0:
209,143,304605,1,12,0:0:0:0:
225,164,305868,1,0,0:0:0:0:
225,164,306026,1,0,0:0:0:0:
225,164,306184,1,0,0:0:0:0:
216,168,306342,1,0,0:0:0:0:
225,164,306500,1,0,0:0:0:0:
225,164,306658,1,0,0:0:0:0:
225,164,306816,1,0,0:0:0:0:
225,164,306973,1,0,0:0:0:0:
209,142,307131,1,8,0:0:0:0:
214,146,307210,1,8,0:0:0:0:
220,142,307289,1,0,0:0:0:0:
220,142,307368,1,0,0:0:0:0:
220,142,307447,1,8,0:0:0:0:
220,142,307526,1,0,0:0:0:0:
220,142,307605,1,8,0:0:0:0:
220,142,307684,1,8,0:0:0:0:
220,142,307763,1,0,0:0:0:0:
220,142,307842,1,0,0:0:0:0:
209,140,307921,1,8,0:0:0:0:
209,140,308000,1,8,0:0:0:0:
209,142,308079,1,0,0:0:0:0:
209,142,308158,1,0,0:0:0:0:
201,137,308237,1,8,0:0:0:0:
201,137,308316,1,0,0:0:0:0:
201,137,308395,1,8,0:0:0:0:
201,137,308473,1,8,0:0:0:0:
201,137,308552,1,0,0:0:0:0:
172,110,308631,1,0,0:0:0:0:
154,140,308710,1,8,0:0:0:0:
154,140,308789,1,8,0:0:0:0:
182,125,308868,1,0,0:0:0:0:
182,125,308947,1,0,0:0:0:0:
182,125,309026,1,8,0:0:0:0:
201,137,309184,1,8,0:0:0:0:
201,137,309263,1,0,0:0:0:0:
201,137,309342,1,8,0:0:0:0:
201,137,309421,1,8,0:0:0:0:
201,137,309500,1,8,0:0:0:0:
201,137,309579,1,8,0:0:0:0:
201,137,309658,1,4,0:0:0:0:
193,133,309816,1,8,0:0:0:0:
192,134,309973,1,0,0:0:0:0:
191,134,310052,1,0,0:0:0:0:
190,134,310131,1,8,0:0:0:0:
196,131,310289,1,0,0:0:0:0:
192,125,310447,1,8,0:0:0:0:
183,125,310605,1,0,0:0:0:0:
183,124,310684,1,0,0:0:0:0:
183,125,310763,1,8,0:0:0:0:
195,131,310842,1,8,0:0:0:0:
192,134,310921,1,0,0:0:0:0:
191,134,311079,1,8,0:0:0:0:
196,131,311237,1,0,0:0:0:0:
196,131,311316,1,0,0:0:0:0:
195,137,311395,1,8,0:0:0:0:
188,108,311552,1,0,0:0:0:0:
188,108,311710,1,8,0:0:0:0:
188,108,311868,1,8,0:0:0:0:
188,108,311947,1,0,0:0:0:0:
188,108,312026,1,8,0:0:0:0:
188,108,312105,1,8,0:0:0:0:
196,131,312184,1,0,0:0:0:0:
186,129,312342,1,8,0:0:0:0:
185,129,312500,1,0,0:0:0:0:
184,129,312579,1,0,0:0:0:0:
184,129,312658,1,8,0:0:0:0:
184,132,312816,1,0,0:0:0:0:
183,132,312973,1,8,0:0:0:0:
159,112,313131,1,0,0:0:0:0:
165,144,313210,1,0,0:0:0:0:
167,142,313289,1,8,0:0:0:0:
160,112,313368,1,8,0:0:0:0:
175,129,313447,1,0,0:0:0:0:
175,129,313605,1,8,0:0:0:0:
175,129,313763,1,0,0:0:0:0:
177,120,313842,1,8,0:0:0:0:
183,132,313921,1,0,0:0:0:0:
177,129,314079,1,8,0:0:0:0:
175,128,314237,1,0,0:0:0:0:
175,129,314395,1,8,0:0:0:0:
177,120,314473,1,0,0:0:0:0:
175,129,314552,1,8,0:0:0:0:
175,129,314631,1,8,0:0:0:0:
175,129,314710,1,4,0:0:0:0:
193,133,314868,1,8,0:0:0:0:
192,134,315026,1,0,0:0:0:0:
191,134,315105,1,0,0:0:0:0:
190,134,315184,1,8,0:0:0:0:
184,131,315342,1,0,0:0:0:0:
188,108,315500,1,8,0:0:0:0:
188,108,315658,1,0,0:0:0:0:
188,108,315737,1,0,0:0:0:0:
188,108,315816,1,8,0:0:0:0:
144,125,315895,1,8,0:0:0:0:
192,134,315973,1,0,0:0:0:0:
191,134,316131,1,8,0:0:0:0:
196,131,316289,1,0,0:0:0:0:
196,131,316368,1,0,0:0:0:0:
190,124,316447,1,8,0:0:0:0:
169,125,316605,1,0,0:0:0:0:
181,102,316763,1,8,0:0:0:0:
181,102,316921,1,8,0:0:0:0:
181,102,317000,1,0,0:0:0:0:
181,102,317079,1,8,0:0:0:0:
181,102,317158,1,8,0:0:0:0:
191,122,317237,1,0,0:0:0:0:
191,121,317395,1,8,0:0:0:0:
182,119,317552,1,0,0:0:0:0:
184,129,317631,1,0,0:0:0:0:
184,129,317710,1,8,0:0:0:0:
184,132,317868,1,0,0:0:0:0:
183,132,318026,1,8,0:0:0:0:
184,132,318105,1,8,0:0:0:0:
184,132,318184,1,0,0:0:0:0:
172,109,318263,1,0,0:0:0:0:
172,109,318342,1,8,0:0:0:0:
175,129,318500,1,8,0:0:0:0:
144,123,318579,1,8,0:0:0:0:
175,129,318658,1,8,0:0:0:0:
186,122,318737,1,8,0:0:0:0:
186,122,318816,1,0,0:0:0:0:
186,122,318895,1,0,0:0:0:0:
155,113,318973,1,8,0:0:0:0:
155,113,319052,1,8,0:0:0:0:
155,113,319131,1,0,0:0:0:0:
155,113,319210,1,0,0:0:0:0:
154,113,319289,1,8,0:0:0:0:
175,129,319447,1,8,0:0:0:0:
138,130,319526,1,0,0:0:0:0:
175,129,319605,1,8,0:0:0:0:
175,129,319684,1,8,0:0:0:0:
175,129,319763,1,4,0:0:0:0:
193,133,319921,1,8,0:0:0:0:
192,134,320079,1,0,0:0:0:0:
191,134,320158,1,0,0:0:0:0:
190,134,320237,1,8,0:0:0:0:
196,131,320395,1,8,0:0:0:0:
189,112,320473,1,0,0:0:0:0:
186,126,320552,1,8,0:0:0:0:
186,126,320631,1,8,0:0:0:0:
186,126,320710,1,0,0:0:0:0:
186,126,320789,1,0,0:0:0:0:
186,128,320868,1,8,0:0:0:0:
186,128,320947,1,8,0:0:0:0:
192,134,321026,1,0,0:0:0:0:
172,122,321184,1,8,0:0:0:0:
196,131,321342,1,0,0:0:0:0:
196,131,321421,1,8,0:0:0:0:
195,137,321500,1,0,0:0:0:0:
195,131,321658,1,8,0:0:0:0:
172,133,321737,1,8,0:0:0:0:
195,130,321816,1,0,0:0:0:0:
186,128,321895,1,8,0:0:0:0:
186,128,321973,1,0,0:0:0:0:
185,125,322052,1,0,0:0:0:0:
185,125,322131,1,8,0:0:0:0:
185,125,322210,1,8,0:0:0:0:
185,125,322289,1,0,0:0:0:0:
185,125,322447,1,8,0:0:0:0:
176,135,322605,1,0,0:0:0:0:
184,129,322684,1,0,0:0:0:0:
184,129,322763,1,8,0:0:0:0:
192,111,322921,1,0,0:0:0:0:
192,111,323000,1,0,0:0:0:0:
183,132,323079,1,8,0:0:0:0:
184,132,323158,1,8,0:0:0:0:
184,132,323237,1,0,0:0:0:0:
172,125,323316,1,8,0:0:0:0:
171,125,323395,1,0,0:0:0:0:
160,136,323473,1,0,0:0:0:0:
175,129,323552,1,8,0:0:0:0:
175,129,323710,1,0,0:0:0:0:
175,129,323789,1,0,0:0:0:0:
175,129,323868,1,8,0:0:0:0:
170,122,323947,1,0,0:0:0:0:
171,132,324026,1,8,0:0:0:0:
183,132,324105,1,8,0:0:0:0:
177,129,324184,1,0,0:0:0:0:
175,128,324342,1,8,0:0:0:0:
171,125,324421,1,0,0:0:0:0:
194,127,324500,1,8,0:0:0:0:
193,127,324579,1,0,0:0:0:0:
182,134,324658,1,8,0:0:0:0:
202,114,324737,1,8,0:0:0:0:
175,129,324816,1,0,0:0:0:0:
193,133,324973,1,8,0:0:0:0:
192,134,325131,1,0,0:0:0:0:
191,134,325210,1,0,0:0:0:0:
190,134,325289,1,8,0:0:0:0:
184,131,325447,1,8,0:0:0:0:
184,131,325526,1,8,0:0:0:0:
184,131,325605,1,0,0:0:0:0:
184,130,325684,1,0,0:0:0:0:
184,130,325763,1,8,0:0:0:0:
174,119,325842,1,0,0:0:0:0:
203,109,325921,1,8,0:0:0:0:
202,109,326000,1,8,0:0:0:0:
202,109,326079,1,0,0:0:0:0:
191,134,326237,1,8,0:0:0:0:
196,131,326395,1,0,0:0:0:0:
196,131,326473,1,0,0:0:0:0:
190,124,326552,1,8,0:0:0:0:
195,131,326710,1,8,0:0:0:0:
206,142,326789,1,8,0:0:0:0:
189,123,326868,1,0,0:0:0:0:
192,125,326947,1,8,0:0:0:0:
190,130,327026,1,0,0:0:0:0:
191,118,327105,1,0,0:0:0:0:
182,118,327184,1,8,0:0:0:0:
182,118,327263,1,8,0:0:0:0:
180,112,327342,1,0,0:0:0:0:
191,121,327500,1,8,0:0:0:0:
182,119,327658,1,0,0:0:0:0:
184,129,327737,1,0,0:0:0:0:
184,129,327816,1,8,0:0:0:0:
184,132,327973,1,0,0:0:0:0:
210,103,328052,1,0,0:0:0:0:
183,132,328131,1,8,0:0:0:0:
210,103,328210,1,0,0:0:0:0:
210,103,328289,1,8,0:0:0:0:
210,103,328368,1,8,0:0:0:0:
211,102,328447,1,0,0:0:0:0:
211,102,328526,1,0,0:0:0:0:
175,129,328605,1,8,0:0:0:0:
175,129,328763,1,0,0:0:0:0:
175,129,328842,1,0,0:0:0:0:
175,129,328921,1,8,0:0:0:0:
64,64,329000,1,0,0:0:0:0:
448,64,329079,1,8,0:0:0:0:
448,64,329158,1,8,0:0:0:0:
64,64,329237,1,0,0:0:0:0:
176,88,329395,1,8,0:0:0:0:
163,120,329473,1,0,0:0:0:0:
176,88,329631,1,8,0:0:0:0:
164,107,329710,1,0,0:0:0:0:
153,118,329868,1,4,0:0:0:0:
164,109,330026,1,8,0:0:0:0:
165,106,330184,1,0,0:0:0:0:
165,106,330263,1,0,0:0:0:0:
165,106,330342,1,8,0:0:0:0:
162,105,330500,1,0,0:0:0:0:
158,96,330658,1,8,0:0:0:0:
156,96,330816,1,8,0:0:0:0:
155,91,330895,1,8,0:0:0:0:
154,91,330973,1,0,0:0:0:0:
162,91,331052,1,8,0:0:0:0:
158,88,331131,1,0,0:0:0:0:
164,88,331289,1,8,0:0:0:0:
155,97,331447,1,0,0:0:0:0:
150,78,331526,1,0,0:0:0:0:
158,96,331605,1,8,0:0:0:0:
196,82,331684,1,8,0:0:0:0:
155,91,331763,1,0,0:0:0:0:
154,91,331842,1,0,0:0:0:0:
142,98,331921,1,8,0:0:0:0:
148,93,332000,1,0,0:0:0:0:
150,79,332079,1,8,0:0:0:0:
128,99,332158,1,0,0:0:0:0:
128,99,332237,1,8,0:0:0:0:
128,99,332316,1,8,0:0:0:0:
128,99,332395,1,0,0:0:0:0:
186,129,332552,1,8,0:0:0:0:
185,129,332710,1,8,0:0:0:0:
184,129,332789,1,0,0:0:0:0:
184,129,332868,1,8,0:0:0:0:
165,105,332947,1,8,0:0:0:0:
165,105,333026,1,8,0:0:0:0:
160,104,333105,1,0,0:0:0:0:
183,132,333184,1,8,0:0:0:0:
158,103,333263,1,8,0:0:0:0:
184,132,333342,1,0,0:0:0:0:
150,79,333421,1,0,0:0:0:0:
150,79,333500,1,8,0:0:0:0:
128,112,333579,1,8,0:0:0:0:
128,112,333658,1,0,0:0:0:0:
175,129,333816,1,0,0:0:0:0:
175,129,333895,1,0,0:0:0:0:
175,129,333973,1,8,0:0:0:0:
138,122,334052,1,8,0:0:0:0:
138,122,334131,1,0,0:0:0:0:
138,122,334210,1,0,0:0:0:0:
138,122,334289,1,8,0:0:0:0:
152,126,334368,1,0,0:0:0:0:
167,108,334447,1,0,0:0:0:0:
152,126,334526,1,8,0:0:0:0:
152,126,334605,1,0,0:0:0:0:
152,126,334684,1,0,0:0:0:0:
152,126,334763,1,8,0:0:0:0:
166,114,334842,1,0,0:0:0:0:
167,115,334921,1,8,0:0:0:0:
166,115,335079,1,0,0:0:0:0:
165,114,335158,1,0,0:0:0:0:
165,114,335237,1,8,0:0:0:0:
191,134,335316,1,0,0:0:0:0:
190,134,335395,1,8,0:0:0:0:
165,114,335473,1,8,0:0:0:0:
184,131,335552,1,0,0:0:0:0:
197,129,335631,1,0,0:0:0:0:
197,129,335710,1,8,0:0:0:0:
197,129,335789,1,0,0:0:0:0:
168,124,335868,1,8,0:0:0:0:
168,124,335947,1,8,0:0:0:0:
168,124,336026,1,8,0:0:0:0:
174,120,336105,1,0,0:0:0:0:
192,134,336184,1,8,0:0:0:0:
185,119,336342,1,8,0:0:0:0:
177,119,336421,1,0,0:0:0:0:
184,131,336500,1,8,0:0:0:0:
179,111,336579,1,8,0:0:0:0:
181,104,336658,1,0,0:0:0:0:
181,120,336737,1,0,0:0:0:0:
195,131,336816,1,12,0:0:0:0:
179,121,337131,1,4,0:0:0:0:
177,119,337447,1,0,0:0:0:0:
186,129,337605,1,8,0:0:0:0:
185,129,337763,1,0,0:0:0:0:
184,129,337842,1,0,0:0:0:0:
184,129,337921,1,8,0:0:0:0:
184,132,338079,1,0,0:0:0:0:
183,132,338237,1,8,0:0:0:0:
184,132,338316,1,8,0:0:0:0:
184,132,338395,1,0,0:0:0:0:
175,128,338552,1,0,0:0:0:0:
168,124,338710,1,8,0:0:0:0:
175,129,338868,1,0,0:0:0:0:
175,129,338947,1,0,0:0:0:0:
175,129,339026,1,8,0:0:0:0:
183,132,339184,1,0,0:0:0:0:
177,129,339342,1,8,0:0:0:0:
177,129,339421,1,8,0:0:0:0:
175,128,339500,1,0,0:0:0:0:
175,128,339579,1,8,0:0:0:0:
168,124,339658,1,0,0:0:0:0:
175,129,339816,1,8,0:0:0:0:
175,129,339973,1,0,0:0:0:0:
193,133,340131,1,8,0:0:0:0:
192,134,340289,1,0,0:0:0:0:
191,134,340368,1,0,0:0:0:0:
190,134,340447,1,8,0:0:0:0:
184,131,340605,1,0,0:0:0:0:
184,131,340763,1,8,0:0:0:0:
184,130,340842,1,8,0:0:0:0:
184,130,340921,1,0,0:0:0:0:
192,125,341079,1,8,0:0:0:0:
192,134,341237,1,0,0:0:0:0:
191,134,341395,1,8,0:0:0:0:
190,134,341473,1,0,0:0:0:0:
186,120,341552,1,8,0:0:0:0:
178,127,341710,1,0,0:0:0:0:
184,130,341868,1,8,0:0:0:0:
182,123,341947,1,0,0:0:0:0:
195,130,342026,1,8,0:0:0:0:
182,123,342105,1,8,0:0:0:0:
192,134,342184,1,0,0:0:0:0:
192,134,342342,1,8,0:0:0:0:
186,127,342500,1,0,0:0:0:0:
186,116,342658,1,8,0:0:0:0:
182,119,342816,1,0,0:0:0:0:
184,129,342895,1,0,0:0:0:0:
184,129,342973,1,8,0:0:0:0:
184,132,343131,1,0,0:0:0:0:
183,132,343289,1,8,0:0:0:0:
184,132,343368,1,8,0:0:0:0:
184,132,343447,1,0,0:0:0:0:
175,128,343605,1,8,0:0:0:0:
175,129,343763,1,0,0:0:0:0:
175,129,343921,1,8,0:0:0:0:
175,129,344000,1,0,0:0:0:0:
175,129,344079,1,8,0:0:0:0:
183,132,344237,1,0,0:0:0:0:
177,129,344395,1,8,0:0:0:0:
166,132,344473,1,0,0:0:0:0:
166,132,344552,1,8,0:0:0:0:
166,132,344631,1,8,0:0:0:0:
190,127,344710,1,0,0:0:0:0:
175,129,344868,1,8,0:0:0:0:
175,129,345026,1,0,0:0:0:0:
192,152,345105,1,0,0:0:0:0:
193,133,345184,1,8,0:0:0:0:
152,88,345263,1,0,0:0:0:0:
192,134,345342,1,0,0:0:0:0:
191,134,345421,1,8,0:0:0:0:
190,134,345500,1,0,0:0:0:0:
168,136,345579,1,0,0:0:0:0:
168,136,345658,1,8,0:0:0:0:
56,136,345737,1,0,0:0:0:0:
179,118,345816,1,0,0:0:0:0:
152,144,345895,1,8,0:0:0:0:
190,122,345973,1,0,0:0:0:0:
190,122,346052,1,0,0:0:0:0:
168,121,346131,1,8,0:0:0:0:
144,144,346210,1,8,0:0:0:0:
174,105,346289,1,0,0:0:0:0:
175,105,346368,1,0,0:0:0:0:
175,105,346447,1,8,0:0:0:0:
175,105,346526,1,0,0:0:0:0:
175,105,346605,1,8,0:0:0:0:
175,105,346684,1,8,0:0:0:0:
175,105,346763,1,0,0:0:0:0:
175,105,346842,1,0,0:0:0:0:
167,102,346921,1,8,0:0:0:0:
167,102,347000,1,0,0:0:0:0:
168,101,347079,1,8,0:0:0:0:
168,101,347158,1,8,0:0:0:0:
167,99,347237,1,0,0:0:0:0:
166,99,347316,1,0,0:0:0:0:
160,93,347395,1,12,0:0:0:0:
165,83,347710,1,0,0:0:0:0:
164,97,347868,1,8,0:0:0:0:
171,81,348026,1,0,0:0:0:0:
170,81,348184,1,8,0:0:0:0:
170,81,348342,1,0,0:0:0:0:
170,81,348500,1,8,0:0:0:0:
174,68,348658,1,0,0:0:0:0:
163,56,348737,1,0,0:0:0:0:
174,70,348816,1,8,0:0:0:0:
163,56,348973,1,8,0:0:0:0:
164,60,349131,1,0,0:0:0:0:
163,60,349289,1,0,0:0:0:0:
160,56,349447,1,8,0:0:0:0:
160,56,349605,1,0,0:0:0:0:
163,56,349763,1,8,0:0:0:0:
163,56,349921,1,0,0:0:0:0:
164,60,350079,1,8,0:0:0:0:
163,60,350237,1,8,0:0:0:0:
160,56,350395,1,0,0:0:0:0:
149,54,350552,1,0,0:0:0:0:
158,51,350710,1,8,0:0:0:0:
157,52,350868,1,8,0:0:0:0:
157,52,351026,1,0,0:0:0:0:
157,52,351184,1,0,0:0:0:0:
160,128,351263,1,0,0:0:0:0:
157,52,351342,1,8,0:0:0:0:
149,54,351500,1,8,0:0:0:0:
149,54,351579,1,0,0:0:0:0:
149,55,351658,1,8,0:0:0:0:
159,40,351816,1,0,0:0:0:0:
157,41,351973,1,8,0:0:0:0:
154,44,352131,1,0,0:0:0:0:
154,43,352289,1,8,0:0:0:0:
154,43,352447,1,0,0:0:0:0:
154,45,352605,1,8,0:0:0:0:
150,53,352763,1,0,0:0:0:0:
150,54,352921,1,0,0:0:0:0:
150,54,353079,1,0,0:0:0:0:
150,54,353237,1,8,0:0:0:0:
150,54,353395,1,0,0:0:0:0:
150,54,353552,1,8,0:0:0:0:
150,53,353710,1,8,0:0:0:0:
150,54,353868,1,8,0:0:0:0:
150,54,354026,1,0,0:0:0:0:
150,54,354184,1,0,0:0:0:0:
150,54,354342,1,0,0:0:0:0:
159,51,354500,1,8,0:0:0:0:
159,51,354658,1,8,0:0:0:0:
159,50,354816,1,0,0:0:0:0:
159,50,354973,1,0,0:0:0:0:
159,50,355131,1,8,0:0:0:0:
157,50,355289,1,0,0:0:0:0:
159,51,355447,1,0,0:0:0:0:
159,51,355605,1,8,0:0:0:0:
153,45,355763,1,8,0:0:0:0:
153,45,355921,1,0,0:0:0:0:
153,45,356079,1,0,0:0:0:0:
157,50,356237,1,8,0:0:0:0:
153,45,356316,1,8,0:0:0:0:
155,45,356395,1,0,0:0:0:0:
150,55,356552,1,12,0:0:0:0:
150,56,356710,1,12,0:0:0:0:
150,56,356868,1,0,0:0:0:0:
150,56,357026,1,12,0:0:0:0:
147,56,357184,1,12,0:0:0:0:
144,56,357342,1,0,0:0:0:0:
138,48,357500,1,12,0:0:0:0:
150,94,357658,1,4,0:0:0:0:
145,78,357816,1,8,0:0:0:0:
165,83,357973,1,8,0:0:0:0:
164,97,358131,1,0,0:0:0:0:
153,99,358289,1,8,0:0:0:0:
158,83,358447,1,0,0:0:0:0:
170,81,358605,1,8,0:0:0:0:
152,76,358763,1,0,0:0:0:0:
163,56,358842,1,0,0:0:0:0:
174,68,358921,1,8,0:0:0:0:
174,70,359079,1,8,0:0:0:0:
163,56,359237,1,0,0:0:0:0:
164,60,359395,1,8,0:0:0:0:
163,60,359552,1,8,0:0:0:0:
72,120,359710,1,0,0:0:0:0:
160,56,359868,1,8,0:0:0:0:
163,56,360026,1,0,0:0:0:0:
163,56,360184,1,8,0:0:0:0:
164,60,360342,1,0,0:0:0:0:
163,60,360500,1,0,0:0:0:0:
160,56,360658,1,8,0:0:0:0:
149,54,360816,1,8,0:0:0:0:
158,51,360973,1,0,0:0:0:0:
157,52,361131,1,8,0:0:0:0:
157,52,361289,1,0,0:0:0:0:
163,60,361368,1,0,0:0:0:0:
157,52,361447,1,8,0:0:0:0:
157,52,361605,1,8,0:0:0:0:
159,46,361763,1,8,0:0:0:0:
159,46,361842,1,8,0:0:0:0:
158,51,361921,1,0,0:0:0:0:
156,66,362000,1,0,0:0:0:0:
152,60,362079,1,8,0:0:0:0:
157,41,362237,1,8,0:0:0:0:
149,22,362316,1,8,0:0:0:0:
149,22,362395,1,0,0:0:0:0:
154,43,362552,1,0,0:0:0:0:
154,43,362710,1,8,0:0:0:0:
154,45,362868,1,0,0:0:0:0:
150,53,363026,1,8,0:0:0:0:
150,54,363184,1,0,0:0:0:0:
154,44,363342,1,8,0:0:0:0:
150,54,363500,1,8,0:0:0:0:
150,54,363658,1,0,0:0:0:0:
150,54,363816,1,0,0:0:0:0:
150,53,363973,1,8,0:0:0:0:
150,54,364131,1,0,0:0:0:0:
150,54,364289,1,8,0:0:0:0:
131,54,364447,1,0,0:0:0:0:
150,54,364605,1,8,0:0:0:0:
120,93,364710,1,0,0:0:0:0:
65,126,364816,1,0,0:0:0:0:
159,51,364921,1,8,0:0:0:0:
156,54,365026,1,8,0:0:0:0:
156,54,365131,1,0,0:0:0:0:
448,320,365237,1,12,0:0:0:0:
159,50,365395,1,0,0:0:0:0:
150,54,365473,1,0,0:0:0:0:
157,50,365552,1,8,0:0:0:0:
159,51,365710,1,4,0:0:0:0:
162,59,365868,1,8,0:0:0:0:
162,59,365947,1,8,0:0:0:0:
162,59,366026,1,0,0:0:0:0:
153,45,366184,1,12,0:0:0:0:
153,45,366342,1,0,0:0:0:0:
169,34,366421,1,0,0:0:0:0:
157,50,366500,1,8,0:0:0:0:
155,45,366658,1,4,0:0:0:0:
150,55,366816,1,8,0:0:0:0:
155,54,366895,1,8,0:0:0:0:
150,56,366973,1,0,0:0:0:0:
150,56,367131,1,8,0:0:0:0:
138,101,367171,1,8,0:0:0:0:
147,56,367289,1,0,0:0:0:0:
147,56,367447,1,0,0:0:0:0:
144,56,367605,1,12,0:0:0:0:
138,48,367763,1,4,0:0:0:0:
194,205,382920,5,8,0:0:0:0:
194,205,382973,5,8,0:0:0:0:
194,205,383236,1,0,0:0:0:0:
194,205,383394,1,8,0:0:0:0:
194,205,383552,1,8,0:0:0:0:
194,205,383710,1,0,0:0:0:0:
194,205,383868,1,8,0:0:0:0:
192,198,384184,1,0,0:0:0:0:
195,184,384341,1,8,0:0:0:0:
195,184,384499,1,0,0:0:0:0:
195,184,384657,1,0,0:0:0:0:
195,184,384815,1,8,0:0:0:0:
194,205,384868,1,8,0:0:0:0:
191,169,385131,1,0,0:0:0:0:
191,169,385289,1,8,0:0:0:0:
191,169,385447,1,8,0:0:0:0:
191,169,385605,1,0,0:0:0:0:
191,169,385763,1,8,0:0:0:0:
197,198,385815,1,8,0:0:0:0:
191,169,385920,1,0,0:0:0:0:
191,169,386078,1,8,0:0:0:0:
191,169,386236,1,0,0:0:0:0:
191,169,386394,1,8,0:0:0:0:
191,169,386552,1,0,0:0:0:0:
191,169,386710,1,8,0:0:0:0:
197,198,386763,1,8,0:0:0:0:
191,169,387026,1,0,0:0:0:0:
191,169,387184,1,8,0:0:0:0:
183,172,387341,1,0,0:0:0:0:
183,172,387499,1,0,0:0:0:0:
201,166,387657,1,8,0:0:0:0:
198,167,387973,1,0,0:0:0:0:
198,167,388131,1,8,0:0:0:0:
198,167,388289,1,8,0:0:0:0:
198,167,388447,1,0,0:0:0:0:
201,166,388605,1,8,0:0:0:0:
184,152,388657,1,8,0:0:0:0:
183,153,388763,1,0,0:0:0:0:
198,167,388920,1,8,0:0:0:0:
198,167,389078,1,8,0:0:0:0:
198,167,389236,1,0,0:0:0:0:
198,167,389394,1,0,0:0:0:0:
201,166,389552,1,8,0:0:0:0:
198,167,389710,1,0,0:0:0:0:
198,167,389868,1,8,0:0:0:0:
198,167,390026,1,0,0:0:0:0:
198,167,390184,1,8,0:0:0:0:
180,164,390236,1,8,0:0:0:0:
165,140,390289,1,0,0:0:0:0:
201,166,390499,1,8,0:0:0:0:
186,162,390815,1,0,0:0:0:0:
187,162,390973,1,8,0:0:0:0:
187,162,391131,1,8,0:0:0:0:
187,162,391289,1,0,0:0:0:0:
187,162,391447,1,8,0:0:0:0:
186,162,391763,1,0,0:0:0:0:
187,162,391920,1,8,0:0:0:0:
187,162,392078,1,0,0:0:0:0:
187,162,392236,1,0,0:0:0:0:
187,162,392394,1,8,0:0:0:0:
189,200,392447,1,8,0:0:0:0:
186,162,392710,1,0,0:0:0:0:
187,162,392868,1,8,0:0:0:0:
187,162,393026,1,8,0:0:0:0:
187,162,393184,1,0,0:0:0:0:
187,162,393341,1,8,0:0:0:0:
128,127,393394,1,8,0:0:0:0:
186,162,393499,1,0,0:0:0:0:
186,162,393657,1,8,0:0:0:0:
187,162,393815,1,0,0:0:0:0:
187,162,393973,1,8,0:0:0:0:
187,162,394131,1,0,0:0:0:0:
187,162,394289,1,8,0:0:0:0:
191,169,394605,1,0,0:0:0:0:
191,169,394763,1,8,0:0:0:0:
183,172,394920,1,0,0:0:0:0:
183,172,395078,1,0,0:0:0:0:
201,166,395236,1,8,0:0:0:0:
198,167,395552,1,0,0:0:0:0:
198,167,395710,1,8,0:0:0:0:
198,167,395868,1,8,0:0:0:0:
198,167,396026,1,0,0:0:0:0:
201,166,396184,1,8,0:0:0:0:
196,155,396263,1,0,0:0:0:0:
196,155,396341,1,0,0:0:0:0:
198,167,396420,1,0,0:0:0:0:
198,167,396499,1,8,0:0:0:0:
172,146,396578,1,8,0:0:0:0:
198,167,396657,1,0,0:0:0:0:
174,154,396736,1,0,0:0:0:0:
174,154,396815,1,8,0:0:0:0:
174,154,396894,1,0,0:0:0:0:
174,154,396973,1,0,0:0:0:0:
174,154,397052,1,0,0:0:0:0:
210,152,397131,1,8,0:0:0:0:
198,167,397289,1,8,0:0:0:0:
163,163,397368,1,8,0:0:0:0:
198,167,397447,1,0,0:0:0:0:
198,167,397605,1,8,0:0:0:0:
182,170,397684,1,0,0:0:0:0:
169,148,397763,1,8,0:0:0:0:
198,167,397920,1,0,0:0:0:0:
182,170,397999,1,0,0:0:0:0:
201,166,398078,1,12,0:0:0:0:
186,162,398394,1,0,0:0:0:0:
187,162,398552,1,0,0:0:0:0:
185,162,398710,1,8,0:0:0:0:
187,162,398868,1,0,0:0:0:0:
187,162,399026,1,8,0:0:0:0:
177,151,399105,1,8,0:0:0:0:
177,151,399184,1,0,0:0:0:0:
186,162,399341,1,0,0:0:0:0:
187,162,399499,1,8,0:0:0:0:
186,155,399578,1,8,0:0:0:0:
187,162,399657,1,0,0:0:0:0:
120,176,399736,1,0,0:0:0:0:
186,155,399815,1,8,0:0:0:0:
177,151,399973,1,0,0:0:0:0:
186,162,400289,1,8,0:0:0:0:
187,162,400447,1,0,0:0:0:0:
187,162,400526,1,0,0:0:0:0:
187,162,400605,1,0,0:0:0:0:
181,159,400763,1,0,0:0:0:0:
187,162,400920,1,8,0:0:0:0:
183,152,401236,1,8,0:0:0:0:
152,140,401315,1,0,0:0:0:0:
185,152,401394,1,8,0:0:0:0:
187,162,401552,1,0,0:0:0:0:
187,162,401710,1,0,0:0:0:0:
187,162,401868,1,8,0:0:0:0:
178,161,402184,1,0,0:0:0:0:
178,161,402263,1,0,0:0:0:0:
178,161,402341,1,8,0:0:0:0:
169,155,402499,1,0,0:0:0:0:
187,162,402657,1,0,0:0:0:0:
187,162,402815,1,8,0:0:0:0:
186,162,403131,1,0,0:0:0:0:
187,162,403289,1,8,0:0:0:0:
186,155,403368,1,8,0:0:0:0:
187,162,403447,1,0,0:0:0:0:
190,152,403605,1,0,0:0:0:0:
190,152,403763,1,8,0:0:0:0:
152,139,403920,1,0,0:0:0:0:
175,111,404078,1,0,0:0:0:0:
175,111,404236,1,8,0:0:0:0:
187,162,404315,1,8,0:0:0:0:
191,166,404394,1,0,0:0:0:0:
193,120,404552,1,8,0:0:0:0:
187,162,404710,1,8,0:0:0:0:
186,162,404868,1,0,0:0:0:0:
125,152,404947,1,0,0:0:0:0:
183,152,405026,1,8,0:0:0:0:
179,154,405184,1,0,0:0:0:0:
171,175,405341,1,8,0:0:0:0:
181,159,405499,1,8,0:0:0:0:
187,173,405657,1,0,0:0:0:0:
177,162,405973,1,8,0:0:0:0:
187,162,406131,1,8,0:0:0:0:
179,154,406210,1,8,0:0:0:0:
179,167,406289,1,0,0:0:0:0:
187,162,406447,1,0,0:0:0:0:
187,162,406605,1,8,0:0:0:0:
186,162,406920,1,0,0:0:0:0:
187,162,407078,1,8,0:0:0:0:
187,162,407236,1,0,0:0:0:0:
170,127,407315,1,0,0:0:0:0:
179,154,407394,1,8,0:0:0:0:
175,153,407473,1,8,0:0:0:0:
172,131,407552,1,0,0:0:0:0:
170,132,407710,1,0,0:0:0:0:
186,162,407868,1,0,0:0:0:0:
170,130,407947,1,0,0:0:0:0:
187,162,408026,1,8,0:0:0:0:
199,184,408184,1,0,0:0:0:0:
187,162,408341,1,8,0:0:0:0:
187,162,408499,1,0,0:0:0:0:
183,152,408815,1,8,0:0:0:0:
184,152,409131,1,8,0:0:0:0:
187,162,409447,1,12,0:0:0:0:
178,161,409763,1,0,0:0:0:0:
178,161,409841,1,0,0:0:0:0:
178,161,409920,1,8,0:0:0:0:
169,155,410078,1,0,0:0:0:0:
183,154,410236,1,8,0:0:0:0:
187,162,410394,1,8,0:0:0:0:
199,144,410473,1,8,0:0:0:0:
199,143,410552,1,0,0:0:0:0:
186,162,410710,1,0,0:0:0:0:
186,167,410868,1,8,0:0:0:0:
186,167,410947,1,0,0:0:0:0:
189,156,411026,1,8,0:0:0:0:
189,155,411105,1,8,0:0:0:0:
190,152,411184,1,0,0:0:0:0:
190,152,411341,1,8,0:0:0:0:
186,162,411657,1,8,0:0:0:0:
179,154,411815,1,0,0:0:0:0:
188,145,411973,1,8,0:0:0:0:
187,145,412052,1,8,0:0:0:0:
187,145,412131,1,0,0:0:0:0:
187,162,412289,1,8,0:0:0:0:
186,162,412447,1,0,0:0:0:0:
183,152,412605,1,8,0:0:0:0:
179,154,412763,1,8,0:0:0:0:
191,169,412920,1,4,0:0:0:0:
187,173,413236,1,12,0:0:0:0:
179,162,413552,1,0,0:0:0:0:
179,163,413710,1,8,0:0:0:0:
168,153,413868,1,8,0:0:0:0:
168,153,413947,1,8,0:0:0:0:
168,153,414026,1,0,0:0:0:0:
170,158,414184,1,8,0:0:0:0:
173,152,414499,1,0,0:0:0:0:
173,152,414578,1,0,0:0:0:0:
173,152,414657,1,8,0:0:0:0:
170,152,414815,1,8,0:0:0:0:
170,152,414973,1,0,0:0:0:0:
170,152,415131,1,0,0:0:0:0:
173,152,415447,1,8,0:0:0:0:
180,154,415763,1,8,0:0:0:0:
170,152,415920,1,0,0:0:0:0:
178,157,416078,1,8,0:0:0:0:
170,141,416184,1,8,0:0:0:0:
168,135,416289,1,0,0:0:0:0:
166,140,416394,1,8,0:0:0:0:
163,142,416499,1,0,0:0:0:0:
164,144,416605,1,0,0:0:0:0:
164,144,416710,1,8,0:0:0:0:
164,144,416815,1,0,0:0:0:0:
170,151,417026,1,12,0:0:0:0:
186,162,417341,1,0,0:0:0:0:
152,128,417420,1,0,0:0:0:0:
187,162,417499,1,8,0:0:0:0:
185,162,417657,1,8,0:0:0:0:
187,162,417815,1,0,0:0:0:0:
187,162,417973,1,8,0:0:0:0:
186,162,418289,1,0,0:0:0:0:
187,162,418447,1,8,0:0:0:0:
186,155,418526,1,8,0:0:0:0:
187,162,418605,1,0,0:0:0:0:
186,155,418763,1,8,0:0:0:0:
177,151,418920,1,0,0:0:0:0:
186,162,419236,1,8,0:0:0:0:
163,153,419394,1,8,0:0:0:0:
163,153,419473,1,8,0:0:0:0:
163,153,419552,1,0,0:0:0:0:
187,162,419710,1,8,0:0:0:0:
187,162,419868,1,8,0:0:0:0:
187,147,419947,1,8,0:0:0:0:
186,162,420026,1,0,0:0:0:0:
183,152,420184,1,8,0:0:0:0:
179,173,420341,1,0,0:0:0:0:
183,159,420420,1,0,0:0:0:0:
183,159,420499,1,8,0:0:0:0:
187,162,420657,1,8,0:0:0:0:
187,162,420815,1,0,0:0:0:0:
178,161,421131,1,0,0:0:0:0:
178,161,421210,1,0,0:0:0:0:
178,161,421289,1,8,0:0:0:0:
169,155,421447,1,0,0:0:0:0:
187,162,421605,1,0,0:0:0:0:
187,162,421763,1,8,0:0:0:0:
186,162,422078,1,0,0:0:0:0:
187,162,422236,1,8,0:0:0:0:
195,152,422315,1,0,0:0:0:0:
185,158,422394,1,8,0:0:0:0:
190,152,422552,1,0,0:0:0:0:
185,154,422710,1,0,0:0:0:0:
186,162,423026,1,8,0:0:0:0:
179,154,423184,1,8,0:0:0:0:
187,162,423263,1,0,0:0:0:0:
187,162,423341,1,0,0:0:0:0:
189,140,423499,1,0,0:0:0:0:
187,162,423657,1,8,0:0:0:0:
186,162,423815,1,0,0:0:0:0:
183,152,423973,1,8,0:0:0:0:
179,154,424131,1,0,0:0:0:0:
183,168,424210,1,0,0:0:0:0:
187,162,424289,1,8,0:0:0:0:
181,159,424447,1,8,0:0:0:0:
187,173,424605,1,0,0:0:0:0:
180,160,424920,1,8,0:0:0:0:
168,104,424999,1,8,0:0:0:0:
173,166,425078,1,0,0:0:0:0:
183,168,425236,1,0,0:0:0:0:
185,171,425394,1,8,0:0:0:0:
187,162,425552,1,8,0:0:0:0:
186,162,425868,1,0,0:0:0:0:
177,161,426026,1,0,0:0:0:0:
180,161,426105,1,0,0:0:0:0:
180,160,426184,1,8,0:0:0:0:
186,155,426341,1,8,0:0:0:0:
177,151,426499,1,0,0:0:0:0:
186,162,426815,1,8,0:0:0:0:
163,153,426973,1,8,0:0:0:0:
163,153,427131,1,0,0:0:0:0:
180,146,427210,1,8,0:0:0:0:
187,162,427289,1,8,0:0:0:0:
187,162,427447,1,8,0:0:0:0:
186,162,427605,1,0,0:0:0:0:
183,152,427763,1,8,0:0:0:0:
179,173,427920,1,0,0:0:0:0:
183,159,427999,1,0,0:0:0:0:
177,165,428078,1,8,0:0:0:0:
177,163,428236,1,8,0:0:0:0:
179,161,428394,1,0,0:0:0:0:
178,161,428710,1,0,0:0:0:0:
174,153,428789,1,0,0:0:0:0:
178,161,428868,1,8,0:0:0:0:
169,155,429026,1,0,0:0:0:0:
187,162,429184,1,0,0:0:0:0:
187,162,429341,1,8,0:0:0:0:
186,162,429657,1,0,0:0:0:0:
187,162,429815,1,8,0:0:0:0:
195,152,429894,1,0,0:0:0:0:
185,158,429973,1,8,0:0:0:0:
190,152,430131,1,0,0:0:0:0:
182,171,430289,1,8,0:0:0:0:
186,169,430605,1,0,0:0:0:0:
179,154,430763,1,8,0:0:0:0:
187,162,430920,1,0,0:0:0:0:
189,140,431078,1,0,0:0:0:0:
187,162,431236,1,8,0:0:0:0:
191,153,431315,1,8,0:0:0:0:
186,162,431394,1,0,0:0:0:0:
185,140,431710,1,0,0:0:0:0:
181,159,432026,1,0,0:0:0:0:
187,173,432184,1,12,0:0:0:0:
186,162,432499,1,8,0:0:0:0:
180,156,432578,1,8,0:0:0:0:
187,162,432657,1,0,0:0:0:0:
180,156,432815,1,8,0:0:0:0:
187,162,432973,1,0,0:0:0:0:
187,162,433131,1,8,0:0:0:0:
186,162,433447,1,0,0:0:0:0:
187,162,433605,1,8,0:0:0:0:
180,156,433684,1,0,0:0:0:0:
180,156,433763,1,8,0:0:0:0:
180,156,433920,1,0,0:0:0:0:
189,175,434078,1,8,0:0:0:0:
186,162,434394,1,8,0:0:0:0:
187,162,434552,1,0,0:0:0:0:
187,162,434631,1,0,0:0:0:0:
182,164,434710,1,8,0:0:0:0:
192,158,434868,1,0,0:0:0:0:
187,162,435026,1,8,0:0:0:0:
186,162,435184,1,0,0:0:0:0:
187,147,435263,1,0,0:0:0:0:
186,162,435341,1,8,0:0:0:0:
176,167,435499,1,8,0:0:0:0:
181,156,435657,1,0,0:0:0:0:
183,159,435736,1,8,0:0:0:0:
187,162,435815,1,0,0:0:0:0:
182,155,435894,1,0,0:0:0:0:
187,162,435973,1,8,0:0:0:0:
178,161,436289,1,0,0:0:0:0:
178,161,436447,1,0,0:0:0:0:
194,150,436526,1,0,0:0:0:0:
169,155,436605,1,8,0:0:0:0:
187,162,436763,1,0,0:0:0:0:
187,162,436920,1,8,0:0:0:0:
179,148,437236,1,0,0:0:0:0:
179,148,437315,1,0,0:0:0:0:
180,148,437394,1,8,0:0:0:0:
180,148,437552,1,0,0:0:0:0:
190,152,437710,1,0,0:0:0:0:
185,158,437868,1,8,0:0:0:0:
187,162,437947,1,8,0:0:0:0:
179,148,438026,1,0,0:0:0:0:
189,157,438105,1,0,0:0:0:0:
189,171,438184,1,0,0:0:0:0:
179,154,438341,1,8,0:0:0:0:
187,162,438499,1,0,0:0:0:0:
189,140,438657,1,0,0:0:0:0:
187,162,438815,1,8,0:0:0:0:
182,146,438894,1,8,0:0:0:0:
187,162,438973,1,0,0:0:0:0:
179,148,439052,1,0,0:0:0:0:
183,152,439131,1,8,0:0:0:0:
179,154,439289,1,0,0:0:0:0:
189,152,439368,1,0,0:0:0:0:
187,162,439447,1,8,0:0:0:0:
179,163,439605,1,0,0:0:0:0:
187,162,439763,1,12,0:0:0:0:
180,160,440078,1,8,0:0:0:0:
177,160,440157,1,8,0:0:0:0:
173,166,440236,1,0,0:0:0:0:
172,164,440394,1,8,0:0:0:0:
179,163,440552,1,0,0:0:0:0:
180,162,440710,1,8,0:0:0:0:
186,162,441026,1,0,0:0:0:0:
176,157,441184,1,8,0:0:0:0:
173,152,441263,1,0,0:0:0:0:
173,152,441341,1,8,0:0:0:0:
181,146,441499,1,0,0:0:0:0:
160,144,441578,1,0,0:0:0:0:
170,160,441657,1,8,0:0:0:0:
176,144,441815,1,0,0:0:0:0:
186,162,441973,1,8,0:0:0:0:
163,153,442131,1,8,0:0:0:0:
179,146,442210,1,0,0:0:0:0:
163,153,442289,1,8,0:0:0:0:
173,152,442368,1,8,0:0:0:0:
187,162,442447,1,0,0:0:0:0:
187,162,442605,1,8,0:0:0:0:
186,162,442763,1,0,0:0:0:0:
183,152,442920,1,8,0:0:0:0:
179,173,443078,1,0,0:0:0:0:
183,159,443157,1,0,0:0:0:0:
177,165,443236,1,8,0:0:0:0:
177,163,443394,1,8,0:0:0:0:
179,161,443552,1,4,0:0:0:0:
183,152,443868,1,8,0:0:0:0:
187,151,444026,1,0,0:0:0:0:
177,152,444184,1,8,0:0:0:0:
177,152,444263,1,0,0:0:0:0:
177,152,444341,1,0,0:0:0:0:
187,162,444499,1,8,0:0:0:0:
164,152,444657,1,0,0:0:0:0:
186,162,444815,1,0,0:0:0:0:
195,152,444894,1,0,0:0:0:0:
187,162,444973,1,8,0:0:0:0:
185,158,445131,1,8,0:0:0:0:
190,152,445289,1,0,0:0:0:0:
182,171,445447,1,8,0:0:0:0:
170,159,445763,1,8,0:0:0:0:
171,159,445841,1,8,0:0:0:0:
171,159,445920,1,0,0:0:0:0:
171,159,445999,1,0,0:0:0:0:
163,161,446078,1,8,0:0:0:0:
163,161,446157,1,0,0:0:0:0:
163,161,446236,1,8,0:0:0:0:
163,161,446315,1,8,0:0:0:0:
163,161,446394,1,0,0:0:0:0:
163,161,446473,1,0,0:0:0:0:
170,159,446552,1,8,0:0:0:0:
170,159,446631,1,8,0:0:0:0:
170,159,446710,1,0,0:0:0:0:
170,159,446789,1,8,0:0:0:0:
171,159,446868,1,0,0:0:0:0:
171,159,446947,1,0,0:0:0:0:
171,159,447026,1,8,0:0:0:0:
170,156,447105,1,8,0:0:0:0:
170,156,447184,1,0,0:0:0:0:
170,156,447341,1,12,0:0:0:0:
122,123,447657,1,0,0:0:0:0:
119,136,447815,1,8,0:0:0:0:
122,123,447973,1,0,0:0:0:0:
122,123,448052,1,0,0:0:0:0:
122,123,448131,1,0,0:0:0:0:
127,119,448210,1,0,0:0:0:0:
122,123,448289,1,8,0:0:0:0:
132,132,448605,1,8,0:0:0:0:
132,128,448763,1,0,0:0:0:0:
119,115,448920,1,8,0:0:0:0:
119,115,448999,1,8,0:0:0:0:
119,115,449078,1,8,0:0:0:0:
119,115,449157,1,8,0:0:0:0:
119,115,449236,1,0,0:0:0:0:
133,136,449552,1,0,0:0:0:0:
145,142,449710,1,8,0:0:0:0:
145,136,449868,1,8,0:0:0:0:
144,137,450026,1,0,0:0:0:0:
136,136,450184,1,8,0:0:0:0:
138,133,450263,1,8,0:0:0:0:
133,136,450341,1,0,0:0:0:0:
133,136,450420,1,8,0:0:0:0:
133,136,450499,1,0,0:0:0:0:
133,136,450578,1,0,0:0:0:0:
135,142,450657,1,8,0:0:0:0:
138,133,450736,1,0,0:0:0:0:
135,147,450815,1,8,0:0:0:0:
134,135,450894,1,8,0:0:0:0:
134,135,450973,1,0,0:0:0:0:
134,135,451052,1,0,0:0:0:0:
139,128,451131,1,8,0:0:0:0:
130,128,451447,1,0,0:0:0:0:
130,128,451605,1,8,0:0:0:0:
135,123,451763,1,0,0:0:0:0:
114,137,451841,1,8,0:0:0:0:
115,137,451920,1,0,0:0:0:0:
122,142,451999,1,0,0:0:0:0:
115,137,452078,1,8,0:0:0:0:
123,126,452394,1,8,0:0:0:0:
128,118,452552,1,0,0:0:0:0:
126,117,452710,1,8,0:0:0:0:
128,120,452789,1,8,0:0:0:0:
128,109,452868,1,8,0:0:0:0:
128,109,452947,1,8,0:0:0:0:
129,120,453026,1,4,0:0:0:0:
256,192,453184,12,0,454605,0:0:0:0:
127,126,454920,5,4,0:0:0:0:
116,118,455236,1,8,0:0:0:0:
118,116,455394,1,8,0:0:0:0:
110,116,455552,1,0,0:0:0:0:
118,114,455710,1,0,0:0:0:0:
97,130,455789,1,0,0:0:0:0:
120,117,455868,1,8,0:0:0:0:
116,118,456026,1,8,0:0:0:0:
116,118,456184,1,0,0:0:0:0:
116,116,456341,1,0,0:0:0:0:
116,118,456420,1,8,0:0:0:0:
115,110,456499,1,0,0:0:0:0:
132,119,456657,1,8,0:0:0:0:
116,112,456815,1,0,0:0:0:0:
129,86,457131,1,8,0:0:0:0:
127,104,457210,1,0,0:0:0:0:
144,93,457289,1,8,0:0:0:0:
141,83,457447,1,0,0:0:0:0:
132,68,457605,1,8,0:0:0:0:
131,73,457684,1,0,0:0:0:0:
131,73,457763,1,0,0:0:0:0:
128,98,457920,1,0,0:0:0:0:
128,98,457999,1,0,0:0:0:0:
128,98,458078,1,8,0:0:0:0:
138,97,458157,1,8,0:0:0:0:
139,88,458236,1,0,0:0:0:0:
151,90,458315,1,0,0:0:0:0:
130,100,458394,1,8,0:0:0:0:
135,98,458710,1,0,0:0:0:0:
135,98,459026,1,8,0:0:0:0:
136,83,459184,1,0,0:0:0:0:
136,83,459341,1,8,0:0:0:0:
137,88,459499,1,0,0:0:0:0:
138,92,459578,1,0,0:0:0:0:
137,88,459657,1,8,0:0:0:0:
144,94,459815,1,8,0:0:0:0:
135,98,459973,1,0,0:0:0:0:
135,98,460052,1,0,0:0:0:0:
136,102,460131,1,8,0:0:0:0:
136,102,460210,1,8,0:0:0:0:
136,102,460289,1,0,0:0:0:0:
144,100,460447,1,0,0:0:0:0:
146,93,460526,1,0,0:0:0:0:
144,98,460605,1,8,0:0:0:0:
137,85,460920,1,8,0:0:0:0:
137,85,461078,1,0,0:0:0:0:
146,81,461236,1,8,0:0:0:0:
145,81,461315,1,8,0:0:0:0:
145,81,461394,1,0,0:0:0:0:
97,98,461552,1,8,0:0:0:0:
142,79,461868,1,0,0:0:0:0:
150,75,461947,1,0,0:0:0:0:
137,85,462026,1,0,0:0:0:0:
137,85,462105,1,0,0:0:0:0:
140,84,462184,1,8,0:0:0:0:
131,85,462263,1,8,0:0:0:0:
140,84,462341,1,0,0:0:0:0:
140,84,462420,1,0,0:0:0:0:
136,74,462499,1,12,0:0:0:0:
118,125,462815,1,0,0:0:0:0:
118,116,462973,1,8,0:0:0:0:
110,116,463131,1,0,0:0:0:0:
118,114,463289,1,0,0:0:0:0:
97,130,463368,1,0,0:0:0:0:
120,117,463447,1,8,0:0:0:0:
116,118,463605,1,8,0:0:0:0:
116,118,463763,1,0,0:0:0:0:
116,116,463920,1,8,0:0:0:0:
118,116,463999,1,8,0:0:0:0:
115,110,464078,1,0,0:0:0:0:
116,112,464394,1,8,0:0:0:0:
129,86,464710,1,8,0:0:0:0:
127,104,464789,1,0,0:0:0:0:
144,93,464868,1,8,0:0:0:0:
141,83,465026,1,0,0:0:0:0:
143,84,465184,1,0,0:0:0:0:
143,84,465263,1,0,0:0:0:0:
149,68,465341,1,8,0:0:0:0:
128,98,465499,1,0,0:0:0:0:
128,98,465657,1,8,0:0:0:0:
138,97,465736,1,8,0:0:0:0:
139,88,465815,1,0,0:0:0:0:
148,88,465894,1,0,0:0:0:0:
145,117,465973,1,8,0:0:0:0:
134,97,466052,1,0,0:0:0:0:
149,103,466131,1,0,0:0:0:0:
134,97,466210,1,0,0:0:0:0:
134,97,466289,1,8,0:0:0:0:
135,98,466605,1,8,0:0:0:0:
128,98,466763,1,0,0:0:0:0:
128,98,466920,1,8,0:0:0:0:
134,98,467078,1,0,0:0:0:0:
138,92,467157,1,0,0:0:0:0:
138,92,467236,1,8,0:0:0:0:
149,100,467552,1,8,0:0:0:0:
149,91,467710,1,0,0:0:0:0:
148,100,467789,1,0,0:0:0:0:
136,102,467868,1,8,0:0:0:0:
144,100,468026,1,0,0:0:0:0:
144,98,468184,1,8,0:0:0:0:
113,114,468341,1,0,0:0:0:0:
153,105,468499,1,8,0:0:0:0:
141,95,468605,1,8,0:0:0:0:
154,99,468710,1,0,0:0:0:0:
154,99,468815,1,8,0:0:0:0:
154,99,468920,1,0,0:0:0:0:
154,99,469026,1,0,0:0:0:0:
154,99,469131,1,8,0:0:0:0:
154,99,469236,1,0,0:0:0:0:
154,99,469341,1,0,0:0:0:0:
142,109,469447,1,8,0:0:0:0:
149,100,469552,1,0,0:0:0:0:
143,98,469657,1,8,0:0:0:0:
137,104,469763,1,0,0:0:0:0:
136,104,469868,1,0,0:0:0:0:
144,100,469973,1,0,0:0:0:0:
146,93,470078,1,12,0:0:0:0:
116,118,470394,1,8,0:0:0:0:
118,116,470552,1,0,0:0:0:0:
110,116,470710,1,8,0:0:0:0:
118,114,470868,1,0,0:0:0:0:
97,130,470947,1,0,0:0:0:0:
120,117,471026,1,8,0:0:0:0:
116,118,471184,1,0,0:0:0:0:
116,118,471341,1,8,0:0:0:0:
116,104,471420,1,8,0:0:0:0:
116,116,471499,1,0,0:0:0:0:
118,116,471578,1,0,0:0:0:0:
115,110,471657,1,8,0:0:0:0:
130,97,471815,1,0,0:0:0:0:
130,98,471973,1,8,0:0:0:0:
138,96,472131,1,0,0:0:0:0:
129,86,472289,1,8,0:0:0:0:
129,87,472368,1,8,0:0:0:0:
115,101,472447,1,0,0:0:0:0:
132,68,472763,1,0,0:0:0:0:
131,73,472920,1,8,0:0:0:0:
125,93,473236,1,0,0:0:0:0:
125,93,473315,1,8,0:0:0:0:
125,93,473394,1,0,0:0:0:0:
129,93,473473,1,0,0:0:0:0:
129,93,473552,1,8,0:0:0:0:
134,98,473710,1,0,0:0:0:0:
135,98,473868,1,8,0:0:0:0:
135,98,474184,1,8,0:0:0:0:
128,98,474341,1,0,0:0:0:0:
128,98,474499,1,8,0:0:0:0:
134,98,474657,1,0,0:0:0:0:
138,92,474736,1,0,0:0:0:0:
138,92,474815,1,8,0:0:0:0:
135,98,474973,1,0,0:0:0:0:
135,85,475131,1,8,0:0:0:0:
135,88,475210,1,8,0:0:0:0:
136,88,475289,1,0,0:0:0:0:
139,86,475368,1,0,0:0:0:0:
140,82,475447,1,8,0:0:0:0:
132,88,475763,1,0,0:0:0:0:
130,83,475841,1,0,0:0:0:0:
121,85,475920,1,0,0:0:0:0:
114,87,475999,1,0,0:0:0:0:
137,85,476078,1,8,0:0:0:0:
137,85,476236,1,0,0:0:0:0:
133,76,476394,1,8,0:0:0:0:
140,82,476473,1,0,0:0:0:0:
139,78,476552,1,8,0:0:0:0:
139,78,476631,1,8,0:0:0:0:
137,85,476710,1,0,0:0:0:0:
137,85,476868,1,0,0:0:0:0:
137,76,476947,1,0,0:0:0:0:
137,85,477026,1,8,0:0:0:0:
137,85,477105,1,8,0:0:0:0:
137,85,477184,1,8,0:0:0:0:
137,85,477263,1,8,0:0:0:0:
124,89,477341,1,0,0:0:0:0:
124,89,477420,1,0,0:0:0:0:
124,89,477499,1,0,0:0:0:0:
124,88,477578,1,0,0:0:0:0:
124,88,477657,1,12,0:0:0:0:
88,119,477973,1,8,0:0:0:0:
96,123,478131,1,0,0:0:0:0:
94,115,478289,1,8,0:0:0:0:
100,123,478447,1,0,0:0:0:0:
96,116,478526,1,0,0:0:0:0:
108,119,478605,1,8,0:0:0:0:
100,126,478763,1,0,0:0:0:0:
88,119,478920,1,0,0:0:0:0:
99,122,478999,1,8,0:0:0:0:
96,123,479078,1,0,0:0:0:0:
96,123,479157,1,0,0:0:0:0:
101,122,479236,1,8,0:0:0:0:
122,120,479394,1,8,0:0:0:0:
96,123,479552,1,0,0:0:0:0:
100,125,479868,1,0,0:0:0:0:
96,123,480026,1,8,0:0:0:0:
96,123,480341,1,8,0:0:0:0:
96,123,480499,1,0,0:0:0:0:
90,120,480815,1,0,0:0:0:0:
90,120,480894,1,0,0:0:0:0:
87,121,480973,1,0,0:0:0:0:
88,121,481052,1,0,0:0:0:0:
96,123,481131,1,8,0:0:0:0:
122,120,481289,1,8,0:0:0:0:
89,121,481447,1,0,0:0:0:0:
89,125,481763,1,0,0:0:0:0:
90,120,481920,1,8,0:0:0:0:
82,121,482236,1,0,0:0:0:0:
96,123,482394,1,8,0:0:0:0:
96,123,482710,1,8,0:0:0:0:
54,155,482868,1,0,0:0:0:0:
114,146,482947,1,0,0:0:0:0:
96,123,483026,1,8,0:0:0:0:
96,123,483184,1,0,0:0:0:0:
80,105,483263,1,0,0:0:0:0:
96,123,483341,1,8,0:0:0:0:
96,123,483420,1,8,0:0:0:0:
96,123,483499,1,0,0:0:0:0:
96,123,483578,1,0,0:0:0:0:
96,123,483657,1,8,0:0:0:0:
96,123,483736,1,0,0:0:0:0:
96,123,483815,1,8,0:0:0:0:
96,123,483894,1,8,0:0:0:0:
92,114,483973,1,0,0:0:0:0:
92,114,484052,1,0,0:0:0:0:
92,114,484131,1,8,0:0:0:0:
88,111,484210,1,0,0:0:0:0:
92,114,484289,1,0,0:0:0:0:
92,114,484368,1,0,0:0:0:0:
88,114,484447,1,8,0:0:0:0:
96,123,484526,1,0,0:0:0:0:
96,123,484605,1,8,0:0:0:0:
96,123,484684,1,8,0:0:0:0:
96,123,484763,1,8,0:0:0:0:
127,125,484841,1,8,0:0:0:0:
127,125,484920,1,0,0:0:0:0:
97,118,484999,1,0,0:0:0:0:
96,123,485078,1,8,0:0:0:0:
96,123,485157,1,8,0:0:0:0:
99,130,485236,1,4,0:0:0:0:
142,152,485552,1,0,0:0:0:0:
140,144,485710,1,8,0:0:0:0:
136,144,485868,1,0,0:0:0:0:
136,144,486026,1,0,0:0:0:0:
136,144,486105,1,0,0:0:0:0:
136,144,486184,1,8,0:0:0:0:
141,137,486499,1,8,0:0:0:0:
137,137,486657,1,0,0:0:0:0:
181,127,486736,1,0,0:0:0:0:
138,136,486815,1,0,0:0:0:0:
112,152,486973,1,8,0:0:0:0:
133,136,487131,1,0,0:0:0:0:
133,136,487447,1,0,0:0:0:0:
145,142,487605,1,8,0:0:0:0:
129,138,487763,1,8,0:0:0:0:
138,136,487841,1,8,0:0:0:0:
130,138,487920,1,0,0:0:0:0:
136,136,488078,1,8,0:0:0:0:
142,134,488236,1,8,0:0:0:0:
97,132,488315,1,8,0:0:0:0:
109,141,488394,1,0,0:0:0:0:
102,136,488473,1,0,0:0:0:0:
138,134,488552,1,8,0:0:0:0:
132,136,488631,1,0,0:0:0:0:
128,144,488710,1,8,0:0:0:0:
132,139,488868,1,8,0:0:0:0:
130,138,488947,1,8,0:0:0:0:
136,136,489026,1,0,0:0:0:0:
130,128,489341,1,0,0:0:0:0:
130,128,489499,1,8,0:0:0:0:
135,123,489657,1,0,0:0:0:0:
135,123,489736,1,0,0:0:0:0:
135,123,489815,1,8,0:0:0:0:
130,131,489894,1,0,0:0:0:0:
130,131,489973,1,8,0:0:0:0:
123,126,490289,1,8,0:0:0:0:
12,148,490447,1,8,0:0:0:0:
72,154,490526,1,8,0:0:0:0:
12,148,490605,1,0,0:0:0:0:
120,128,490763,1,0,0:0:0:0:
113,126,490920,1,8,0:0:0:0:
103,123,491236,1,0,0:0:0:0:
113,125,491315,1,8,0:0:0:0:
105,123,491394,1,0,0:0:0:0:
110,136,491552,1,8,0:0:0:0:
110,134,491710,1,0,0:0:0:0:
101,119,491868,1,8,0:0:0:0:
96,131,491947,1,0,0:0:0:0:
108,115,492026,1,8,0:0:0:0:
103,123,492105,1,0,0:0:0:0:
103,123,492184,1,8,0:0:0:0:
103,123,492263,1,8,0:0:0:0:
105,123,492341,1,0,0:0:0:0:
109,115,492420,1,0,0:0:0:0:
105,128,492499,1,8,0:0:0:0:
112,116,492657,1,8,0:0:0:0:
105,112,492815,1,0,0:0:0:0:
85,144,492973,1,8,0:0:0:0:
122,123,493131,1,0,0:0:0:0:
119,136,493289,1,8,0:0:0:0:
126,127,493447,1,8,0:0:0:0:
122,126,493526,1,8,0:0:0:0:
125,120,493605,1,0,0:0:0:0:
136,144,493684,1,0,0:0:0:0:
136,144,493763,1,8,0:0:0:0:
130,123,493920,1,0,0:0:0:0:
132,132,494078,1,8,0:0:0:0:
132,128,494236,1,0,0:0:0:0:
119,136,494315,1,8,0:0:0:0:
128,147,494394,1,0,0:0:0:0:
120,146,494552,1,8,0:0:0:0:
120,146,494710,1,0,0:0:0:0:
144,106,494868,1,8,0:0:0:0:
133,136,495026,1,0,0:0:0:0:
143,130,495105,1,0,0:0:0:0:
145,142,495184,1,8,0:0:0:0:
145,136,495341,1,8,0:0:0:0:
144,137,495499,1,0,0:0:0:0:
136,136,495657,1,8,0:0:0:0:
98,145,495815,1,8,0:0:0:0:
146,138,495973,1,0,0:0:0:0:
133,136,496052,1,0,0:0:0:0:
135,148,496131,1,0,0:0:0:0:
141,150,496210,1,0,0:0:0:0:
141,150,496289,1,8,0:0:0:0:
149,130,496447,1,8,0:0:0:0:
149,130,496526,1,8,0:0:0:0:
141,121,496605,1,0,0:0:0:0:
130,128,496920,1,0,0:0:0:0:
130,128,497078,1,8,0:0:0:0:
128,125,497236,1,8,0:0:0:0:
128,129,497315,1,8,0:0:0:0:
128,132,497394,1,0,0:0:0:0:
122,142,497473,1,0,0:0:0:0:
121,135,497552,1,8,0:0:0:0:
123,126,497868,1,8,0:0:0:0:
128,118,498026,1,0,0:0:0:0:
143,123,498105,1,0,0:0:0:0:
121,118,498184,1,8,0:0:0:0:
113,126,498341,1,0,0:0:0:0:
120,123,498499,1,8,0:0:0:0:
120,123,498657,1,0,0:0:0:0:
129,91,498736,1,8,0:0:0:0:
123,137,498894,1,0,0:0:0:0:
124,112,498973,1,8,0:0:0:0:
124,112,499131,1,0,0:0:0:0:
134,109,499289,1,0,0:0:0:0:
122,111,499368,1,0,0:0:0:0:
131,113,499447,1,8,0:0:0:0:
131,113,499526,1,8,0:0:0:0:
131,113,499605,1,8,0:0:0:0:
131,113,499684,1,8,0:0:0:0:
131,113,499763,1,0,0:0:0:0:
131,113,499920,1,8,0:0:0:0:
131,113,500078,1,0,0:0:0:0:
132,121,500157,1,0,0:0:0:0:
132,121,500236,1,8,0:0:0:0:
132,121,500315,1,8,0:0:0:0:
131,123,500394,1,4,0:0:0:0:
142,152,500710,1,0,0:0:0:0:
140,144,500868,1,8,0:0:0:0:
136,144,501026,1,0,0:0:0:0:
136,144,501105,1,0,0:0:0:0:
136,144,501184,1,0,0:0:0:0:
136,144,501263,1,0,0:0:0:0:
136,144,501341,1,8,0:0:0:0:
141,137,501657,1,8,0:0:0:0:
123,126,501815,1,0,0:0:0:0:
47,114,501894,1,0,0:0:0:0:
123,126,501973,1,8,0:0:0:0:
111,124,502131,1,0,0:0:0:0:
144,135,502289,1,8,0:0:0:0:
133,136,502605,1,8,0:0:0:0:
145,142,502763,1,0,0:0:0:0:
128,125,502920,1,0,0:0:0:0:
125,133,502999,1,0,0:0:0:0:
126,133,503078,1,8,0:0:0:0:
112,136,503157,1,0,0:0:0:0:
145,137,503236,1,8,0:0:0:0:
138,129,503394,1,0,0:0:0:0:
138,129,503552,1,8,0:0:0:0:
138,129,503631,1,8,0:0:0:0:
145,142,503710,1,0,0:0:0:0:
149,173,503789,1,0,0:0:0:0:
152,143,503868,1,8,0:0:0:0:
143,146,503947,1,0,0:0:0:0:
141,148,504026,1,8,0:0:0:0:
141,148,504105,1,8,0:0:0:0:
148,157,504184,1,0,0:0:0:0:
130,128,504499,1,0,0:0:0:0:
130,128,504657,1,8,0:0:0:0:
135,123,504815,1,0,0:0:0:0:
135,123,504894,1,0,0:0:0:0:
135,123,504973,1,0,0:0:0:0:
139,131,505052,1,0,0:0:0:0:
139,128,505131,1,8,0:0:0:0:
123,126,505447,1,8,0:0:0:0:
131,116,505605,1,0,0:0:0:0:
131,117,505684,1,0,0:0:0:0:
131,117,505763,1,8,0:0:0:0:
96,128,505920,1,8,0:0:0:0:
131,117,506078,1,0,0:0:0:0:
133,111,506394,1,8,0:0:0:0:
131,116,506499,1,8,0:0:0:0:
138,113,506605,1,0,0:0:0:0:
131,117,506710,1,8,0:0:0:0:
131,117,506815,1,8,0:0:0:0:
131,117,506920,1,0,0:0:0:0:
131,117,507026,1,8,0:0:0:0:
135,116,507131,1,0,0:0:0:0:
135,116,507236,1,0,0:0:0:0:
127,114,507341,1,8,0:0:0:0:
131,116,507447,1,0,0:0:0:0:
131,116,507552,1,0,0:0:0:0:
131,117,507657,1,12,0:0:0:0:
131,117,507815,1,12,0:0:0:0:
121,140,507973,1,4,0:0:0:0:
122,123,508289,1,8,0:0:0:0:
119,136,508447,1,0,0:0:0:0:
126,127,508605,1,8,0:0:0:0:
126,128,508684,1,0,0:0:0:0:
126,128,508763,1,0,0:0:0:0:
136,144,508841,1,0,0:0:0:0:
136,144,508920,1,8,0:0:0:0:
106,125,509078,1,0,0:0:0:0:
132,132,509236,1,8,0:0:0:0:
132,128,509394,1,0,0:0:0:0:
157,121,509473,1,0,0:0:0:0:
128,147,509552,1,0,0:0:0:0:
124,121,509710,1,8,0:0:0:0:
117,130,509868,1,0,0:0:0:0:
146,121,510026,1,8,0:0:0:0:
133,136,510184,1,0,0:0:0:0:
138,147,510341,1,0,0:0:0:0:
136,146,510420,1,8,0:0:0:0:
145,136,510499,1,8,0:0:0:0:
144,137,510657,1,0,0:0:0:0:
136,136,510815,1,8,0:0:0:0:
138,133,510894,1,8,0:0:0:0:
133,136,510973,1,0,0:0:0:0:
147,139,511052,1,0,0:0:0:0:
140,129,511131,1,8,0:0:0:0:
140,129,511210,1,0,0:0:0:0:
140,129,511289,1,0,0:0:0:0:
140,126,511368,1,0,0:0:0:0:
135,147,511447,1,8,0:0:0:0:
134,104,511605,1,8,0:0:0:0:
154,108,511763,1,0,0:0:0:0:
72,125,511920,1,8,0:0:0:0:
130,128,512078,1,0,0:0:0:0:
130,128,512236,1,8,0:0:0:0:
127,121,512394,1,8,0:0:0:0:
127,119,512473,1,8,0:0:0:0:
132,119,512552,1,0,0:0:0:0:
122,142,512631,1,0,0:0:0:0:
134,135,512710,1,8,0:0:0:0:
138,126,512868,1,0,0:0:0:0:
123,126,513026,1,8,0:0:0:0:
133,101,513184,1,8,0:0:0:0:
133,101,513263,1,8,0:0:0:0:
134,98,513341,1,0,0:0:0:0:
133,121,513499,1,0,0:0:0:0:
144,125,513657,1,8,0:0:0:0:
134,119,513815,1,0,0:0:0:0:
134,119,513894,1,0,0:0:0:0:
133,119,513973,1,8,0:0:0:0:
115,116,514131,1,8,0:0:0:0:
128,136,514210,1,0,0:0:0:0:
129,109,514289,1,8,0:0:0:0:
110,114,514368,1,8,0:0:0:0:
117,128,514447,1,0,0:0:0:0:
113,115,514605,1,0,0:0:0:0:
112,118,514684,1,0,0:0:0:0:
125,151,514763,1,8,0:0:0:0:
126,138,514841,1,8,0:0:0:0:
113,143,514920,1,0,0:0:0:0:
113,139,514999,1,8,0:0:0:0:
105,123,515078,1,0,0:0:0:0:
116,108,515157,1,0,0:0:0:0:
118,114,515236,1,8,0:0:0:0:
119,117,515315,1,8,0:0:0:0:
111,123,515394,1,8,0:0:0:0:
111,115,515473,1,8,0:0:0:0:
136,74,515552,1,4,0:0:0:0:
133,104,515868,1,8,0:0:0:0:
133,104,516026,1,0,0:0:0:0:
128,85,516341,1,0,0:0:0:0:
132,98,516420,1,0,0:0:0:0:
126,85,516499,1,8,0:0:0:0:
143,97,516657,1,8,0:0:0:0:
125,87,516815,1,0,0:0:0:0:
125,87,516973,1,0,0:0:0:0:
129,85,517131,1,8,0:0:0:0:
128,85,517289,1,0,0:0:0:0:
126,85,517447,1,8,0:0:0:0:
126,155,517526,1,0,0:0:0:0:
125,87,517605,1,8,0:0:0:0:
151,86,517763,1,8,0:0:0:0:
151,86,517920,1,0,0:0:0:0:
151,86,518078,1,8,0:0:0:0:
128,85,518236,1,8,0:0:0:0:
126,85,518394,1,0,0:0:0:0:
125,154,518473,1,0,0:0:0:0:
151,86,518552,1,8,0:0:0:0:
151,86,518710,1,0,0:0:0:0:
125,87,518868,1,0,0:0:0:0:
128,86,519026,1,12,0:0:0:0:
128,85,519184,1,12,0:0:0:0:
126,85,519341,1,4,0:0:0:0:
142,152,519657,1,0,0:0:0:0:
140,144,519815,1,8,0:0:0:0:
136,144,519973,1,0,0:0:0:0:
136,144,520052,1,0,0:0:0:0:
136,144,520131,1,0,0:0:0:0:
136,144,520210,1,0,0:0:0:0:
136,144,520289,1,8,0:0:0:0:
141,137,520605,1,8,0:0:0:0:
137,137,520763,1,0,0:0:0:0:
138,136,520920,1,8,0:0:0:0:
136,144,520999,1,8,0:0:0:0:
136,144,521078,1,8,0:0:0:0:
136,144,521157,1,8,0:0:0:0:
133,136,521236,1,0,0:0:0:0:
133,136,521552,1,0,0:0:0:0:
145,142,521710,1,8,0:0:0:0:
128,125,521868,1,0,0:0:0:0:
144,137,522026,1,0,0:0:0:0:
136,136,522184,1,8,0:0:0:0:
152,135,522263,1,0,0:0:0:0:
133,136,522341,1,0,0:0:0:0:
133,136,522420,1,0,0:0:0:0:
133,136,522499,1,8,0:0:0:0:
145,130,522578,1,8,0:0:0:0:
145,142,522657,1,8,0:0:0:0:
145,142,522736,1,8,0:0:0:0:
138,134,522815,1,0,0:0:0:0:
147,137,522894,1,8,0:0:0:0:
139,131,522973,1,0,0:0:0:0:
139,128,523052,1,0,0:0:0:0:
139,128,523131,1,8,0:0:0:0:
134,123,523447,1,8,0:0:0:0:
134,123,523605,1,0,0:0:0:0:
134,123,523763,1,0,0:0:0:0:
134,123,523841,1,8,0:0:0:0:
134,123,523920,1,0,0:0:0:0:
134,123,523999,1,0,0:0:0:0:
134,123,524078,1,8,0:0:0:0:
123,126,524394,1,8,0:0:0:0:
130,128,524552,1,0,0:0:0:0:
117,123,524710,1,8,0:0:0:0:
128,116,524789,1,0,0:0:0:0:
113,126,524868,1,8,0:0:0:0:
113,126,524947,1,8,0:0:0:0:
119,115,525026,1,0,0:0:0:0:
103,123,525341,1,0,0:0:0:0:
105,123,525499,1,0,0:0:0:0:
110,136,525657,1,8,0:0:0:0:
110,134,525815,1,0,0:0:0:0:
116,134,525973,1,0,0:0:0:0:
114,127,526052,1,0,0:0:0:0:
114,127,526131,1,8,0:0:0:0:
114,127,526210,1,8,0:0:0:0:
114,127,526289,1,0,0:0:0:0:
103,123,526368,1,8,0:0:0:0:
105,123,526447,1,0,0:0:0:0:
114,127,526526,1,0,0:0:0:0:
114,127,526605,1,8,0:0:0:0:
114,127,526684,1,8,0:0:0:0:
118,114,526763,1,8,0:0:0:0:
114,127,526841,1,8,0:0:0:0:
114,117,526920,1,0,0:0:0:0:
122,123,527236,1,0,0:0:0:0:
119,136,527394,1,8,0:0:0:0:
126,127,527552,1,8,0:0:0:0:
122,126,527631,1,8,0:0:0:0:
125,120,527710,1,0,0:0:0:0:
136,144,527789,1,0,0:0:0:0:
136,144,527868,1,8,0:0:0:0:
132,132,528184,1,8,0:0:0:0:
132,128,528341,1,0,0:0:0:0:
128,147,528499,1,0,0:0:0:0:
136,141,528578,1,0,0:0:0:0:
136,141,528657,1,8,0:0:0:0:
136,141,528736,1,8,0:0:0:0:
136,144,528815,1,0,0:0:0:0:
133,136,529131,1,0,0:0:0:0:
145,142,529289,1,8,0:0:0:0:
145,136,529447,1,8,0:0:0:0:
144,137,529605,1,0,0:0:0:0:
136,136,529763,1,8,0:0:0:0:
138,133,529841,1,8,0:0:0:0:
133,136,529920,1,0,0:0:0:0:
133,136,529999,1,8,0:0:0:0:
133,136,530078,1,0,0:0:0:0:
133,136,530157,1,0,0:0:0:0:
135,142,530236,1,8,0:0:0:0:
138,133,530315,1,0,0:0:0:0:
135,147,530394,1,8,0:0:0:0:
134,135,530473,1,8,0:0:0:0:
134,135,530552,1,0,0:0:0:0:
133,126,530631,1,8,0:0:0:0:
133,126,530710,1,0,0:0:0:0:
130,128,531026,1,0,0:0:0:0:
130,128,531184,1,8,0:0:0:0:
135,123,531341,1,0,0:0:0:0:
128,133,531420,1,8,0:0:0:0:
128,132,531499,1,0,0:0:0:0:
122,142,531578,1,0,0:0:0:0:
121,135,531657,1,8,0:0:0:0:
123,126,531973,1,8,0:0:0:0:
128,118,532131,1,0,0:0:0:0:
121,118,532289,1,8,0:0:0:0:
122,136,532368,1,0,0:0:0:0:
113,126,532447,1,8,0:0:0:0:
117,128,532526,1,8,0:0:0:0:
117,124,532605,1,0,0:0:0:0:
103,123,532920,1,0,0:0:0:0:
105,123,533078,1,0,0:0:0:0:
110,136,533236,1,8,0:0:0:0:
97,127,533394,1,8,0:0:0:0:
105,128,533552,1,0,0:0:0:0:
105,128,533631,1,0,0:0:0:0:
103,123,533710,1,8,0:0:0:0:
103,123,533789,1,8,0:0:0:0:
103,123,533868,1,8,0:0:0:0:
103,123,533947,1,8,0:0:0:0:
105,123,534026,1,0,0:0:0:0:
105,123,534105,1,8,0:0:0:0:
107,125,534184,1,0,0:0:0:0:
107,125,534263,1,0,0:0:0:0:
111,123,534341,1,0,0:0:0:0:
111,115,534420,1,0,0:0:0:0:
106,123,534499,1,12,0:0:0:0:
116,118,534815,1,8,0:0:0:0:
116,116,534973,1,8,0:0:0:0:
110,116,535131,1,0,0:0:0:0:
110,116,535210,1,0,0:0:0:0:
107,125,535289,1,0,0:0:0:0:
111,117,535368,1,0,0:0:0:0:
111,117,535447,1,8,0:0:0:0:
116,118,535763,1,8,0:0:0:0:
116,116,535920,1,0,0:0:0:0:
115,110,536078,1,8,0:0:0:0:
115,110,536157,1,8,0:0:0:0:
120,109,536236,1,8,0:0:0:0:
122,107,536315,1,8,0:0:0:0:
120,109,536394,1,0,0:0:0:0:
123,106,536710,1,0,0:0:0:0:
115,104,536868,1,0,0:0:0:0:
115,110,537026,1,8,0:0:0:0:
124,103,537184,1,0,0:0:0:0:
123,102,537341,1,8,0:0:0:0:
123,102,537420,1,8,0:0:0:0:
123,106,537499,1,0,0:0:0:0:
123,106,537578,1,8,0:0:0:0:
123,106,537657,1,0,0:0:0:0:
123,106,537736,1,0,0:0:0:0:
123,106,537815,1,0,0:0:0:0:
123,106,537894,1,0,0:0:0:0:
124,103,537973,1,8,0:0:0:0:
124,103,538052,1,8,0:0:0:0:
124,103,538131,1,8,0:0:0:0:
124,103,538210,1,8,0:0:0:0:
123,102,538289,1,4,0:0:0:0:
126,98,538605,1,0,0:0:0:0:
126,98,538763,1,8,0:0:0:0:
123,97,538920,1,0,0:0:0:0:
124,103,538999,1,8,0:0:0:0:
128,93,539078,1,0,0:0:0:0:
117,98,539157,1,0,0:0:0:0:
124,103,539236,1,8,0:0:0:0:
126,98,539552,1,8,0:0:0:0:
116,94,539710,1,0,0:0:0:0:
123,97,539868,1,8,0:0:0:0:
123,97,539947,1,0,0:0:0:0:
124,93,540026,1,8,0:0:0:0:
123,93,540105,1,8,0:0:0:0:
121,93,540184,1,0,0:0:0:0:
126,98,540499,1,0,0:0:0:0:
130,92,540657,1,0,0:0:0:0:
123,97,540815,1,8,0:0:0:0:
123,97,540973,1,0,0:0:0:0:
123,93,541131,1,8,0:0:0:0:
141,93,541210,1,0,0:0:0:0:
142,94,541289,1,8,0:0:0:0:
141,93,541368,1,8,0:0:0:0:
130,80,541447,1,0,0:0:0:0:
141,93,541526,1,0,0:0:0:0:
130,92,541605,1,8,0:0:0:0:
130,92,541684,1,8,0:0:0:0:
126,87,541763,1,0,0:0:0:0:
128,80,541841,1,8,0:0:0:0:
128,80,541920,1,0,0:0:0:0:
126,80,541999,1,0,0:0:0:0:
123,79,542078,1,12,0:0:0:0:
117,100,542394,1,8,0:0:0:0:
117,100,542552,1,0,0:0:0:0:
126,127,542710,1,8,0:0:0:0:
122,126,542789,1,8,0:0:0:0:
125,120,542868,1,0,0:0:0:0:
136,144,542947,1,0,0:0:0:0:
126,80,543026,1,8,0:0:0:0:
132,113,543341,1,0,0:0:0:0:
132,114,543499,1,8,0:0:0:0:
128,147,543657,1,0,0:0:0:0:
138,132,543736,1,0,0:0:0:0:
129,138,543815,1,8,0:0:0:0:
136,130,543894,1,8,0:0:0:0:
146,132,543973,1,0,0:0:0:0:
133,136,544289,1,0,0:0:0:0:
145,142,544447,1,8,0:0:0:0:
145,136,544605,1,8,0:0:0:0:
144,137,544763,1,0,0:0:0:0:
136,136,544920,1,8,0:0:0:0:
138,133,544999,1,8,0:0:0:0:
133,136,545078,1,0,0:0:0:0:
133,136,545157,1,0,0:0:0:0:
133,136,545236,1,8,0:0:0:0:
133,136,545315,1,8,0:0:0:0:
125,136,545394,1,8,0:0:0:0:
125,136,545473,1,0,0:0:0:0:
125,136,545552,1,8,0:0:0:0:
134,135,545631,1,0,0:0:0:0:
134,135,545710,1,8,0:0:0:0:
134,135,545789,1,8,0:0:0:0:
139,128,545868,1,0,0:0:0:0:
130,128,546184,1,0,0:0:0:0:
130,128,546341,1,8,0:0:0:0:
135,123,546499,1,0,0:0:0:0:
128,133,546578,1,0,0:0:0:0:
128,132,546657,1,0,0:0:0:0:
122,142,546736,1,0,0:0:0:0:
121,135,546815,1,8,0:0:0:0:
123,126,547131,1,8,0:0:0:0:
128,118,547289,1,0,0:0:0:0:
121,118,547447,1,8,0:0:0:0:
122,136,547526,1,8,0:0:0:0:
113,126,547605,1,8,0:0:0:0:
142,134,547684,1,8,0:0:0:0:
149,131,547763,1,0,0:0:0:0:
151,139,548078,1,0,0:0:0:0:
151,139,548236,1,8,0:0:0:0:
151,139,548394,1,8,0:0:0:0:
151,140,548552,1,0,0:0:0:0:
124,110,548710,1,8,0:0:0:0:
124,110,548789,1,8,0:0:0:0:
118,109,548868,1,0,0:0:0:0:
118,109,548947,1,8,0:0:0:0:
119,109,549026,1,0,0:0:0:0:
119,109,549105,1,0,0:0:0:0:
119,109,549184,1,8,0:0:0:0:
119,109,549263,1,0,0:0:0:0:
119,109,549341,1,8,0:0:0:0:
119,109,549420,1,8,0:0:0:0:
119,109,549499,1,0,0:0:0:0:
119,109,549578,1,0,0:0:0:0:
140,146,549657,1,12,0:0:0:0:
133,132,549815,1,4,0:0:0:0:
133,132,549973,1,4,0:0:0:0:
141,134,550131,1,12,0:0:0:0:
140,129,550605,1,12,0:0:0:0:
140,129,550763,1,4,0:0:0:0:
140,129,550920,1,4,0:0:0:0:
141,134,551078,1,12,0:0:0:0:
140,129,551552,1,4,0:0:0:0:
140,129,551710,1,12,0:0:0:0:
140,129,551868,1,12,0:0:0:0:
133,129,552026,1,4,0:0:0:0:
140,129,552499,1,4,0:0:0:0:
140,129,552657,1,12,0:0:0:0:
140,129,552815,1,12,0:0:0:0:
133,129,552973,1,4,0:0:0:0:
138,120,553447,1,4,0:0:0:0:
256,192,553604,12,0,562289,0:0:0:0:
164,174,563552,5,0,0:0:0:0:
149,165,564025,1,8,0:0:0:0:
153,157,564499,1,0,0:0:0:0:
152,156,566078,1,0,0:0:0:0:
151,131,566552,1,0,0:0:0:0:
152,156,567025,1,8,0:0:0:0:
170,152,568604,1,0,0:0:0:0:
170,152,569078,1,8,0:0:0:0:
170,152,569552,1,8,0:0:0:0:
169,153,571131,1,8,0:0:0:0:
169,153,571604,1,8,0:0:0:0:
169,153,572078,1,0,0:0:0:0:
164,174,573657,1,0,0:0:0:0:
149,165,574131,1,8,0:0:0:0:
153,157,574604,1,0,0:0:0:0:
152,156,576183,1,0,0:0:0:0:
151,131,576657,1,0,0:0:0:0:
152,156,577131,1,8,0:0:0:0:
170,152,578710,1,0,0:0:0:0:
170,152,579183,1,8,0:0:0:0:
170,152,579657,1,8,0:0:0:0:
169,153,581236,1,8,0:0:0:0:
169,153,581710,1,8,0:0:0:0:
169,153,582183,1,0,0:0:0:0:
164,174,583762,1,4,0:0:0:0:
149,165,584236,1,12,0:0:0:0:
153,157,584710,1,4,0:0:0:0:
152,156,586289,1,4,0:0:0:0:
151,131,586762,1,4,0:0:0:0:
152,156,587236,1,12,0:0:0:0:
170,152,588815,1,4,0:0:0:0:
170,152,589289,1,12,0:0:0:0:
170,152,589762,1,12,0:0:0:0:
169,153,591341,1,12,0:0:0:0:
169,153,591815,1,12,0:0:0:0:
169,153,592289,1,4,0:0:0:0:
164,157,592604,1,0,0:0:0:0:
120,160,592644,1,0,0:0:0:0:
160,155,593078,1,8,0:0:0:0:
157,155,593236,1,0,0:0:0:0:
157,155,593552,1,0,0:0:0:0:
155,145,593710,1,8,0:0:0:0:
164,174,593868,1,4,0:0:0:0:
149,165,594341,1,12,0:0:0:0:
153,157,594815,1,4,0:0:0:0:
154,130,595289,1,0,0:0:0:0:
157,146,595447,1,8,0:0:0:0:
153,144,595762,1,0,0:0:0:0:
139,148,595920,1,0,0:0:0:0:
165,135,596078,1,8,0:0:0:0:
152,156,596394,1,4,0:0:0:0:
173,130,596710,1,8,0:0:0:0:
172,145,596868,1,4,0:0:0:0:
149,119,597183,1,0,0:0:0:0:
152,156,597341,1,12,0:0:0:0:
141,136,597657,1,0,0:0:0:0:
163,137,597815,1,0,0:0:0:0:
149,137,597973,1,8,0:0:0:0:
150,121,598447,1,0,0:0:0:0:
151,121,598604,1,8,0:0:0:0:
170,152,598920,1,4,0:0:0:0:
163,146,599236,1,0,0:0:0:0:
159,147,599394,1,12,0:0:0:0:
170,152,599868,1,12,0:0:0:0:
151,129,600183,1,0,0:0:0:0:
151,129,600341,1,0,0:0:0:0:
151,129,600499,1,8,0:0:0:0:
151,129,600657,1,0,0:0:0:0:
153,121,600815,1,8,0:0:0:0:
155,119,600973,1,0,0:0:0:0:
160,114,601052,1,0,0:0:0:0:
160,113,601131,1,8,0:0:0:0:
156,144,601289,1,0,0:0:0:0:
169,153,601447,1,12,0:0:0:0:
157,148,601604,1,0,0:0:0:0:
157,148,601683,1,8,0:0:0:0:
153,148,601762,1,0,0:0:0:0:
169,153,601920,1,8,0:0:0:0:
153,148,602078,1,0,0:0:0:0:
153,148,602157,1,0,0:0:0:0:
153,148,602236,1,8,0:0:0:0:
153,148,602315,1,8,0:0:0:0:
169,153,602394,1,0,0:0:0:0:
166,146,602552,1,8,0:0:0:0:
165,144,602631,1,0,0:0:0:0:
165,144,602710,1,8,0:0:0:0:
165,144,602789,1,8,0:0:0:0:
165,144,602868,1,0,0:0:0:0:
153,148,603025,1,0,0:0:0:0:
153,148,603104,1,0,0:0:0:0:
153,148,603183,1,8,0:0:0:0:
153,148,603262,1,0,0:0:0:0:
153,148,603341,1,8,0:0:0:0:
151,142,603420,1,8,0:0:0:0:
146,143,603499,1,0,0:0:0:0:
146,143,603578,1,0,0:0:0:0:
146,143,603657,1,8,0:0:0:0:
142,144,603815,1,0,0:0:0:0:
139,146,603973,1,12,0:0:0:0:
138,148,604289,1,0,0:0:0:0:
142,136,604447,1,0,0:0:0:0:
142,137,604604,1,8,0:0:0:0:
153,157,604920,1,0,0:0:0:0:
151,140,605236,1,0,0:0:0:0:
151,137,605394,1,8,0:0:0:0:
149,136,605552,1,0,0:0:0:0:
148,127,605710,1,0,0:0:0:0:
151,139,605789,1,0,0:0:0:0:
150,127,605868,1,8,0:0:0:0:
147,127,606183,1,0,0:0:0:0:
153,125,606341,1,8,0:0:0:0:
152,156,606499,1,0,0:0:0:0:
157,125,606815,1,0,0:0:0:0:
150,136,606973,1,0,0:0:0:0:
150,136,607131,1,8,0:0:0:0:
152,156,607447,1,0,0:0:0:0:
149,138,607762,1,0,0:0:0:0:
146,141,607920,1,8,0:0:0:0:
146,141,608078,1,0,0:0:0:0:
146,141,608236,1,0,0:0:0:0:
109,157,608315,1,0,0:0:0:0:
146,141,608394,1,8,0:0:0:0:
161,141,608710,1,0,0:0:0:0:
159,140,609025,1,0,0:0:0:0:
156,140,609183,1,8,0:0:0:0:
146,141,609341,1,0,0:0:0:0:
146,141,609420,1,0,0:0:0:0:
155,125,609499,1,0,0:0:0:0:
154,128,609657,1,8,0:0:0:0:
147,129,609973,1,0,0:0:0:0:
148,129,610131,1,8,0:0:0:0:
148,123,610289,1,0,0:0:0:0:
144,123,610447,1,8,0:0:0:0:
148,127,610525,1,8,0:0:0:0:
144,123,610604,1,0,0:0:0:0:
144,123,610762,1,0,0:0:0:0:
144,123,610920,1,8,0:0:0:0:
148,127,611236,1,0,0:0:0:0:
169,153,611552,1,12,0:0:0:0:
169,153,612025,1,12,0:0:0:0:
169,153,612499,1,4,0:0:0:0:
159,147,612736,1,0,0:0:0:0:
159,147,612815,1,8,0:0:0:0:
163,150,612973,1,0,0:0:0:0:
163,150,613131,1,8,0:0:0:0:
169,153,613289,1,8,0:0:0:0:
169,153,613447,1,0,0:0:0:0:
159,147,613604,1,8,0:0:0:0:
159,147,613762,1,0,0:0:0:0:
163,150,614078,1,12,0:0:0:0:
138,148,614394,1,0,0:0:0:0:
142,136,614552,1,0,0:0:0:0:
142,137,614710,1,8,0:0:0:0:
153,157,615025,1,0,0:0:0:0:
130,141,615341,1,0,0:0:0:0:
131,136,615499,1,8,0:0:0:0:
142,137,615657,1,0,0:0:0:0:
148,127,615815,1,0,0:0:0:0:
149,153,615894,1,0,0:0:0:0:
150,127,615973,1,8,0:0:0:0:
147,127,616289,1,0,0:0:0:0:
153,125,616447,1,8,0:0:0:0:
152,156,616604,1,0,0:0:0:0:
157,125,616920,1,0,0:0:0:0:
141,134,617078,1,0,0:0:0:0:
144,146,617157,1,0,0:0:0:0:
150,136,617236,1,8,0:0:0:0:
152,156,617552,1,0,0:0:0:0:
149,138,617710,1,0,0:0:0:0:
100,148,617868,1,0,0:0:0:0:
146,141,618025,1,8,0:0:0:0:
146,141,618183,1,0,0:0:0:0:
146,141,618341,1,0,0:0:0:0:
153,146,618420,1,0,0:0:0:0:
146,141,618499,1,8,0:0:0:0:
161,141,618815,1,0,0:0:0:0:
159,140,619131,1,12,0:0:0:0:
155,125,619604,1,12,0:0:0:0:
147,129,620078,1,0,0:0:0:0:
132,126,620236,1,0,0:0:0:0:
131,124,620394,1,12,0:0:0:0:
147,120,620552,1,0,0:0:0:0:
145,119,620631,1,0,0:0:0:0:
145,119,620710,1,8,0:0:0:0:
138,128,620868,1,8,0:0:0:0:
144,123,621025,1,8,0:0:0:0:
148,123,621183,1,8,0:0:0:0:
162,130,621341,1,0,0:0:0:0:
160,125,621657,1,8,0:0:0:0:
160,138,621894,1,8,0:0:0:0:
160,138,622131,1,8,0:0:0:0:
160,138,622368,1,8,0:0:0:0:
162,141,622525,1,0,0:0:0:0:
162,141,622604,1,8,0:0:0:0:
146,152,622762,1,0,0:0:0:0:
159,147,622841,1,0,0:0:0:0:
159,147,622920,1,8,0:0:0:0:
163,150,623078,1,0,0:0:0:0:
163,150,623236,1,8,0:0:0:0:
169,153,623394,1,8,0:0:0:0:
156,144,623473,1,8,0:0:0:0:
169,153,623552,1,0,0:0:0:0:
166,150,623631,1,0,0:0:0:0:
159,147,623710,1,8,0:0:0:0:
166,150,623789,1,0,0:0:0:0:
170,123,623868,1,8,0:0:0:0:
169,127,623947,1,8,0:0:0:0:
163,150,624025,1,0,0:0:0:0:
163,150,624104,1,0,0:0:0:0:
163,150,624183,1,12,0:0:0:0:
143,141,624499,1,0,0:0:0:0:
139,146,624657,1,8,0:0:0:0:
142,137,624815,1,8,0:0:0:0:
139,145,624973,1,0,0:0:0:0:
153,157,625131,1,0,0:0:0:0:
151,140,625447,1,0,0:0:0:0:
151,137,625604,1,8,0:0:0:0:
149,136,625762,1,0,0:0:0:0:
148,127,625920,1,0,0:0:0:0:
80,136,625999,1,0,0:0:0:0:
150,127,626078,1,8,0:0:0:0:
147,127,626394,1,0,0:0:0:0:
153,125,626552,1,8,0:0:0:0:
152,156,626710,1,0,0:0:0:0:
157,125,627025,1,0,0:0:0:0:
150,136,627183,1,0,0:0:0:0:
101,139,627262,1,0,0:0:0:0:
150,136,627341,1,8,0:0:0:0:
152,156,627657,1,0,0:0:0:0:
117,132,627815,1,8,0:0:0:0:
138,142,627973,1,0,0:0:0:0:
146,141,628131,1,8,0:0:0:0:
146,141,628289,1,0,0:0:0:0:
146,141,628447,1,0,0:0:0:0:
109,157,628525,1,0,0:0:0:0:
146,141,628604,1,8,0:0:0:0:
161,141,628920,1,8,0:0:0:0:
161,141,629078,1,0,0:0:0:0:
159,140,629236,1,8,0:0:0:0:
160,137,629315,1,8,0:0:0:0:
159,138,629394,1,0,0:0:0:0:
159,136,629473,1,0,0:0:0:0:
152,140,629552,1,8,0:0:0:0:
152,138,629631,1,0,0:0:0:0:
152,137,629710,1,8,0:0:0:0:
152,137,629789,1,8,0:0:0:0:
150,136,629868,1,0,0:0:0:0:
150,136,629947,1,0,0:0:0:0:
154,132,630025,1,8,0:0:0:0:
154,134,630104,1,8,0:0:0:0:
154,132,630183,1,8,0:0:0:0:
155,133,630262,1,0,0:0:0:0:
160,137,630341,1,8,0:0:0:0:
159,138,630420,1,0,0:0:0:0:
148,125,630499,1,8,0:0:0:0:
148,125,630578,1,8,0:0:0:0:
148,125,630657,1,0,0:0:0:0:
148,125,630736,1,0,0:0:0:0:
125,98,630815,1,8,0:0:0:0:
96,124,630894,1,0,0:0:0:0:
125,98,630973,1,0,0:0:0:0:
109,119,631052,1,0,0:0:0:0:
109,119,631131,1,8,0:0:0:0:
146,125,631210,1,0,0:0:0:0:
109,119,631289,1,0,0:0:0:0:
131,123,631368,1,0,0:0:0:0:
131,123,631447,1,8,0:0:0:0:
131,123,631525,1,8,0:0:0:0:
131,123,631604,1,0,0:0:0:0:
131,123,631683,1,0,0:0:0:0:
128,108,631762,1,8,0:0:0:0:
129,109,631841,1,8,0:0:0:0:
129,109,631920,1,8,0:0:0:0:
129,109,631999,1,8,0:0:0:0:
129,109,632078,1,0,0:0:0:0:
129,109,632157,1,0,0:0:0:0:
129,109,632236,1,8,0:0:0:0:
136,105,632315,1,0,0:0:0:0:
131,106,632394,1,0,0:0:0:0:
141,109,632473,1,0,0:0:0:0:
129,109,632552,1,8,0:0:0:0:
147,111,632631,1,0,0:0:0:0:
146,111,632710,1,8,0:0:0:0:
146,111,632789,1,8,0:0:0:0:
147,103,632868,1,0,0:0:0:0:
129,109,632947,1,0,0:0:0:0:
129,109,633025,1,8,0:0:0:0:
105,128,633104,1,0,0:0:0:0:
144,120,633183,1,0,0:0:0:0:
144,120,633262,1,0,0:0:0:0:
144,120,633341,1,8,0:0:0:0:
144,120,633420,1,8,0:0:0:0:
144,120,633499,1,0,0:0:0:0:
144,120,633578,1,8,0:0:0:0:
144,120,633657,1,0,0:0:0:0:
144,120,633736,1,0,0:0:0:0:
144,120,633815,1,0,0:0:0:0:
144,120,633894,1,0,0:0:0:0:
144,120,633973,1,8,0:0:0:0:
138,105,634052,1,8,0:0:0:0:
144,120,634131,1,8,0:0:0:0:
144,120,634210,1,8,0:0:0:0:
135,105,634289,1,4,0:0:0:0:
142,105,634604,1,8,0:0:0:0:
142,105,634762,1,0,0:0:0:0:
149,90,634841,1,0,0:0:0:0:
147,103,634920,1,8,0:0:0:0:
149,107,635078,1,0,0:0:0:0:
149,107,635236,1,0,0:0:0:0:
155,114,635552,1,0,0:0:0:0:
155,114,635710,1,8,0:0:0:0:
152,107,635789,1,8,0:0:0:0:
149,107,635868,1,0,0:0:0:0:
155,114,636025,1,0,0:0:0:0:
155,112,636183,1,8,0:0:0:0:
141,114,636394,1,0,0:0:0:0:
140,114,636499,1,8,0:0:0:0:
155,114,636604,1,8,0:0:0:0:
158,105,636710,1,0,0:0:0:0:
158,105,636815,1,8,0:0:0:0:
158,105,636920,1,8,0:0:0:0:
148,118,637025,1,0,0:0:0:0:
148,119,637131,1,8,0:0:0:0:
141,114,637236,1,0,0:0:0:0:
148,119,637341,1,0,0:0:0:0:
140,114,637447,1,8,0:0:0:0:
165,117,637552,1,0,0:0:0:0:
165,117,637657,1,0,0:0:0:0:
170,121,637762,1,8,0:0:0:0:
166,117,637868,1,8,0:0:0:0:
166,117,637973,1,8,0:0:0:0:
165,115,638078,1,8,0:0:0:0:
148,119,638183,1,0,0:0:0:0:
148,119,638289,1,0,0:0:0:0:
148,119,638394,1,8,0:0:0:0:
136,141,638604,1,8,0:0:0:0:
127,128,638710,1,8,0:0:0:0:
136,141,638815,1,0,0:0:0:0:
164,106,638920,1,0,0:0:0:0:
156,129,639025,1,8,0:0:0:0:
148,119,639341,1,4,0:0:0:0:
184,209,642183,1,0,0:0:0:0:
184,209,642341,1,0,0:0:0:0:
184,209,642499,1,0,0:0:0:0:
184,209,642657,1,0,0:0:0:0:
148,178,642815,1,0,0:0:0:0:
148,178,642973,1,8,0:0:0:0:
148,178,643131,1,8,0:0:0:0:
154,177,643289,1,8,0:0:0:0:
157,172,643447,1,0,0:0:0:0:
149,177,643604,1,8,0:0:0:0:
138,181,643762,1,8,0:0:0:0:
149,177,643920,1,0,0:0:0:0:
149,177,644078,1,8,0:0:0:0:
154,177,644236,1,8,0:0:0:0:
157,194,644394,1,4,0:0:0:0:
142,152,644709,1,0,0:0:0:0:
140,144,644867,1,8,0:0:0:0:
135,153,645025,1,0,0:0:0:0:
133,150,645104,1,0,0:0:0:0:
136,144,645183,1,0,0:0:0:0:
136,144,645262,1,0,0:0:0:0:
142,152,645341,1,8,0:0:0:0:
141,137,645657,1,8,0:0:0:0:
137,137,645815,1,0,0:0:0:0:
138,136,645972,1,8,0:0:0:0:
136,144,646051,1,8,0:0:0:0:
136,144,646130,1,8,0:0:0:0:
136,144,646209,1,8,0:0:0:0:
133,136,646288,1,0,0:0:0:0:
133,136,646604,1,0,0:0:0:0:
145,142,646762,1,8,0:0:0:0:
128,125,646920,1,0,0:0:0:0:
144,137,647078,1,0,0:0:0:0:
136,136,647236,1,8,0:0:0:0:
133,136,647315,1,8,0:0:0:0:
133,136,647394,1,0,0:0:0:0:
133,136,647472,1,0,0:0:0:0:
133,136,647551,1,8,0:0:0:0:
133,136,647630,1,0,0:0:0:0:
138,134,647709,1,8,0:0:0:0:
138,134,647788,1,8,0:0:0:0:
138,134,647867,1,0,0:0:0:0:
138,134,647946,1,0,0:0:0:0:
128,114,648025,1,8,0:0:0:0:
128,114,648104,1,8,0:0:0:0:
128,114,648183,1,0,0:0:0:0:
130,128,648499,1,0,0:0:0:0:
130,128,648657,1,8,0:0:0:0:
125,128,648815,1,0,0:0:0:0:
125,128,648894,1,8,0:0:0:0:
125,128,648972,1,0,0:0:0:0:
125,128,649051,1,0,0:0:0:0:
125,128,649130,1,8,0:0:0:0:
123,126,649446,1,8,0:0:0:0:
118,123,649604,1,0,0:0:0:0:
113,123,649762,1,8,0:0:0:0:
113,126,649841,1,0,0:0:0:0:
125,128,649920,1,8,0:0:0:0:
125,128,649999,1,8,0:0:0:0:
125,128,650078,1,0,0:0:0:0:
103,123,650394,1,0,0:0:0:0:
105,123,650551,1,0,0:0:0:0:
110,136,650709,1,8,0:0:0:0:
110,134,650867,1,0,0:0:0:0:
101,119,651025,1,8,0:0:0:0:
101,119,651104,1,8,0:0:0:0:
103,123,651183,1,0,0:0:0:0:
103,123,651262,1,0,0:0:0:0:
103,123,651341,1,8,0:0:0:0:
103,123,651420,1,8,0:0:0:0:
105,123,651499,1,0,0:0:0:0:
105,123,651578,1,8,0:0:0:0:
107,125,651657,1,0,0:0:0:0:
101,117,651736,1,0,0:0:0:0:
101,117,651815,1,8,0:0:0:0:
101,117,651894,1,8,0:0:0:0:
101,119,651972,1,0,0:0:0:0:
