osu file format v14

[General]
AudioFilename: audio.mp3
AudioLeadIn: 0
PreviewTime: 166914
Countdown: 0
SampleSet: Soft
StackLeniency: 0.2
Mode: 0
LetterboxInBreaks: 0
WidescreenStoryboard: 0

[Editor]
Bookmarks: 178,73125,121441,149862,159335,166914,197230,199125,201020,204809,233230,242704,250283,284388,288177,319756,337440,345019,347545,361440,367756,382913,445440,470071,519334,549650,562283,583756,592598,603967,619125,624177,629230,634283,641862,644388
DistanceSpacing: 1
BeatDivisor: 4
GridSize: 16
TimelineZoom: 2.2

[Metadata]
Title:Save Me
TitleUnicode:Save Me
Artist:Avenged Sevenfold
ArtistUnicode:Avenged Sevenfold
Creator:Sersh4nt
Version:Nightmare
Source:
Tags:nightmare marathon a7x heavy metal epic metalcore stream Rock English
BeatmapID:1811527
BeatmapSetID:866472

[Difficulty]
HPDrainRate:5
CircleSize:4
OverallDifficulty:8.7
ApproachRate:9.5
SliderMultiplier:1.4
SliderTickRate:1

[Events]
//Background and Video events
0,0,"bg.png",0,0
//Break Periods
2,368703,381966
//Storyboard Layer 0 (Background)
//Storyboard Layer 1 (Fail)
//Storyboard Layer 2 (Pass)
//Storyboard Layer 3 (Foreground)
//Storyboard Sound Samples

[TimingPoints]
178,315.789473684211,6,2,1,30,1,0
178,-133.333333333333,6,2,1,30,0,0
13441,-153.846153846154,6,2,1,30,0,0
13756,-153.846153846154,6,2,1,5,0,0
13914,-153.846153846154,6,2,5,20,0,0
14072,-153.846153846154,6,2,5,30,0,0
14388,-153.846153846154,6,2,5,50,0,0
14704,-153.846153846154,6,2,5,70,0,0
15335,-100,6,2,1,60,0,0
37441,-100,6,2,2,50,0,0
37599,-100,6,2,1,60,0,0
37756,-100,6,2,3,50,0,0
37914,-100,6,2,1,60,0,0
44072,-100,6,2,2,60,0,0
44230,-100,6,2,1,60,0,0
44388,-100,6,2,3,60,0,0
44546,-100,6,2,1,60,0,0
44704,-100,6,2,4,60,0,0
44862,-100,6,2,1,60,0,0
67756,-100,6,2,2,60,0,0
67914,-100,6,2,1,60,0,0
75809,-100,6,2,3,60,0,0
75967,-100,6,2,1,60,0,0
81967,-100,6,2,2,60,0,0
82125,-100,6,2,1,60,0,0
82283,-100,6,2,2,60,0,0
82441,-100,6,2,1,60,0,0
82599,-100,6,2,2,60,0,0
82756,-100,6,2,1,60,0,0
82914,-100,6,2,3,60,0,0
83072,-100,6,2,1,60,0,0
83230,-100,6,2,4,60,0,0
83388,-100,6,2,1,60,0,0
84493,-100,6,2,3,60,0,0
84572,-100,6,2,1,60,0,0
86388,-100,6,2,3,60,0,0
86467,-100,6,2,1,60,0,0
88520,-100,6,2,1,5,0,0
88599,-100,6,2,3,60,0,0
88678,-100,6,2,1,60,0,0
88835,-100,6,2,1,5,0,0
88914,-100,6,2,1,60,0,0
89151,-100,6,2,1,5,0,0
89230,-100,6,2,1,60,0,0
90178,-100,6,2,3,60,0,0
90256,-100,6,2,1,60,0,0
92072,-100,6,2,3,60,0,0
92151,-100,6,2,1,60,0,0
93967,-100,6,2,3,60,0,0
94046,-100,6,2,1,60,0,0
95862,-100,6,2,3,60,0,0
95941,-100,6,2,1,60,0,0
112599,-100,6,2,2,60,0,0
112756,-100,6,2,1,60,0,0
112914,-100,6,2,2,60,0,0
113072,-100,6,2,1,60,0,0
113230,-100,6,2,3,60,0,0
113388,-100,6,2,1,60,0,0
125151,-100,6,2,1,5,0,0
125230,-100,6,2,1,60,0,0
128941,-100,6,2,1,5,0,0
129020,-100,6,2,1,60,0,0
132730,-100,6,2,1,5,0,0
132809,-100,6,2,1,60,0,0
138414,-100,6,2,1,5,0,0
138493,-100,6,2,1,60,0,0
142204,-100,6,2,1,5,0,0
142283,-100,6,2,1,60,0,0
149783,-100,6,2,1,5,0,0
149862,-100,6,2,1,60,0,0
158388,-100,6,3,2,60,0,0
158704,-100,6,2,3,60,0,0
159020,-100,6,2,4,60,0,0
159335,-100,6,2,1,60,0,1
163125,-100,6,2,3,60,0,1
163204,-100,6,2,1,60,0,1
165020,-83.3333333333333,6,2,1,60,0,0
166914,-76.9230769230769,6,2,1,60,0,1
170625,-76.9230769230769,6,2,1,5,0,1
170704,-76.9230769230769,6,2,1,60,0,1
173862,-76.9230769230769,6,2,2,60,0,1
174020,-76.9230769230769,6,2,1,60,0,1
178204,-76.9230769230769,6,2,1,5,0,1
178283,-76.9230769230769,6,2,1,60,0,1
185783,-76.9230769230769,6,2,1,5,0,1
185862,-76.9230769230769,6,2,1,60,0,1
196283,-95.2380952380952,6,2,2,60,0,1
197230,-95.2380952380952,6,2,1,60,0,0
203072,-95.2380952380952,6,2,3,60,0,0
204493,-95.2380952380952,6,2,1,60,0,0
208520,-95.2380952380952,6,2,1,5,0,0
208599,-95.2380952380952,6,2,1,60,0,0
212309,-95.2380952380952,6,2,1,5,0,0
212388,-95.2380952380952,6,2,1,60,0,0
216099,-95.2380952380952,6,2,1,5,0,0
216178,-95.2380952380952,6,2,1,60,0,0
229362,-95.2380952380952,6,2,1,5,0,0
229441,-95.2380952380952,6,2,1,60,0,0
233151,-95.2380952380952,6,2,1,5,0,0
233230,-95.2380952380952,6,2,1,60,0,0
242072,-95.2380952380952,6,2,2,60,0,0
242230,-95.2380952380952,6,2,1,60,0,0
242704,-100,6,2,1,60,0,1
246493,-100,6,2,3,60,0,1
246572,-100,6,2,1,60,0,1
248388,-83.3333333333333,6,2,1,60,0,0
250283,-76.9230769230769,6,2,1,60,0,1
253993,-76.9230769230769,6,2,1,5,0,1
254072,-76.9230769230769,6,2,1,60,0,1
257230,-133.333333333333,6,2,2,60,0,1
257388,-76.9230769230769,6,2,1,60,0,1
263862,-76.9230769230769,6,2,2,60,0,1
264178,-76.9230769230769,6,2,1,60,0,1
264335,-76.9230769230769,6,2,3,60,0,1
264651,-76.9230769230769,6,2,1,60,0,1
264809,-76.9230769230769,6,2,4,60,0,1
264967,-76.9230769230769,6,2,1,60,0,1
269151,-76.9230769230769,6,2,1,5,0,1
269230,-76.9230769230769,6,2,1,60,0,1
279020,-76.9230769230769,6,2,2,60,0,1
279178,-76.9230769230769,6,2,1,60,0,1
279651,-76.9230769230769,6,2,3,60,0,1
279809,-76.9230769230769,6,2,1,60,0,1
279967,-76.9230769230769,6,2,4,60,0,1
280125,-76.9230769230769,6,2,1,60,0,1
282730,-76.9230769230769,6,2,1,5,0,1
282809,-76.9230769230769,6,2,1,60,0,1
284388,315.789473684211,4,2,1,60,1,0
284388,-117.647058823529,4,2,1,60,0,0
284466,-100,4,2,1,40,0,0
287861,-100,4,2,1,20,0,0
288177,-117.647058823529,4,2,1,60,0,0
305861,-100,4,2,5,20,0,0
306177,-100,4,2,5,30,0,0
306493,-100,4,2,5,50,0,0
307124,-100,4,2,1,60,0,0
307203,-100,4,2,2,60,0,0
307282,-100,4,2,1,60,0,0
307519,-100,4,2,2,60,0,0
307598,-100,4,2,1,60,0,0
307677,-100,4,2,2,60,0,0
307756,-100,4,2,1,60,0,0
307993,-100,4,2,2,60,0,0
308072,-100,4,2,1,60,0,0
308309,-100,4,2,2,60,0,0
308388,-100,4,2,1,60,0,0
308466,-100,4,2,2,60,0,0
308545,-100,4,2,1,60,0,0
308782,-100,4,2,2,60,0,0
308861,-100,4,2,1,60,0,0
309651,-76.9230769230769,4,2,1,60,0,0
319756,-76.9230769230769,4,2,1,60,0,1
329388,-76.9230769230769,4,2,1,5,0,1
329466,-76.9230769230769,4,2,1,60,0,1
329624,-76.9230769230769,4,2,1,5,0,1
329703,-76.9230769230769,4,2,1,60,0,1
337045,-76.9230769230769,4,2,1,5,0,1
337124,-76.9230769230769,4,2,1,60,0,0
347388,-86.9565217391304,4,2,1,60,0,0
354098,-86.9565217391304,4,2,1,5,0,0
354177,-86.9565217391304,4,2,1,60,0,0
367440,-86.9565217391304,4,2,4,60,0,0
367598,-86.9565217391304,4,2,1,60,0,0
367756,315.789473684211,6,2,1,60,1,0
382913,-100,6,2,1,40,0,0
408729,-100,6,2,1,5,0,0
408808,-100,6,2,1,40,0,0
409045,-100,6,2,1,5,0,0
409124,-100,6,2,1,40,0,0
409361,-100,6,2,1,5,0,0
409440,-100,6,2,1,40,0,0
412598,-100,6,2,5,25,0,0
412913,-100,6,2,1,40,0,0
413150,-100,6,2,1,5,0,0
413229,-100,6,2,1,40,0,0
416071,-100,6,2,2,35,0,0
416387,-100,6,2,3,35,0,0
416703,-100,6,2,4,35,0,0
417019,-100,6,2,1,40,0,0
434703,-100,6,3,6,60,0,0
434782,-100,6,2,1,40,0,0
435334,-100,6,3,6,60,0,0
435413,-100,6,2,1,40,0,0
436598,-100,6,3,6,60,0,0
436677,-100,6,2,1,40,0,0
437229,-100,6,3,6,60,0,0
437308,-100,6,2,1,40,0,0
437861,-100,6,3,6,60,0,0
437940,-100,6,2,1,40,0,0
441650,-100,6,3,6,60,0,0
441729,-100,6,2,1,40,0,0
442282,-100,6,3,6,60,0,0
442361,-100,6,2,1,40,0,0
443545,-95.2380952380952,6,2,1,50,0,0
445756,-133.333333333333,6,2,1,30,0,0
445834,-133.333333333333,6,2,4,30,0,0
446071,-111.111111111111,6,2,1,40,0,0
446150,-111.111111111111,6,2,2,40,0,0
446387,-111.111111111111,6,2,1,40,0,0
446466,-111.111111111111,6,2,2,40,0,0
446703,-111.111111111111,6,2,1,40,0,0
446782,-111.111111111111,6,2,3,40,0,0
447019,-111.111111111111,6,2,1,40,0,0
447098,-111.111111111111,6,2,4,40,0,0
447334,-95.2380952380952,6,2,1,60,0,0
454598,-95.2380952380952,6,2,1,5,0,0
454913,-95.2380952380952,6,2,1,60,0,0
456729,-95.2380952380952,6,2,1,5,0,0
456808,-95.2380952380952,6,2,1,60,0,0
458624,-95.2380952380952,6,2,1,5,0,0
458703,-95.2380952380952,6,2,1,60,0,0
464308,-95.2380952380952,6,2,1,5,0,0
464387,-95.2380952380952,6,2,1,60,0,0
468098,-95.2380952380952,6,2,1,5,0,0
468177,-95.2380952380952,6,2,1,60,0,0
468492,-95.2380952380952,6,2,4,60,0,0
468703,-95.2380952380952,6,2,2,60,0,0
469334,-95.2380952380952,6,2,3,60,0,0
469440,-95.2380952380952,6,2,1,60,0,0
469545,-95.2380952380952,6,2,3,60,0,0
469650,-95.2380952380952,6,2,1,60,0,0
469756,-95.2380952380952,6,2,3,60,0,0
469861,-95.2380952380952,6,2,2,60,0,0
469966,-95.2380952380952,6,2,1,60,0,0
470071,-76.9230769230769,6,2,1,60,0,1
471887,-76.9230769230769,6,2,1,5,0,1
471966,-76.9230769230769,6,2,1,60,0,1
483413,-76.9230769230769,6,2,2,60,0,1
483492,-76.9230769230769,6,2,1,60,0,1
484203,-76.9230769230769,6,2,2,60,0,1
484282,-76.9230769230769,6,2,1,60,0,1
484519,-76.9230769230769,6,2,2,60,0,1
484598,-76.9230769230769,6,2,1,60,0,1
498650,-76.9230769230769,6,2,1,5,0,1
498729,-76.9230769230769,6,2,1,60,0,1
498887,-76.9230769230769,6,2,1,5,0,1
498966,-76.9230769230769,6,2,1,60,0,1
506387,-76.9230769230769,6,2,2,60,0,1
506808,-76.9230769230769,6,2,2,60,0,1
507229,-76.9230769230769,6,2,3,60,0,1
507650,-76.9230769230769,6,2,1,60,0,1
514913,-76.9230769230769,6,2,2,60,0,1
515071,-76.9230769230769,6,2,1,60,0,1
518387,-76.9230769230769,6,2,2,60,0,1
518703,-76.9230769230769,6,2,3,60,0,1
519019,-76.9230769230769,6,2,4,60,0,1
519334,-90.9090909090909,6,2,1,60,0,0
553441,315.789473684211,4,2,1,60,1,0
554704,-100,4,2,1,50,0,0
555967,-100,4,2,1,40,0,0
557230,-100,4,2,1,30,0,0
558493,-100,4,2,1,30,0,0
559756,-100,4,2,1,20,0,0
561019,-100,4,2,1,10,0,0
562283,-100,4,2,1,5,0,0
562914,-133.333333333333,4,2,1,30,0,0
583125,-133.333333333333,4,2,1,40,0,0
584072,-133.333333333333,4,2,1,5,0,0
584230,-133.333333333333,4,2,1,40,0,0
584546,-133.333333333333,4,2,1,5,0,0
584704,-133.333333333333,4,2,1,40,0,0
585335,-133.333333333333,4,2,1,5,0,0
585651,-133.333333333333,4,2,1,40,0,0
586283,-133.333333333333,4,2,1,40,0,0
586598,-133.333333333333,4,2,1,5,0,0
586756,-133.333333333333,4,2,1,40,0,0
587072,-133.333333333333,4,2,1,5,0,0
587230,-133.333333333333,4,2,1,40,0,0
587862,-133.333333333333,4,2,1,5,0,0
588493,-133.333333333333,4,2,1,40,0,0
588809,-133.333333333333,4,2,1,40,0,0
589125,-133.333333333333,4,2,1,5,0,0
589283,-133.333333333333,4,2,1,40,0,0
589598,-133.333333333333,4,2,1,5,0,0
589756,-133.333333333333,4,2,1,40,0,0
591335,-133.333333333333,4,2,1,40,0,0
591651,-133.333333333333,4,2,1,5,0,0
591809,-133.333333333333,4,2,1,40,0,0
592125,-133.333333333333,4,2,1,5,0,0
592283,-133.333333333333,4,2,1,40,0,0
592441,-133.333333333333,4,2,1,5,0,0
592598,-133.333333333333,4,2,1,40,0,0
601598,-133.333333333333,4,2,2,40,0,0
601914,-133.333333333333,4,2,1,40,0,0
602072,-133.333333333333,4,2,2,40,0,0
602388,-133.333333333333,4,2,1,40,0,0
602546,-133.333333333333,4,2,2,40,0,0
602862,-133.333333333333,4,2,1,40,0,0
603019,-133.333333333333,4,2,3,40,0,0
603335,-133.333333333333,4,2,1,40,0,0
603493,-133.333333333333,4,2,3,40,0,0
603651,-133.333333333333,4,2,1,40,0,0
603809,-133.333333333333,4,2,3,40,0,0
603967,-100,4,2,1,60,0,0
611546,-100,4,2,1,50,0,0
612651,-100,4,2,1,5,0,0
612730,-100,4,2,1,50,0,0
613993,-100,4,2,1,5,0,0
614072,-100,4,2,1,50,0,0
619046,-100,4,2,1,5,0,0
619125,-100,4,2,1,50,0,0
621572,-100,4,2,1,5,0,0
621651,-100,4,2,1,50,0,0
621809,-100,4,2,1,5,0,0
621888,-100,4,2,1,50,0,0
622046,-100,4,2,1,5,0,0
622125,-100,4,2,1,50,0,0
622283,-100,4,2,1,5,0,0
622362,-100,4,2,1,50,0,0
622441,-100,4,2,1,5,0,0
622519,-100,4,2,1,50,0,0
622598,-100,4,2,1,50,0,0
626625,-100,4,2,1,5,0,0
626704,-100,4,2,1,50,0,0
629230,-76.9230769230769,4,2,1,70,0,1
629309,-76.9230769230769,4,2,2,70,0,1
629388,-76.9230769230769,4,2,1,70,0,1
629625,-76.9230769230769,4,2,2,70,0,1
629704,-76.9230769230769,4,2,1,70,0,1
629783,-76.9230769230769,4,2,2,70,0,1
629862,-76.9230769230769,4,2,1,70,0,1
630809,-76.9230769230769,4,2,2,70,0,1
630967,-76.9230769230769,4,2,1,70,0,1
631125,-76.9230769230769,4,2,3,70,0,1
631283,-76.9230769230769,4,2,1,70,0,1
631835,-76.9230769230769,4,2,2,70,0,1
631914,-76.9230769230769,4,2,1,70,0,1
632230,-76.9230769230769,4,2,4,70,0,1
632388,-76.9230769230769,4,2,1,70,0,1
632546,-86.9565217391304,4,2,1,70,0,0
632704,-76.9230769230769,4,2,1,70,0,1
633019,-76.9230769230769,4,2,3,70,0,1
633177,-76.9230769230769,4,2,1,70,0,1
633414,-76.9230769230769,4,2,2,70,0,1
633493,-76.9230769230769,4,2,1,70,0,1
633572,-76.9230769230769,4,2,2,70,0,1
633651,-76.9230769230769,4,2,1,70,0,1
634283,-95.2380952380952,4,2,1,60,0,0
636493,-95.2380952380952,4,2,2,60,0,0
637125,-95.2380952380952,4,2,3,60,0,0
637441,-95.2380952380952,4,2,4,60,0,0
637756,-95.2380952380952,4,2,1,60,0,0
639230,-95.2380952380952,4,2,1,5,0,0
639335,-95.2380952380952,4,2,1,60,0,0
641704,-95.2380952380952,4,2,1,5,0,0
641862,-95.2380952380952,4,2,5,20,0,0
642177,-95.2380952380952,4,2,5,30,0,0
642493,-95.2380952380952,4,2,5,40,0,0
642809,-95.2380952380952,4,2,5,50,0,0
643125,-95.2380952380952,4,2,5,60,0,0
643756,-95.2380952380952,4,2,5,70,0,0
644388,315.789473684211,6,2,1,60,1,0
644388,-86.9565217391304,6,2,1,60,0,0
651019,-66.6666666666667,6,2,1,60,0,1
651966,-86.9565217391304,6,2,1,70,0,0

[Colours]
Combo1 : 255,134,0
Combo2 : 0,95,157
Combo3 : 46,67,184
Combo4 : 6,87,255
Combo5 : 53,154,255
Combo6 : 2,193,17
Combo7 : 12,214,103
Combo8 : 255,0,0

[HitObjects]
161,226,178,6,0,L|265:234,1,105.000004005432,2|0,0:0|0:0,0:0:0:0:
364,237,651,1,2,0:0:0:0:
298,162,809,2,0,L|226:156,1,52.5000020027161
102,173,1125,6,0,P|79:231|101:282,1,105.000004005432,2|0,0:0|0:0,0:0:0:0:
180,325,1599,1,2,0:0:0:0:
161,226,1756,1,0,0:0:0:0:
246,158,1914,1,0,0:0:0:0:
258,262,2072,102,0,B|286:295|286:295|370:298,1,105.000004005432,2|0,0:0|0:0,0:0:0:0:
453,305,2546,1,2,0:0:0:0:
389,221,2704,1,0,0:0:0:0:
494,222,2862,1,0,0:0:0:0:
461,121,3020,6,0,L|398:115,1,52.5000020027161,2|0,0:0|0:0,0:0:0:0:
332,39,3335,2,0,L|383:33,1,52.5000020027161,2|0,0:0|0:0,0:0:0:0:
306,121,3651,2,0,L|254:116,1,52.5000020027161,2|0,0:0|0:0,0:0:0:0:
198,60,3967,102,0,P|174:110|187:159,1,105.000004005432,2|0,0:0|0:0,0:0:0:0:
279,208,4441,1,2,0:0:0:0:
171,231,4599,2,0,L|118:235,1,52.5000020027161
50,326,4914,6,0,L|154:334,1,105.000004005432,2|0,0:0|0:0,0:0:0:0:
262,366,5388,1,2,0:0:0:0:
248,261,5546,1,0,0:0:0:0:
345,300,5704,1,0,0:0:0:0:
424,368,5862,102,0,L|436:245,1,105.000004005432,2|0,0:0|0:0,0:0:0:0:
446,159,6335,1,2,0:0:0:0:
372,84,6493,1,0,0:0:0:0:
342,184,6651,1,0,0:0:0:0:
305,282,6809,6,0,L|237:276,1,52.5000020027161,2|0,0:0|0:0,0:0:0:0:
148,259,7125,2,0,L|138:326,1,52.5000020027161,2|0,0:0|0:0,0:0:0:0:
225,373,7441,2,0,L|277:368,1,52.5000020027161,2|0,0:0|0:0,0:0:0:0:
379,343,7756,102,0,L|482:352,1,105.000004005432,2|0,0:0|0:0,0:0:0:0:
457,249,8230,1,2,0:0:0:0:
366,148,8388,2,0,L|355:213,1,52.5000020027161,0|0,0:0|0:0,0:0:0:0:
269,279,8704,6,0,B|259:244|259:244|269:173,1,105.000004005432,2|0,0:0|0:0,0:0:0:0:
319,89,9178,1,2,0:0:0:0:
233,36,9335,1,0,0:0:0:0:
180,123,9492,1,0,0:0:0:0:
268,176,9651,102,0,P|328:192|368:178,1,105.000004005432,2|0,0:0|0:0,0:0:0:0:
319,89,10125,1,2,0:0:0:0:
268,176,10283,1,0,0:0:0:0:
217,263,10441,1,0,0:0:0:0:
323,315,10599,6,0,L|397:319,1,52.5000020027161,2|0,0:0|0:0,0:0:0:0:
446,215,10914,2,0,L|372:219,1,52.5000020027161,2|0,0:0|0:0,0:0:0:0:
330,142,11230,2,0,L|327:89,1,52.5000020027161,2|0,0:0|0:0,0:0:0:0:
215,74,11546,102,0,B|239:110|239:110|244:183,1,105.000004005432,2|0,0:0|0:0,0:0:0:0:
250,282,12020,1,2,0:0:0:0:
160,191,12178,2,0,L|156:139,1,52.5000020027161,0|0,0:0|0:0,0:0:0:0:
80,224,12493,6,0,L|87:328,1,105.000004005432,2|0,0:0|0:0,0:0:0:0:
166,260,12967,1,2,0:0:0:0:
244,207,13125,1,0,0:0:0:0:
329,242,13283,1,0,0:0:0:0:
413,187,13441,102,0,L|418:71,1,113.749994792938,2|0,0:0|0:0,0:0:0:0:
405,54,13914,1,10,3:2:0:0:
314,47,14072,5,10,3:2:0:0:
319,125,14230,1,10,3:2:0:0:
207,62,14388,101,10,3:2:0:0:
217,200,14546,1,10,3:2:0:0:
86,86,14704,5,10,3:2:0:0:
186,301,14862,1,10,3:2:0:0:
12,193,15020,101,10,3:2:0:0:
243,129,15178,1,10,3:2:0:0:
417,223,15335,6,0,P|355:254|275:229,1,140,6|4,0:3|0:1,0:0:0:0:
253,102,15809,1,0,0:0:0:0:
127,138,15967,1,4,3:1:0:0:
128,172,16046,1,0,3:0:0:0:
124,207,16125,1,0,3:0:0:0:
116,241,16204,1,0,3:0:0:0:
104,274,16283,102,0,B|160:261|160:261|254:286,1,140,12|4,3:1|0:1,0:0:0:0:
397,249,16756,1,0,0:0:0:0:
379,98,16914,1,4,3:1:0:0:
346,84,16993,1,0,3:0:0:0:
312,78,17072,1,0,3:0:0:0:
277,82,17151,1,0,3:0:0:0:
243,91,17230,6,0,P|166:110|97:86,1,140,4|4,3:1|0:1,0:0:0:0:
174,9,17704,1,0,0:0:0:0:
190,214,17862,2,0,L|197:284,1,70,4|0,0:1|0:0,0:0:0:0:
349,177,18178,101,12,3:1:0:0:
376,157,18256,1,0,3:0:0:0:
411,159,18335,1,0,3:0:0:0:
435,183,18414,1,0,3:0:0:0:
438,217,18493,1,4,3:1:0:0:
419,246,18572,1,0,3:0:0:0:
386,255,18651,1,0,3:0:0:0:
351,250,18730,1,0,3:0:0:0:
318,236,18809,1,4,3:1:0:0:
284,231,18888,1,0,3:0:0:0:
249,234,18967,1,0,3:0:0:0:
216,245,19046,1,0,3:0:0:0:
182,264,19125,6,0,P|95:290|44:277,1,140,4|4,3:1|0:1,0:0:0:0:
192,140,19599,1,0,0:0:0:0:
384,206,19756,1,4,3:1:0:0:
381,171,19835,1,0,3:0:0:0:
384,136,19914,1,0,3:0:0:0:
393,102,19993,1,0,3:0:0:0:
411,67,20072,102,0,P|337:77|256:54,1,140,12|4,3:1|0:1,0:0:0:0:
123,30,20546,1,0,0:0:0:0:
51,146,20704,1,4,3:1:0:0:
84,156,20783,1,0,3:0:0:0:
119,158,20862,1,0,3:0:0:0:
153,151,20941,1,0,3:0:0:0:
189,137,21020,6,0,B|174:186|174:186|197:273,1,140,4|4,3:1|0:1,0:0:0:0:
162,360,21493,1,0,0:0:0:0:
272,251,21651,2,0,L|249:164,1,70,4|0,0:1|0:0,0:0:0:0:
103,129,21967,101,12,3:1:0:0:
109,94,22046,1,0,3:0:0:0:
130,67,22125,1,0,3:0:0:0:
161,52,22204,1,0,3:0:0:0:
196,53,22283,1,4,3:1:0:0:
230,62,22362,1,0,3:0:0:0:
263,73,22441,1,0,3:0:0:0:
297,78,22520,1,0,3:0:0:0:
332,80,22599,1,4,3:1:0:0:
367,78,22678,1,0,3:0:0:0:
402,72,22756,1,0,3:0:0:0:
435,62,22835,1,0,3:0:0:0:
465,43,22914,6,0,L|452:199,1,140,4|4,3:1|0:1,0:0:0:0:
433,344,23388,1,0,0:0:0:0:
285,298,23546,1,4,3:1:0:0:
282,263,23625,1,0,3:0:0:0:
279,228,23704,1,0,3:0:0:0:
276,193,23783,1,0,3:0:0:0:
275,157,23862,102,0,B|214:150|214:150|124:164,1,140,12|4,3:1|0:1,0:0:0:0:
109,27,24335,1,0,0:0:0:0:
280,55,24493,1,4,3:1:0:0:
314,49,24571,1,0,3:0:0:0:
348,56,24650,1,0,3:0:0:0:
377,76,24729,1,0,3:0:0:0:
396,104,24809,6,0,B|385:171|385:171|403:241,1,140,4|4,3:1|0:1,0:0:0:0:
288,318,25283,2,0,L|282:239,2,70,0|4|0,0:0|0:1|0:0,0:0:0:0:
364,204,25756,101,12,3:1:0:0:
343,176,25835,1,0,3:0:0:0:
313,157,25914,1,0,3:0:0:0:
279,152,25993,1,0,3:0:0:0:
245,160,26072,1,4,3:1:0:0:
217,180,26151,1,0,3:0:0:0:
195,208,26230,1,0,3:0:0:0:
167,229,26309,1,0,3:0:0:0:
134,242,26388,1,4,3:1:0:0:
100,247,26467,1,0,3:0:0:0:
65,243,26546,1,0,3:0:0:0:
33,231,26625,1,0,3:0:0:0:
12,202,26704,6,0,L|33:346,1,140,4|4,3:1|0:1,0:0:0:0:
180,355,27178,1,0,0:0:0:0:
255,219,27335,1,4,3:1:0:0:
236,189,27414,1,0,3:0:0:0:
209,167,27493,1,0,3:0:0:0:
176,156,27572,1,0,3:0:0:0:
140,153,27651,102,0,L|130:236,1,70,12|0,3:1|0:0,0:0:0:0:
282,136,27967,2,0,L|273:66,1,70,4|0,0:1|0:0,0:0:0:0:
134,73,28283,1,4,3:1:0:0:
168,71,28362,1,0,3:0:0:0:
203,69,28441,1,0,3:0:0:0:
238,68,28520,1,0,3:0:0:0:
274,67,28599,6,0,P|303:131|277:203,1,140,4|4,3:1|0:1,0:0:0:0:
198,288,29072,1,0,0:0:0:0:
85,207,29230,2,0,L|9:200,1,70,4|0,0:1|0:0,0:0:0:0:
203,69,29546,101,12,3:1:0:0:
235,55,29624,1,0,3:0:0:0:
269,56,29703,1,0,3:0:0:0:
302,70,29782,1,0,3:0:0:0:
332,87,29861,1,4,3:1:0:0:
366,93,29940,1,0,3:0:0:0:
401,87,30020,2,0,L|405:137,1,35,0|0,3:0|3:0,3:0:0:0:
420,235,30178,5,12,0:1:0:0:
420,235,30256,1,8,0:3:0:0:
420,235,30335,1,8,0:3:0:0:
420,235,30414,1,8,0:3:0:0:
420,235,30493,102,0,P|335:223|262:266,1,140,2|12,3:3|3:1,0:0:0:0:
154,314,30967,1,0,0:0:0:0:
48,198,31125,1,4,3:1:0:0:
75,177,31203,1,0,3:0:0:0:
109,170,31282,1,0,3:0:0:0:
143,173,31361,1,0,3:0:0:0:
174,189,31441,6,0,L|317:198,1,140,12|4,3:1|0:1,0:0:0:0:
435,95,31914,1,0,0:0:0:0:
400,241,32072,1,12,3:3:0:0:
373,263,32150,1,0,3:0:0:0:
340,272,32229,1,0,3:0:0:0:
305,267,32308,1,0,3:0:0:0:
278,249,32388,102,0,B|319:205|319:205|334:112,1,140,4|12,3:1|0:1,0:0:0:0:
435,95,32862,1,0,0:0:0:0:
373,263,33020,2,0,L|360:338,1,70,4|0,0:1|0:1,0:0:0:0:
451,231,33335,5,12,3:1:0:0:
436,199,33414,1,0,3:0:0:0:
409,178,33493,1,0,3:0:0:0:
375,172,33572,1,0,3:0:0:0:
342,183,33651,1,4,3:1:0:0:
310,200,33730,1,0,3:0:0:0:
279,217,33809,1,0,3:0:0:0:
246,227,33888,1,0,3:0:0:0:
211,229,33967,1,12,3:1:0:0:
176,224,34046,1,0,3:0:0:0:
144,211,34125,1,0,3:0:0:0:
115,192,34204,1,0,3:0:0:0:
90,166,34283,102,0,L|104:314,1,140,4|12,3:1|0:1,0:0:0:0:
25,354,34756,1,0,0:0:0:0:
214,307,34914,1,4,3:1:0:0:
247,298,34993,1,0,3:0:0:0:
282,296,35072,1,0,3:0:0:0:
317,300,35151,1,0,3:0:0:0:
351,308,35230,6,0,P|429:318|491:304,1,140,12|4,3:1|0:1,0:0:0:0:
510,162,35704,1,0,0:0:0:0:
391,102,35862,1,12,3:1:0:0:
356,99,35940,1,0,3:0:0:0:
322,107,36019,1,0,3:0:0:0:
292,125,36098,1,0,3:0:0:0:
274,156,36178,102,0,L|282:306,1,140,4|12,3:1|0:1,0:0:0:0:
168,384,36651,1,0,0:0:0:0:
160,282,36809,2,0,L|156:205,1,70,4|0,0:1|0:0,0:0:0:0:
102,93,37125,5,8,3:0:0:0:
102,93,37204,1,8,3:3:0:0:
102,93,37283,2,0,L|42:82,1,35,0|0,3:0|3:0,0:0:0:0:
183,209,37441,101,8,0:3:0:0:
217,204,37520,1,8,0:3:0:0:
253,198,37599,2,0,L|302:190,1,35,0|0,3:0|3:0,3:0:0:0:
313,56,37756,1,8,0:3:0:0:
280,43,37835,1,8,0:3:0:0:
244,41,37914,1,0,3:0:0:0:
209,47,37993,1,0,3:0:0:0:
179,69,38072,6,0,L|183:215,1,140,6|4,0:3|0:1,0:0:0:0:
71,181,38546,1,0,0:0:0:0:
156,311,38704,1,4,3:1:0:0:
188,299,38783,1,0,3:0:0:0:
223,295,38862,1,0,3:0:0:0:
258,300,38941,1,0,3:0:0:0:
290,315,39020,102,0,L|280:393,1,70,12|0,3:1|0:0,0:0:0:0:
428,281,39335,2,0,L|419:211,1,70,4|0,0:1|0:0,0:0:0:0:
257,202,39651,1,4,3:1:0:0:
237,172,39729,1,0,3:0:0:0:
231,138,39808,1,0,3:0:0:0:
237,104,39887,1,0,3:0:0:0:
255,75,39967,6,0,L|325:84,1,70,4|0,3:1|0:0,0:0:0:0:
422,144,40283,2,0,B|443:217|443:217|427:295,1,140,4|4,0:1|0:1,0:0:0:0:
257,202,40756,1,0,0:0:0:0:
380,70,40914,101,12,3:1:0:0:
410,54,40993,1,0,3:0:0:0:
442,63,41072,1,0,3:0:0:0:
459,93,41151,1,0,3:0:0:0:
451,126,41230,1,4,3:1:0:0:
422,144,41309,1,0,3:0:0:0:
387,143,41388,1,0,3:0:0:0:
356,125,41467,1,0,3:0:0:0:
323,113,41546,1,4,3:1:0:0:
288,109,41625,1,0,3:0:0:0:
254,115,41704,1,0,3:0:0:0:
222,128,41783,1,0,3:0:0:0:
197,153,41862,6,0,L|216:297,1,140,4|4,3:1|0:1,0:0:0:0:
313,240,42335,1,0,0:0:0:0:
215,291,42493,1,4,3:1:0:0:
182,303,42572,1,0,3:0:0:0:
147,306,42651,1,0,3:0:0:0:
113,301,42730,1,0,3:0:0:0:
80,289,42809,102,0,L|98:150,1,140,12|4,3:1|0:1,0:0:0:0:
181,71,43283,2,0,L|250:79,1,70,0|4,0:0|0:1,0:0:0:0:
372,65,43599,1,0,3:0:0:0:
372,65,43678,1,0,3:0:0:0:
372,65,43756,6,8,L|359:129,1,35,8|8,0:3|0:3,0:3:0:0:
193,258,43914,1,0,3:0:0:0:
184,224,43993,1,0,3:0:0:0:
175,189,44072,2,8,L|168:154,1,35,8|8,0:3|0:3,0:3:0:0:
304,174,44230,1,0,3:0:0:0:
337,183,44309,1,0,3:0:0:0:
372,183,44388,1,8,0:3:0:0:
405,173,44467,1,8,0:3:0:0:
438,161,44546,2,0,L|477:144,1,35,0|0,3:0|3:0,0:0:0:0:
394,293,44704,101,8,0:3:0:0:
394,293,44783,1,8,0:3:0:0:
394,293,44862,2,0,L|407:357,1,35,0|0,3:0|3:0,0:0:0:0:
265,275,45020,1,8,0:3:0:0:
265,275,45099,1,8,0:3:0:0:
265,275,45178,1,8,0:3:0:0:
265,275,45256,1,8,0:3:0:0:
265,275,45335,5,8,0:3:0:0:
232,261,45414,1,8,0:3:0:0:
198,256,45493,1,8,0:3:0:0:
163,260,45572,1,8,0:3:0:0:
131,274,45651,102,0,L|144:177,1,70,6|0,3:3|0:0,0:0:0:0:
237,84,45967,2,0,L|246:153,1,70
265,275,46283,1,0,3:0:0:0:
297,286,46362,1,0,3:0:0:0:
331,290,46441,1,0,3:0:0:0:
366,284,46520,1,0,3:0:0:0:
398,268,46599,6,0,L|422:361,1,70,8|0,3:0|0:0,0:0:0:0:
325,199,46914,1,0,0:0:0:0:
463,165,47072,1,0,0:0:0:0:
346,95,47230,1,0,3:0:0:0:
315,78,47309,1,0,3:0:0:0:
281,69,47388,1,0,3:0:0:0:
246,67,47467,1,0,3:0:0:0:
211,72,47546,102,0,L|219:166,2,70,0|0|0,3:0|0:0|0:0,0:0:0:0:
325,199,48020,2,0,L|394:193,1,70
346,95,48335,1,0,0:0:0:0:
233,111,48493,5,8,3:0:0:0:
216,141,48572,1,0,3:0:0:0:
207,175,48651,1,0,3:0:0:0:
208,210,48730,1,0,3:0:0:0:
218,243,48809,1,0,3:0:0:0:
236,273,48888,1,0,3:0:0:0:
262,297,48967,2,0,L|314:303,1,35,0|0,3:0|3:0,3:0:0:0:
149,300,49125,101,0,3:0:0:0:
115,300,49204,1,0,3:0:0:0:
80,305,49283,1,0,3:0:0:0:
46,314,49362,1,0,3:0:0:0:
14,330,49441,6,0,L|6:241,1,70,0|0,3:0|0:0,0:0:0:0:
72,132,49756,1,0,0:0:0:0:
148,232,49914,1,0,0:0:0:0:
248,178,50072,1,0,3:0:0:0:
280,164,50151,1,0,3:0:0:0:
314,159,50230,1,0,3:0:0:0:
349,165,50309,1,0,3:0:0:0:
381,177,50388,101,8,3:0:0:0:
416,352,50546,1,0,0:0:0:0:
316,274,50704,2,0,L|246:267,1,70
78,150,51020,1,0,3:0:0:0:
112,146,51099,1,0,3:0:0:0:
147,142,51178,1,0,3:0:0:0:
182,138,51256,1,0,3:0:0:0:
217,134,51335,6,0,L|287:126,1,70,0|0,3:0|0:0,0:0:0:0:
383,200,51651,1,0,0:0:0:0:
269,320,51809,2,0,L|275:250,2,70
385,359,52283,101,8,3:0:0:0:
404,330,52362,1,0,3:0:0:0:
415,297,52441,1,0,3:0:0:0:
415,262,52520,1,0,3:0:0:0:
404,229,52599,1,0,3:0:0:0:
383,200,52678,1,0,3:0:0:0:
361,173,52756,1,0,3:0:0:0:
341,143,52835,1,0,3:0:0:0:
332,110,52914,1,0,3:0:0:0:
332,75,52993,1,0,3:0:0:0:
343,42,53072,1,0,3:0:0:0:
363,13,53151,1,0,3:0:0:0:
390,0,53230,6,0,L|296:18,1,70,2|0,3:1|0:0,0:0:0:0:
183,130,53546,2,0,L|277:148,1,70,2|0,0:1|0:0,0:0:0:0:
440,128,53862,1,0,3:0:0:0:
429,94,53941,1,0,3:0:0:0:
407,67,54020,1,0,3:0:0:0:
377,49,54099,1,0,3:0:0:0:
343,42,54178,102,0,L|325:136,1,70,10|0,3:1|0:0,0:0:0:0:
453,196,54493,2,0,L|435:102,1,70,2|0,0:1|0:0,0:0:0:0:
329,212,54809,1,0,3:0:0:0:
294,214,54888,1,0,3:0:0:0:
259,217,54967,1,0,3:0:0:0:
224,220,55046,1,0,3:0:0:0:
189,224,55125,6,0,L|114:231,1,70,2|0,3:1|0:0,0:0:0:0:
72,316,55441,1,2,0:1:0:0:
224,220,55599,1,0,0:0:0:0:
148,105,55756,2,0,L|79:98,1,70,2|0,0:1|0:0,0:0:0:0:
119,230,56072,101,8,3:0:0:0:
153,237,56151,1,0,3:0:0:0:
187,234,56230,1,0,3:0:0:0:
224,220,56309,1,0,3:0:0:0:
247,199,56388,1,0,3:0:0:0:
272,174,56467,1,0,3:0:0:0:
297,150,56546,1,0,3:0:0:0:
329,134,56625,1,0,3:0:0:0:
363,128,56704,1,0,3:0:0:0:
398,131,56783,1,0,3:0:0:0:
430,144,56862,1,0,3:0:0:0:
458,165,56941,1,0,3:0:0:0:
478,193,57020,6,0,L|472:291,1,70,2|0,3:1|0:0,0:0:0:0:
332,203,57335,2,0,L|328:133,1,70,2|0,0:1|0:0,0:0:0:0:
217,49,57651,1,0,3:0:0:0:
184,36,57729,1,0,3:0:0:0:
149,36,57808,1,0,3:0:0:0:
116,46,57887,1,0,3:0:0:0:
87,66,57967,102,0,L|84:136,1,70,10|0,3:1|0:0,0:0:0:0:
173,204,58283,2,0,L|169:134,1,70,2|0,0:1|0:0,0:0:0:0:
121,285,58599,1,0,3:0:0:0:
153,297,58677,1,0,3:0:0:0:
188,297,58756,1,0,3:0:0:0:
221,287,58835,1,0,3:0:0:0:
250,267,58914,6,0,L|253:336,1,70,2|0,3:1|0:0,0:0:0:0:
121,285,59230,1,2,0:1:0:0:
148,106,59388,1,0,0:0:0:0:
273,240,59546,1,2,0:1:0:0:
75,187,59704,1,0,0:0:0:0:
318,148,59862,101,8,3:0:0:0:
352,145,59941,1,0,3:0:0:0:
376,121,60020,1,0,3:0:0:0:
378,87,60099,1,0,3:0:0:0:
359,59,60178,1,0,3:0:0:0:
326,51,60256,1,0,3:0:0:0:
288,56,60335,1,0,3:0:0:0:
253,63,60414,1,0,3:0:0:0:
218,65,60493,1,12,3:1:0:0:
183,63,60572,1,0,3:0:0:0:
149,55,60651,1,0,3:0:0:0:
117,41,60730,1,0,3:0:0:0:
91,18,60809,6,0,L|96:115,1,70,6|0,3:1|0:0,0:0:0:0:
210,231,61125,1,12,0:1:0:0:
318,148,61283,1,0,0:0:0:0:
160,157,61441,1,4,3:1:0:0:
127,170,61520,1,0,3:0:0:0:
93,174,61599,1,0,3:0:0:0:
58,167,61678,1,0,3:0:0:0:
27,147,61756,101,14,3:1:0:0:
0,293,61914,1,0,0:0:0:0:
170,313,62072,2,0,L|160:243,1,70,6|0,0:1|0:0,0:0:0:0:
146,54,62388,1,12,3:1:0:0:
178,40,62467,1,0,3:0:0:0:
212,36,62546,1,0,3:0:0:0:
247,43,62625,1,0,3:0:0:0:
279,56,62704,6,0,L|293:153,1,70,6|0,3:1|0:0,0:0:0:0:
160,243,63020,1,14,0:1:0:0:
146,54,63178,1,0,0:0:0:0:
308,213,63335,1,6,0:1:0:0:
99,154,63493,1,0,0:0:0:0:
229,159,63651,101,12,3:1:0:0:
255,136,63730,1,0,3:0:0:0:
288,125,63809,1,0,3:0:0:0:
323,125,63888,1,0,3:0:0:0:
356,137,63967,1,4,3:1:0:0:
387,154,64046,1,0,3:0:0:0:
420,163,64125,1,0,3:0:0:0:
455,161,64204,1,0,3:0:0:0:
489,153,64283,5,12,3:1:0:0:
486,187,64362,1,0,3:0:0:0:
484,223,64441,1,0,3:0:0:0:
483,258,64520,1,0,3:0:0:0:
479,291,64599,102,0,L|473:368,1,70,6|0,3:1|0:0,0:0:0:0:
326,341,64914,2,0,L|320:269,1,70,14|0,0:1|0:0,0:0:0:0:
294,156,65230,1,4,3:1:0:0:
265,135,65309,1,0,3:0:0:0:
232,123,65388,1,0,3:0:0:0:
198,121,65467,1,0,3:0:0:0:
163,129,65546,5,14,3:1:0:0:
214,220,65704,1,0,0:0:0:0:
228,3,65862,1,6,0:1:0:0:
39,71,66020,1,0,0:0:0:0:
72,188,66178,1,12,3:1:0:0:
85,220,66256,1,0,3:0:0:0:
91,255,66335,1,0,3:0:0:0:
89,289,66414,1,0,3:0:0:0:
79,323,66493,102,0,L|166:343,1,70,6|0,3:1|0:0,0:0:0:0:
214,220,66809,1,14,0:1:0:0:
85,220,66967,1,0,0:0:0:0:
284,335,67125,1,6,0:1:0:0:
324,136,67283,1,0,3:0:0:0:
324,136,67362,1,0,3:0:0:0:
324,136,67441,6,8,L|327:88,1,35,8|8,0:3|0:3,0:3:0:0:
201,46,67599,1,0,3:0:0:0:
203,80,67677,1,0,3:0:0:0:
206,115,67756,1,0,0:3:0:0:
209,150,67835,1,0,0:3:0:0:
211,185,67914,1,0,3:0:0:0:
214,220,67993,1,0,3:0:0:0:
217,255,68072,101,8,0:3:0:0:
218,262,68151,1,8,0:3:0:0:
219,268,68230,1,8,0:3:0:0:
219,274,68309,1,8,0:3:0:0:
220,280,68388,5,2,3:3:0:0:
355,115,68546,1,0,3:0:0:0:
340,282,68704,2,0,L|332:367,1,70,2|0,0:0|0:0,0:0:0:0:
428,207,69020,1,2,0:0:0:0:
264,180,69178,1,0,0:0:0:0:
220,280,69335,101,8,3:3:0:0:
355,115,69493,2,0,L|348:45,1,70,0|2,3:0|0:0,0:0:0:0:
428,207,69809,1,0,0:0:0:0:
264,180,69967,2,0,L|194:169,1,70,2|0,0:0|0:0,0:0:0:0:
355,115,70283,5,0,3:0:0:0:
220,280,70441,1,0,3:0:0:0:
138,119,70599,1,2,0:0:0:0:
264,180,70756,1,0,0:0:0:0:
110,273,70914,2,0,L|32:321,1,70,2|0,0:0|0:0,0:0:0:0:
46,177,71230,101,8,3:3:0:0:
198,359,71388,1,0,3:0:0:0:
191,229,71546,1,2,3:2:0:0:
110,273,71704,1,0,3:0:0:0:
294,316,71862,1,2,3:2:0:0:
274,190,72020,1,0,3:0:0:0:
198,359,72178,5,0,3:0:0:0:
393,274,72335,2,0,L|472:259,1,70,0|2,3:0|0:0,0:0:0:0:
274,190,72651,1,0,0:0:0:0:
294,316,72809,2,0,L|305:387,1,70,2|0,0:0|0:0,0:0:0:0:
372,187,73125,101,8,3:3:0:0:
423,0,73283,1,0,3:0:0:0:
240,26,73441,2,0,L|253:94,1,70,2|0,0:0|0:0,0:0:0:0:
285,254,73756,1,2,0:0:0:0:
153,345,73914,1,0,0:0:0:0:
25,218,74072,6,0,L|94:205,1,70,0|0,3:0|3:0,3:0:0:0:
69,52,74388,2,0,L|56:121,1,70,2|0,0:0|0:0,0:0:0:0:
225,50,74704,2,0,L|157:37,1,70,2|0,0:0|0:0,0:0:0:0:
327,67,75020,101,0,3:0:0:0:
360,75,75099,1,0,3:0:0:0:
395,75,75178,1,0,3:0:0:0:
429,67,75256,1,0,3:0:0:0:
460,51,75335,5,8,0:3:0:0:
460,85,75414,1,8,0:3:0:0:
461,120,75493,1,8,0:3:0:0:
461,155,75572,1,8,0:3:0:0:
461,190,75651,1,2,3:3:0:0:
463,384,75809,1,2,3:3:0:0:
335,247,75967,102,0,L|349:164,1,70,4|0,3:3|3:0,3:0:0:0:
235,273,76283,2,0,L|246:342,1,70,2|0,0:0|0:0,0:0:0:0:
356,344,76599,1,2,0:0:0:0:
207,169,76756,1,0,0:0:0:0:
125,286,76914,6,0,L|55:297,1,70,8|0,3:0|3:0,0:0:0:0:
207,169,77230,2,0,L|276:180,1,70,2|0,0:0|0:0,0:0:0:0:
235,273,77546,1,2,0:0:0:0:
97,113,77704,1,0,0:0:0:0:
218,99,77862,102,0,L|207:168,1,70,0|0,3:0|3:0,3:0:0:0:
125,286,78178,2,0,L|114:217,1,70,2|0,0:2|0:0,0:0:0:0:
97,113,78493,1,2,0:0:0:0:
235,273,78651,1,0,0:0:0:0:
17,299,78809,5,8,3:3:0:0:
97,113,78967,1,0,3:0:0:0:
235,273,79125,1,2,3:2:0:0:
114,217,79283,1,0,3:0:0:0:
332,191,79441,1,2,3:2:0:0:
246,381,79599,1,0,3:0:0:0:
114,217,79756,102,0,B|191:207,2,70,0|0|2,3:0|3:0|0:0,0:0:0:0:
58,315,80230,1,0,0:0:0:0:
183,207,80388,2,0,B|191:169|191:169|182:139,1,70,2|0,0:0|0:0,0:0:0:0:
48,46,80704,6,0,B|40:83|40:83|47:114,1,70,8|0,3:0|3:0,0:0:0:0:
183,207,81020,1,2,0:0:0:0:
260,26,81178,1,0,0:0:0:0:
161,89,81335,1,2,0:0:0:0:
310,156,81493,1,0,3:0:0:0:
310,156,81572,1,0,3:0:0:0:
310,156,81651,102,0,L|364:162,3,35,8|8|0|0,0:3|0:3|3:0|3:0,0:0:0:0:
470,272,81967,1,2,0:3:0:0:
434,275,82046,1,2,0:3:0:0:
399,279,82125,2,0,L|351:284,1,35,0|0,3:0|3:0,3:0:0:0:
251,344,82283,5,2,0:3:0:0:
215,341,82362,1,2,0:3:0:0:
180,337,82441,2,0,L|132:331,1,35,0|0,3:0|3:0,3:0:0:0:
72,210,82599,101,8,0:3:0:0:
95,183,82677,1,8,0:3:0:0:
125,166,82756,1,0,3:0:0:0:
158,158,82835,1,0,3:0:0:0:
193,160,82914,1,8,0:3:0:0:
227,168,82993,1,8,0:3:0:0:
261,172,83071,1,0,3:0:0:0:
295,164,83150,1,0,3:0:0:0:
325,146,83229,1,8,0:3:0:0:
347,119,83308,1,8,0:3:0:0:
359,86,83387,1,0,3:0:0:0:
359,51,83466,1,0,3:0:0:0:
356,16,83546,6,0,P|443:30|479:81,1,140,14|4,0:3|0:1,0:0:0:0:
484,285,84020,1,0,3:0:0:0:
395,171,84178,2,0,L|386:80,1,70,4|0,0:1|3:0,0:0:0:0:
279,328,84493,102,0,L|294:159,1,140,6|4,0:3|0:1,0:0:0:0:
172,104,84967,1,0,3:0:0:0:
185,228,85125,2,0,L|193:297,1,70,4|8,0:1|0:3,0:0:0:0:
383,383,85441,6,0,L|395:288,1,70,6|0,3:3|0:0,0:0:0:0:
413,167,85756,1,4,3:1:0:0:
185,228,85914,2,0,L|254:241,1,70,0|4,3:0|0:1,0:0:0:0:
277,70,86229,1,0,3:1:0:0:
73,223,86388,102,0,L|80:295,1,70,6|0,3:3|0:0,0:0:0:0:
276,201,86704,1,4,3:1:0:0:
291,170,86783,1,0,3:0:0:0:
297,136,86862,1,0,3:0:0:0:
293,101,86941,1,0,3:0:0:0:
277,70,87020,1,12,3:1:0:0:
88,82,87178,1,8,0:3:0:0:
182,366,87335,6,0,B|197:223,1,140,6|4,3:3|0:1,0:0:0:0:
88,82,87809,2,0,L|93:151,1,70,0|4,3:1|0:1,0:0:0:0:
108,339,88124,1,0,3:0:0:0:
261,295,88283,102,0,B|283:252|283:252|265:167,1,105,10|0,3:3|3:0,3:0:0:0:
253,165,88599,2,0,L|380:175,1,105,2|0,3:3|3:0,3:0:0:0:
387,191,88914,2,0,P|414:135|399:65,1,105,4|0,3:1|3:0,3:0:0:0:
387,67,89230,6,0,L|246:79,1,140,2|4,3:3|0:1,3:0:0:0:
82,89,89704,1,0,3:0:0:0:
215,183,89862,2,0,L|296:178,1,70,4|0,0:1|3:0,3:0:0:0:
444,30,90178,102,0,L|453:100,1,70,6|0,0:3|0:0,0:0:0:0:
462,285,90493,1,4,3:1:0:0:
435,306,90572,1,0,3:0:0:0:
401,314,90651,1,0,3:0:0:0:
366,308,90730,1,0,3:0:0:0:
336,289,90809,2,8,L|329:248,3,35,12|8|8|8,0:3|0:3|0:3|0:3,0:3:0:0:
342,219,91125,6,0,P|271:195|203:222,1,140,2|4,3:3|0:1,3:0:0:0:
80,297,91599,1,0,3:0:0:0:
281,362,91756,2,0,L|274:292,1,70,4|0,0:1|3:0,3:0:0:0:
178,44,92072,102,0,L|166:183,1,140,6|4,3:3|0:1,3:0:0:0:
151,320,92546,1,0,3:0:0:0:
267,229,92704,2,0,L|273:160,1,70,4|8,0:1|3:3,3:0:0:0:
44,249,93020,6,0,P|87:307|161:317,1,140,2|4,3:3|0:1,3:0:0:0:
350,306,93493,1,0,3:0:0:0:
211,221,93651,2,0,L|141:227,1,70,4|0,0:1|3:0,3:0:0:0:
105,4,93967,102,0,L|111:73,1,70,6|0,3:3|3:0,3:0:0:0:
211,221,94283,1,4,3:1:0:0:
241,239,94362,1,0,3:0:0:0:
275,246,94441,1,0,3:0:0:0:
310,244,94520,1,0,3:0:0:0:
344,232,94599,2,0,L|348:197,1,35,10|0,0:1|0:0,0:0:0:0:
218,65,94756,2,0,L|222:99,1,35,10|0,0:1|0:0,0:0:0:0:
241,239,94914,6,0,L|222:386,1,140,2|4,3:3|0:1,3:0:0:0:
414,318,95388,1,0,3:0:0:0:
395,150,95546,2,0,L|389:80,1,70,4|0,0:1|3:0,3:0:0:0:
164,28,95862,102,0,L|152:181,1,140,6|4,3:3|0:1,3:0:0:0:
136,328,96335,1,0,3:0:0:0:
260,206,96493,2,0,L|267:127,1,70,4|8,0:1|0:3,3:0:0:0:
48,116,96809,5,4,3:1:0:0:
260,206,96967,1,0,0:0:0:0:
35,109,97125,1,4,0:1:0:0:
274,214,97283,2,0,B|289:354,1,140,0|0,3:0|3:0,3:0:0:0:
407,139,97756,102,0,L|422:-7,1,140,12|4,0:1|0:1,3:0:0:0:
124,185,98230,1,8,3:3:0:0:
339,47,98388,1,12,3:3:0:0:
91,77,98546,1,8,3:3:0:0:
335,160,98704,6,0,P|369:235|342:300,1,140,14|4,3:3|0:1,3:0:0:0:
146,303,99178,1,0,3:0:0:0:
272,233,99335,1,4,3:1:0:0:
277,372,99493,1,0,3:0:0:0:
8,150,99651,102,0,L|154:167,1,140,12|4,3:1|0:1,3:0:0:0:
322,0,100125,1,0,3:0:0:0:
147,166,100283,1,4,3:1:0:0:
200,21,100441,1,0,3:0:0:0:
272,233,100599,6,0,L|278:399,1,140,12|4,3:1|0:1,3:0:0:0:
144,309,101072,1,0,3:0:0:0:
147,166,101230,1,4,3:1:0:0:
272,233,101388,1,0,3:0:0:0:
93,239,101546,101,12,0:1:0:0:
111,47,101704,1,0,3:0:0:0:
191,236,101862,1,4,3:1:0:0:
34,136,102020,1,0,3:0:0:0:
235,106,102178,1,12,0:1:0:0:
144,309,102335,1,0,0:0:0:0:
111,47,102493,6,0,B|121:192,1,140,14|4,3:3|0:1,3:0:0:0:
245,247,102967,1,0,3:0:0:0:
361,168,103125,1,4,3:1:0:0:
235,106,103283,1,0,3:0:0:0:
373,305,103441,102,0,B|531:313,1,140,12|4,3:1|0:1,3:0:0:0:
361,168,103914,1,0,3:0:0:0:
234,107,104072,1,4,3:1:0:0:
243,247,104230,1,0,3:0:0:0:
445,56,104388,6,0,L|463:205,1,140,12|4,3:1|0:1,3:0:0:0:
243,247,104862,1,0,0:0:0:0:
318,95,105020,1,4,0:1:0:0:
354,264,105178,1,0,3:0:0:0:
354,264,105256,1,0,3:0:0:0:
354,264,105335,102,8,L|363:319,1,35,8|8,0:3|0:3,0:3:0:0:
233,341,105493,1,0,3:0:0:0:
198,344,105572,1,0,3:0:0:0:
163,346,105651,1,8,0:3:0:0:
38,228,105809,1,8,0:3:0:0:
73,231,105888,1,8,0:3:0:0:
108,233,105967,1,4,3:1:0:0:
91,72,106125,1,4,0:1:0:0:
108,233,106283,6,0,L|248:246,1,140,6|4,3:3|0:1,3:0:0:0:
426,206,106756,1,0,3:0:0:0:
290,168,106914,1,4,3:1:0:0:
327,304,107072,1,0,3:0:0:0:
355,115,107230,102,0,P|270:87|218:122,1,140,12|4,3:1|0:1,3:0:0:0:
149,231,107704,1,0,3:0:0:0:
290,168,107862,1,4,3:1:0:0:
151,75,108020,1,0,3:0:0:0:
285,307,108178,6,0,B|435:340,1,140,12|4,3:1|0:1,3:0:0:0:
378,155,108651,1,0,3:0:0:0:
198,152,108809,1,4,3:1:0:0:
285,307,108967,1,0,3:0:0:0:
289,88,109125,102,0,L|283:18,1,70,12|0,3:1|0:0,3:0:0:0:
99,41,109441,2,0,L|93:110,1,70,4|0,3:1|0:0,3:0:0:0:
204,221,109756,2,0,L|198:152,1,70,4|0,3:1|0:0,3:0:0:0:
77,222,110072,6,0,L|64:367,1,140,14|4,3:3|0:1,3:0:0:0:
224,232,110546,1,0,3:0:0:0:
92,110,110704,2,0,L|22:104,1,70,4|0,3:1|3:0,3:0:0:0:
177,314,111020,102,0,P|250:319|306:274,1,140,12|4,3:1|0:1,3:0:0:0:
340,67,111493,1,0,3:0:0:0:
217,162,111651,2,0,L|223:231,1,70,4|0,0:1|3:0,3:0:0:0:
311,384,111967,5,12,3:1:0:0:
458,258,112125,1,0,3:0:0:0:
463,223,112204,1,0,3:0:0:0:
470,188,112283,2,8,L|477:134,1,35,8|8,0:3|0:3,0:3:0:0:
318,161,112441,101,0,3:0:0:0:
324,195,112520,1,0,3:0:0:0:
331,230,112599,1,8,0:3:0:0:
337,264,112678,1,8,0:3:0:0:
342,298,112756,5,0,3:0:0:0:
311,282,112835,1,0,3:0:0:0:
277,276,112914,1,8,0:3:0:0:
242,281,112993,1,8,0:3:0:0:
209,294,113072,2,0,L|201:347,1,35,0|0,3:0|3:0,3:0:0:0:
198,188,113230,101,8,0:3:0:0:
172,164,113309,1,8,0:3:0:0:
140,149,113388,1,0,3:0:0:0:
106,144,113467,1,0,3:0:0:0:
71,150,113546,1,8,0:3:0:0:
309,78,113862,6,0,B|344:59|380:75|380:75|422:91|453:73,1,140,6|0,3:3|0:0,3:3:0:0:
429,314,114493,1,4,3:1:0:0:
395,303,114572,1,0,3:0:0:0:
360,299,114651,1,0,3:0:0:0:
325,300,114730,1,0,3:0:0:0:
292,309,114809,102,0,P|204:327|154:315,1,140,12|4,3:1|0:1,0:0:0:0:
66,80,115441,1,4,3:1:0:0:
101,71,115520,1,0,3:0:0:0:
135,79,115599,1,0,3:0:0:0:
163,93,115678,1,0,3:0:0:0:
192,114,115756,6,0,B|266:130|266:130|334:118,1,140,4|4,3:1|0:1,0:0:0:0:
302,380,116388,1,4,0:1:0:0:
94,279,116704,101,12,3:1:0:0:
106,246,116783,1,0,3:0:0:0:
111,211,116862,1,0,3:0:0:0:
108,176,116941,1,0,3:0:0:0:
98,143,117020,1,4,3:1:0:0:
82,112,117099,1,0,3:0:0:0:
66,80,117178,5,0,3:0:0:0:
100,73,117256,1,0,3:0:0:0:
134,70,117335,1,4,3:1:0:0:
169,72,117414,1,0,3:0:0:0:
204,79,117493,1,0,3:0:0:0:
236,91,117572,1,0,3:0:0:0:
268,105,117651,102,0,P|334:128|417:120,1,140,4|4,3:1|0:1,0:0:0:0:
332,277,118283,1,4,3:1:0:0:
297,280,118362,1,0,3:0:0:0:
262,283,118441,1,0,3:0:0:0:
227,286,118520,1,0,3:0:0:0:
192,289,118599,6,0,L|47:302,1,140,12|4,3:1|0:1,0:0:0:0:
190,128,119230,101,4,3:1:0:0:
213,112,119309,1,0,3:0:0:0:
240,104,119388,1,0,3:0:0:0:
267,101,119467,1,0,3:0:0:0:
301,109,119546,21,4,3:1:0:0:
303,145,119625,1,0,3:0:0:0:
319,180,119704,1,0,3:0:0:0:
345,206,119783,1,0,3:0:0:0:
376,221,119862,5,2,3:2:0:0:
366,261,119941,1,0,3:0:0:0:
346,298,120020,1,0,3:0:0:0:
317,327,120099,1,0,3:0:0:0:
282,347,120178,1,2,3:2:0:0:
242,357,120256,1,0,3:0:0:0:
200,354,120335,1,0,3:0:0:0:
161,341,120414,1,0,3:0:0:0:
126,324,120493,5,2,3:2:0:0:
155,287,120572,1,0,3:0:0:0:
173,245,120651,1,0,3:0:0:0:
175,197,120730,1,0,3:0:0:0:
161,155,120809,1,2,3:2:0:0:
134,117,120888,1,0,3:0:0:0:
96,93,120967,1,0,3:0:0:0:
52,80,121046,1,0,3:0:0:0:
4,85,121125,1,8,3:0:0:0:
251,220,121441,54,0,P|320:239|384:210,1,140,6|12,3:3|3:1,3:0:0:0:
430,106,121914,1,0,3:0:0:0:
312,156,122072,1,4,0:1:0:0:
419,289,122230,1,0,3:0:0:0:
419,289,122309,1,0,3:0:0:0:
419,289,122388,2,0,L|431:364,1,70,12|0,0:1|0:0,0:0:0:0:
311,346,122704,1,4,3:1:0:0:
280,328,122783,1,0,3:0:0:0:
246,321,122862,1,0,3:0:0:0:
211,324,122941,1,0,3:0:0:0:
179,340,123020,2,0,L|93:347,1,70,12|0,0:1|0:0,0:0:0:0:
128,51,123335,6,0,L|150:190,1,140,4|12,3:1|0:1,0:0:0:0:
252,133,123809,2,0,L|337:146,1,70,0|4,3:0|0:1,0:0:0:0:
445,219,124125,1,0,3:0:0:0:
410,224,124204,1,0,3:0:0:0:
375,230,124283,2,0,L|289:243,1,70,12|0,3:1|0:0,0:0:0:0:
175,322,124599,1,4,3:1:0:0:
175,287,124678,1,0,3:0:0:0:
175,252,124756,1,0,3:0:0:0:
175,217,124835,1,0,3:0:0:0:
175,182,124914,2,0,L|176:75,1,105,12|0,3:1|0:0,0:0:0:0:
147,55,125230,102,0,P|201:24|288:43,1,140,4|12,3:1|0:1,0:0:0:0:
357,101,125704,2,0,L|346:170,1,70,0|4,3:0|0:1,0:0:0:0:
411,296,126020,1,0,3:0:0:0:
377,291,126099,1,0,3:0:0:0:
342,286,126178,2,0,L|273:276,1,70,12|0,0:1|0:0,0:0:0:0:
193,354,126493,1,4,3:1:0:0:
172,325,126572,1,0,3:0:0:0:
162,292,126651,1,0,3:0:0:0:
162,257,126730,1,0,3:0:0:0:
171,225,126809,2,0,P|194:186|222:167,1,70,12|0,3:1|0:0,0:0:0:0:
357,101,127125,6,0,L|218:80,1,140,4|12,3:1|0:1,0:0:0:0:
76,90,127599,2,0,L|87:159,1,70,0|4,3:0|0:1,0:0:0:0:
202,240,127914,1,0,3:0:0:0:
202,240,127993,1,0,3:0:0:0:
202,240,128072,2,0,L|213:170,1,70,12|0,3:1|0:0,0:0:0:0:
302,88,128388,1,4,3:1:0:0:
334,101,128467,1,0,3:0:0:0:
369,104,128546,1,0,3:0:0:0:
403,96,128625,1,0,3:0:0:0:
434,81,128704,2,0,L|453:188,1,105,12|0,3:1|0:0,0:0:0:0:
468,215,129020,102,0,B|412:206|412:206|327:245,1,140,4|12,3:1|0:1,0:0:0:0:
280,356,129493,2,0,L|184:342,1,70,0|4,3:0|0:1,0:0:0:0:
66,359,129809,1,0,3:0:0:0:
71,324,129888,1,0,3:0:0:0:
76,289,129967,2,0,L|90:193,1,70,12|0,3:1|0:0,0:0:0:0:
112,66,130283,1,4,3:1:0:0:
147,60,130362,1,0,3:0:0:0:
181,65,130441,1,0,3:0:0:0:
212,80,130520,1,0,3:0:0:0:
240,102,130599,2,0,L|250:171,1,70,12|0,3:1|0:0,0:0:0:0:
415,23,130914,6,0,L|388:187,1,140,4|12,3:1|0:1,0:0:0:0:
240,102,131388,2,0,L|162:95,1,70,0|4,3:0|0:1,0:0:0:0:
140,264,131704,1,0,3:0:0:0:
175,259,131783,1,0,3:0:0:0:
210,256,131862,2,0,B|301:248,1,70,12|0,3:1|0:0,0:0:0:0:
399,97,132178,1,4,3:1:0:0:
423,121,132256,1,0,3:0:0:0:
435,154,132335,1,0,3:0:0:0:
432,189,132414,1,0,3:0:0:0:
417,220,132493,2,0,L|437:351,1,105,12|0,3:1|0:0,0:0:0:0:
459,347,132809,102,0,B|398:371|398:371|324:361,1,140,4|12,3:1|0:1,0:0:0:0:
205,228,133283,2,0,L|274:218,1,70,0|4,3:0|0:1,0:0:0:0:
170,357,133599,1,0,3:0:0:0:
135,352,133678,1,0,3:0:0:0:
100,347,133756,2,0,L|27:336,1,70,12|0,3:1|0:0,0:0:0:0:
111,204,134072,1,4,3:1:0:0:
125,172,134151,1,0,3:0:0:0:
129,137,134230,1,0,3:0:0:0:
123,103,134309,1,0,3:0:0:0:
108,70,134388,2,0,L|21:55,1,70,12|0,3:1|0:0,0:0:0:0:
246,30,134704,6,0,L|264:197,1,140,4|12,3:1|0:1,0:0:0:0:
161,317,135178,2,0,L|168:242,1,70,0|4,3:0|0:1,0:0:0:0:
261,169,135493,1,0,3:0:0:0:
261,169,135572,1,0,3:0:0:0:
261,169,135651,2,0,L|334:180,1,70,12|0,3:1|0:0,0:0:0:0:
448,104,135967,1,4,3:1:0:0:
427,132,136046,1,0,3:0:0:0:
416,165,136125,1,0,3:0:0:0:
416,200,136204,1,0,3:0:0:0:
427,233,136283,1,12,3:3:0:0:
443,264,136362,1,0,3:0:0:0:
458,295,136441,1,0,3:0:0:0:
459,329,136520,1,0,3:0:0:0:
449,362,136599,102,0,P|384:386|310:361,1,140,2|12,3:3|0:1,0:0:0:0:
232,212,137072,2,0,L|222:138,1,70,0|4,3:0|0:1,0:0:0:0:
404,136,137388,1,0,3:0:0:0:
399,170,137467,1,0,3:0:0:0:
394,206,137546,2,0,L|384:274,1,70,12|0,3:1|0:0,0:0:0:0:
294,366,137862,1,4,3:1:0:0:
263,348,137941,1,0,3:0:0:0:
229,342,138020,1,0,3:0:0:0:
195,347,138099,1,0,3:0:0:0:
162,358,138178,2,0,L|151:241,1,105,12|0,3:1|0:0,0:0:0:0:
124,231,138493,6,0,B|182:199|182:199|262:203,1,140,4|12,3:1|0:1,0:0:0:0:
360,115,138967,2,0,L|270:106,1,70,0|4,3:0|0:1,0:0:0:0:
102,96,139283,1,0,3:0:0:0:
102,96,139362,1,0,3:0:0:0:
102,96,139441,2,0,L|108:165,1,70,12|0,3:1|0:0,0:0:0:0:
254,314,139756,1,4,3:1:0:0:
278,289,139835,1,0,3:0:0:0:
293,257,139914,1,0,3:0:0:0:
295,223,139993,1,0,3:0:0:0:
286,186,140072,2,0,P|279:167|269:150,1,35,12|0,3:3|3:0,3:0:0:0:
180,92,140230,1,0,3:0:0:0:
180,92,140309,1,0,3:0:0:0:
180,92,140388,102,0,P|232:50|316:51,1,140,4|12,3:1|0:1,0:0:0:0:
295,223,140862,2,0,L|290:302,1,70,0|4,3:0|0:1,0:0:0:0:
101,359,141178,1,0,3:0:0:0:
98,322,141256,1,0,3:0:0:0:
96,288,141335,2,0,L|91:217,1,70,12|0,3:1|0:0,0:0:0:0:
198,77,141651,1,4,3:1:0:0:
228,60,141730,1,0,3:0:0:0:
262,51,141809,1,0,3:0:0:0:
297,52,141888,1,0,3:0:0:0:
332,60,141967,2,0,L|328:170,1,105,12|0,3:1|0:0,0:0:0:0:
307,193,142283,6,0,B|354:171|354:171|451:198,1,140,4|12,3:1|0:1,0:0:0:0:
315,384,142756,2,0,L|307:313,1,70,0|4,3:0|0:1,0:0:0:0:
447,124,143072,1,0,3:0:0:0:
442,159,143151,1,0,3:0:0:0:
438,194,143230,2,0,L|428:264,1,70,12|0,0:1|0:0,0:0:0:0:
290,79,143546,1,4,3:1:0:0:
259,95,143625,1,0,3:0:0:0:
225,102,143704,1,0,3:0:0:0:
190,100,143783,1,0,3:0:0:0:
157,89,143862,101,12,3:3:0:0:
163,124,143941,1,0,3:0:0:0:
167,158,144020,1,0,3:0:0:0:
171,193,144099,1,0,3:0:0:0:
175,229,144178,6,0,L|192:374,1,140,4|12,3:1|0:1,0:0:0:0:
308,204,144651,2,0,L|315:134,1,70,0|4,3:0|0:1,0:0:0:0:
97,150,144967,1,0,3:0:0:0:
97,150,145046,1,0,3:0:0:0:
97,150,145125,2,0,L|167:158,1,70,12|0,3:1|0:0,0:0:0:0:
133,290,145441,1,4,3:1:0:0:
167,285,145520,1,0,3:0:0:0:
202,281,145599,1,0,3:0:0:0:
237,277,145678,1,0,3:0:0:0:
271,272,145756,2,0,L|353:263,1,70,12|0,3:1|0:0,0:0:0:0:
453,38,146072,102,0,L|448:198,1,140,4|12,3:1|0:1,0:0:0:0:
344,334,146546,2,0,L|339:241,1,70,0|4,3:0|0:1,0:0:0:0:
238,142,146862,1,0,3:0:0:0:
238,142,146941,1,0,3:0:0:0:
238,142,147020,2,0,L|232:223,1,70,12|0,3:1|0:0,0:0:0:0:
96,338,147335,1,4,3:1:0:0:
79,307,147413,1,0,3:0:0:0:
75,272,147492,1,0,3:0:0:0:
84,239,147571,1,0,3:0:0:0:
103,209,147651,1,12,3:1:0:0:
120,179,147729,1,0,3:0:0:0:
126,144,147808,1,0,3:0:0:0:
120,110,147888,1,0,3:0:0:0:
103,79,147967,6,0,P|156:49|249:71,1,140,4|12,3:1|0:1,3:0:0:0:
292,192,148441,2,0,L|305:289,1,70,0|4,3:0|0:1,0:0:0:0:
156,355,148756,1,0,3:0:0:0:
156,355,148835,1,0,3:0:0:0:
156,355,148914,2,0,L|166:281,1,70,12|0,3:1|0:0,0:0:0:0:
207,124,149230,1,4,3:1:0:0:
242,122,149309,1,0,3:0:0:0:
277,121,149388,1,0,3:0:0:0:
311,120,149467,1,0,3:0:0:0:
346,118,149546,2,0,L|456:110,1,105,12|0,3:1|0:0,0:0:0:0:
475,84,149862,102,0,B|462:143|462:143|479:241,1,140,4|12,3:1|0:1,0:0:0:0:
361,317,150335,2,0,L|367:240,1,70,0|4,3:0|0:1,0:0:0:0:
277,121,150651,1,0,3:0:0:0:
277,121,150730,1,0,3:0:0:0:
277,121,150809,5,8,3:0:0:0:
367,248,150967,1,8,3:3:0:0:
369,116,151125,101,8,3:3:0:0:
172,247,151283,1,8,3:3:0:0:
102,73,151441,5,8,3:3:0:0:
280,291,151599,1,8,3:3:0:0:
360,23,151756,102,0,P|306:50|277:125,1,140,6|2,3:3|0:2,0:0:0:0:
374,261,152230,1,0,3:0:0:0:
438,126,152388,2,0,L|365:115,1,70,2|0,3:2|3:0,3:0:0:0:
239,335,152704,6,8,L|264:184,1,140,8|2,0:3|0:0,3:3:0:0:
139,85,153178,1,0,3:0:0:0:
99,214,153335,2,0,L|112:294,1,70,2|0,3:2|3:0,3:0:0:0:
261,196,153651,102,0,P|336:169|401:190,1,140,4|2,3:3|0:2,3:0:0:0:
462,352,154125,1,0,3:0:0:0:
389,250,154283,2,0,P|381:216|392:183,1,70,2|0,3:2|3:0,3:0:0:0:
456,100,154599,6,0,B|403:66|403:66|306:66,1,140,10|2,0:2|0:2,3:0:0:0:
179,112,155072,1,0,3:0:0:0:
335,178,155230,2,0,P|347:215|329:265,1,70,10|0,3:2|3:0,3:0:0:0:
142,259,155546,102,0,P|199:216|282:223,1,140,2|2,3:3|0:2,3:0:0:0:
400,308,156020,1,0,3:0:0:0:
218,362,156178,2,0,P|212:327|224:295,1,70,2|0,3:2|3:0,3:0:0:0:
321,92,156493,6,0,P|260:128|176:120,1,140,8|2,0:3|0:2,0:0:0:0:
106,48,156967,1,0,3:0:0:0:
124,224,157125,2,0,L|133:308,1,70,2|0,3:2|3:0,3:0:0:0:
59,355,157441,102,0,B|96:326|96:326|191:323,1,140,0|2,3:2|0:2,3:0:0:0:
258,158,157914,1,0,3:0:0:0:
118,177,158072,2,0,L|34:186,1,70,2|0,3:2|3:0,3:0:0:0:
258,158,158388,5,14,3:2:0:0:
263,210,158546,1,8,3:3:0:0:
370,171,158704,101,8,3:3:0:0:
380,92,158862,1,8,3:3:0:0:
248,79,159020,5,8,3:3:0:0:
357,258,159178,1,8,3:3:0:0:
380,92,159335,5,12,3:1:0:0:
349,74,159413,1,0,3:0:0:0:
316,65,159492,1,0,3:0:0:0:
281,67,159571,1,0,3:0:0:0:
248,79,159651,1,12,3:1:0:0:
220,101,159730,1,0,3:0:0:0:
191,119,159808,1,0,3:0:0:0:
157,127,159887,1,0,3:0:0:0:
122,123,159967,5,12,3:1:0:0:
126,158,160046,1,0,3:0:0:0:
129,192,160124,1,0,3:0:0:0:
133,227,160203,1,0,3:0:0:0:
137,262,160283,5,12,3:1:0:0:
167,244,160362,1,0,3:0:0:0:
198,228,160440,1,0,3:0:0:0:
232,222,160519,1,0,3:0:0:0:
267,224,160598,1,12,3:1:0:0:
300,235,160677,1,0,3:0:0:0:
329,255,160756,1,0,3:0:0:0:
352,281,160835,1,0,3:0:0:0:
362,305,160914,5,12,3:1:0:0:
366,279,160992,1,0,3:0:0:0:
371,253,161071,1,0,3:0:0:0:
375,227,161150,1,0,3:0:0:0:
381,201,161230,69,12,3:1:0:0:
408,179,161308,1,0,3:0:0:0:
441,169,161387,1,0,3:0:0:0:
476,172,161466,1,0,3:0:0:0:
506,188,161545,5,12,3:1:0:0:
497,154,161625,1,0,3:0:0:0:
491,119,161703,1,0,3:0:0:0:
482,85,161782,1,0,3:0:0:0:
473,50,161861,5,12,3:1:0:0:
444,71,161941,1,0,3:0:0:0:
415,89,162019,1,0,3:0:0:0:
382,99,162098,1,0,3:0:0:0:
347,96,162177,1,12,3:1:0:0:
313,85,162256,1,0,3:0:0:0:
281,72,162334,1,0,3:0:0:0:
247,74,162413,1,0,3:0:0:0:
217,92,162492,1,12,3:1:0:0:
200,122,162571,1,0,3:0:0:0:
197,157,162650,1,0,3:0:0:0:
211,189,162729,1,0,3:0:0:0:
231,216,162809,5,12,3:1:0:0:
244,239,162887,1,0,3:0:0:0:
249,265,162966,1,0,3:0:0:0:
247,291,163045,1,0,3:0:0:0:
237,315,163124,69,6,3:3:0:0:
207,295,163204,1,0,3:0:0:0:
174,283,163282,1,0,3:0:0:0:
139,285,163361,1,0,3:0:0:0:
106,298,163440,5,12,3:1:0:0:
104,262,163520,1,0,3:0:0:0:
102,227,163598,1,0,3:0:0:0:
100,192,163677,1,0,3:0:0:0:
98,157,163756,1,12,3:1:0:0:
96,122,163835,1,0,3:0:0:0:
94,87,163914,1,0,3:0:0:0:
92,52,163993,1,0,3:0:0:0:
92,17,164072,5,12,3:1:0:0:
123,1,164150,1,0,3:0:0:0:
157,0,164229,1,0,3:0:0:0:
191,9,164308,1,0,3:0:0:0:
218,30,164387,1,12,3:1:0:0:
235,61,164466,1,0,3:0:0:0:
240,95,164545,1,0,3:0:0:0:
242,130,164625,1,0,3:0:0:0:
235,164,164704,5,12,3:3:0:0:
259,174,164783,1,0,3:0:0:0:
285,176,164862,1,0,3:0:0:0:
311,171,164941,1,0,3:0:0:0:
335,166,165020,38,8,L|350:273,1,83.9999974365235,8|8,3:3|3:3,3:3:0:0:
129,384,165335,5,8,3:3:0:0:
286,93,165493,1,8,3:3:0:0:
47,183,165967,101,8,3:3:0:0:
354,226,166125,1,8,3:3:0:0:
110,94,166283,5,8,3:3:0:0:
264,384,166441,1,8,3:3:0:0:
110,94,166914,6,0,B|194:131|195:58|301:98,1,181.999991668702,6|4,3:3|0:1,0:0:0:0:
409,15,167388,1,0,3:0:0:0:
239,167,167546,2,0,B|226:213|226:213|238:261,1,90.9999958343508,4|0,0:1|3:0,3:0:0:0:
387,333,167862,2,0,B|402:264|402:264|383:149,1,181.999991668702,12|4,0:1|0:1,3:0:0:0:
245,43,168335,2,0,B|200:36|200:36|153:45,1,90.9999958343508,0|4,3:0|3:1,3:0:0:0:
51,246,168651,1,8,0:3:0:0:
226,333,168809,6,0,L|246:142,1,181.999991668702,4|4,3:1|0:1,0:0:0:0:
404,107,169283,2,0,L|497:94,1,90.9999958343508,0|4,3:0|0:1,0:0:0:0:
177,21,169599,1,0,3:0:0:0:
324,245,169756,1,12,0:1:0:0:
298,101,169914,1,0,3:0:0:0:
186,201,170072,2,0,L|172:314,1,90.9999958343508,4|0,0:1|3:0,3:0:0:0:
339,380,170388,2,0,L|323:242,1,136.499993751526,12|0,3:1|0:0,3:0:0:0:
285,220,170704,6,0,B|354:205|354:205|464:238,1,181.999991668702,4|4,3:1|0:1,0:0:0:0:
339,380,171178,1,0,3:0:0:0:
256,124,171335,1,4,0:1:0:0:
460,237,171493,1,0,3:0:0:0:
245,213,171651,2,0,B|157:179|150:256|56:218,1,181.999991668702,12|4,0:1|0:1,3:0:0:0:
163,76,172125,1,0,3:0:0:0:
204,291,172283,2,0,L|220:389,1,90.9999958343508,4|8,3:1|0:3,3:0:0:0:
116,293,172599,6,0,P|147:225|260:223,1,181.999991668702,4|4,3:1|0:1,3:0:0:0:
453,278,173072,1,0,3:0:0:0:
256,124,173230,2,0,L|245:223,1,90.9999958343508,4|0,0:1|3:0,3:0:0:0:
227,384,173546,1,12,0:1:0:0:
343,235,173704,1,0,3:0:0:0:
350,209,173782,1,0,3:0:0:0:
358,184,173862,1,8,0:3:0:0:
366,159,173940,1,8,0:3:0:0:
374,134,174019,1,0,3:0:0:0:
382,109,174098,1,0,3:0:0:0:
390,87,174178,69,8,0:3:0:0:
349,107,174256,1,8,0:3:0:0:
304,109,174335,1,8,0:3:0:0:
262,92,174414,1,8,0:3:0:0:
227,61,174493,6,0,L|244:245,1,181.999991668702,6|4,3:3|0:1,3:0:0:0:
427,250,174967,1,0,3:0:0:0:
345,12,175125,2,0,L|339:102,1,90.9999958343508,4|0,0:1|3:0,3:0:0:0:
438,160,175441,1,12,0:1:0:0:
204,57,175599,1,0,3:0:0:0:
220,238,175756,2,0,L|230:334,1,90.9999958343508,4|0,0:1|3:0,3:0:0:0:
427,250,176072,2,0,L|438:154,1,90.9999958343508,4|8,3:1|0:3,3:0:0:0:
180,151,176388,6,0,B|115:142|115:142|46:160|46:160|-28:149,1,181.999991668702,4|4,3:1|0:1,3:0:0:0:
87,264,176862,1,0,3:0:0:0:
208,66,177020,2,0,L|319:82,1,90.9999958343508,4|0,0:1|3:0,3:0:0:0:
368,313,177335,5,12,0:1:0:0:
180,151,177493,1,0,3:0:0:0:
408,136,177651,1,4,3:1:0:0:
230,359,177809,1,0,3:0:0:0:
299,79,177967,70,0,P|230:50|172:63,1,136.499993751526,12|0,3:1|0:0,3:0:0:0:
144,61,178283,6,0,P|194:148|135:243,1,181.999991668702,4|4,3:1|0:1,0:0:0:0:
56,344,178756,1,0,3:0:0:0:
93,149,178914,1,4,0:1:0:0:
264,283,179072,1,0,3:0:0:0:
299,79,179230,2,0,B|386:50|386:50|482:60,1,181.999991668702,12|4,0:1|0:1,0:0:0:0:
431,327,179704,1,0,3:0:0:0:
302,169,179862,2,0,L|298:72,1,90.9999958343508,4|8,3:1|0:3,3:0:0:0:
481,173,180178,6,0,P|493:251|426:328,1,181.999991668702,4|4,3:1|0:1,3:0:0:0:
205,323,180651,2,0,L|111:333,1,90.9999958343508,0|4,3:0|0:1,3:0:0:0:
395,232,180967,1,0,3:0:0:0:
395,232,181046,1,0,3:0:0:0:
395,232,181125,5,12,0:1:0:0:
195,48,181283,1,8,3:0:0:0:
132,186,181441,69,12,3:1:0:0:
462,79,181599,1,8,3:0:0:0:
329,27,181756,5,12,3:1:0:0:
285,289,181914,1,8,3:0:0:0:
51,144,182072,6,0,P|125:97|206:130,1,181.999991668702,2|4,3:3|0:1,3:0:0:0:
285,289,182546,1,0,3:0:0:0:
125,276,182704,2,0,L|131:185,1,90.9999958343508,4|0,0:1|3:0,3:0:0:0:
310,127,183020,2,0,L|491:143,1,181.999991668702,12|4,0:1|0:1,3:0:0:0:
285,289,183493,1,0,3:0:0:0:
367,0,183651,1,4,3:1:0:0:
491,143,183809,1,8,0:3:0:0:
310,127,183967,6,0,B|268:106|222:131|222:131|181:154|133:128,1,181.999991668702,4|4,3:1|0:1,3:0:0:0:
182,59,184441,1,0,3:0:0:0:
271,200,184599,2,0,L|287:297,1,90.9999958343508,4|0,0:1|3:0,3:0:0:0:
72,182,184914,1,12,0:1:0:0:
344,153,185072,1,0,3:0:0:0:
168,294,185230,2,0,L|156:386,1,90.9999958343508,4|0,0:1|3:0,3:0:0:0:
344,153,185546,2,0,L|322:17,1,136.499993751526,12|0,3:1|3:0,3:0:0:0:
289,12,185862,70,0,P|379:40|453:-15,1,181.999991668702,4|4,3:1|0:1,3:0:0:0:
284,236,186335,1,0,3:0:0:0:
106,99,186493,2,0,L|195:117,1,90.9999958343508,4|0,0:1|3:0,3:0:0:0:
363,291,186809,2,0,P|300:330|203:290,1,181.999991668702,12|4,0:1|0:1,3:0:0:0:
106,99,187283,1,0,3:0:0:0:
284,236,187441,1,4,3:1:0:0:
88,344,187599,1,8,0:3:0:0:
204,180,187756,6,0,P|270:143|364:179,1,181.999991668702,4|4,3:1|0:1,3:0:0:0:
412,271,188230,2,0,L|400:364,1,90.9999958343508,0|4,3:0|0:1,3:0:0:0:
211,187,188546,1,0,3:0:0:0:
211,187,188625,1,0,3:0:0:0:
211,187,188704,5,8,0:3:0:0:
398,43,188862,1,0,3:0:0:0:
398,43,188941,1,0,3:0:0:0:
398,43,189020,1,0,3:0:0:0:
408,275,189178,1,0,3:0:0:0:
408,275,189256,1,0,3:0:0:0:
408,275,189335,1,8,0:3:0:0:
389,239,189414,1,8,0:3:0:0:
357,215,189493,1,8,0:3:0:0:
318,208,189572,1,8,0:3:0:0:
279,220,189651,6,0,L|292:319,1,90.9999958343508,2|0,3:3|0:0,3:0:0:0:
419,117,189967,2,0,L|432:25,1,90.9999958343508,4|0,0:1|3:0,0:0:0:0:
108,79,190283,1,4,0:1:0:0:
290,310,190441,1,0,3:0:0:0:
247,85,190599,1,12,0:1:0:0:
128,273,190756,1,0,3:0:0:0:
279,220,190914,2,0,L|369:186,1,90.9999958343508,4|0,0:1|3:0,0:0:0:0:
247,85,191230,1,4,3:1:0:0:
128,273,191388,1,8,0:3:0:0:
364,187,191546,70,0,L|378:92,1,90.9999958343508,4|0,3:1|0:0,3:0:0:0:
171,54,191862,1,4,0:1:0:0:
207,227,192020,1,0,3:0:0:0:
377,96,192178,1,4,0:1:0:0:
126,148,192335,1,0,3:0:0:0:
292,15,192493,5,8,3:0:0:0:
360,301,192651,1,0,3:0:0:0:
407,154,192809,5,8,3:0:0:0:
143,316,192967,1,0,3:0:0:0:
130,44,193125,5,8,3:1:0:0:
270,235,193283,1,0,3:0:0:0:
493,105,193441,70,0,P|416:59|332:92,1,181.999991668702,4|4,3:1|0:1,3:0:0:0:
189,167,193914,1,0,3:0:0:0:
353,334,194072,1,4,0:1:0:0:
406,153,194230,1,0,3:0:0:0:
253,279,194388,2,0,B|241:324|241:324|254:368,1,90.9999958343508,12|0,0:1|0:0,0:0:0:0:
407,242,194704,2,0,B|416:198|416:198|405:151,1,90.9999958343508,4|0,0:1|3:0,3:0:0:0:
170,100,195020,1,4,3:1:0:0:
329,258,195178,1,0,3:0:0:0:
260,75,195335,6,0,P|191:15|103:34,1,181.999991668702,4|4,3:1|0:1,3:0:0:0:
68,207,195809,1,0,3:0:0:0:
219,262,195967,2,0,L|206:161,1,90.9999958343508,4|0,0:1|3:0,3:0:0:0:
191,49,196283,5,12,3:3:0:0:
68,207,196441,1,4,3:3:0:0:
62,95,196599,85,12,3:3:0:0:
330,194,196756,1,4,3:3:0:0:
321,87,196914,5,12,3:3:0:0:
73,315,197072,1,4,3:3:0:0:
187,172,197230,69,4,3:1:0:0:
246,326,197388,1,0,3:0:0:0:
103,234,197546,2,0,P|92:191|103:153,1,73.4999977569581,4|0,0:1|0:0,0:0:0:0:
272,78,197862,2,0,P|278:113|269:150,1,73.4999977569581,4|0,0:1|0:0,0:0:0:0:
175,267,198178,5,4,3:1:0:0:
94,89,198335,1,0,3:0:0:0:
272,78,198493,2,0,B|312:67|312:67|365:80,1,73.4999977569581,4|0,0:1|0:0,0:0:0:0:
423,194,198809,2,0,B|383:205|383:205|330:192,1,73.4999977569581,4|0,0:1|0:0,0:0:0:0:
424,78,199125,101,4,3:1:0:0:
426,306,199283,1,0,3:0:0:0:
252,258,199441,2,0,L|237:165,1,73.4999977569581,4|0,0:1|0:0,0:0:0:0:
343,74,199756,2,0,L|331:146,1,73.4999977569581,4|0,0:1|0:0,0:0:0:0:
252,258,200072,1,4,3:1:0:0:
218,272,200151,1,0,3:0:0:0:
182,278,200230,1,0,3:0:0:0:
145,276,200309,1,0,3:0:0:0:
110,264,200388,5,4,3:1:0:0:
122,229,200467,1,0,3:0:0:0:
142,198,200546,1,0,3:0:0:0:
152,163,200625,1,0,3:0:0:0:
152,126,200704,1,4,3:1:0:0:
141,91,200783,1,0,3:0:0:0:
120,61,200862,1,0,3:0:0:0:
91,39,200941,1,0,3:0:0:0:
57,26,201020,101,4,3:1:0:0:
110,264,201178,1,0,3:0:0:0:
152,126,201335,2,0,P|162:80|139:31,1,73.4999977569581,4|0,0:1|0:0,0:0:0:0:
39,230,201651,2,0,P|29:276|52:325,1,73.4999977569581,4|0,0:1|0:0,0:0:0:0:
294,197,201967,5,4,3:1:0:0:
110,264,202125,1,0,3:0:0:0:
254,279,202283,2,0,B|291:289|291:289|338:280,1,73.4999977569581,4|0,0:1|0:0,0:0:0:0:
144,184,202599,2,0,B|102:176|102:176|66:184,1,73.4999977569581,4|0,0:1|0:0,0:0:0:0:
162,362,202914,101,4,3:1:0:0:
231,92,203072,1,2,3:3:0:0:
376,276,204493,5,8,0:3:0:0:
248,165,204809,102,0,B|209:149|175:165|175:165|142:181|104:166,1,146.999995513916,4|12,3:1|3:1,3:0:0:0:
20,168,205283,2,0,P|52:104|121:88,1,146.999995513916,0|0,3:0|3:0,3:0:0:0:
214,237,205756,2,0,B|220:281|220:281|214:324,1,73.4999977569581,12|0,0:1|0:0,0:0:0:0:
103,218,206072,1,4,3:1:0:0:
113,182,206151,1,0,3:0:0:0:
113,146,206230,1,0,3:0:0:0:
103,111,206309,1,0,3:0:0:0:
85,78,206388,2,0,P|117:61|167:60,1,73.4999977569581,12|0,3:1|0:0,0:0:0:0:
299,51,206704,6,0,L|285:203,1,146.999995513916,4|12,3:1|3:1,3:0:0:0:
408,330,207178,2,0,L|394:178,1,146.999995513916,0|0,3:0|3:0,3:0:0:0:
264,106,207651,2,0,L|190:99,1,73.4999977569581,12|0,0:1|0:0,0:0:0:0:
69,49,207967,1,4,3:1:0:0:
70,85,208046,1,0,3:0:0:0:
71,122,208125,1,0,3:0:0:0:
72,159,208204,1,0,3:0:0:0:
72,198,208283,2,0,P|130:225|190:203,1,110.249996635437,12|0,3:1|0:0,0:0:0:0:
202,192,208599,102,0,B|240:229|240:229|250:330,1,146.999995513916,4|12,3:1|0:1,3:0:0:0:
72,198,209072,2,0,L|80:116,1,73.4999977569581,0|4,3:0|0:1,3:0:0:0:
185,23,209388,1,0,3:0:0:0:
185,23,209467,1,0,3:0:0:0:
185,23,209546,2,0,L|192:96,1,73.4999977569581,12|0,3:1|0:0,0:0:0:0:
203,221,209862,1,4,3:1:0:0:
236,234,209941,1,0,3:0:0:0:
273,236,210020,1,0,3:0:0:0:
308,227,210099,1,0,3:0:0:0:
341,209,210178,2,0,L|348:282,1,73.4999977569581,12|0,3:1|0:0,0:0:0:0:
148,276,210493,6,0,P|197:231|283:242,1,146.999995513916,4|12,3:1|3:1,3:0:0:0:
241,380,210967,2,0,L|229:306,1,73.4999977569581,0|4,3:0|0:1,0:0:0:0:
340,180,211283,1,0,3:0:0:0:
340,180,211362,1,0,3:0:0:0:
340,180,211441,2,0,L|328:252,1,73.4999977569581,12|0,3:1|0:0,3:0:0:0:
207,245,211756,1,4,3:1:0:0:
170,248,211835,1,0,3:0:0:0:
133,252,211914,1,0,3:0:0:0:
97,256,211993,1,0,3:0:0:0:
57,261,212072,2,0,P|39:213|59:146,1,110.249996635437,12|0,3:1|0:0,0:0:0:0:
88,149,212388,102,0,P|150:108|220:126,1,146.999995513916,4|12,3:1|3:1,3:0:0:0:
328,252,212862,1,0,0:0:0:0:
164,187,213020,1,4,0:1:0:0:
321,150,213178,1,0,3:0:0:0:
357,144,213256,1,0,3:0:0:0:
393,139,213335,2,0,L|471:128,1,73.4999977569581,12|0,3:1|0:0,0:0:0:0:
328,252,213651,1,4,3:1:0:0:
291,246,213730,1,0,3:0:0:0:
255,241,213809,1,0,3:0:0:0:
218,236,213888,1,0,3:0:0:0:
185,228,213967,2,0,B|168:304,1,73.4999977569581,12|0,3:1|0:0,0:0:0:0:
328,252,214283,6,0,B|349:212|328:175|328:175|310:138|330:102,1,146.999995513916,4|12,3:1|3:1,3:0:0:0:
207,155,214756,2,0,P|236:196|282:208,1,73.4999977569581,0|4,3:0|0:1,0:0:0:0:
400,146,215072,1,0,3:0:0:0:
400,146,215151,1,0,3:0:0:0:
400,146,215230,2,0,L|482:134,1,73.4999977569581,12|0,3:1|0:0,0:0:0:0:
271,63,215546,1,4,3:1:0:0:
234,56,215625,1,0,3:0:0:0:
198,50,215704,1,0,3:0:0:0:
162,44,215783,1,0,3:0:0:0:
126,38,215862,2,0,P|96:88|116:152,1,110.249996635437,12|0,3:1|0:0,0:0:0:0:
88,170,216178,102,0,B|144:148|144:148|228:177,1,146.999995513916,4|12,3:1|3:1,3:0:0:0:
343,267,216651,2,0,P|357:307|340:351,1,73.4999977569581,0|4,3:0|0:1,0:0:0:0:
233,183,216967,1,0,3:0:0:0:
233,183,217046,1,0,3:0:0:0:
233,183,217125,2,0,P|224:140|242:98,1,73.4999977569581,12|0,3:1|0:0,0:0:0:0:
355,80,217441,1,4,3:1:0:0:
389,92,217520,1,0,3:0:0:0:
425,94,217599,1,0,3:0:0:0:
461,85,217678,1,0,3:0:0:0:
491,64,217756,2,0,L|502:144,1,73.4999977569581,12|0,3:1|0:0,0:0:0:0:
363,206,218072,6,0,L|339:380,1,146.999995513916,4|12,3:1|3:1,3:0:0:0:
200,263,218546,2,0,L|212:181,1,73.4999977569581,0|4,3:0|0:1,0:0:0:0:
387,44,218862,1,0,3:0:0:0:
392,80,218941,1,0,3:0:0:0:
397,116,219020,2,0,L|408:196,1,73.4999977569581,12|0,3:1|0:0,0:0:0:0:
335,293,219335,1,4,3:1:0:0:
307,269,219414,1,0,3:0:0:0:
273,255,219493,1,0,3:0:0:0:
236,254,219572,1,0,3:0:0:0:
200,263,219651,2,0,L|204:324,1,36.749998878479,12|0,3:1|0:0,0:0:0:0:
301,342,219809,1,0,3:0:0:0:
303,305,219888,1,0,3:0:0:0:
307,269,219967,102,0,L|319:116,1,146.999995513916,2|12,3:3|3:1,3:0:0:0:
177,52,220441,2,0,L|183:136,1,73.4999977569581,0|4,3:0|0:1,0:0:0:0:
234,264,220756,1,0,3:0:0:0:
270,266,220835,1,0,3:0:0:0:
307,269,220914,2,0,L|380:274,1,73.4999977569581,12|0,3:1|0:0,0:0:0:0:
424,139,221230,1,4,3:1:0:0:
387,135,221309,1,0,3:0:0:0:
352,144,221388,1,0,3:0:0:0:
322,165,221467,1,0,3:0:0:0:
301,195,221546,2,0,L|307:279,1,73.4999977569581,12|0,3:1|0:0,0:0:0:0:
164,161,221862,6,0,B|204:148|236:177|236:177|267:202|306:193,1,146.999995513916,4|12,3:1|3:1,3:0:0:0:
362,100,222335,2,0,L|278:118,1,73.4999977569581,0|4,3:0|0:1,0:0:0:0:
175,236,222651,1,0,3:0:0:0:
157,267,222730,1,0,3:0:0:0:
153,304,222809,2,0,P|169:354|197:379,1,73.4999977569581,12|0,3:1|0:0,0:0:0:0:
243,296,223125,1,4,3:1:0:0:
272,275,223204,1,0,3:0:0:0:
307,264,223283,1,0,3:0:0:0:
344,265,223362,1,0,3:0:0:0:
378,281,223441,101,12,3:1:0:0:
371,244,223520,1,0,3:0:0:0:
365,208,223599,1,0,3:0:0:0:
358,172,223678,1,0,3:0:0:0:
350,136,223756,6,0,P|422:139|470:215,1,146.999995513916,4|12,3:1|3:1,3:0:0:0:
344,265,224230,2,0,L|253:253,1,73.4999977569581,0|4,3:0|0:1,0:0:0:0:
350,136,224546,1,0,3:0:0:0:
385,129,224625,1,0,3:0:0:0:
422,124,224704,2,0,L|494:112,1,73.4999977569581,12|0,3:1|0:0,0:0:0:0:
251,79,225020,1,4,3:1:0:0:
214,73,225099,1,0,3:0:0:0:
178,67,225178,1,0,3:0:0:0:
142,61,225256,1,0,3:0:0:0:
105,56,225335,2,0,L|95:128,1,73.4999977569581,12|0,3:1|0:0,3:0:0:0:
35,281,225651,102,0,P|85:227|159:225,1,146.999995513916,4|12,3:1|3:1,3:0:0:0:
178,67,226125,2,0,L|170:140,1,73.4999977569581,0|4,3:0|0:1,0:0:0:0:
124,309,226441,1,0,3:0:0:0:
124,309,226520,1,0,3:0:0:0:
124,309,226599,2,0,P|161:318|207:300,1,73.4999977569581,12|0,3:1|0:0,0:0:0:0:
310,247,226914,1,4,3:1:0:0:
344,235,226993,1,0,3:0:0:0:
381,235,227072,1,0,3:0:0:0:
415,248,227151,1,0,3:0:0:0:
435,279,227230,5,12,3:1:0:0:
433,242,227309,1,0,3:0:0:0:
432,205,227388,1,0,3:0:0:0:
431,168,227467,1,0,3:0:0:0:
430,132,227546,102,4,B|397:115|359:132|359:132|321:148|286:132,1,146.999995513916,4|12,3:1|3:1,3:0:0:0:
359,49,228020,2,4,P|396:38|449:55,1,73.4999977569581,0|4,3:0|0:1,0:0:0:0:
360,212,228335,1,0,3:0:0:0:
360,212,228414,1,0,3:0:0:0:
360,212,228493,2,0,P|325:221|285:215,1,73.4999977569581,12|0,3:1|0:0,0:0:0:0:
143,194,228809,1,4,3:1:0:0:
149,157,228888,1,0,3:0:0:0:
155,121,228967,1,0,3:0:0:0:
161,85,229046,1,0,3:0:0:0:
168,49,229125,2,0,P|226:34|281:56,1,110.249996635437,12|0,3:1|0:0,0:0:0:0:
289,85,229441,6,0,P|364:108|435:71,1,146.999995513916,4|12,3:1|3:1,3:0:0:0:
288,216,229914,2,0,L|275:293,1,73.4999977569581,0|4,3:0|0:1,0:0:0:0:
448,226,230230,1,0,3:0:0:0:
442,190,230309,1,0,3:0:0:0:
436,154,230388,2,0,L|423:81,1,73.4999977569581,12|0,3:1|0:0,0:0:0:0:
289,85,230704,1,4,3:1:0:0:
261,109,230783,1,0,3:0:0:0:
228,124,230862,1,0,3:0:0:0:
191,127,230941,1,0,3:0:0:0:
155,119,231020,1,12,3:1:0:0:
121,106,231099,1,0,3:0:0:0:
88,91,231178,1,0,3:0:0:0:
52,92,231256,1,0,3:0:0:0:
18,108,231335,102,0,L|30:257,1,146.999995513916,4|12,3:1|3:1,3:0:0:0:
147,297,231809,2,0,L|153:223,1,73.4999977569581,0|4,3:0|0:1,0:0:0:0:
271,345,232125,1,0,3:0:0:0:
271,345,232204,1,0,3:0:0:0:
271,345,232283,2,0,L|264:271,1,73.4999977569581,12|0,3:1|0:0,0:0:0:0:
378,367,232599,1,4,3:1:0:0:
380,330,232678,1,0,3:0:0:0:
383,293,232756,1,0,3:0:0:0:
386,257,232835,1,0,3:0:0:0:
389,220,232914,2,0,L|397:108,1,110.249996635437,12|0,3:1|0:0,0:0:0:0:
410,75,233230,6,0,B|359:99|359:99|260:84,1,146.999995513916,4|12,3:1|3:1,3:0:0:0:
281,216,233704,2,0,L|289:318,1,73.4999977569581,0|4,3:0|0:1,0:0:0:0:
425,161,234020,1,0,3:0:0:0:
425,161,234099,1,0,3:0:0:0:
425,161,234178,101,8,3:1:0:0:
241,91,234335,1,8,3:0:0:0:
209,225,234493,5,8,3:0:0:0:
380,48,234651,1,8,3:0:0:0:
429,255,234809,101,8,3:0:0:0:
212,52,234967,1,8,3:0:0:0:
87,318,235125,6,0,P|150:274|239:296,1,146.999995513916,2|2,3:3|0:2,3:0:0:0:
360,321,235599,1,0,3:0:0:0:
315,199,235756,2,0,P|304:153|318:99,1,73.4999977569581,2|0,3:2|3:0,3:0:0:0:
433,71,236072,102,0,B|409:106|409:106|299:129,1,146.999995513916,8|2,3:0|0:2,3:0:0:0:
118,191,236546,1,0,3:0:0:0:
27,39,236704,2,0,L|135:50,1,73.4999977569581,2|0,3:2|3:0,3:0:0:0:
330,52,237020,6,0,L|314:206,1,146.999995513916,0|2,3:2|0:2,3:0:0:0:
299,364,237493,1,0,3:0:0:0:
216,207,237651,2,0,L|224:129,1,73.4999977569581,2|0,3:2|3:0,3:0:0:0:
318,96,237967,102,0,P|261:39|197:31,1,146.999995513916,12|2,0:1|3:2,0:0:0:0:
40,169,238441,1,0,3:0:0:0:
200,225,238599,2,0,L|292:227,1,73.4999977569581,12|0,3:1|3:0,3:0:0:0:
412,254,238914,6,0,B|391:202|391:202|416:106,1,146.999995513916,2|2,3:3|0:2,3:0:0:0:
228,64,239388,1,0,3:0:0:0:
274,227,239546,2,0,P|287:271|271:317,1,73.4999977569581,2|0,3:2|3:0,3:0:0:0:
123,197,239862,102,0,P|95:130|116:58,1,146.999995513916,8|2,3:2|3:2,3:0:0:0:
347,5,240335,1,0,3:0:0:0:
256,117,240493,2,0,L|171:128,1,73.4999977569581,2|0,3:2|3:0,3:0:0:0:
45,224,240809,6,0,L|62:369,1,146.999995513916,0|2,3:2|0:2,3:0:0:0:
240,280,241283,1,0,3:0:0:0:
115,223,241441,2,0,P|74:215|39:226,1,73.4999977569581,2|0,3:2|3:0,3:0:0:0:
256,117,241756,101,10,3:3:0:0:
339,37,241914,1,0,3:0:0:0:
339,37,241993,1,0,3:0:0:0:
339,37,242072,2,0,L|387:27,1,36.749998878479,8|8,0:3|0:3,0:0:0:0:
473,113,242230,1,0,3:0:0:0:
473,113,242309,1,0,3:0:0:0:
473,113,242388,5,8,0:3:0:0:
482,137,242467,1,8,0:3:0:0:
485,163,242546,1,8,0:3:0:0:
479,188,242625,1,8,0:3:0:0:
464,220,242704,5,4,3:1:0:0:
433,202,242783,1,0,3:0:0:0:
400,190,242862,1,0,3:0:0:0:
366,185,242941,1,0,3:0:0:0:
331,187,243020,1,12,3:1:0:0:
297,195,243099,1,0,3:0:0:0:
265,209,243178,1,0,3:0:0:0:
237,229,243256,1,0,3:0:0:0:
209,251,243335,1,12,3:1:0:0:
178,267,243414,1,0,3:0:0:0:
143,271,243493,1,0,3:0:0:0:
109,263,243572,1,0,3:0:0:0:
81,244,243651,5,12,3:1:0:0:
60,216,243730,1,0,3:0:0:0:
52,182,243809,1,0,3:0:0:0:
56,147,243888,1,0,3:0:0:0:
71,116,243967,1,12,3:1:0:0:
97,93,244046,1,0,3:0:0:0:
129,80,244125,1,0,3:0:0:0:
164,79,244204,1,0,3:0:0:0:
200,91,244283,5,12,3:1:0:0:
216,111,244362,1,0,3:0:0:0:
238,124,244441,1,0,3:0:0:0:
264,131,244520,1,0,3:0:0:0:
292,131,244599,5,12,3:1:0:0:
283,164,244677,1,0,3:0:0:0:
286,199,244756,1,0,3:0:0:0:
299,232,244835,1,0,3:0:0:0:
321,259,244914,1,12,3:1:0:0:
350,278,244993,1,0,3:0:0:0:
384,287,245072,1,0,3:0:0:0:
418,286,245151,1,0,3:0:0:0:
450,271,245230,69,12,3:1:0:0:
451,236,245308,1,0,3:0:0:0:
454,200,245387,1,0,3:0:0:0:
456,166,245466,1,0,3:0:0:0:
456,130,245546,5,12,3:1:0:0:
430,106,245624,1,0,3:0:0:0:
400,90,245703,1,0,3:0:0:0:
365,85,245782,1,0,3:0:0:0:
331,91,245861,1,12,3:1:0:0:
298,105,245941,1,0,3:0:0:0:
264,114,246019,1,0,3:0:0:0:
229,114,246098,1,0,3:0:0:0:
196,101,246178,5,12,3:1:0:0:
174,89,246256,1,0,3:0:0:0:
148,83,246335,1,0,3:0:0:0:
122,85,246414,1,0,3:0:0:0:
96,97,246493,5,6,3:3:0:0:
96,131,246571,1,0,3:0:0:0:
96,167,246650,1,0,3:0:0:0:
95,203,246729,1,0,3:0:0:0:
96,237,246809,69,12,3:1:0:0:
122,214,246887,1,0,3:0:0:0:
153,197,246966,1,0,3:0:0:0:
187,191,247045,1,0,3:0:0:0:
222,194,247124,1,12,3:1:0:0:
255,204,247203,1,0,3:0:0:0:
286,221,247283,1,0,3:0:0:0:
315,239,247361,1,0,3:0:0:0:
350,246,247441,5,12,3:1:0:0:
383,239,247519,1,0,3:0:0:0:
413,220,247598,1,0,3:0:0:0:
434,192,247677,1,0,3:0:0:0:
443,159,247756,1,12,3:1:0:0:
440,124,247835,1,0,3:0:0:0:
423,93,247914,1,0,3:0:0:0:
398,70,247993,1,0,3:0:0:0:
365,57,248072,5,12,3:1:0:0:
342,72,248150,1,0,3:0:0:0:
318,79,248229,1,0,3:0:0:0:
291,80,248308,1,0,3:0:0:0:
261,74,248388,54,8,L|151:64,1,83.9999974365235,8|8,3:0|3:0,3:0:0:0:
58,245,248704,5,8,3:0:0:0:
349,148,248862,1,8,3:0:0:0:
261,74,249335,101,8,3:0:0:0:
336,322,249493,1,8,3:0:0:0:
512,155,249651,5,8,3:0:0:0:
165,176,249809,1,8,3:0:0:0:
208,101,250283,6,0,B|168:80|115:102|115:102|71:119|29:95,1,181.999991668702,2|4,3:3|0:1,3:0:0:0:
80,29,250756,1,0,3:0:0:0:
165,176,250914,2,0,P|172:217|154:266,1,90.9999958343508,4|0,0:1|3:0,3:0:0:0:
0,384,251230,2,0,P|79:330|160:348,1,181.999991668702,12|4,0:1|0:1,3:0:0:0:
271,213,251704,2,0,B|282:165|282:165|272:123,1,90.9999958343508,0|4,3:0|3:1,3:0:0:0:
119,19,252020,1,8,0:3:0:0:
24,198,252178,6,0,B|97:205|97:205|206:163,1,181.999991668702,4|4,3:1|0:1,3:0:0:0:
269,53,252651,1,0,3:0:0:0:
330,202,252809,2,0,P|342:245|318:303,1,90.9999958343508,4|0,0:1|3:0,3:0:0:0:
144,277,253125,1,12,0:1:0:0:
269,53,253283,1,0,3:0:0:0:
266,241,253441,1,4,0:1:0:0:
71,111,253599,1,0,3:0:0:0:
259,143,253756,2,0,P|320:126|355:63,1,136.499993751526,12|0,3:3|0:0,3:0:0:0:
326,34,254072,6,0,B|401:56|401:56|507:38,1,181.999991668702,4|4,3:1|0:1,3:0:0:0:
380,230,254546,1,0,3:0:0:0:
259,143,254704,2,0,B|247:92|247:92|262:42,1,90.9999958343508,4|0,0:1|3:0,3:0:0:0:
442,153,255020,2,0,B|464:233|464:233|445:332,1,181.999991668702,12|4,0:1|0:1,3:0:0:0:
236,293,255493,1,0,3:0:0:0:
325,67,255651,1,4,3:1:0:0:
380,230,255809,1,8,0:3:0:0:
202,195,255967,6,0,L|188:12,1,181.999991668702,4|4,3:1|0:1,3:0:0:0:
117,252,256441,2,0,L|107:355,1,90.9999958343508,0|4,3:0|0:1,0:0:0:0:
243,319,256756,1,0,3:0:0:0:
243,319,256835,1,0,3:0:0:0:
243,319,256914,2,0,L|339:310,1,90.9999958343508,8|0,0:3|3:0,3:0:0:0:
311,210,257230,1,8,0:3:0:0:
300,186,257308,1,8,0:3:0:0:
296,160,257388,1,0,3:0:0:0:
303,135,257467,1,0,3:0:0:0:
316,112,257546,1,8,0:3:0:0:
326,87,257625,1,8,0:3:0:0:
326,61,257704,1,8,0:3:0:0:
316,37,257783,1,8,0:3:0:0:
304,16,257862,70,0,L|123:32,1,181.999991668702,6|4,3:3|0:1,3:0:0:0:
79,217,258335,1,0,3:0:0:0:
194,112,258493,2,0,B|207:67|207:67|192:16,1,90.9999958343508,4|0,0:1|3:0,3:0:0:0:
79,217,258809,2,0,B|68:263|68:263|76:306,1,90.9999958343508,12|0,0:1|3:0,0:0:0:0:
204,367,259125,1,4,0:1:0:0:
303,174,259283,1,0,3:0:0:0:
114,140,259441,1,4,3:1:0:0:
312,298,259599,1,8,0:0:0:0:
370,34,259756,6,0,P|283:-1|209:36,1,181.999991668702,4|4,3:1|0:1,3:0:0:0:
175,238,260230,1,0,3:0:0:0:
303,174,260388,2,0,L|291:78,1,90.9999958343508,4|0,0:1|3:0,0:0:0:0:
50,24,260704,5,8,3:3:0:0:
175,238,260862,1,0,3:3:0:0:
291,83,261020,5,8,3:3:0:0:
3,151,261178,1,0,3:3:0:0:
194,360,261335,69,12,3:1:0:0:
150,100,261493,1,0,3:3:0:0:
298,213,261651,6,0,B|345:191|391:214|391:214|431:233|478:214,1,181.999991668702,2|4,3:3|0:1,3:0:0:0:
435,136,262125,1,0,3:0:0:0:
343,291,262283,2,0,L|337:383,1,90.9999958343508,4|0,0:1|3:0,3:0:0:0:
435,136,262599,2,0,P|352:100|259:144,1,181.999991668702,12|4,0:1|0:1,0:0:0:0:
117,241,263072,1,0,3:0:0:0:
370,231,263230,1,4,3:1:0:0:
195,85,263388,1,0,0:0:0:0:
393,28,263546,5,12,0:1:0:0:
370,231,263704,1,0,3:0:0:0:
365,261,263783,1,0,3:0:0:0:
361,291,263862,2,8,L|353:347,1,45.4999979171754,8|8,0:3|0:3,0:3:0:0:
227,264,264020,2,8,L|222:210,1,45.4999979171754,8|8,0:3|0:3,0:3:0:0:
195,85,264178,5,0,3:0:0:0:
225,80,264257,1,0,3:0:0:0:
255,76,264335,2,8,L|311:68,1,45.4999979171754,8|8,0:3|0:3,0:3:0:0:
394,137,264494,2,8,L|439:141,1,45.4999979171754,8|8,0:3|0:3,0:3:0:0:
365,261,264651,69,0,3:0:0:0:
365,261,264730,1,0,3:0:0:0:
365,261,264809,2,8,L|355:198,1,45.4999979171754,8|8,0:3|0:3,0:3:0:0:
195,85,264967,5,0,3:0:0:0:
195,85,265046,1,0,3:0:0:0:
195,85,265125,2,0,L|180:183,1,90.9999958343508,12|0,0:1|0:0,0:0:0:0:
43,280,265441,6,0,B|123:255|123:255|230:272,1,181.999991668702,2|4,3:3|0:1,3:0:0:0:
418,311,265914,1,0,3:0:0:0:
207,108,266072,2,0,P|163:115|123:156,1,90.9999958343508,4|0,0:1|3:0,3:0:0:0:
195,376,266388,2,0,L|201:194,1,181.999991668702,12|4,0:1|0:1,3:0:0:0:
61,64,266862,1,0,3:0:0:0:
299,46,267020,2,0,L|391:40,1,90.9999958343508,4|8,3:1|0:3,3:0:0:0:
496,176,267335,6,0,L|302:158,1,181.999991668702,4|4,3:1|0:1,3:0:0:0:
299,46,267809,1,0,3:0:0:0:
414,273,267967,2,0,B|429:320|429:320|416:365,1,90.9999958343508,4|0,0:1|3:0,3:0:0:0:
248,208,268283,2,0,B|237:161|237:161|249:114,1,90.9999958343508,12|0,0:1|3:0,0:0:0:0:
397,47,268599,1,4,0:1:0:0:
332,323,268756,1,0,3:0:0:0:
122,189,268914,2,0,P|104:129|134:64,1,136.499993751526,12|0,3:1|3:0,3:0:0:0:
164,52,269230,70,0,P|95:16|-6:51,1,181.999991668702,4|4,3:1|0:1,3:0:0:0:
52,260,269704,1,0,3:0:0:0:
213,155,269862,2,0,P|256:124|298:124,1,90.9999958343508,4|0,0:1|3:0,3:0:0:0:
436,238,270178,2,0,P|350:258|281:203,1,181.999991668702,12|4,0:1|0:1,3:0:0:0:
175,29,270651,1,0,3:0:0:0:
366,73,270809,2,0,L|372:164,1,90.9999958343508,4|8,3:1|0:3,3:0:0:0:
125,283,271125,6,0,L|308:293,1,181.999991668702,4|4,3:1|0:1,3:0:0:0:
448,165,271599,1,0,3:0:0:0:
219,118,271756,1,4,0:1:0:0:
314,300,271914,1,0,3:0:0:0:
314,300,271993,1,0,3:0:0:0:
314,300,272072,5,8,3:0:0:0:
377,41,272230,1,0,3:0:0:0:
174,34,272388,5,8,3:0:0:0:
448,165,272546,1,0,3:0:0:0:
277,37,272704,69,8,3:0:0:0:
184,346,272862,1,0,3:0:0:0:
447,164,273020,6,0,P|363:136|284:176,1,181.999991668702,2|4,3:3|0:1,3:0:0:0:
293,329,273493,1,0,3:0:0:0:
447,164,273651,1,4,3:1:0:0:
277,37,273809,1,0,0:1:0:0:
207,248,273967,2,0,B|254:258|254:258|295:248,1,90.9999958343508,12|0,0:1|3:0,0:0:0:0:
179,109,274283,2,0,B|132:98|132:98|90:109,1,90.9999958343508,4|0,0:1|3:0,0:0:0:0:
207,248,274599,1,4,3:1:0:0:
382,77,274756,1,8,0:3:0:0:
179,109,274914,6,0,B|143:135|93:112|93:112|46:91|0:115,1,181.999991668702,4|4,3:1|0:1,3:0:0:0:
114,309,275388,1,0,3:0:0:0:
245,154,275546,2,0,P|259:111|244:63,1,90.9999958343508,4|0,0:1|3:0,3:0:0:0:
63,0,275862,2,0,P|55:51|79:105,1,90.9999958343508,12|0,0:1|3:0,0:0:0:0:
177,225,276178,1,4,3:1:0:0:
211,242,276256,1,0,3:0:0:0:
249,247,276335,1,0,3:0:0:0:
286,238,276414,1,0,3:0:0:0:
327,218,276493,5,12,0:3:0:0:
329,237,276572,1,8,0:3:0:0:
331,256,276651,1,8,0:3:0:0:
334,275,276730,1,8,0:3:0:0:
336,294,276809,70,0,L|348:396,1,90.9999958343508,4|0,3:1|0:0,0:0:0:0:
221,153,277125,2,0,L|232:62,1,90.9999958343508,4|0,0:1|3:0,0:0:0:0:
43,72,277441,1,4,0:1:0:0:
208,318,277599,1,0,3:0:0:0:
233,63,277756,1,12,0:1:0:0:
93,255,277914,1,0,3:0:0:0:
319,264,278072,2,0,B|371:271|371:271|415:261,1,90.9999958343508,4|0,0:1|3:0,3:0:0:0:
233,63,278388,2,0,B|189:53|189:53|140:64,1,90.9999958343508,4|0,3:1|0:3,3:0:0:0:
97,300,278704,6,8,L|89:225,1,45.4999979171754,8|8,0:3|0:3,0:3:0:0:
144,63,278862,1,0,3:0:0:0:
144,63,278941,1,0,3:0:0:0:
144,63,279020,2,0,L|139:110,3,45.4999979171754,8|8|0|0,0:3|0:3|3:0|3:0,0:0:0:0:
234,225,279335,1,8,0:3:0:0:
274,228,279414,1,8,0:3:0:0:
314,232,279493,2,0,L|384:237,1,45.4999979171754,0|0,3:0|3:0,3:0:0:0:
474,103,279651,5,8,0:3:0:0:
435,106,279730,1,8,0:3:0:0:
397,110,279809,1,0,3:0:0:0:
359,113,279888,1,0,3:0:0:0:
320,118,279967,6,8,L|253:124,1,45.4999979171754,8|8,0:3|0:3,0:3:0:0:
144,113,280125,1,0,3:0:0:0:
141,151,280204,1,0,3:0:0:0:
136,189,280283,69,12,0:1:0:0:
387,307,280441,1,0,3:0:0:0:
320,118,280599,6,0,B|276:94|231:116|231:116|184:135|139:111,1,181.999991668702,2|4,3:3|0:1,3:0:0:0:
190,43,281072,1,0,3:0:0:0:
277,188,281230,2,0,L|284:286,1,90.9999958343508,4|0,0:1|3:0,3:0:0:0:
102,296,281546,2,0,L|287:278,1,181.999991668702,12|4,0:1|0:1,3:0:0:0:
442,213,282020,1,0,3:0:0:0:
277,188,282178,2,0,L|184:178,1,90.9999958343508,4|8,3:1|0:3,3:0:0:0:
43,36,282493,6,0,L|60:175,1,136.499993751526,4|0,3:1|3:0,3:0:0:0:
84,196,282809,5,8,3:0:0:0:
288,89,282967,1,8,3:0:0:0:
373,298,283125,69,8,3:0:0:0:
141,69,283283,1,8,3:0:0:0:
140,304,283441,5,8,3:0:0:0:
288,89,283599,1,8,3:0:0:0:
256,336,283756,5,8,3:0:0:0:
429,113,283914,1,8,3:0:0:0:
141,69,284072,1,8,3:0:0:0:
381,372,284388,53,2,3:3:0:0:
256,192,284466,12,0,287861,0:0:0:0:
331,116,288177,6,0,L|343:242,1,119.000002269745,4|4,0:1|0:1,0:0:0:0:
235,259,288809,101,8,3:3:0:0:
79,163,288966,1,8,3:3:0:0:
255,271,289124,1,8,3:3:0:0:
61,148,289282,1,8,3:3:0:0:
383,332,289440,6,0,P|406:268|380:209,1,119.000002269745,2|0,3:3|3:0,3:0:0:0:
245,145,289914,1,0,0:0:0:0:
383,121,290072,2,0,L|458:110,1,59.5000011348725,4|0,3:1|3:0,3:0:0:0:
316,271,290388,2,0,L|257:262,1,59.5000011348725,0|0,3:0|3:0,3:0:0:0:
153,64,290703,102,0,L|169:181,1,119.000002269745,4|0,3:1|3:0,3:0:0:0:
192,328,291177,1,0,0:0:0:0:
275,161,291335,1,4,3:1:0:0:
68,209,291493,1,0,3:0:0:0:
232,244,291651,2,0,P|262:258|280:279,1,59.5000011348725,0|0,3:0|3:0,3:0:0:0:
359,286,291966,6,0,P|327:346|273:360,1,119.000002269745,4|0,3:1|3:0,3:0:0:0:
138,222,292440,1,0,0:0:0:0:
317,198,292598,2,0,L|386:190,1,59.5000011348725,4|0,3:1|3:0,3:0:0:0:
241,80,292914,2,0,L|172:72,1,59.5000011348725,0|0,3:0|3:0,3:0:0:0:
82,120,293230,102,0,P|151:107|189:53,1,119.000002269745,4|0,3:1|3:0,3:0:0:0:
100,25,293703,1,0,0:0:0:0:
157,209,293861,1,12,3:1:0:0:
182,73,294019,1,0,3:0:0:0:
76,157,294177,2,0,L|66:227,1,59.5000011348725,0|0,3:0|3:0,3:0:0:0:
174,326,294493,6,0,L|156:208,1,119.000002269745,2|0,3:3|3:0,3:0:0:0:
240,79,294966,1,0,0:0:0:0:
126,216,295124,2,0,B|95:222|95:222|65:215,1,59.5000011348725,4|0,3:1|3:0,3:0:0:0:
182,80,295440,2,0,B|212:74|212:74|240:79,1,59.5000011348725,0|0,3:0|3:0,3:0:0:0:
380,211,295756,102,0,B|335:223|335:223|261:206,1,119.000002269745,4|0,3:1|3:0,3:0:0:0:
387,100,296230,1,0,0:0:0:0:
375,323,296388,2,0,L|309:315,1,59.5000011348725,4|0,3:1|3:0,3:0:0:0:
206,215,296703,2,0,L|272:207,1,59.5000011348725,0|0,3:0|3:0,3:0:0:0:
387,100,297019,6,0,B|368:140|368:140|385:231,1,119.000002269745,4|0,3:1|3:0,3:0:0:0:
216,304,297493,1,0,0:0:0:0:
197,133,297651,1,4,3:1:0:0:
316,267,297809,1,0,3:0:0:0:
136,224,297966,2,0,L|70:216,1,59.5000011348725,0|0,3:0|3:0,3:0:0:0:
99,75,298282,101,10,3:3:0:0:
286,86,298440,1,0,3:0:0:0:
286,86,298519,1,0,3:0:0:0:
286,86,298598,5,8,3:3:0:0:
196,211,298756,1,8,0:3:0:0:
301,235,298914,101,8,0:3:0:0:
152,89,299072,1,0,0:3:0:0:
96,264,299230,5,8,0:3:0:0:
286,86,299388,1,0,0:3:0:0:
436,175,299545,102,0,B|460:225|428:266|428:266|395:308|420:355,2,178.500003404617,2|0|0,0:3|0:0|0:0,0:0:0:0:
298,142,300809,6,0,P|216:170|112:123,2,178.500003404617
148,300,302072,102,0,P|174:220|116:132,2,178.500003404617
277,226,303335,6,0,P|328:237|391:356,1,178.500003404617
294,331,303966,69,8,0:1:0:0:
292,329,304019,1,8,0:3:0:0:
406,138,304230,1,0,3:3:0:0:
404,137,304282,2,0,L|412:207,1,59.5000011348725,0|0,3:3|0:3,3:3:0:0:
274,76,304598,22,0,B|203:53|203:53|94:66,2,178.500003404617,2|0|0,0:3|0:0|0:0,0:0:0:0:
185,168,305861,5,10,0:0:0:0:
186,203,306019,1,10,0:0:0:0:
270,129,306177,101,10,0:0:0:0:
274,76,306335,1,10,0:0:0:0:
180,75,306493,5,10,0:0:0:0:
263,204,306651,1,10,0:0:0:0:
274,76,306809,101,10,0:0:0:0:
106,202,306966,1,10,0:0:0:0:
270,318,307124,6,0,L|327:321,1,35,8|8,0:3|0:3,0:0:0:0:
367,198,307282,1,0,3:0:0:0:
332,200,307361,1,0,3:0:0:0:
297,202,307440,2,0,L|240:205,1,35,8|8,0:3|0:3,0:0:0:0:
140,137,307598,2,0,L|143:194,1,35,8|8,0:3|0:3,0:0:0:0:
224,64,307756,101,0,3:0:0:0:
259,66,307835,1,0,3:0:0:0:
294,68,307914,2,0,L|351:71,1,35,8|8,0:3|0:3,0:0:0:0:
475,151,308072,1,0,3:0:0:0:
473,186,308150,1,0,3:0:0:0:
471,221,308230,2,8,L|468:262,1,35,8|8,0:3|0:3,0:3:0:0:
298,236,308388,2,0,L|295:179,1,35,8|0,0:3|0:3,0:3:0:0:
363,71,308545,5,0,3:0:0:0:
328,69,308624,1,0,3:0:0:0:
293,67,308703,2,8,L|236:64,1,35,8|8,0:3|0:3,0:3:0:0:
142,177,308861,1,0,3:0:0:0:
142,177,308940,1,0,3:0:0:0:
142,177,309019,101,8,0:3:0:0:
171,194,309098,1,8,0:3:0:0:
205,201,309177,1,8,0:3:0:0:
239,197,309256,1,8,0:3:0:0:
271,182,309335,1,8,0:3:0:0:
305,173,309414,1,8,0:3:0:0:
340,174,309493,1,8,0:3:0:0:
374,184,309572,1,8,0:3:0:0:
405,200,309651,6,0,L|399:290,1,90.9999958343508,2|8,3:3|3:0,3:0:0:0:
254,310,309966,1,0,3:0:0:0:
254,310,310045,1,0,3:0:0:0:
254,310,310124,1,8,3:0:0:0:
142,177,310282,2,0,L|136:83,1,90.9999958343508,0|8,3:0|3:0,3:0:0:0:
294,65,310598,1,0,3:0:0:0:
294,65,310677,1,0,3:0:0:0:
294,65,310756,1,8,3:0:0:0:
331,226,310914,101,0,3:0:0:0:
142,177,311072,1,8,3:0:0:0:
176,347,311230,1,0,3:0:0:0:
176,347,311309,1,0,3:0:0:0:
176,347,311388,1,8,3:0:0:0:
219,216,311545,2,0,P|229:174|216:128,1,90.9999958343508,0|8,3:0|3:0,3:0:0:0:
62,106,311861,1,0,3:0:0:0:
62,106,311940,1,0,3:0:0:0:
62,106,312019,1,8,3:0:0:0:
225,56,312177,6,0,L|320:46,1,90.9999958343508,0|8,3:0|3:0,3:0:0:0:
464,38,312493,1,0,3:0:0:0:
464,38,312572,1,0,3:0:0:0:
464,38,312651,1,8,3:0:0:0:
290,184,312809,1,0,3:0:0:0:
315,46,312966,1,8,3:0:0:0:
431,184,313124,2,0,L|437:232,2,45.4999979171754,0|0|8,3:0|3:0|3:0,3:0:0:0:
317,371,313440,102,0,L|327:277,1,90.9999958343508,0|8,3:0|3:0,3:0:0:0:
205,146,313756,1,0,3:0:0:0:
205,146,313835,1,0,3:0:0:0:
205,146,313914,1,8,3:0:0:0:
206,299,314072,1,0,3:0:0:0:
329,196,314230,1,8,3:0:0:0:
90,215,314388,1,0,3:0:0:0:
90,215,314466,1,0,3:0:0:0:
90,215,314545,1,8,3:0:0:0:
81,79,314703,5,2,3:3:0:0:
205,146,314861,1,8,3:0:0:0:
90,215,315019,2,0,L|81:268,2,45.4999979171754,0|0|8,3:0|3:0|3:0,3:0:0:0:
205,146,315335,2,0,L|299:138,1,90.9999958343508,0|8,3:0|3:0,3:0:0:0:
476,107,315651,1,0,3:0:0:0:
476,107,315730,1,0,3:0:0:0:
476,107,315809,1,8,3:0:0:0:
375,247,315966,102,0,B|383:295|383:295|369:342,1,90.9999958343508,0|8,3:0|3:0,3:0:0:0:
208,223,316282,1,0,3:0:0:0:
208,223,316361,1,0,3:0:0:0:
208,223,316440,1,8,3:0:0:0:
385,118,316598,2,0,L|481:106,1,90.9999958343508,0|8,3:0|3:0,3:0:0:0:
160,84,316914,1,0,3:0:0:0:
160,84,316993,1,0,3:0:0:0:
160,84,317072,1,8,3:0:0:0:
208,223,317230,5,0,3:0:0:0:
300,63,317388,1,8,3:0:0:0:
87,175,317545,1,0,3:0:0:0:
87,175,317624,1,0,3:0:0:0:
87,175,317703,1,8,3:0:0:0:
292,212,317861,2,0,L|385:219,1,90.9999958343508,0|8,3:0|3:0,3:0:0:0:
212,139,318177,1,0,3:0:0:0:
212,139,318256,1,0,3:0:0:0:
212,139,318335,1,8,3:0:0:0:
339,294,318493,102,0,L|348:388,1,90.9999958343508,0|8,3:0|3:0,3:0:0:0:
147,295,318809,1,0,3:0:0:0:
147,295,318888,1,0,3:0:0:0:
147,295,318966,1,8,3:0:0:0:
212,139,319124,2,0,L|304:146,1,90.9999958343508,0|8,3:0|3:0,3:0:0:0:
365,33,319440,1,0,3:0:0:0:
365,33,319519,1,0,3:0:0:0:
365,33,319598,1,8,3:0:0:0:
384,202,319756,22,0,L|396:296,1,90.9999958343508,2|8,3:3|0:3,0:0:0:0:
232,206,320072,1,0,3:0:0:0:
232,206,320151,1,0,3:0:0:0:
232,206,320230,1,8,3:3:0:0:
72,195,320388,5,6,0:1:0:0:
82,156,320466,1,0,0:0:0:0:
81,116,320545,1,8,0:3:0:0:
68,78,320624,1,0,0:0:0:0:
49,42,320703,5,2,3:1:0:0:
89,39,320782,1,0,3:0:0:0:
129,36,320861,1,8,3:3:0:0:
169,33,320940,1,0,0:0:0:0:
209,32,321019,6,0,L|312:27,1,90.9999958343508,2|8,0:3|0:3,3:0:0:0:
417,163,321335,1,0,3:0:0:0:
417,163,321414,1,0,3:0:0:0:
417,163,321493,1,8,3:3:0:0:
293,326,321651,69,6,0:1:0:0:
273,291,321730,1,0,0:0:0:0:
269,251,321809,1,8,0:3:0:0:
280,213,321888,1,0,0:0:0:0:
304,180,321966,1,2,3:1:0:0:
317,142,322045,1,0,3:0:0:0:
311,103,322124,1,8,3:3:0:0:
289,70,322203,1,0,0:0:0:0:
253,56,322282,6,0,L|149:69,1,90.9999958343508,2|8,0:3|0:3,0:0:0:0:
93,211,322598,2,0,L|48:219,2,45.4999979171754,0|0|10,3:0|3:0|3:2,3:0:0:0:
220,135,322914,5,6,0:1:0:0:
257,148,322993,1,0,0:0:0:0:
297,147,323072,1,8,0:3:0:0:
335,133,323151,1,0,0:0:0:0:
366,107,323230,5,2,3:1:0:0:
368,147,323309,1,0,3:0:0:0:
374,187,323388,2,0,L|378:250,1,45.4999979171754,8|0,3:3|0:0,0:0:0:0:
399,353,323545,69,2,0:3:0:0:
375,320,323624,1,0,0:0:0:0:
341,298,323703,1,8,0:3:0:0:
303,289,323782,1,0,0:0:0:0:
263,293,323861,1,2,3:1:0:0:
225,309,323940,1,0,3:0:0:0:
188,325,324019,1,8,3:3:0:0:
148,328,324098,1,0,0:0:0:0:
108,318,324177,6,0,L|102:258,1,45.4999979171754,6|0,0:1|0:0,0:0:0:0:
186,143,324335,2,0,L|180:192,1,45.4999979171754,10|0,0:1|0:0,0:0:0:0:
98,347,324493,2,0,L|89:268,1,45.4999979171754,2|0,3:1|3:0,3:0:0:0:
203,115,324651,2,0,L|198:172,1,45.4999979171754,10|0,3:1|0:0,0:0:0:0:
79,199,324809,6,0,L|69:103,1,90.9999958343508,2|8,3:3|0:3,0:0:0:0:
151,28,325124,2,0,L|212:35,2,45.4999979171754,0|0|10,3:0|3:0|3:2,3:0:0:0:
318,62,325440,5,4,0:1:0:0:
299,97,325519,1,0,0:0:0:0:
295,137,325598,1,8,0:3:0:0:
307,175,325677,1,0,0:0:0:0:
331,207,325756,1,0,3:0:0:0:
344,245,325835,1,0,3:0:0:0:
340,285,325914,1,8,3:3:0:0:
322,320,325993,1,0,0:0:0:0:
296,352,326072,70,0,L|396:365,1,90.9999958343508,2|8,3:3|0:3,3:0:0:0:
390,136,326388,1,0,3:0:0:0:
390,136,326466,1,0,3:0:0:0:
390,136,326545,1,8,3:3:0:0:
245,258,326703,5,6,0:1:0:0:
208,275,326782,1,0,0:0:0:0:
169,281,326861,1,8,0:3:0:0:
129,276,326940,1,0,0:0:0:0:
89,265,327019,2,0,P|70:254|50:238,1,45.4999979171754,2|0,3:1|3:0,3:0:0:0:
160,117,327177,1,8,3:3:0:0:
160,117,327256,1,0,0:0:0:0:
160,117,327335,6,0,L|254:110,1,90.9999958343508,2|8,0:3|0:3,0:0:0:0:
352,204,327651,2,0,L|288:198,2,45.4999979171754,0|0|10,3:0|3:0|3:2,3:0:0:0:
134,190,327966,5,6,0:1:0:0:
138,150,328045,1,0,0:0:0:0:
160,117,328124,1,8,0:3:0:0:
195,97,328203,1,0,0:0:0:0:
235,96,328282,1,2,3:1:0:0:
275,104,328361,1,0,3:0:0:0:
313,116,328440,1,8,3:3:0:0:
353,116,328519,1,0,0:0:0:0:
396,103,328598,70,0,L|404:177,1,45.4999979171754,2|0,0:3|0:0,0:0:0:0:
436,289,328756,1,8,0:3:0:0:
397,277,328835,1,0,0:0:0:0:
359,286,328914,1,10,0:1:0:0:
329,313,328993,1,8,0:3:0:0:
313,350,329072,1,8,0:3:0:0:
303,310,329151,1,8,0:3:0:0:
293,268,329230,6,8,L|274:161,1,90.9999958343508,2|0,3:3|0:0,0:3:0:0:
238,163,329466,2,0,L|216:55,1,90.9999958343508,4|0,3:1|0:0,0:0:0:0:
247,42,329703,1,14,3:3:0:0:
82,62,329861,6,0,L|102:153,1,90.9999958343508,4|8,3:1|3:3,3:0:0:0:
141,300,330177,1,4,3:1:0:0:
141,300,330256,1,0,3:0:0:0:
141,300,330335,1,8,3:3:0:0:
238,163,330493,2,0,L|146:178,1,90.9999958343508,4|8,3:1|3:3,3:0:0:0:
26,264,330809,1,4,3:1:0:0:
26,264,330888,1,0,3:0:0:0:
26,264,330966,1,8,3:3:0:0:
229,298,331124,6,0,L|320:313,1,90.9999958343508,4|8,3:1|3:3,3:0:0:0:
320,89,331440,1,4,3:1:0:0:
320,89,331519,1,0,3:0:0:0:
320,89,331598,1,8,3:3:0:0:
166,159,331756,2,0,L|174:266,1,90.9999958343508,4|8,3:1|3:3,3:0:0:0:
348,240,332072,1,4,3:1:0:0:
348,240,332151,1,0,3:0:0:0:
348,240,332230,1,8,3:3:0:0:
239,22,332388,70,0,L|232:127,1,90.9999958343508,4|8,3:1|3:3,3:0:0:0:
80,254,332703,1,4,3:1:0:0:
80,254,332782,1,0,3:0:0:0:
80,254,332861,1,8,3:3:0:0:
53,77,333019,2,0,L|143:69,1,90.9999958343508,4|8,3:1|3:3,3:0:0:0:
283,167,333335,1,4,3:1:0:0:
283,167,333414,1,0,3:0:0:0:
283,167,333493,1,8,3:3:0:0:
90,344,333651,6,0,L|78:240,1,90.9999958343508,4|8,3:1|3:3,3:0:0:0:
200,80,333966,2,0,L|196:128,2,45.4999979171754,4|0|8,3:1|3:0|3:3,3:0:0:0:
295,273,334282,2,0,L|386:285,1,90.9999958343508,4|8,3:1|3:3,3:0:0:0:
345,102,334598,1,4,3:1:0:0:
345,102,334677,1,0,3:0:0:0:
345,102,334756,1,8,3:3:0:0:
150,180,334914,5,4,0:1:0:0:
132,216,334993,1,0,0:0:0:0:
127,255,335072,1,8,0:3:0:0:
136,295,335151,1,0,0:0:0:0:
152,332,335230,2,0,P|159:349|176:371,1,45.4999979171754,4|0,0:1|0:0,0:0:0:0:
279,216,335388,5,8,0:3:0:0:
296,179,335466,1,0,0:0:0:0:
301,140,335545,1,4,0:1:0:0:
292,100,335624,1,0,0:0:0:0:
277,64,335703,2,0,P|270:47|255:23,1,45.4999979171754,8|0,0:3|0:0,0:0:0:0:
171,146,335861,69,4,0:1:0:0:
150,151,335940,1,0,0:0:0:0:
130,156,336019,1,8,0:3:0:0:
109,161,336098,1,0,0:0:0:0:
91,167,336177,2,0,L|27:186,1,45.4999979171754
169,263,336335,5,8,0:3:0:0:
206,247,336414,1,8,0:3:0:0:
246,246,336493,1,8,0:3:0:0:
284,257,336572,1,8,0:3:0:0:
321,273,336651,1,8,0:3:0:0:
361,276,336730,1,8,0:3:0:0:
401,270,336809,2,0,P|388:203|430:151,1,136.499993751526,2|0,3:3|3:0,3:0:0:0:
463,133,337124,70,0,P|403:87|297:101,1,181.999991668702,2|0,0:3|0:1,0:0:0:0:
128,58,337598,5,8,3:3:0:0:
144,262,337756,2,4,L|234:281,1,90.9999958343508,0|8,3:1|0:1,0:1:0:0:
116,65,338072,101,0,3:1:0:0:
137,276,338230,2,0,L|233:295,1,90.9999958343508,8|0,3:3|0:1,0:0:0:0:
104,74,338545,5,8,3:3:0:0:
130,292,338703,2,0,L|232:310,1,90.9999958343508,0|8,3:1|0:3,0:0:0:0:
262,159,339019,101,2,0:1:0:0:
51,139,339177,1,8,0:3:0:0:
130,292,339335,1,2,0:1:0:0:
277,145,339493,1,8,0:3:0:0:
30,128,339651,1,2,0:1:0:0:
93,365,339809,2,0,P|139:374|187:356,1,90.9999958343508,8|0,0:3|0:1,0:0:0:0:
345,336,340124,5,8,3:3:0:0:
386,136,340282,2,0,L|336:52,1,90.9999958343508,0|8,3:1|0:0,0:0:0:0:
349,345,340598,101,0,3:1:0:0:
390,125,340756,2,0,L|338:35,1,90.9999958343508,8|0,3:3|0:1,0:0:0:0:
353,353,341072,5,0,3:0:0:0:
393,110,341230,2,0,L|339:14,1,90.9999958343508,0|8,3:1|0:3,0:0:0:0:
253,250,341545,101,2,0:1:0:0:
449,302,341703,1,8,0:3:0:0:
368,110,341861,1,2,0:1:0:0:
260,269,342019,1,8,0:3:0:0:
471,311,342177,1,2,0:1:0:0:
450,122,342335,2,0,P|442:75|418:40,1,90.9999958343508,8|0,0:3|0:1,0:0:0:0:
254,119,342651,5,8,3:3:0:0:
99,232,342809,2,0,L|108:325,1,90.9999958343508,0|8,3:1|0:3,0:0:0:0:
252,112,343124,101,0,3:0:0:0:
85,238,343282,2,0,L|94:340,1,90.9999958343508,8|0,3:3|0:1,0:0:0:0:
250,104,343598,5,8,3:3:0:0:
73,246,343756,2,0,L|82:358,1,90.9999958343508,0|8,3:1|0:3,0:0:0:0:
247,239,344072,101,2,0:1:0:0:
158,76,344230,1,8,0:3:0:0:
91,267,344388,1,2,0:1:0:0:
276,223,344545,1,8,0:3:0:0:
126,76,344703,1,2,0:1:0:0:
115,290,344861,1,8,0:3:0:0:
358,158,345019,5,0,0:1:0:0:
358,158,345098,1,0,0:0:0:0:
358,158,345177,2,0,L|420:166,1,45.4999979171754,8|0,3:3|0:0,0:0:0:0:
411,45,345335,1,2,3:1:0:0:
371,50,345414,1,0,0:0:0:0:
331,56,345493,2,0,L|257:66,1,45.4999979171754,8|0,0:3|0:0,0:0:0:0:
135,155,345651,101,2,3:1:0:0:
175,160,345730,1,0,0:0:0:0:
215,166,345809,2,0,L|289:176,1,45.4999979171754,8|0,0:3|0:0,0:0:0:0:
416,254,345966,1,2,3:1:0:0:
376,259,346045,1,0,0:0:0:0:
336,265,346124,2,0,L|290:271,1,45.4999979171754,8|0,0:3|0:0,0:0:0:0:
192,347,346282,6,0,L|282:358,1,90.9999958343508,2|0,0:1|0:0,0:0:0:0:
447,318,346598,101,8,3:3:0:0:
290,168,346756,1,2,3:1:0:0:
192,347,346914,5,8,3:3:0:0:
438,201,347072,1,2,3:1:0:0:
205,39,347230,101,8,3:3:0:0:
338,335,347388,1,2,3:3:0:0:
338,335,347703,5,0,3:0:0:0:
327,185,347861,2,0,L|320:94,1,80.5000015354157,0|0,3:0|0:0,0:0:0:0:
205,39,348177,2,0,B|235:88|235:88|243:193,1,161.000003070831,12|0,0:1|0:0,0:0:0:0:
251,342,348651,1,0,3:0:0:0:
417,271,348809,102,0,L|403:110,1,161.000003070831,4|0,3:1|3:0,3:0:0:0:
241,52,349282,1,0,3:0:0:0:
288,240,349440,2,0,P|294:281|279:320,1,80.5000015354157,12|0,0:1|3:0,0:0:0:0:
136,184,349756,2,0,P|102:119|146:36,1,161.000003070831,0|4,3:0|3:1,3:0:0:0:
191,114,350230,5,0,3:0:0:0:
71,257,350388,2,0,L|79:351,1,80.5000015354157,0|0,3:0|0:0,0:0:0:0:
260,251,350703,1,12,0:1:0:0:
136,184,350861,1,0,3:0:0:0:
269,46,351019,2,0,L|261:140,1,80.5000015354157,0|0,0:0|3:0,0:0:0:0:
376,116,351335,102,0,L|368:210,1,80.5000015354157,4|0,3:1|0:0,0:0:0:0:
360,354,351651,1,0,0:0:0:0:
185,256,351809,1,0,0:0:0:0:
298,152,351966,5,14,3:1:0:0:
266,325,352124,1,0,3:0:0:0:
303,124,352282,1,2,3:1:0:0:
260,360,352440,2,0,L|171:352,1,80.5000015354157,0|6,0:0|0:1,0:0:0:0:
39,80,352756,101,0,3:0:0:0:
73,249,352914,2,0,L|90:335,1,80.5000015354157,0|0,3:0|0:0,0:0:0:0:
218,212,353230,2,0,L|233:133,1,80.5000015354157,12|0,0:1|3:0,0:0:0:0:
126,19,353545,1,0,0:0:0:0:
218,212,353703,1,0,3:0:0:0:
287,81,353861,6,0,B|318:67|348:79|348:79|380:91|411:79,1,120.750002303124,4|0,3:1|0:0,0:0:0:0:
436,55,354177,2,0,L|446:148,1,80.5000015354157,0|0,3:0|3:0,3:0:0:0:
457,267,354493,1,12,0:1:0:0:
218,212,354651,1,0,3:0:0:0:
328,84,354809,1,0,3:0:0:0:
347,300,354966,2,0,L|354:383,1,80.5000015354157,0|4,0:0|0:1,0:0:0:0:
126,349,355282,101,0,3:0:0:0:
112,164,355440,2,0,L|105:70,1,80.5000015354157,0|0,3:0|0:0,0:0:0:0:
242,307,355756,5,12,3:1:0:0:
228,122,355914,2,0,L|221:28,1,80.5000015354157,0|0,3:0|0:0,0:0:0:0:
350,265,356230,101,0,3:0:0:0:
336,80,356388,1,0,3:3:0:0:
205,198,356545,5,8,3:3:0:0:
436,132,356703,1,8,3:3:0:0:
222,41,356861,1,0,3:3:0:0:
323,176,357019,101,8,3:3:0:0:
424,40,357177,1,8,3:3:0:0:
215,117,357335,1,4,3:1:0:0:
444,232,357493,2,0,L|456:311,1,80.5000015354157,2|0,3:3|3:0,0:0:0:0:
121,43,357809,5,0,3:0:0:0:
167,252,357966,2,0,L|152:346,1,80.5000015354157,4|0,3:1|0:0,0:0:0:0:
100,132,358282,1,12,0:1:0:0:
312,182,358440,2,0,L|327:276,1,80.5000015354157,0|0,3:0|0:0,3:0:0:0:
82,218,358756,1,0,3:0:0:0:
178,95,358914,102,0,B|253:106|253:106|345:81,1,161.000003070831,4|0,3:1|3:0,3:0:0:0:
451,68,359388,1,0,3:0:0:0:
394,258,359545,1,14,0:1:0:0:
459,49,359703,1,0,3:0:0:0:
389,279,359861,1,2,3:1:0:0:
242,115,360019,2,0,B|233:73|233:73|240:34,1,80.5000015354157,0|4,0:0|0:1,0:0:0:0:
459,49,360335,5,0,3:0:0:0:
389,279,360493,2,0,L|220:301,1,161.000003070831,0|12,3:0|0:1,0:0:0:0:
100,81,360966,1,0,3:0:0:0:
242,115,361124,2,0,P|254:155|243:195,1,80.5000015354157,0|0,0:0|3:0,0:0:0:0:
62,245,361440,102,0,P|97:176|173:155,1,161.000003070831,4|0,3:1|3:0,3:0:0:0:
155,324,361914,1,0,3:0:0:0:
31,116,362072,2,0,P|20:72|33:37,1,80.5000015354157,14|0,3:1|3:0,3:0:0:0:
156,248,362388,2,0,P|167:292|154:327,1,80.5000015354157,2|0,3:1|0:0,3:0:0:0:
0,195,362703,5,6,0:1:0:0:
99,81,362861,1,0,3:0:0:0:
257,198,363019,2,0,P|346:224|435:201,1,161.000003070831,0|12,3:0|0:3,0:0:0:0:
466,36,363493,1,0,3:0:0:0:
376,138,363651,2,0,P|336:142|299:129,1,80.5000015354157,0|0,0:0|3:0,0:0:0:0:
115,149,363966,102,0,L|128:315,1,161.000003070831,4|0,3:1|3:0,3:0:0:0:
303,300,364440,1,0,3:0:0:0:
228,203,364598,86,0,L|221:134,2,53.6666676902771,14|0|0,0:1|0:0|0:0,0:0:0:0:
115,149,364914,2,0,L|108:80,2,53.6666676902771,2|0|0,3:1|0:0|0:0,0:0:0:0:
276,58,365230,21,4,3:3:0:0:
162,286,365388,1,8,0:3:0:0:
154,308,365545,1,8,0:3:0:0:
41,171,365703,5,4,3:3:0:0:
353,163,365861,1,8,0:3:0:0:
377,162,366019,1,8,0:3:0:0:
313,340,366177,101,4,3:3:0:0:
154,187,366335,1,8,0:3:0:0:
447,114,366493,1,8,0:3:0:0:
267,231,366651,5,4,3:3:0:0:
327,14,366809,1,8,0:3:0:0:
512,255,366966,1,8,0:3:0:0:
193,274,367124,101,4,3:3:0:0:
24,193,367282,1,8,0:3:0:0:
70,298,367440,1,12,0:3:0:0:
233,138,367598,1,4,3:3:0:0:
357,319,367756,5,2,3:3:0:0:
120,89,382913,102,0,B|163:109|163:109|258:104,1,140,2|0,0:0|0:0,0:0:0:0:
376,98,383387,1,2,0:0:0:0:
379,118,383545,2,0,L|388:193,1,70,0|0,0:0|0:0,0:0:0:0:
260,215,383861,2,0,P|299:185|399:195,1,140,2|0,0:0|0:0,0:0:0:0:
337,266,384334,1,2,0:0:0:0:
334,286,384492,2,0,L|325:361,1,70,0|0,0:0|0:0,0:0:0:0:
454,262,384808,6,0,L|436:118,1,140,2|0,0:0|0:0,0:0:0:0:
336,71,385282,1,2,0:0:0:0:
317,80,385440,2,0,P|273:89|239:83,1,70
132,58,385756,2,0,L|124:143,1,70,2|0,0:0|0:0,0:0:0:0:
210,161,386071,2,0,L|202:246,1,70,2|0,0:0|0:0,0:0:0:0:
289,263,386387,2,0,L|281:348,1,70,2|0,0:0|0:0,0:0:0:0:
80,192,386703,102,0,P|147:188|210:243,1,140,2|0,0:0|0:0,0:0:0:0:
262,328,387177,1,2,0:0:0:0:
282,332,387334,2,0,L|365:346,1,70,0|0,0:0|0:0,0:0:0:0:
475,258,387650,2,0,B|415:268|415:268|330:253,1,140,2|0,0:0|0:0,0:0:0:0:
330,164,388124,1,2,0:0:0:0:
331,184,388282,2,0,L|338:271,1,70,0|0,0:0|0:0,0:0:0:0:
439,41,388598,6,0,L|427:180,1,140,2|0,0:0|0:0,0:0:0:0:
336,253,389071,1,2,0:0:0:0:
316,261,389229,2,0,P|280:273|246:269,1,70,0|0,0:0|0:0,0:0:0:0:
274,192,389545,2,0,P|265:152|277:120,1,70,2|0,0:0|0:0,0:0:0:0:
345,161,389861,2,0,L|416:155,1,70,2|0,0:0|0:0,0:0:0:0:
454,57,390177,1,2,0:0:0:0:
454,57,390256,1,2,0:0:0:0:
454,57,390334,1,2,0:0:0:0:
296,52,390492,102,0,L|155:44,1,140,2|0,0:0|0:0,0:0:0:0:
101,137,390966,1,2,0:0:0:0:
103,157,391124,2,0,L|107:233,1,70,0|0,0:0|0:0,0:0:0:0:
80,311,391440,2,0,P|134:309|189:244,1,140,2|0,0:0|0:0,0:0:0:0:
277,242,391913,1,2,0:0:0:0:
257,244,392071,2,0,L|187:247,1,70,0|0,0:0|0:0,0:0:0:0:
301,333,392387,6,0,L|451:341,1,140,2|0,0:0|0:0,0:0:0:0:
408,227,392861,1,2,0:0:0:0:
411,206,393019,2,0,L|419:126,1,70,0|0,0:0|0:0,0:0:0:0:
320,61,393334,2,0,L|312:141,1,70,2|0,0:0|0:0,0:0:0:0:
210,117,393650,2,0,L|202:197,1,70,2|0,0:0|0:0,0:0:0:0:
100,177,393966,2,0,L|92:257,1,70,2|0,0:0|0:0,0:0:0:0:
203,186,394282,102,0,P|285:175|329:221,1,140,2|0,0:0|0:0,0:0:0:0:
261,341,394756,1,2,0:0:0:0:
259,320,394913,2,0,L|251:246,1,70,0|0,0:0|0:0,0:0:0:0:
160,61,395229,2,0,L|145:200,1,140,2|0,0:0|0:0,0:0:0:0:
89,292,395703,2,0,L|7:286,2,70,2|0|0,0:0|0:0|0:0,0:0:0:0:
232,261,396177,5,2,0:0:0:0:
232,247,396256,1,2,0:0:0:0:
233,233,396334,1,2,0:0:0:0:
234,219,396413,1,2,0:0:0:0:
210,205,396492,1,2,0:0:0:0:
211,191,396571,1,2,0:0:0:0:
212,177,396650,1,2,0:0:0:0:
212,163,396729,1,2,0:0:0:0:
233,149,396808,1,2,0:0:0:0:
234,135,396887,1,2,0:0:0:0:
234,121,396966,1,2,0:0:0:0:
235,107,397045,1,2,0:0:0:0:
212,97,397124,102,0,L|219:22,1,70,2|0,0:0|0:0,0:0:0:0:
257,14,397361,1,2,0:0:0:0:
257,14,397440,2,0,P|294:5|325:10,1,70,2|0,0:0|0:0,0:0:0:0:
342,44,397677,1,2,0:0:0:0:
342,44,397756,2,0,L|346:113,1,70,2|0,0:0|0:0,0:0:0:0:
366,140,397992,1,2,0:0:0:0:
366,140,398071,6,0,L|376:308,1,140,2|0,0:3|0:0,0:0:0:0:
267,337,398545,1,0,0:0:0:0:
271,224,398703,2,0,L|277:147,1,70,0|0,0:0|0:0,0:0:0:0:
171,49,399019,2,0,L|176:118,1,70,8|0,0:3|0:0,0:0:0:0:
76,201,399334,1,0,0:0:0:0:
78,216,399413,1,0,0:0:0:0:
81,231,399492,1,0,0:0:0:0:
83,247,399571,1,0,0:0:0:0:
113,270,399650,1,0,0:0:0:0:
115,284,399729,1,0,0:0:0:0:
117,299,399808,1,0,0:0:0:0:
119,315,399887,1,0,0:0:0:0:
103,349,399966,102,0,B|159:362|159:362|256:348,1,140,0|0,3:0|0:0,0:0:0:0:
387,312,400440,1,2,0:0:0:0:
285,245,400598,2,0,L|204:257,1,70,0|0,0:0|0:0,0:0:0:0:
107,150,400913,2,0,L|188:162,1,70,8|0,0:3|0:0,0:0:0:0:
308,83,401229,1,2,0:0:0:0:
308,83,401308,1,2,0:0:0:0:
308,83,401387,1,2,0:0:0:0:
285,245,401545,2,0,L|281:283,2,35,0|2|0,0:0|0:0|0:0,0:0:0:0:
427,126,401861,6,0,B|411:267|411:265,1,140,4|0,3:1|0:0,0:0:0:0:
307,214,402334,1,2,0:0:0:0:
257,303,402492,2,0,P|213:310|182:298,1,70,0|0,0:0|3:0,0:0:0:0:
361,125,402808,2,0,P|405:118|434:131,1,70,8|0,0:0|0:0,0:0:0:0:
225,212,403124,1,2,0:0:0:0:
225,198,403203,1,2,0:0:0:0:
225,184,403282,1,2,0:0:0:0:
225,170,403361,1,2,0:0:0:0:
225,156,403440,1,2,0:0:0:0:
333,91,403598,1,0,0:0:0:0:
201,71,403756,102,0,L|55:53,1,140,2|0,3:2|0:0,0:0:0:0:
46,248,404229,2,0,L|37:317,1,70,4|0,0:1|0:0,0:0:0:0:
174,179,404545,2,0,L|165:109,1,70,4|8,0:1|0:3,0:0:0:0:
70,61,404861,1,2,0:0:0:0:
70,61,404940,1,2,0:0:0:0:
70,61,405019,1,2,0:0:0:0:
46,248,405177,1,2,0:0:0:0:
174,179,405334,1,4,0:1:0:0:
56,149,405492,1,4,0:1:0:0:
192,70,405650,6,0,B|250:89|250:89|330:83,1,140,4|0,3:1|0:0,0:0:0:0:
423,52,406124,2,0,P|420:116|500:167,1,140,2|0,0:0|0:0,0:0:0:0:
338,214,406598,2,0,L|244:221,1,70,8|0,0:3|0:0,0:0:0:0:
189,323,406913,1,2,0:0:0:0:
203,323,406992,1,2,0:0:0:0:
218,324,407071,2,0,L|262:325,1,35
337,260,407229,1,2,0:0:0:0:
337,244,407308,1,2,0:0:0:0:
338,229,407387,1,2,0:0:0:0:
338,214,407466,1,2,0:0:0:0:
338,197,407545,102,0,L|342:97,1,70
234,31,407861,1,0,0:0:0:0:
170,159,408019,2,0,P|120:210|52:205,1,140
96,28,408492,2,0,L|92:140,1,105,12|0,0:3|0:0,0:0:0:0:
73,159,408808,2,0,P|116:141|173:162,1,105,2|0,0:0|0:0,0:0:0:0:
204,163,409124,2,0,L|208:275,1,105,2|0,0:0|0:0,0:0:0:0:
237,302,409440,6,0,B|190:274|190:274|98:286,1,140,2|0,3:3|0:0,0:0:0:0:
9,214,409913,1,0,0:0:0:0:
167,184,410071,2,0,L|246:172,1,70
383,75,410387,2,0,L|371:154,1,70,12|0,0:3|0:0,0:0:0:0:
349,307,410703,2,0,L|386:301,1,35,2|2,0:0|0:0,0:0:0:0:
406,282,410861,2,0,L|440:287,1,35,2|2,0:0|0:0,0:0:0:0:
468,314,411019,1,2,0:0:0:0:
469,161,411177,1,2,0:0:0:0:
383,75,411334,102,0,P|404:137|472:161,1,140,4|0,3:1|0:0,0:0:0:0:
464,81,411808,1,0,0:0:0:0:
358,208,411966,2,0,L|352:277,1,70,4|0,0:1|0:0,0:0:0:0:
342,384,412282,1,8,0:3:0:0:
108,134,412598,5,10,0:0:0:0:
173,276,412756,1,10,0:0:0:0:
242,171,412913,2,0,P|284:163|337:192,1,105,2|0,0:3|0:0,0:0:0:0:
337,230,413229,102,0,B|376:188|376:188|460:181,1,140,4|0,3:1|0:0,0:0:0:0:
512,96,413703,1,0,0:0:0:0:
367,103,413861,2,0,L|284:109,1,70,0|0,3:0|0:0,0:0:0:0:
164,51,414177,2,0,P|146:122|190:199,2,140,10|2|2,0:3|0:0|0:0,0:0:0:0:
196,329,415124,6,0,B|230:316|261:330|261:330|296:342|333:332,2,140,2|2|2,0:0|0:0|0:0,0:0:0:0:
174,84,416071,69,8,0:3:0:0:
175,88,416124,1,8,0:3:0:0:
176,92,416177,2,8,L|167:143,1,46.6666666666667,8|8,0:3|0:3,0:3:0:0:
272,222,416387,5,8,0:3:0:0:
273,218,416440,1,8,0:3:0:0:
274,214,416493,2,8,L|265:163,1,46.6666666666667,8|8,0:3|0:3,0:3:0:0:
370,121,416703,1,8,0:3:0:0:
376,167,416808,1,8,0:3:0:0:
278,305,417019,6,0,B|212:290|212:290|125:302,1,140,4|0,3:3|0:0,0:0:0:0:
133,194,417492,1,0,3:0:0:0:
262,220,417650,2,0,L|349:241,1,70,0|0,0:0|0:0,0:0:0:0:
429,320,417966,2,0,L|417:173,1,140,8|0,0:3|0:0,0:0:0:0:
417,166,418361,1,2,0:0:0:0:
415,152,418440,1,2,0:0:0:0:
357,55,418598,1,2,0:0:0:0:
343,58,418677,1,2,0:0:0:0:
329,61,418756,1,2,0:0:0:0:
316,64,418834,1,2,0:0:0:0:
302,68,418913,6,0,B|269:55|229:68|229:68|196:81|165:67,1,140,0|0,3:0|0:0,0:0:0:0:
128,242,419387,1,2,0:0:0:0:
263,204,419545,2,0,P|274:172|266:136,1,70,0|0,0:0|3:0,0:0:0:0:
198,168,419861,2,0,P|121:145|63:164,1,140,8|0,0:3|0:0,0:0:0:0:
128,242,420334,1,4,0:1:0:0:
263,204,420492,2,0,P|301:194|334:203,1,70,0|2,0:0|0:0,0:0:0:0:
421,304,420808,102,0,B|403:247|403:247|421:143,1,140,2|0,3:0|0:0,0:0:0:0:
346,55,421282,1,2,0:0:0:0:
330,201,421440,2,0,L|317:280,1,70,0|0,0:0|3:0,0:0:0:0:
234,282,421756,2,0,P|272:340|363:345,1,140,8|0,0:3|0:0,0:0:0:0:
351,351,422150,1,2,0:0:0:0:
364,349,422229,1,2,0:0:0:0:
420,226,422387,1,2,0:0:0:0:
406,222,422466,1,2,0:0:0:0:
392,218,422545,1,2,0:0:0:0:
257,216,422703,6,0,B|288:203|322:219|322:219|354:235|392:219,1,140,0|0,3:0|0:0,0:0:0:0:
358,146,423177,1,2,0:0:0:0:
285,292,423334,2,0,L|280:365,1,70,0|0,0:0|3:0,0:0:0:0:
401,357,423650,2,0,L|390:217,1,140,8|0,0:3|0:0,0:0:0:0:
360,95,424124,1,4,0:1:0:0:
273,178,424282,1,2,0:0:0:0:
391,218,424440,1,2,0:0:0:0:
285,298,424598,102,0,B|220:311|220:311|131:291,1,140,0|0,3:0|0:0,0:0:0:0:
23,260,425071,1,2,0:0:0:0:
142,210,425229,2,0,L|216:226,1,70,0|0,0:0|3:0,0:0:0:0:
307,131,425545,2,0,L|238:145,1,70,8|0,0:3|0:0,0:0:0:0:
120,126,425861,1,2,0:0:0:0:
121,112,425940,1,2,0:0:0:0:
122,97,426019,2,0,L|125:56,1,35,2|2,0:0|0:0,0:0:0:0:
218,31,426177,1,2,0:0:0:0:
231,32,426256,1,2,0:0:0:0:
245,34,426334,1,2,0:0:0:0:
259,36,426413,1,2,0:0:0:0:
272,38,426492,6,0,B|340:45|340:45|418:31,1,140,0|0,3:0|0:0,0:0:0:0:
439,129,426966,1,2,0:0:0:0:
301,120,427124,2,0,L|227:112,1,70,0|0,0:0|3:0,0:0:0:0:
155,87,427440,2,0,P|157:149|224:191,1,140,8|0,0:3|0:0,0:0:0:0:
382,196,427913,1,2,0:0:0:0:
301,120,428071,2,0,L|227:112,1,70,0|0,0:0|0:0,0:0:0:0:
161,226,428387,102,0,L|154:79,1,140,4|0,3:1|0:0,0:0:0:0:
272,42,428861,1,2,0:0:0:0:
265,175,429019,2,0,L|261:251,1,70,0|0,0:0|3:0,0:0:0:0:
203,329,429334,6,0,P|258:297|352:324,1,140,8|0,0:3|0:0,0:0:0:0:
342,316,429729,1,2,0:0:0:0:
352,324,429808,1,2,0:0:0:0:
428,242,429966,1,2,0:0:0:0:
428,228,430045,1,2,0:0:0:0:
428,213,430124,1,2,0:0:0:0:
428,198,430203,1,2,0:0:0:0:
428,184,430282,102,0,P|359:155|288:175,1,140,2|0,0:0|0:0,0:0:0:0:
203,278,430756,1,2,0:0:0:0:
344,316,430913,2,0,L|356:230,1,70,0|0,0:0|3:0,0:0:0:0:
370,130,431229,1,8,0:3:0:0:
208,154,431387,5,2,3:2:0:0:
467,48,431703,1,2,3:2:0:0:
164,138,432019,1,4,3:0:0:0:
268,65,432177,102,0,B|231:78|199:66|199:66|164:51|126:67,1,140,2|2,3:0|0:0,0:0:0:0:
57,157,432650,1,0,0:0:0:0:
153,217,432808,2,0,L|228:225,1,70,0|0,0:0|3:0,0:0:0:0:
336,170,433124,6,0,P|288:167|219:240,1,140,8|0,0:3|0:0,0:0:0:0:
222,237,433519,1,2,0:0:0:0:
220,247,433598,1,2,0:0:0:0:
308,252,433756,1,2,0:0:0:0:
321,255,433834,1,2,0:0:0:0:
334,259,433913,1,2,0:0:0:0:
347,263,433992,1,2,0:0:0:0:
361,267,434071,102,0,L|462:274,1,70
441,275,434308,1,2,0:0:0:0:
451,279,434387,2,0,L|458:178,1,70,2|0,0:0|0:0,0:0:0:0:
351,168,434703,6,0,P|309:181|273:171,1,70,2|0,0:0|3:0,0:0:0:0:
203,174,435019,2,0,P|210:137|234:113,1,70,8|0,0:3|0:0,0:0:0:0:
310,98,435334,2,0,P|280:50|190:44,1,140,2|0,0:0|0:0,0:0:0:0:
97,96,435808,1,0,0:0:0:0:
232,115,435966,102,0,L|228:254,1,140,0|0,3:0|0:0,0:0:0:0:
114,252,436440,1,2,0:0:0:0:
197,322,436598,2,0,P|235:331|280:307,1,70,2|0,0:0|3:0,0:0:0:0:
357,309,436913,2,0,P|315:242|230:234,1,140,8|2,0:3|0:0,0:0:0:0:
248,228,437308,1,2,0:0:0:0:
237,228,437387,1,2,0:0:0:0:
86,133,437545,1,2,0:0:0:0:
98,131,437624,1,2,0:0:0:0:
111,130,437703,1,2,0:0:0:0:
124,128,437782,1,2,0:0:0:0:
138,127,437861,6,0,L|290:109,1,140,2|0,0:0|0:0,0:0:0:0:
408,145,438334,1,0,0:0:0:0:
320,35,438492,2,0,L|250:25,1,70,0|0,0:0|3:0,0:0:0:0:
207,172,438808,1,8,0:3:0:0:
315,132,438966,1,2,0:0:0:0:
317,145,439044,1,2,0:0:0:0:
321,159,439123,1,2,0:0:0:0:
323,172,439202,1,2,0:0:0:0:
326,186,439282,1,2,0:0:0:0:
329,199,439360,1,2,0:0:0:0:
331,211,439439,1,4,0:1:0:0:
378,69,439598,1,4,0:1:0:0:
453,156,439756,102,0,L|451:302,1,140,0|0,3:0|0:0,0:0:0:0:
332,358,440229,1,2,0:0:0:0:
333,224,440387,2,0,L|333:144,1,70,0|0,0:0|3:0,0:0:0:0:
438,83,440703,2,0,B|407:97|370:82|370:82|335:66|302:79,1,140,8|0,0:3|0:0,0:0:0:0:
171,139,441177,1,0,0:0:0:0:
333,224,441334,2,0,P|332:258|311:288,1,70
132,258,441650,6,0,P|181:222|265:238,1,140,2|0,0:0|0:0,0:0:0:0:
371,300,442124,1,0,0:0:0:0:
408,147,442282,2,0,B|419:111|419:111|408:79,1,70,2|0,0:0|0:0,3:0:0:0:
255,163,442598,2,0,B|247:196|247:196|256:232,1,70,12|0,3:1|0:0,0:0:0:0:
329,75,442913,2,0,L|255:69,1,70,4|0,3:1|0:0,0:0:0:0:
333,230,443229,2,0,L|407:224,1,70,4|0,3:1|0:0,0:0:0:0:
313,328,443545,102,0,L|159:314,1,146.999995513916,2|4,3:3|0:1,0:0:0:0:
51,221,444019,1,2,0:0:0:0:
176,234,444177,2,0,L|261:243,1,73.4999977569581,4|0,0:1|3:0,0:0:0:0:
317,139,444492,2,0,B|304:168|320:206|320:206|338:242|318:281,1,146.999995513916,12|4,0:1|0:1,0:0:0:0:
392,167,444966,1,2,0:0:0:0:
235,184,445124,2,0,L|150:193,1,73.4999977569581,4|0,0:1|0:0,0:0:0:0:
57,86,445440,5,2,3:3:0:0:
224,74,445756,102,0,L|227:104,3,26.2500010013581,2|8|8|8,3:0|0:3|0:3|0:3,0:0:0:0:
314,172,446071,2,0,L|311:203,3,31.4999990386963,0|8|8|8,3:0|0:3|0:3|0:3,0:0:0:0:
216,254,446387,1,0,3:0:0:0:
206,272,446465,1,8,0:3:0:0:
200,292,446544,1,8,0:3:0:0:
198,313,446623,1,8,0:3:0:0:
195,343,446703,5,0,3:0:0:0:
165,345,446781,1,8,0:3:0:0:
138,334,446860,1,8,0:3:0:0:
120,310,446939,1,8,0:3:0:0:
116,281,447019,1,0,3:0:0:0:
120,245,447098,1,8,0:3:0:0:
124,210,447176,1,8,0:3:0:0:
116,176,447255,1,8,0:3:0:0:
99,143,447334,102,0,P|144:134|195:154,1,73.4999977569581,6|0,3:3|0:0,0:0:0:0:
304,252,447650,2,0,P|258:260|207:240,1,73.4999977569581,2|0,0:1|0:0,0:0:0:0:
287,69,447966,1,0,3:0:0:0:
323,73,448044,1,0,3:0:0:0:
359,78,448123,1,0,3:0:0:0:
396,83,448202,1,0,3:0:0:0:
432,91,448282,6,0,P|441:133|432:166,1,73.4999977569581,10|0,3:1|0:0,0:0:0:0:
304,252,448598,2,0,P|294:209|303:176,1,73.4999977569581,2|0,0:1|0:0,0:0:0:0:
384,301,448913,1,0,3:0:0:0:
359,327,448991,1,0,3:0:0:0:
326,344,449070,1,0,3:0:0:0:
290,346,449149,1,0,3:0:0:0:
255,333,449229,102,0,L|181:324,1,73.4999977569581,2|0,3:1|0:0,3:0:0:0:
268,101,449545,1,2,0:1:0:0:
384,185,449703,1,0,0:0:0:0:
186,206,449861,2,0,L|112:214,1,73.4999977569581,2|0,0:1|0:0,0:0:0:0:
158,64,450177,5,8,3:3:0:0:
192,52,450255,1,0,3:0:0:0:
229,49,450334,1,0,3:0:0:0:
265,56,450413,1,0,3:0:0:0:
299,69,450492,1,0,3:0:0:0:
335,77,450571,1,0,3:0:0:0:
372,75,450650,1,0,3:0:0:0:
407,64,450729,1,0,3:0:0:0:
439,46,450808,101,0,3:0:0:0:
442,82,450886,1,0,3:0:0:0:
445,119,450965,1,0,3:0:0:0:
449,155,451044,1,0,3:0:0:0:
453,192,451124,6,0,L|460:276,1,73.4999977569581,2|0,3:1|0:0,0:0:0:0:
324,333,451440,2,0,L|330:259,1,73.4999977569581,2|0,0:1|0:0,0:0:0:0:
412,196,451756,1,0,3:0:0:0:
384,172,451834,1,0,3:0:0:0:
350,159,451913,1,0,3:0:0:0:
313,158,451992,1,0,3:0:0:0:
278,169,452071,101,10,3:1:0:0:
181,312,452229,1,0,0:0:0:0:
329,259,452387,1,2,0:1:0:0:
311,75,452545,1,0,0:0:0:0:
158,100,452703,1,0,3:0:0:0:
144,133,452781,1,0,3:0:0:0:
142,170,452860,1,0,3:0:0:0:
154,204,452939,1,0,3:0:0:0:
181,228,453019,6,0,B|248:215|306:193|306:193|347:177|421:192|445:280|415:353|332:385|239:358|217:256|265:207|306:193|306:193|389:162|422:129|435:77,1,734.999977569581,8|0,3:3|0:0,0:0:0:0:
236,54,454913,102,0,B|219:87|235:123|235:123|253:161|238:196,1,146.999995513916,2|4,3:3|0:1,3:0:0:0:
163,162,455387,1,0,3:0:0:0:
307,89,455545,2,0,L|389:81,1,73.4999977569581,4|0,0:1|3:0,3:0:0:0:
447,237,455861,6,0,P|395:264|297:250,1,146.999995513916,12|4,0:3|0:1,0:0:0:0:
239,125,456334,1,0,3:0:0:0:
239,125,456413,1,0,3:0:0:0:
239,125,456492,2,0,P|286:105|344:114,1,110.249996635437,4|0,3:1|0:0,0:0:0:0:
367,141,456808,102,0,P|336:102|349:5,1,146.999995513916,4|4,3:1|0:1,3:0:0:0:
424,64,457282,1,0,3:0:0:0:
343,262,457440,2,0,L|335:342,1,73.4999977569581,4|0,0:1|3:0,3:0:0:0:
206,233,457756,6,0,L|198:159,1,73.4999977569581,12|0,0:3|0:0,0:0:0:0:
205,61,458071,1,4,3:1:0:0:
172,44,458149,1,0,3:0:0:0:
136,36,458228,1,0,3:0:0:0:
99,38,458307,1,0,3:0:0:0:
63,51,458387,2,8,L|71:179,1,110.249996635437,12|8,3:3|0:3,0:3:0:0:
45,197,458703,102,0,B|112:171|112:171|206:182,1,146.999995513916,2|2,3:3|0:0,3:0:0:0:
342,199,459177,1,0,3:0:0:0:
221,279,459334,2,0,L|127:269,1,73.4999977569581,4|0,0:1|3:0,3:0:0:0:
45,197,459650,6,0,P|103:202|149:278,1,146.999995513916,12|4,0:3|0:1,0:0:0:0:
209,146,460124,1,0,3:0:0:0:
209,146,460203,1,0,3:0:0:0:
209,146,460282,2,0,L|202:60,1,73.4999977569581,4|0,3:1|0:0,0:0:0:0:
80,128,460598,102,0,L|68:284,1,146.999995513916,4|2,3:1|0:2,0:0:0:0:
256,221,461071,1,0,3:0:0:0:
203,72,461229,2,0,P|156:65|120:76,1,73.4999977569581,4|0,0:1|3:0,0:0:0:0:
184,221,461545,6,0,P|230:227|266:216,1,73.4999977569581,12|0,0:3|0:0,0:0:0:0:
313,105,461861,1,0,3:0:0:0:
349,107,461939,1,0,3:0:0:0:
382,93,462018,1,0,3:0:0:0:
404,64,462097,1,0,3:0:0:0:
413,28,462177,101,8,0:3:0:0:
444,46,462255,1,8,0:3:0:0:
469,73,462334,1,8,0:3:0:0:
484,107,462413,1,8,0:3:0:0:
491,142,462492,6,0,P|481:214|424:265,1,146.999995513916,2|4,3:3|0:1,0:0:0:0:
187,313,462966,1,0,3:0:0:0:
284,124,463124,1,4,0:1:0:0:
320,280,463282,1,0,3:0:0:0:
320,280,463361,1,0,3:0:0:0:
320,280,463440,102,0,L|489:300,1,146.999995513916,12|4,3:3|0:1,0:0:0:0:
431,128,463913,1,0,3:0:0:0:
431,128,463992,1,0,3:0:0:0:
431,128,464071,2,0,L|313:142,1,110.249996635437,4|0,3:1|0:0,0:0:0:0:
291,115,464387,6,0,B|305:187|305:187|287:267,1,146.999995513916,4|4,3:1|0:1,0:0:0:0:
191,358,464861,1,0,3:0:0:0:
79,238,465019,1,4,0:1:0:0:
224,187,465177,1,0,3:0:0:0:
224,187,465256,1,0,3:0:0:0:
224,187,465334,101,12,3:1:0:0:
48,335,465492,1,0,3:0:0:0:
168,268,465650,5,12,3:1:0:0:
340,336,465808,1,0,3:0:0:0:
294,87,465966,101,12,3:1:0:0:
230,346,466124,1,0,3:0:0:0:
456,160,466282,6,0,P|396:162|338:227,1,146.999995513916,2|4,3:3|0:1,0:0:0:0:
432,254,466756,1,0,3:0:0:0:
350,66,466913,1,4,0:1:0:0:
262,222,467071,1,0,3:0:0:0:
262,222,467150,1,0,3:0:0:0:
262,222,467229,102,0,L|254:298,1,73.4999977569581,12|0,3:3|0:0,0:0:0:0:
340,135,467545,2,0,P|354:89|345:56,1,73.4999977569581,2|0,0:0|0:0,0:0:0:0:
180,75,467861,2,0,P|134:61|70:82,1,110.249996635437,4|0,3:1|0:0,0:0:0:0:
41,93,468177,6,0,P|89:118|110:174,1,110.249996635437,4|0,3:1|3:0,0:0:0:0:
114,277,468492,70,0,L|117:332,2,48.9999985046387,8|8|8,0:3|0:3|0:3,0:0:0:0:
204,170,468808,2,8,L|206:121,2,48.9999985046387,8|8|8,0:3|0:3|0:3,0:3:0:0:
309,241,469124,6,8,L|376:235,1,48.9999985046387,8|8,0:3|0:3,0:3:0:0:
377,72,469334,1,8,0:3:0:0:
360,102,469440,2,0,L|354:155,1,48.9999985046387,8|8,0:3|0:3,0:0:0:0:
204,170,469650,2,0,L|151:164,1,48.9999985046387,8|8,0:3|0:3,0:0:0:0:
242,49,469861,2,0,L|290:43,1,48.9999985046387,2|0,0:3|3:0,0:0:0:0:
452,104,470071,38,0,B|429:144|452:192|452:192|474:235|452:284,1,181.999991668702,6|12,3:3|3:3,3:0:0:0:
305,245,470545,2,0,B|232:259|232:259|117:248,1,181.999991668702,0|0,3:0|3:0,3:0:0:0:
73,154,471019,2,0,L|170:164,1,90.9999958343508,12|0,0:3|0:0,0:0:0:0:
305,245,471334,1,4,3:1:0:0:
324,209,471412,1,0,3:0:0:0:
330,170,471491,1,0,3:0:0:0:
324,130,471570,1,0,3:0:0:0:
304,95,471650,2,0,P|354:75|435:85,1,136.499993751526,12|0,3:3|0:0,0:0:0:0:
464,55,471966,6,0,B|443:119|443:119|455:234,1,181.999991668702,6|12,3:3|3:1,3:0:0:0:
298,325,472440,2,0,L|313:140,1,181.999991668702,0|0,3:0|3:0,3:0:0:0:
422,311,472913,2,0,P|466:315|515:294,1,90.9999958343508,12|0,0:3|0:0,0:0:0:0:
384,155,473229,1,4,3:1:0:0:
347,138,473307,1,0,3:0:0:0:
307,131,473386,1,0,3:0:0:0:
267,132,473465,1,0,3:0:0:0:
226,142,473545,2,0,L|231:238,1,90.9999958343508,12|0,3:1|0:0,0:0:0:0:
109,0,473861,6,0,L|99:181,1,181.999991668702,6|12,3:3|3:3,3:0:0:0:
91,314,474334,2,0,P|145:241|239:235,1,181.999991668702,0|0,3:0|3:0,3:0:0:0:
394,162,474808,2,0,L|292:144,1,90.9999958343508,12|0,0:3|0:0,0:0:0:0:
128,119,475124,1,4,3:1:0:0:
203,311,475282,1,0,3:0:0:0:
242,201,475440,2,0,P|262:162|303:145,1,90.9999958343508,12|0,0:3|0:0,0:0:0:0:
432,222,475756,5,4,3:1:0:0:
426,182,475834,1,0,3:0:0:0:
421,142,475913,1,0,3:0:0:0:
415,102,475992,1,0,3:0:0:0:
410,62,476071,2,0,P|370:45|319:51,1,90.9999958343508,12|0,3:3|0:0,0:0:0:0:
128,119,476387,69,0,3:0:0:0:
162,139,476465,1,0,3:0:0:0:
201,147,476544,1,0,3:0:0:0:
241,143,476623,1,0,3:0:0:0:
280,129,476703,2,8,L|287:187,1,45.4999979171754,8|8,0:3|0:3,0:3:0:0:
305,285,476861,1,0,3:0:0:0:
305,285,476940,1,0,3:0:0:0:
305,285,477019,5,10,3:3:0:0:
108,288,477177,1,0,3:0:0:0:
120,249,477255,1,0,3:0:0:0:
115,210,477334,1,4,3:1:0:0:
99,173,477413,1,0,3:0:0:0:
94,133,477492,1,0,3:0:0:0:
106,95,477571,1,0,3:0:0:0:
134,66,477650,6,0,B|196:60|196:60|251:76|251:76|316:70,1,181.999991668702,6|12,3:3|3:3,3:0:0:0:
94,133,478124,2,0,P|61:91|117:-11,1,181.999991668702,0|0,3:0|3:0,3:0:0:0:
223,128,478598,2,0,B|231:175|231:175|222:218,1,90.9999958343508,12|0,0:3|0:0,0:0:0:0:
115,307,478913,1,4,3:1:0:0:
155,307,478991,1,0,3:0:0:0:
195,308,479070,1,0,3:0:0:0:
235,309,479149,1,0,3:0:0:0:
276,312,479229,2,0,L|377:314,1,90.9999958343508,12|0,3:3|0:0,0:0:0:0:
414,40,479545,6,0,L|399:222,1,181.999991668702,6|12,3:3|3:3,3:0:0:0:
235,309,480019,2,0,L|219:127,1,181.999991668702,4|0,3:1|3:0,3:0:0:0:
355,290,480492,2,0,P|396:301|454:282,1,90.9999958343508,12|0,0:3|0:0,0:0:0:0:
371,133,480808,1,4,3:1:0:0:
335,114,480886,1,0,3:0:0:0:
295,107,480965,1,0,3:0:0:0:
256,111,481044,1,0,3:0:0:0:
219,127,481124,2,0,L|228:223,1,90.9999958343508,12|0,3:1|0:0,0:0:0:0:
205,15,481440,70,0,P|139:48|111:161,1,181.999991668702,6|12,3:3|3:3,3:0:0:0:
235,308,481913,2,0,L|218:122,1,181.999991668702,4|0,3:1|3:0,3:0:0:0:
368,19,482387,2,0,P|415:8|462:22,1,90.9999958343508,12|0,0:3|0:0,0:0:0:0:
305,127,482703,2,0,P|258:138|210:121,1,90.9999958343508,4|0,3:1|3:0,3:0:0:0:
126,42,483019,1,12,3:3:0:0:
115,220,483177,1,0,3:0:0:0:
115,220,483256,1,0,3:0:0:0:
115,220,483334,6,0,L|110:279,1,45.4999979171754,8|8,0:3|0:3,0:0:0:0:
232,149,483492,1,0,3:0:0:0:
234,108,483570,1,0,3:0:0:0:
236,68,483650,6,8,L|239:12,1,45.4999979171754,8|8,0:3|0:3,0:3:0:0:
362,145,483808,2,8,L|366:195,1,45.4999979171754,8|8,0:3|0:3,0:3:0:0:
280,324,483966,5,0,3:0:0:0:
239,326,484044,1,0,3:0:0:0:
199,328,484124,2,0,L|147:330,1,45.4999979171754,8|8,0:3|0:3,0:0:0:0:
115,220,484282,69,0,3:0:0:0:
117,179,484360,1,0,3:0:0:0:
119,139,484440,2,0,L|122:88,1,45.4999979171754,8|8,0:3|0:3,0:0:0:0:
276,93,484598,5,8,0:3:0:0:
307,68,484676,1,8,0:3:0:0:
345,55,484755,1,8,0:3:0:0:
385,55,484834,1,8,0:3:0:0:
423,68,484913,1,4,3:1:0:0:
459,258,485071,1,0,3:0:0:0:
172,200,485229,6,0,B|219:179|266:203|266:203|311:222|355:202,1,181.999991668702,6|4,3:3|0:1,3:0:0:0:
308,126,485703,1,0,3:0:0:0:
215,276,485861,2,0,L|206:369,1,90.9999958343508,4|0,0:1|3:0,0:0:0:0:
422,221,486177,6,0,L|239:198,1,181.999991668702,12|4,0:3|0:1,0:0:0:0:
57,98,486650,1,0,3:0:0:0:
57,98,486729,1,0,3:0:0:0:
57,98,486808,2,0,L|150:85,1,90.9999958343508,4|0,3:1|0:0,0:0:0:0:
303,116,487124,70,0,P|347:46|441:49,1,181.999991668702,4|4,3:1|0:1,0:0:0:0:
393,125,487598,1,0,3:0:0:0:
169,238,487756,2,0,B|123:248|123:248|77:237,1,90.9999958343508,4|0,0:1|3:0,0:0:0:0:
239,64,488071,2,0,B|286:53|286:53|330:64,1,90.9999958343508,12|0,0:3|3:0,0:0:0:0:
446,203,488387,1,4,3:1:0:0:
430,239,488465,1,0,3:0:0:0:
432,279,488544,1,0,3:0:0:0:
450,315,488623,1,0,3:0:0:0:
475,348,488703,5,12,0:3:0:0:
434,345,488781,1,8,0:3:0:0:
394,343,488860,1,8,0:3:0:0:
354,341,488939,1,8,0:3:0:0:
314,339,489019,6,0,L|129:329,1,181.999991668702,4|4,3:1|0:1,0:0:0:0:
40,159,489492,1,0,3:0:0:0:
202,217,489650,2,0,P|219:258|203:310,1,90.9999958343508,4|0,0:1|3:0,0:0:0:0:
145,100,489966,2,0,B|194:56|194:56|318:56,1,181.999991668702,12|4,0:3|0:1,0:0:0:0:
428,173,490440,1,0,3:0:0:0:
244,294,490598,2,0,P|203:304|152:291,1,90.9999958343508,4|8,3:1|0:1,0:0:0:0:
28,319,490913,6,0,L|17:135,1,181.999991668702,4|4,3:1|0:1,0:0:0:0:
142,47,491387,1,0,3:0:0:0:
191,213,491545,2,0,P|235:223|280:215,1,90.9999958343508,4|0,0:1|3:0,0:0:0:0:
298,114,491861,69,8,3:0:0:0:
476,229,492019,1,8,3:0:0:0:
460,47,492177,5,8,3:0:0:0:
208,76,492334,1,8,3:0:0:0:
284,312,492492,5,8,3:0:0:0:
363,47,492650,1,8,3:0:0:0:
168,156,492808,6,0,B|210:175|259:155|259:155|302:137|351:159,1,181.999991668702,6|4,3:3|0:1,0:0:0:0:
299,234,493282,1,0,3:0:0:0:
208,76,493440,1,4,0:1:0:0:
411,115,493598,1,0,3:0:0:0:
411,115,493677,1,0,3:0:0:0:
411,115,493756,2,0,P|423:162|412:201,1,90.9999958343508,12|0,3:3|3:0,0:0:0:0:
280,335,494071,1,4,0:1:0:0:
259,161,494229,1,0,3:0:0:0:
259,161,494308,1,0,3:0:0:0:
259,161,494387,1,4,3:1:0:0:
397,280,494545,1,0,0:0:0:0:
215,258,494703,70,0,L|31:270,1,181.999991668702,4|4,3:1|0:1,0:0:0:0:
17,122,495177,1,0,3:0:0:0:
222,177,495334,2,0,P|264:191|295:233,1,90.9999958343508,4|0,0:1|3:0,0:0:0:0:
375,341,495650,6,0,L|383:234,1,90.9999958343508,12|0,0:3|3:0,0:0:0:0:
467,128,495966,1,4,3:1:0:0:
430,143,496044,1,0,3:0:0:0:
390,148,496123,1,0,3:0:0:0:
350,141,496202,1,0,3:0:0:0:
317,125,496282,2,8,P|298:111|278:89,1,45.4999979171754,12|8,3:3|0:3,0:3:0:0:
172,30,496440,1,8,0:3:0:0:
172,30,496519,1,8,0:3:0:0:
172,30,496598,6,0,L|182:215,1,181.999991668702,4|4,3:1|0:1,0:0:0:0:
79,355,497071,1,0,3:0:0:0:
94,219,497229,2,0,P|147:204|193:218,1,90.9999958343508,4|0,0:1|3:0,0:0:0:0:
316,127,497545,6,0,P|239:132|180:213,1,181.999991668702,12|4,0:3|0:1,0:0:0:0:
292,307,498019,1,0,3:0:0:0:
292,307,498098,1,0,3:0:0:0:
292,307,498177,2,0,L|278:206,1,90.9999958343508,12|0,3:3|0:0,0:0:0:0:
416,90,498492,70,0,L|403:183,1,90.9999958343508,4|0,3:1|0:0,0:0:0:0:
383,213,498729,2,0,L|474:201,1,90.9999958343508,0|0,3:0|0:0,0:0:0:0:
504,222,498966,1,0,3:0:0:0:
313,305,499124,1,0,3:0:0:0:
333,125,499282,1,0,3:0:0:0:
333,125,499361,1,8,3:0:0:0:
333,125,499440,5,12,3:1:0:0:
129,269,499598,1,8,3:0:0:0:
120,41,499756,5,4,3:1:0:0:
319,216,499913,1,8,3:0:0:0:
230,338,500071,5,4,3:0:0:0:
253,43,500229,1,0,3:0:0:0:
60,180,500387,70,0,B|119:180|119:180|180:198|180:198|244:198,1,181.999991668702,6|4,3:3|0:1,0:0:0:0:
429,198,500861,1,0,3:0:0:0:
294,117,501019,2,0,L|182:117,1,90.9999958343508,4|0,0:1|3:0,0:0:0:0:
432,16,501334,2,0,L|428:199,1,181.999991668702,12|4,0:3|0:1,0:0:0:0:
293,290,501808,1,0,3:0:0:0:
293,290,501887,1,0,3:0:0:0:
293,290,501966,2,0,P|249:301|200:286,1,90.9999958343508,4|0,3:1|0:0,0:0:0:0:
192,61,502282,6,0,B|246:116|246:116|251:223,1,181.999991668702,4|4,3:1|0:1,0:0:0:0:
337,78,502756,1,0,3:0:0:0:
348,213,502913,2,0,L|355:306,1,90.9999958343508,4|0,0:1|3:0,0:0:0:0:
184,151,503229,2,0,L|192:60,1,90.9999958343508,12|0,0:3|3:0,0:0:0:0:
337,78,503545,1,4,3:1:0:0:
373,93,503623,1,0,3:0:0:0:
413,93,503702,1,0,3:0:0:0:
450,77,503781,1,0,3:0:0:0:
486,58,503861,2,8,L|493:118,1,45.4999979171754,12|8,3:3|0:3,0:3:0:0:
495,241,504019,1,8,0:3:0:0:
495,241,504098,1,8,0:3:0:0:
495,241,504177,6,0,P|454:210|326:226,1,181.999991668702,4|4,3:1|0:1,0:0:0:0:
171,309,504650,1,0,3:0:0:0:
184,151,504808,2,0,L|274:159,1,90.9999958343508,4|0,0:1|3:0,0:0:0:0:
282,382,505124,2,0,P|271:322|338:218,1,181.999991668702,12|4,0:3|0:1,0:0:0:0:
455,71,505598,1,0,3:0:0:0:
455,71,505677,1,0,3:0:0:0:
455,71,505755,2,0,L|352:62,1,90.9999958343508,4|0,3:1|0:0,0:0:0:0:
183,46,506071,5,6,3:3:0:0:
191,56,506387,5,0,0:0:0:0:
189,54,506440,1,0,0:0:0:0:
187,52,506492,2,0,L|198:123,1,60.6666638895672,2|2,0:3|0:3,0:3:0:0:
278,201,506703,1,0,0:0:0:0:
283,206,506756,1,0,0:0:0:0:
281,205,506808,2,0,L|270:276,1,60.6666638895672,2|2,0:3|0:3,0:3:0:0:
399,216,507019,6,8,L|388:149,1,60.6666638895672,8|8,0:3|0:3,0:3:0:0:
276,54,507229,2,8,L|271:118,1,60.6666638895672,8|8,0:3|0:3,0:3:0:0:
112,186,507440,2,8,L|51:192,1,60.6666638895672,8|8,0:3|0:3,0:3:0:0:
162,76,507650,37,4,3:1:0:0:
276,255,507808,1,0,3:0:0:0:
449,116,507966,6,0,B|376:96|376:96|268:116,1,181.999991668702,2|4,3:3|0:1,0:0:0:0:
51,191,508440,1,0,3:0:0:0:
254,206,508598,2,0,L|358:188,1,90.9999958343508,4|0,0:1|3:0,0:0:0:0:
481,275,508913,6,0,P|442:210|342:190,1,181.999991668702,12|4,0:3|0:1,0:0:0:0:
163,299,509387,1,0,3:0:0:0:
163,299,509466,1,0,3:0:0:0:
163,299,509545,2,0,P|208:309|254:294,1,90.9999958343508,4|0,3:1|0:0,0:0:0:0:
238,55,509861,6,0,B|200:116|200:116|202:228,1,181.999991668702,4|4,3:1|0:1,0:0:0:0:
77,300,510334,1,0,3:0:0:0:
155,160,510492,2,0,B|202:152|202:152|245:159,1,90.9999958343508,4|0,0:1|3:0,0:0:0:0:
350,295,510808,2,0,B|303:303|303:303|259:294,1,90.9999958343508,12|0,0:3|3:0,0:0:0:0:
366,184,511124,1,4,3:1:0:0:
387,144,511202,1,0,3:0:0:0:
387,98,511281,1,0,3:0:0:0:
364,58,511360,1,0,3:0:0:0:
334,22,511440,2,0,P|382:11|424:21,1,90.9999958343508,12|0,0:3|0:0,3:0:0:0:
366,184,511756,70,0,P|289:218|197:187,1,181.999991668702,4|4,3:1|0:1,0:0:0:0:
116,37,512229,1,0,3:0:0:0:
269,16,512387,2,0,L|278:107,1,90.9999958343508,4|0,0:1|3:0,0:0:0:0:
148,317,512703,2,0,L|157:225,1,90.9999958343508,12|0,0:3|3:0,0:0:0:0:
278,107,513019,1,4,0:1:0:0:
363,312,513177,1,0,3:0:0:0:
363,312,513256,1,0,3:0:0:0:
363,312,513334,1,4,3:1:0:0:
156,226,513492,1,0,0:0:0:0:
278,107,513650,6,0,B|322:86|368:108|368:108|417:129|458:106,1,181.999991668702,4|4,3:1|0:1,0:0:0:0:
412,20,514124,1,0,3:0:0:0:
321,195,514282,1,4,0:1:0:0:
482,238,514440,1,0,3:0:0:0:
325,104,514598,1,12,0:3:0:0:
170,166,514756,1,0,3:0:0:0:
170,166,514834,1,0,3:0:0:0:
170,166,514913,2,0,L|110:174,1,45.4999979171754,2|2,0:3|0:3,0:3:0:0:
65,35,515071,2,0,L|124:44,1,45.4999979171754,0|0,3:0|3:0,3:0:0:0:
258,87,515229,1,8,0:3:0:0:
281,119,515307,1,8,0:3:0:0:
290,158,515386,1,8,0:3:0:0:
285,198,515465,1,8,0:3:0:0:
265,235,515545,6,0,B|330:214|330:214|448:232,1,181.999991668702,2|4,3:3|0:1,0:0:0:0:
397,364,516019,1,0,3:0:0:0:
207,296,516177,2,0,P|183:250|190:200,1,90.9999958343508,4|0,0:1|3:0,0:0:0:0:
268,93,516492,2,0,P|192:64|93:103,1,181.999991668702,12|4,0:3|0:1,0:0:0:0:
72,287,516966,1,0,3:0:0:0:
265,235,517124,1,4,3:1:0:0:
69,123,517282,1,0,0:0:0:0:
208,50,517440,5,8,3:0:0:0:
165,253,517598,1,8,3:0:0:0:
282,37,517756,69,8,3:0:0:0:
296,206,517913,1,8,3:0:0:0:
123,89,518071,5,8,3:0:0:0:
391,118,518229,1,8,3:0:0:0:
195,324,518387,5,8,0:3:0:0:
264,125,518545,1,8,0:3:0:0:
434,284,518703,5,12,0:3:0:0:
213,185,518861,1,12,0:3:0:0:
374,36,519019,69,12,0:3:0:0:
411,200,519177,1,12,0:3:0:0:
175,110,519334,86,0,B|215:94|252:111|252:111|292:126|327:113,1,154.000004699707,2|4,3:3|0:1,3:0:0:0:
100,340,519966,1,4,3:1:0:0:
117,305,520044,1,0,3:0:0:0:
125,268,520123,1,0,3:0:0:0:
121,230,520202,1,0,3:0:0:0:
106,197,520282,6,0,P|149:185|199:195,1,77.0000023498536,12|0,3:3|0:0,0:0:0:0:
358,291,520598,2,0,P|315:303|265:293,1,77.0000023498536,4|0,0:1|0:0,0:0:0:0:
334,168,520913,1,4,3:1:0:0:
356,136,520991,1,0,3:0:0:0:
389,117,521070,1,0,3:0:0:0:
427,114,521149,1,0,3:0:0:0:
465,118,521229,102,0,P|447:77|334:47,1,154.000004699707,4|4,3:1|0:1,0:0:0:0:
182,93,521703,1,0,0:0:0:0:
283,299,521861,2,0,L|291:380,1,77.0000023498536,4|0,0:1|0:0,0:0:0:0:
456,202,522177,5,12,3:3:0:0:
435,169,522255,1,0,3:0:0:0:
406,144,522334,1,0,3:0:0:0:
370,131,522413,1,0,3:0:0:0:
332,130,522492,1,4,3:1:0:0:
295,141,522571,1,0,3:0:0:0:
262,160,522650,1,0,3:0:0:0:
227,177,522728,1,0,3:0:0:0:
190,184,522807,1,4,3:1:0:0:
151,180,522886,1,0,3:0:0:0:
116,166,522965,1,0,3:0:0:0:
86,142,523044,1,0,3:0:0:0:
66,108,523124,102,0,L|69:269,1,154.000004699707,4|4,3:1|0:1,0:0:0:0:
227,293,523598,1,0,0:0:0:0:
183,86,523756,1,4,3:1:0:0:
221,83,523834,1,0,3:0:0:0:
259,81,523913,1,0,3:0:0:0:
298,79,523992,1,0,3:0:0:0:
336,77,524071,6,0,L|417:73,1,77.0000023498536,12|0,3:3|0:0,0:0:0:0:
401,241,524387,2,0,L|394:342,1,77.0000023498536,4|0,0:1|0:0,0:0:0:0:
263,222,524703,1,4,3:1:0:0:
242,189,524781,1,0,3:0:0:0:
234,152,524860,1,0,3:0:0:0:
240,114,524939,1,0,3:0:0:0:
259,81,525019,102,0,L|96:88,1,154.000004699707,4|4,3:1|0:1,0:0:0:0:
41,261,525492,1,0,0:0:0:0:
188,178,525650,2,4,P|201:133|179:85,1,77.0000023498536,4|0,0:1|0:0,0:1:0:0:
143,264,525967,5,12,3:3:0:0:
115,289,526044,1,0,3:0:0:0:
114,326,526123,1,0,3:0:0:0:
139,354,526202,1,0,3:0:0:0:
176,355,526282,1,4,3:1:0:0:
204,329,526360,1,0,3:0:0:0:
229,299,526440,1,0,3:0:0:0:
262,280,526518,1,0,3:0:0:0:
299,269,526597,1,4,3:1:0:0:
337,267,526676,1,0,3:0:0:0:
375,273,526755,1,0,3:0:0:0:
411,288,526834,1,0,3:0:0:0:
445,313,526913,102,0,L|435:146,1,154.000004699707,4|4,3:1|0:1,0:0:0:0:
333,26,527387,1,0,0:0:0:0:
261,106,527545,1,4,3:1:0:0:
293,126,527623,1,0,3:0:0:0:
330,134,527702,1,0,3:0:0:0:
368,128,527781,1,0,3:0:0:0:
404,111,527861,6,0,L|415:205,1,77.0000023498536,12|0,3:3|0:0,0:0:0:0:
260,316,528177,2,0,L|268:239,1,77.0000023498536,4|0,0:1|0:0,0:0:0:0:
261,106,528492,1,4,3:1:0:0:
228,85,528570,1,0,3:0:0:0:
191,77,528649,1,0,3:0:0:0:
153,83,528728,1,0,3:0:0:0:
117,98,528808,102,0,L|135:259,1,154.000004699707,4|4,3:1|0:1,0:0:0:0:
267,239,529282,1,0,0:0:0:0:
176,322,529440,2,0,P|137:333|98:323,1,77.0000023498536,4|0,0:1|0:0,0:0:0:0:
66,164,529756,5,12,3:3:0:0:
91,135,529834,1,0,3:0:0:0:
125,118,529913,1,0,3:0:0:0:
163,116,529992,1,0,3:0:0:0:
200,128,530071,1,4,3:1:0:0:
234,145,530150,1,0,3:0:0:0:
265,166,530228,1,0,3:0:0:0:
303,173,530307,1,0,3:0:0:0:
341,164,530387,101,4,3:1:0:0:
344,202,530465,1,0,3:0:0:0:
348,240,530544,1,0,3:0:0:0:
352,278,530623,1,0,3:0:0:0:
356,318,530703,6,0,P|321:350|213:342,1,154.000004699707,4|4,3:1|0:1,0:0:0:0:
80,269,531177,1,0,0:0:0:0:
140,134,531334,1,4,3:1:0:0:
162,165,531412,1,0,3:0:0:0:
193,187,531491,1,0,3:0:0:0:
229,200,531570,1,0,3:0:0:0:
266,199,531650,102,0,L|276:284,1,77.0000023498536,12|0,3:3|0:0,0:0:0:0:
381,129,531966,2,0,L|389:52,1,77.0000023498536,4|0,0:1|0:0,0:0:0:0:
428,258,532282,1,4,3:1:0:0:
389,262,532360,1,0,3:0:0:0:
351,266,532439,1,0,3:0:0:0:
313,270,532518,1,0,3:0:0:0:
274,275,532598,6,0,B|205:283|205:283|108:270,1,154.000004699707,4|4,3:1|0:1,0:0:0:0:
24,123,533071,1,0,0:0:0:0:
138,190,533229,2,0,L|223:203,1,77.0000023498536,4|0,0:1|0:0,0:0:0:0:
274,275,533545,101,12,3:3:0:0:
299,246,533623,1,0,3:0:0:0:
310,210,533702,1,0,3:0:0:0:
305,172,533781,1,0,3:0:0:0:
285,139,533860,1,4,3:1:0:0:
253,119,533939,1,0,3:0:0:0:
219,99,534019,5,0,3:0:0:0:
257,92,534097,1,0,3:0:0:0:
295,86,534176,1,4,3:1:0:0:
333,80,534255,1,0,3:0:0:0:
371,74,534334,1,0,3:0:0:0:
409,68,534413,1,0,3:0:0:0:
447,62,534492,102,0,B|468:98|449:137|449:137|431:174|449:210,1,154.000004699707,4|4,3:1|0:1,0:0:0:0:
482,342,534966,1,0,0:0:0:0:
383,261,535124,1,4,3:1:0:0:
365,226,535202,1,0,3:0:0:0:
358,189,535281,1,0,3:0:0:0:
360,150,535360,1,0,3:0:0:0:
375,114,535440,6,0,L|275:120,1,77.0000023498536,12|0,3:3|0:0,3:0:0:0:
182,239,535756,2,0,L|258:243,1,77.0000023498536,4|0,0:1|0:0,0:0:0:0:
178,125,536071,1,4,3:1:0:0:
139,127,536149,1,0,3:0:0:0:
101,130,536228,1,0,3:0:0:0:
62,133,536308,1,0,3:0:0:0:
24,135,536387,102,0,L|9:293,1,154.000004699707,4|4,3:1|0:1,0:0:0:0:
170,208,536861,1,0,0:0:0:0:
73,75,537019,2,0,P|37:58|0:60,1,77.0000023498536,4|0,0:1|0:0,0:0:0:0:
183,103,537334,5,12,3:3:0:0:
215,82,537412,1,0,3:0:0:0:
253,76,537491,1,0,3:0:0:0:
290,86,537570,1,0,3:0:0:0:
327,99,537650,1,4,3:1:0:0:
364,108,537728,1,0,3:0:0:0:
401,102,537807,1,0,3:0:0:0:
434,83,537886,1,0,3:0:0:0:
462,55,537966,101,4,3:1:0:0:
464,93,538044,1,0,3:0:0:0:
466,131,538123,1,0,3:0:0:0:
468,170,538202,1,0,3:0:0:0:
470,208,538282,6,0,L|477:375,1,154.000004699707,4|4,3:1|0:1,0:0:0:0:
279,210,538756,1,0,0:0:0:0:
364,108,538913,1,4,3:1:0:0:
361,146,538991,1,0,3:0:0:0:
359,184,539070,1,0,3:0:0:0:
356,223,539149,1,0,3:0:0:0:
352,261,539229,102,0,P|293:295|214:270,1,154.000004699707,12|4,3:3|0:1,3:0:0:0:
132,164,539703,1,0,0:0:0:0:
58,106,539861,1,4,3:1:0:0:
87,81,539939,1,0,3:0:0:0:
124,71,540018,1,0,3:0:0:0:
162,76,540097,1,0,3:0:0:0:
194,96,540177,6,0,L|357:116,1,154.000004699707,4|4,3:1|0:1,0:0:0:0:
466,49,540650,1,0,0:0:0:0:
351,194,540808,2,0,L|266:183,1,77.0000023498536,4|0,0:1|0:0,0:0:0:0:
89,42,541124,101,12,3:1:0:0:
92,80,541202,1,0,3:0:0:0:
96,118,541281,1,0,3:0:0:0:
99,157,541360,1,0,3:0:0:0:
103,195,541439,1,4,3:1:0:0:
106,233,541518,1,0,3:0:0:0:
110,272,541597,1,0,3:0:0:0:
113,310,541676,1,0,3:0:0:0:
120,346,541756,5,4,3:1:0:0:
151,324,541834,1,0,3:0:0:0:
188,313,541913,1,0,3:0:0:0:
226,317,541992,1,0,3:0:0:0:
260,335,542071,102,0,B|312:336|312:336|374:351|374:351|426:352,1,154.000004699707,4|4,3:1|0:1,0:0:0:0:
390,124,542545,1,0,0:0:0:0:
318,194,542703,1,4,3:1:0:0:
348,216,542781,1,0,3:0:0:0:
385,226,542860,1,0,3:0:0:0:
423,220,542939,1,0,3:0:0:0:
456,201,543019,6,0,L|466:292,1,77.0000023498536,12|0,3:3|0:0,0:0:0:0:
295,166,543334,2,0,L|303:89,1,77.0000023498536,4|0,0:1|0:0,0:0:0:0:
245,256,543650,1,4,3:1:0:0:
206,257,543728,1,0,3:0:0:0:
168,259,543807,1,0,3:0:0:0:
129,260,543886,1,0,3:0:0:0:
90,262,543966,102,0,L|6:265,2,77.0000023498536,4|0|4,3:1|0:0|0:1,0:0:0:0:
257,182,544440,1,0,0:0:0:0:
56,92,544598,2,0,L|53:168,1,77.0000023498536,4|0,0:1|0:0,0:0:0:0:
116,300,544913,5,12,3:3:0:0:
149,319,544991,1,0,3:0:0:0:
187,324,545070,1,0,3:0:0:0:
224,315,545149,1,0,3:0:0:0:
260,300,545229,1,4,3:1:0:0:
296,288,545307,1,0,3:0:0:0:
334,289,545386,1,0,3:0:0:0:
369,305,545465,1,0,3:0:0:0:
398,331,545545,101,4,3:1:0:0:
401,293,545623,1,0,3:0:0:0:
404,255,545702,1,0,3:0:0:0:
407,216,545781,1,0,3:0:0:0:
408,178,545861,6,0,L|419:-2,1,154.000004699707,4|4,3:1|0:1,0:0:0:0:
255,83,546334,1,0,0:0:0:0:
324,164,546492,1,4,3:1:0:0:
289,180,546570,1,0,3:0:0:0:
251,185,546649,1,0,3:0:0:0:
214,175,546728,1,0,3:0:0:0:
179,157,546808,102,0,L|188:310,1,154.000004699707,12|4,3:3|0:1,0:0:0:0:
324,164,547282,1,0,0:0:0:0:
196,71,547440,1,4,3:1:0:0:
157,68,547518,1,0,3:0:0:0:
119,65,547597,1,0,3:0:0:0:
80,62,547676,1,0,3:0:0:0:
42,57,547756,6,0,B|43:110|43:110|64:163|64:163|68:230,1,154.000004699707,4|4,3:1|0:1,0:0:0:0:
175,261,548229,1,0,0:0:0:0:
126,88,548387,2,0,L|125:3,1,77.0000023498536,4|0,0:1|0:0,0:0:0:0:
191,178,548703,101,12,3:3:0:0:
229,177,548781,1,0,3:0:0:0:
267,177,548860,1,0,3:0:0:0:
306,177,548939,1,0,3:0:0:0:
341,177,549019,1,4,3:1:0:0:
379,178,549097,1,0,3:0:0:0:
417,179,549176,1,0,3:0:0:0:
456,181,549255,1,0,3:0:0:0:
492,183,549334,5,4,3:1:0:0:
470,214,549412,1,0,3:0:0:0:
464,252,549491,1,0,3:0:0:0:
473,289,549570,1,0,3:0:0:0:
494,321,549650,102,8,L|405:329,1,77.0000023498536,8|8,3:0|3:0,3:0:0:0:
148,292,549966,5,8,3:0:0:0:
455,195,550124,1,8,3:0:0:0:
331,48,550598,101,8,3:0:0:0:
148,292,550756,1,8,3:0:0:0:
455,195,550913,5,8,3:0:0:0:
131,147,551071,1,8,3:0:0:0:
228,311,551545,101,8,3:0:0:0:
398,78,551703,1,8,3:0:0:0:
323,237,551861,5,8,3:0:0:0:
183,10,552019,1,8,3:0:0:0:
144,296,552492,101,8,3:0:0:0:
97,29,552650,1,8,3:0:0:0:
233,347,552808,5,8,3:0:0:0:
292,106,552966,1,8,3:0:0:0:
416,231,553441,101,14,3:3:0:0:
256,192,553519,12,0,562283,0:0:0:0:
127,168,562914,6,0,P|178:178|230:173,1,105.000004005432
300,62,563546,102,0,B|283:97|301:136|301:136|317:172|300:214,2,157.500006008148
174,206,565441,2,0,L|171:98,1,105.000004005432,0|0,0:0|0:0,0:0:0:0:
249,329,566072,6,0,B|249:277|249:277|264:229|264:229|262:171,2,157.500006008148,0|0|0,0:0|0:0|0:0,0:0:0:0:
268,95,568283,1,0,0:0:0:0:
274,120,568598,102,0,P|306:194|274:261,2,157.500006008148
70,194,571125,6,0,B|107:175|144:193|144:193|185:214|224:193,2,157.500006008148
318,68,573019,2,0,P|332:116|317:169,1,105.000004005432
281,261,573651,102,0,P|358:258|412:203,2,157.500006008148,2|2|2,0:0|0:0|0:0,0:0:0:0:
139,69,575546,2,0,P|109:108|114:176,1,105.000004005432,0|0,0:0|0:0,0:0:0:0:
183,133,576177,6,0,B|198:170|173:210|173:210|151:246|166:287,2,157.500006008148,2|2|2,0:0|0:0|0:0,0:0:0:0:
173,108,577441,1,0,0:0:0:0:
157,229,578388,1,0,0:0:0:0:
179,237,578704,102,0,B|261:256|261:256|343:245,2,157.500006008148,2|2|2,0:0|0:0|0:0,0:0:0:0:
409,96,581230,6,0,B|332:127|332:127|237:131,2,157.500006008148,2|2|2,0:0|0:0|0:0,0:0:0:0:
209,280,583125,2,0,L|205:384,1,105.000004005432
390,124,583756,102,0,P|432:177|428:225,1,105.000004005432,2|0,3:3|0:0,0:0:0:0:
397,251,584230,2,0,L|292:259,1,105.000004005432,4|0,3:1|0:0,0:0:0:0:
257,219,584704,2,0,B|227:199|189:198|160:218|160:218|130:238|81:240|57:218,1,210.000008010865,4|0,3:1|0:0,0:0:0:0:
104,49,585651,2,0,L|108:159,1,105.000004005432
206,313,586283,6,0,L|320:304,1,105.000004005432,2|0,3:3|0:0,0:0:0:0:
356,278,586756,2,0,P|334:223|349:175,1,105.000004005432,4|0,3:1|0:0,0:0:0:0:
386,147,587230,2,0,P|273:113|191:148,1,210.000008010865,4|0,3:1|0:0,0:0:0:0:
79,197,588493,1,0,0:0:0:0:
105,212,588809,102,0,P|158:227|219:201,1,105.000004005432,2|0,3:3|0:0,0:0:0:0:
224,165,589283,2,0,L|235:280,1,105.000004005432,4|0,3:1|0:0,0:0:0:0:
241,321,589756,1,4,3:1:0:0:
150,108,591335,6,0,L|254:110,1,105.000004005432,2|0,3:3|0:0,0:0:0:0:
295,85,591809,2,0,L|293:204,1,105.000004005432,4|0,3:1|0:0,0:0:0:0:
274,234,592283,2,0,L|335:234,1,52.5000020027161,4|0,3:1|0:0,0:0:0:0:
361,218,592598,102,0,P|386:271|373:333,1,105.000004005432,8|0,0:3|0:0,0:0:0:0:
296,282,593072,1,0,3:0:0:0:
262,299,593230,2,8,L|157:309,1,105.000004005432,0|0,3:0|0:0,0:3:0:0:
39,192,593704,1,0,3:0:0:0:
136,217,593862,6,0,L|241:227,1,105.000004005432,2|0,3:3|0:0,0:0:0:0:
312,175,594335,2,0,P|333:127|312:68,1,105.000004005432,4|0,3:1|0:0,0:0:0:0:
257,120,594809,2,0,L|165:123,1,78.7500030040742,4|0,3:1|0:0,0:0:0:0:
145,144,595125,102,0,P|113:150|74:145,1,52.5000020027161,2|2,0:0|0:0,0:0:0:0:
146,260,595441,2,0,P|190:252|231:257,1,78.7500030040742,2|0,0:0|0:0,0:0:0:0:
258,276,595756,2,0,P|295:279|324:275,1,52.5000020027161,2|2,0:0|0:0,0:0:0:0:
406,341,596072,2,0,L|408:254,1,78.7500030040742,2|0,0:0|0:0,0:0:0:0:
430,231,596388,6,0,L|432:124,1,105.000004005432,4|2,3:1|0:0,0:0:0:0:
346,85,596862,2,0,P|292:73|239:85,1,105.000004005432,4|2,3:1|0:0,0:0:0:0:
165,186,597335,2,0,P|216:195|265:182,1,78.7500030040742,4|0,3:1|0:0,0:0:0:0:
279,170,597651,102,0,L|284:246,1,52.5000020027161,2|2,0:0|0:0,0:0:0:0:
331,305,597967,2,0,P|372:300|413:300,1,78.7500030040742,2|0,0:0|0:0,0:0:0:0:
439,276,598283,2,0,L|442:223,1,52.5000020027161,2|2,0:0|0:0,0:0:0:0:
460,130,598598,2,0,P|413:126|362:131,1,78.7500030040742,2|0,0:0|0:0,0:0:0:0:
348,168,598914,6,4,L|231:172,1,105.000004005432,4|2,3:1|0:0,0:1:0:0:
199,209,599388,2,0,L|196:101,1,105.000004005432,4|2,3:0|0:0,0:0:0:0:
160,58,599862,2,0,L|95:57,1,52.5000020027161,4|2,3:0|0:0,0:0:0:0:
67,142,600177,101,2,0:0:0:0:
67,155,600255,1,2,0:0:0:0:
68,168,600334,1,2,0:0:0:0:
69,182,600413,1,2,0:0:0:0:
69,196,600493,2,0,L|75:297,1,78.7500030040742,2|0,0:0|0:0,0:0:0:0:
58,345,600809,5,2,0:0:0:0:
68,347,600888,1,2,0:0:0:0:
78,349,600967,1,2,0:0:0:0:
88,348,601046,1,2,0:0:0:0:
98,345,601125,2,0,L|194:344,1,78.7500030040742,2|0,0:0|0:0,0:0:0:0:
203,330,601441,101,4,3:1:0:0:
288,269,601598,2,0,L|321:271,2,26.2500010013581,2|2|2,0:3|0:3|0:3,0:3:0:0:
411,325,601914,1,4,3:1:0:0:
385,214,602072,1,2,0:3:0:0:
386,195,602151,1,2,0:3:0:0:
387,176,602230,1,2,0:3:0:0:
389,157,602309,1,2,0:3:0:0:
390,138,602388,2,0,L|451:131,1,52.5000020027161,4|8,3:1|0:3,0:0:0:0:
321,71,602625,1,8,0:3:0:0:
302,68,602704,6,8,L|255:65,1,26.2500010013581,8|8,0:3|0:3,0:3:0:0:
196,149,602862,2,0,L|249:152,1,52.5000020027161,4|8,3:1|3:0,0:0:0:0:
351,205,603098,1,8,3:0:0:0:
375,213,603176,1,8,3:0:0:0:
402,213,603255,1,8,3:0:0:0:
430,204,603335,2,0,L|437:275,1,52.5000020027161,0|8,3:0|0:3,0:0:0:0:
340,307,603651,1,4,3:1:0:0:
390,138,603809,1,8,0:3:0:0:
291,76,603967,102,0,L|149:69,1,140,2|2,3:3|0:0,0:0:0:0:
58,193,604441,1,0,3:0:0:0:
218,306,604598,2,0,L|224:221,1,70,8|0,0:3|0:0,0:0:0:0:
383,40,604914,6,0,L|372:179,1,140,4|2,3:1|0:0,0:0:0:0:
263,106,605388,1,0,0:0:0:0:
333,243,605546,2,0,P|366:255|401:249,1,70,2|0,0:0|3:0,0:0:0:0:
198,188,605862,2,0,B|126:177|126:177|34:193,1,140,8|0,0:3|0:0,0:0:0:0:
234,288,606335,1,0,0:0:0:0:
271,86,606493,102,0,B|254:117|271:155|271:155|286:187|271:226,1,140,4|2,3:1|0:0,0:0:0:0:
340,118,606967,1,0,3:0:0:0:
234,288,607125,2,0,P|267:300|302:294,1,70,8|0,0:3|0:0,0:0:0:0:
434,359,607441,6,0,P|415:290|434:225,1,140,4|2,3:1|0:0,0:0:0:0:
376,49,607914,2,0,P|342:40|307:46,1,70
256,212,608230,1,0,3:0:0:0:
256,212,608309,1,0,3:0:0:0:
256,212,608388,2,0,P|327:166|332:88,1,140,8|4,0:3|0:1,0:0:0:0:
105,107,609019,102,0,L|244:117,1,140,4|2,3:1|0:0,0:0:0:0:
384,217,609493,1,0,3:0:0:0:
172,197,609651,2,0,L|88:191,1,70,8|0,0:3|0:0,0:0:0:0:
260,40,609967,6,0,B|282:111|282:111|267:194,1,140,4|2,3:1|0:0,0:0:0:0:
135,119,610441,1,0,3:0:0:0:
233,245,610598,2,0,P|273:255|309:245,1,70,2|0,0:0|3:0,0:0:0:0:
408,50,610914,2,0,L|404:196,1,140,8|4,0:3|3:1,0:0:0:0:
135,119,611546,102,0,P|201:93|265:117,1,140,2|0,3:3|0:0,0:0:0:0:
233,312,612019,2,0,B|207:269|207:269|202:179,1,140,4|0,3:1|0:0,0:0:0:0:
285,47,612493,2,0,L|290:131,1,70,4|0,3:1|0:0,0:0:0:0:
292,141,612730,1,8,3:3:0:0:
294,165,612809,5,8,3:3:0:0:
88,263,612967,1,8,3:3:0:0:
165,154,613125,101,8,3:3:0:0:
254,348,613283,1,8,3:3:0:0:
331,64,613441,5,8,3:3:0:0:
313,268,613598,1,8,3:3:0:0:
165,154,613756,2,0,P|115:136|59:153,1,105,4|0,3:1|0:0,0:0:0:0:
32,136,614072,102,0,L|41:281,1,140,2|2,3:3|0:0,0:0:0:0:
216,214,614546,1,4,3:1:0:0:
85,79,614704,2,0,P|44:58|4:64,1,70,8|0,0:3|0:0,0:0:0:0:
256,88,615019,6,0,B|325:79|325:79|409:97,1,140,4|2,3:1|0:0,0:0:0:0:
439,256,615493,1,0,3:0:0:0:
278,172,615651,2,0,L|209:179,1,70,2|0,0:0|3:0,0:0:0:0:
343,235,615967,2,0,P|368:174|342:107,1,140,12|4,0:3|3:1,0:0:0:0:
78,47,616598,102,0,B|107:94|107:94|111:196,1,140,2|2,3:3|0:0,0:0:0:0:
41,324,617072,1,0,3:0:0:0:
41,324,617151,1,0,3:0:0:0:
41,324,617230,2,0,L|129:330,1,70,12|0,3:3|0:0,0:0:0:0:
287,239,617546,6,0,L|121:251,1,140,4|2,3:1|0:0,0:0:0:0:
68,96,618019,1,0,3:0:0:0:
209,160,618177,1,2,0:0:0:0:
207,31,618335,1,0,3:0:0:0:
207,31,618414,1,0,3:0:0:0:
207,31,618493,2,0,P|249:24|288:34,1,70,8|0,3:3|0:0,0:0:0:0:
240,115,618809,2,0,L|243:225,1,105,4|0,3:1|0:0,0:0:0:0:
266,246,619125,102,0,P|198:218|134:245,1,140,2|0,3:3|0:0,0:0:0:0:
66,302,619598,2,0,P|139:334|198:302,1,140,4|0,3:1|0:0,0:0:0:0:
321,197,620072,1,4,3:1:0:0:
173,120,620230,1,0,3:0:0:0:
66,302,620388,6,0,L|59:216,1,70,4|0,3:1|0:0,0:0:0:0:
56,196,620625,1,8,3:3:0:0:
53,161,620704,101,8,3:3:0:0:
321,197,620862,1,8,3:3:0:0:
215,382,621019,5,8,3:3:0:0:
173,120,621177,1,8,3:3:0:0:
362,66,621335,102,0,P|420:54|466:73,1,105,4|0,3:1|0:0,0:0:0:0:
485,96,621651,6,0,P|486:135|474:168,1,70,4|0,3:1|0:0,0:0:0:0:
367,197,621888,2,0,P|395:176|430:169,1,70,4|0,3:1|0:0,0:0:0:0:
512,247,622125,2,0,P|479:232|457:205,1,70,4|0,3:1|0:0,0:0:0:0:
391,289,622362,102,0,L|387:344,1,35,4|0,3:1|0:0,0:0:0:0:
405,354,622519,1,8,0:3:0:0:
405,354,622598,1,8,0:3:0:0:
252,309,622756,1,4,3:1:0:0:
499,269,622914,5,8,0:3:0:0:
288,180,623072,1,4,3:1:0:0:
361,49,623230,101,8,0:3:0:0:
252,309,623388,1,4,3:1:0:0:
172,128,623546,5,8,3:3:0:0:
206,122,623624,1,8,3:3:0:0:
240,130,623703,1,8,3:3:0:0:
268,150,623782,1,8,3:3:0:0:
287,179,623861,1,4,3:3:0:0:
142,258,624019,1,0,3:0:0:0:
104,28,624177,102,0,B|121:60|103:98|103:98|88:129|104:164,1,140,2|0,3:3|0:0,0:0:0:0:
172,325,624651,1,2,3:2:0:0:
355,207,624809,1,8,0:3:0:0:
172,128,624967,1,0,3:0:0:0:
286,283,625125,6,0,B|273:215|273:215|288:138,1,140,4|2,3:1|0:0,0:0:0:0:
410,168,625598,1,0,3:0:0:0:
290,303,625756,1,2,0:0:0:0:
141,260,625914,1,0,3:0:0:0:
141,260,625993,1,0,3:0:0:0:
141,260,626072,2,0,L|154:343,1,70,12|0,0:1|0:0,0:0:0:0:
223,147,626388,2,0,L|238:41,1,105,4|0,3:1|0:0,0:0:0:0:
280,30,626704,102,0,P|210:-1|143:37,1,140,2|2,3:3|0:0,0:0:0:0:
60,182,627177,1,0,3:0:0:0:
223,147,627335,2,0,L|214:63,1,70,12|0,0:1|0:0,0:0:0:0:
115,242,627651,6,0,B|158:281|158:281|242:284,1,140,4|2,3:1|0:0,0:0:0:0:
422,252,628125,1,0,3:0:0:0:
284,197,628283,2,0,L|201:195,1,70,2|0,0:0|3:0,0:0:0:0:
66,103,628598,2,0,L|68:20,1,70,12|0,0:1|0:0,0:0:0:0:
213,125,628914,2,0,L|214:194,1,70,4|0,3:1|0:0,0:0:0:0:
344,48,629230,5,8,0:3:0:0:
345,88,629309,1,8,0:3:0:0:
347,128,629388,2,0,L|350:198,1,45.4999979171754,0|0,3:0|3:0,3:0:0:0:
437,311,629546,5,8,0:3:0:0:
407,284,629625,1,8,0:3:0:0:
369,271,629703,1,8,0:3:0:0:
329,272,629782,1,8,0:3:0:0:
292,289,629862,2,0,P|271:302|253:324,1,45.4999979171754,0|0,3:0|3:0,3:0:0:0:
123,174,630019,5,8,0:3:0:0:
162,176,630097,1,8,0:3:0:0:
199,192,630177,2,0,P|220:205|238:226,1,45.4999979171754,0|0,3:0|3:0,3:0:0:0:
347,128,630335,2,8,L|355:54,1,45.4999979171754,8|8,0:3|0:3,0:3:0:0:
186,83,630493,5,8,0:3:0:0:
145,79,630571,1,8,0:3:0:0:
105,75,630650,1,0,3:0:0:0:
65,72,630729,1,0,3:0:0:0:
25,68,630809,2,8,L|24:128,1,45.4999979171754,8|8,0:3|0:3,0:3:0:0:
72,285,630967,69,0,3:0:0:0:
101,258,631045,1,0,3:0:0:0:
118,221,631125,2,8,P|128:186|125:158,1,45.4999979171754,8|8,0:3|0:3,0:3:0:0:
250,36,631283,2,0,L|254:98,1,45.4999979171754,0|0,3:0|3:0,3:0:0:0:
280,235,631441,1,8,0:3:0:0:
320,237,631519,1,8,0:3:0:0:
360,239,631598,2,0,L|422:242,1,45.4999979171754,0|0,3:0|3:0,3:0:0:0:
479,102,631756,5,8,0:3:0:0:
446,78,631834,1,8,0:3:0:0:
407,67,631913,1,8,0:3:0:0:
367,71,631992,1,8,0:3:0:0:
331,87,632072,2,0,L|323:143,1,45.4999979171754,0|0,3:0|3:0,3:0:0:0:
330,329,632230,5,8,0:3:0:0:
367,315,632308,1,8,0:3:0:0:
395,285,632388,2,0,P|405:250|403:219,1,45.4999979171754,0|0,3:0|3:0,3:0:0:0:
331,87,632546,1,8,0:3:0:0:
190,231,632705,5,8,0:3:0:0:
193,271,632783,1,8,0:3:0:0:
196,311,632862,2,0,L|200:356,1,45.4999979171754,0|0,3:0|3:0,3:0:0:0:
95,170,633019,69,8,0:3:0:0:
121,139,633097,1,8,0:3:0:0:
156,120,633176,1,0,3:0:0:0:
195,114,633255,1,0,3:0:0:0:
234,122,633335,2,0,P|270:137|288:152,1,45.4999979171754,8|8,0:3|0:3,0:0:0:0:
425,251,633493,2,0,L|429:193,1,45.4999979171754,8|8,0:3|0:3,0:3:0:0:
430,67,633651,5,4,3:1:0:0:
383,33,633729,1,0,3:0:0:0:
327,22,633808,1,0,3:0:0:0:
271,33,633887,1,0,3:0:0:0:
225,65,633966,1,4,3:1:0:0:
195,114,634045,1,0,3:0:0:0:
189,171,634124,1,0,3:0:0:0:
204,226,634203,1,0,3:0:0:0:
239,269,634283,70,0,P|167:308|88:290,1,146.999995513916,2|0,3:3|0:0,0:0:0:0:
26,73,634756,1,0,3:0:0:0:
150,127,634914,2,0,L|157:222,1,73.4999977569581,8|0,0:3|3:0,0:0:0:0:
240,307,635230,6,0,B|234:256|234:256|243:206|243:206|240:161,1,146.999995513916,2|0,3:3|0:0,0:0:0:0:
379,175,635704,1,0,3:0:0:0:
287,370,635862,2,0,P|252:386|197:375,1,73.4999977569581,0|0,0:0|3:0,0:0:0:0:
216,183,636177,70,0,L|212:104,1,73.4999977569581,8|0,0:3|0:0,0:0:0:0:
198,90,636387,1,0,3:0:0:0:
193,90,636440,1,0,3:0:0:0:
188,90,636493,6,8,L|129:85,2,48.9999985046387,8|8|8,0:3|0:3|0:3,0:3:0:0:
84,193,636809,1,0,0:0:0:0:
82,191,636862,1,0,0:0:0:0:
80,189,636914,102,8,L|139:184,1,48.9999985046387,8|8,0:3|0:3,0:3:0:0:
229,284,637125,1,0,0:0:0:0:
234,288,637177,1,0,0:0:0:0:
232,286,637230,2,8,L|227:227,1,48.9999985046387,8|8,0:3|0:3,0:3:0:0:
303,133,637441,6,8,L|308:192,1,48.9999985046387,8|8,0:3|0:3,0:3:0:0:
396,336,637651,1,8,0:3:0:0:
400,276,637756,1,8,0:0:0:0:
405,217,637861,1,8,0:0:0:0:
411,158,637966,1,8,0:0:0:0:
416,99,638072,102,0,L|421:28,1,48.9999985046387,8|0,0:3|3:0,0:0:0:0:
311,63,638283,1,0,3:0:0:0:
276,93,638388,2,0,B|224:84|224:84|172:96,1,97.9999970092774,2|8,0:3|0:3,0:0:0:0:
65,155,638704,5,8,0:3:0:0:
41,197,638809,1,0,3:0:0:0:
39,246,638914,1,0,3:0:0:0:
64,287,639019,102,0,B|115:299|115:299|168:286,1,97.9999970092774,10|0,0:3|0:0,0:0:0:0:
203,310,639335,5,2,3:3:0:0:
256,192,639414,12,0,641704,0:0:0:0:
182,152,641862,6,10,L|185:232,1,73.4999977569581
241,81,642177,5,10,0:0:0:0:
184,225,642335,1,10,0:0:0:0:
329,50,642493,101,10,0:0:0:0:
335,261,642651,1,10,0:0:0:0:
150,114,642809,5,10,0:0:0:0:
418,128,642967,1,10,0:0:0:0:
307,351,643125,101,10,0:0:0:0:
241,81,643283,1,10,0:0:0:0:
493,259,643441,5,10,0:0:0:0:
210,174,643598,1,10,0:0:0:0:
461,24,643756,101,10,0:0:0:0:
335,261,643914,1,10,0:0:0:0:
241,81,644072,5,10,0:0:0:0:
511,143,644230,1,10,0:0:0:0:
334,260,644388,102,0,B|296:245|252:260|252:260|210:275|177:262,1,161.000003070831,2|4,0:3|0:1,0:0:0:0:
73,75,645019,1,4,3:1:0:0:
112,63,645097,1,0,3:0:0:0:
152,60,645176,1,0,3:0:0:0:
192,66,645255,1,0,3:0:0:0:
230,79,645335,6,0,P|324:98|386:81,1,161.000003070831,12|4,3:1|0:1,0:0:0:0:
423,193,645967,1,4,3:1:0:0:
436,230,646045,1,0,3:0:0:0:
436,270,646124,1,0,3:0:0:0:
425,308,646203,1,0,3:0:0:0:
403,341,646282,102,0,B|321:327|321:327|224:341,1,161.000003070831,4|4,3:1|0:1,0:0:0:0:
87,344,646914,1,4,0:1:0:0:
32,125,647230,5,12,3:1:0:0:
65,102,647308,1,0,3:0:0:0:
103,91,647387,1,0,3:0:0:0:
143,92,647466,1,0,3:0:0:0:
181,105,647545,1,4,3:1:0:0:
213,129,647624,1,0,3:0:0:0:
238,161,647703,1,0,3:0:0:0:
266,189,647781,1,0,3:0:0:0:
301,208,647860,1,4,3:1:0:0:
340,218,647939,1,0,3:0:0:0:
380,216,648018,1,0,3:0:0:0:
418,204,648097,1,0,3:0:0:0:
455,186,648177,102,0,L|462:23,1,161.000003070831,4|4,3:1|0:1,0:0:0:0:
218,62,648809,1,4,3:1:0:0:
190,90,648887,1,0,3:0:0:0:
177,128,648966,1,0,3:0:0:0:
180,168,649045,1,0,3:0:0:0:
198,204,649124,6,0,P|114:233|43:206,1,161.000003070831,12|4,3:1|0:1,0:0:0:0:
282,135,649756,1,4,3:1:0:0:
322,133,649834,1,0,3:0:0:0:
362,132,649913,1,0,3:0:0:0:
402,130,649992,1,0,3:0:0:0:
443,128,650072,102,0,B|461:210|461:210|444:288,1,161.000003070831,4|4,3:1|0:1,3:0:0:0:
257,164,650703,1,4,0:1:0:0:
53,203,651019,37,8,3:3:0:0:
87,246,651097,1,8,3:3:0:0:
140,267,651176,1,8,3:3:0:0:
195,256,651255,1,8,3:3:0:0:
237,218,651335,1,8,3:3:0:0:
257,164,651414,1,8,3:3:0:0:
287,118,651492,1,8,3:3:0:0:
337,93,651571,1,8,3:3:0:0:
394,95,651650,1,8,3:3:0:0:
441,126,651729,1,8,3:3:0:0:
466,176,651808,1,8,3:3:0:0:
464,232,651887,1,8,3:3:0:0:
433,279,651966,1,8,3:3:0:0:
