osu file format v14

[General]
AudioFilename: Avenged Sevenfold - Save Me (Nightmare, 2010).mp3
AudioLeadIn: 0
PreviewTime: 483384
Countdown: 0
SampleSet: None
StackLeniency: 0.5
Mode: 0
LetterboxInBreaks: 0
WidescreenStoryboard: 1

[Editor]
Bookmarks: 45697,53166,211803,284434,299595,309701,382966,411861,483384,487177,492858,648847
DistanceSpacing: 1
BeatDivisor: 4
GridSize: 4
TimelineZoom: 3.399999

[Metadata]
Title:Save Me
TitleUnicode:Save Me
Artist:Avenged Sevenfold
ArtistUnicode:Avenged Sevenfold
Creator:NucleaRaven
Version:Nightmare
Source:
Tags:A7X Marathon Rock Metal English Nightmare
BeatmapID:739257
BeatmapSetID:334114

[Difficulty]
HPDrainRate:6.5
CircleSize:4.1
OverallDifficulty:8.8
ApproachRate:9.5
SliderMultiplier:1.3
SliderTickRate:1

[Events]
//Background and Video events
0,0,"bg.jpg",0,0
//Break Periods
2,45897,52751
2,368002,374862
2,447587,450652
2,564849,583271
//Storyboard Layer 0 (Background)
//Storyboard Layer 1 (Fail)
//Storyboard Layer 2 (Pass)
//Storyboard Layer 3 (Foreground)
//Storyboard Sound Samples

[TimingPoints]
13977,947.358448858433,3,2,1,67,1,0
15382,315.789473684211,3,2,1,67,1,0
53276,-133.333333333333,3,3,1,67,0,0
60854,-58.8235294117647,3,3,1,67,0,0
63617,-100,3,3,1,67,0,0
64635,-58.8235294117647,3,3,1,67,0,0
68345,-100,3,3,1,67,0,0
79487,-100,3,3,1,48,0,0
80118,-100,3,3,1,67,0,0
80671,-133.333333333333,3,3,1,67,0,0
81612,-100,3,3,1,67,0,0
83592,-100,3,3,1,67,0,0
92276,-66.6666666666667,3,3,1,67,0,0
99224,-66.6666666666667,3,2,1,67,0,0
100013,-100,3,2,1,67,0,0
113906,-83.3333333333333,3,2,1,67,0,0
121487,-83.3333333333333,3,3,1,67,0,0
125197,-66.6666666666667,3,3,1,67,0,0
138224,-50,3,3,1,67,0,0
138539,-66.6666666666667,3,3,1,67,0,0
143118,-100,3,3,1,67,0,0
152118,-100,3,2,1,67,0,0
158434,-66.6666666666667,3,2,1,67,0,0
159382,-66.6666666666667,3,3,1,67,0,0
166960,-66.6666666666667,3,2,1,67,0,1
174263,-66.6666666666667,3,2,1,18,0,1
174539,-66.6666666666667,3,2,1,67,0,1
176276,-66.6666666666667,3,2,1,15,0,1
176434,-66.6666666666667,3,2,1,67,0,1
180066,-66.6666666666667,3,2,1,15,0,1
180224,-66.6666666666667,3,2,1,67,0,1
187645,-66.6666666666667,3,2,1,15,0,1
187803,-66.6666666666667,3,2,1,67,0,1
189303,-55.5555555555556,3,2,1,67,0,1
189421,-55.5555555555556,3,2,1,18,0,1
189697,-55.5555555555556,3,2,1,67,0,1
197276,-55.5555555555556,3,3,1,67,0,0
201066,-100,3,3,1,67,0,0
212434,-50,3,3,1,67,0,0
214329,-83.3333333333333,3,3,1,67,0,0
234224,-83.3333333333333,3,3,1,73,0,0
234382,-83.3333333333333,3,3,1,47,0,0
234539,-83.3333333333333,3,3,1,73,0,0
234697,-83.3333333333333,3,3,1,47,0,0
234855,-83.3333333333333,3,3,1,80,0,0
235408,-66.6666666666667,3,2,1,67,0,0
250329,-66.6666666666667,3,3,1,67,0,1
254118,-100,3,3,1,67,0,1
259645,-100,3,3,1,35,0,1
259803,-100,3,3,1,67,0,1
263750,-100,3,3,1,67,0,1
284434,-100,3,3,1,67,0,0
298329,-83.3333333333333,3,3,1,67,0,0
299592,-100,3,2,1,67,0,0
309697,-100,3,3,1,67,0,1
319803,-66.6666666666667,3,3,1,67,0,1
329908,-66.6666666666667,3,3,1,45,0,1
336224,-66.6666666666667,4,3,1,67,0,1
337487,-66.6666666666667,4,3,1,67,0,1
346803,-50,4,2,1,67,0,1
347118,-111.111111111111,4,2,1,67,0,1
347592,315.789473684211,4,2,1,67,1,0
349487,-66.6666666666667,4,2,1,67,0,0
356516,-55.5555555555556,4,2,1,67,0,0
367809,315.789473684211,3,2,1,67,1,0
375387,-100,3,2,1,19,0,0
376335,-100,3,2,1,10,0,0
376493,-100,3,2,1,19,0,0
378230,-100,3,2,1,10,0,0
378387,-100,3,2,1,19,0,0
380124,-100,3,2,1,10,0,0
380282,-100,3,2,1,19,0,0
382019,-100,3,2,1,10,0,0
382177,-100,3,2,1,10,0,0
382966,-133.333333333333,3,2,1,35,0,0
394335,-100,3,2,1,35,0,0
398124,-100,3,2,1,50,0,0
413200,-71.4285714285714,3,2,1,67,0,0
426463,-100,3,2,1,67,0,0
451177,-66.6666666666667,3,3,1,67,0,0
458282,-100,3,3,1,67,0,0
458756,-66.6666666666667,3,3,1,67,0,0
465387,-35,3,3,1,67,0,0
465703,-66.6666666666667,3,3,1,67,0,0
481177,-54.054054054054,3,3,1,67,0,0
482756,-66.6666666666667,3,3,1,67,0,0
485282,-66.6666666666667,3,3,1,67,0,1
508019,-55.5555555555556,3,3,1,67,0,1
515282,-40,3,3,1,67,0,1
515519,-40,3,3,1,5,0,1
515598,-40,3,3,1,67,0,1
515753,-83.3333333333333,3,3,1,67,0,1
519387,-100,3,2,1,67,0,0
532651,-76.9230769230769,3,2,1,67,0,0
538806,-133.333333333333,3,2,1,67,0,0
541177,-66.6666666666667,3,2,1,67,0,0
544966,-66.6666666666667,3,2,1,67,0,0
549703,-66.6666666666667,3,3,1,67,0,0
553335,-66.6666666666667,3,2,1,5,0,0
553493,-66.6666666666667,3,2,1,26,0,0
553572,-66.6666666666667,3,2,1,5,0,0
563586,315.789473684211,4,2,1,5,1,0
583796,-100,4,2,2,67,0,0
595164,-100,4,2,1,67,0,0
601480,-133.333333333333,4,3,1,67,0,0
603691,-133.333333333333,4,2,1,67,0,0
614112,-100,4,2,1,67,0,0
631164,-66.6666666666667,4,2,1,67,0,0
644426,315.789473684211,3,2,1,67,1,0
652004,-100,3,2,1,5,0,0

[Colours]
Combo1 : 4,214,251
Combo2 : 255,255,255

[HitObjects]
128,168,13977,5,0,0:0:0:0:
144,152,14135,1,0,0:0:0:0:
160,136,14293,1,0,0:0:0:0:
176,120,14451,1,0,0:0:0:0:
192,104,14609,1,0,0:0:0:0:
208,88,14767,1,0,0:0:0:0:
224,72,14925,1,0,0:0:0:0:
240,56,15082,1,0,0:0:0:0:
256,40,15240,1,0,0:0:0:0:
272,24,15382,5,0,3:0:0:0:
96,248,16013,2,0,L|136:224,4,32.5,0|0|0|0|8,0:0|0:0|0:0|0:0|0:0,0:0:0:0:
368,104,16960,2,0,L|336:120,4,32.5,0|0|0|0|0,0:0|0:0|0:0|0:0|3:0,0:0:0:0:
232,168,18224,6,0,L|216:224,3,32.5,8|0|0|0,0:0|0:0|0:0|0:0,0:0:0:0:
248,176,18539,2,0,L|240:216,3,32.5,0|0|0|0,0:0|0:0|0:0|0:0,0:0:0:0:
264,184,18855,1,0,0:0:0:0:
296,200,18934,1,0,0:0:0:0:
328,216,19013,1,0,0:0:0:0:
360,232,19092,1,0,0:0:0:0:
392,248,19171,1,0,3:0:0:0:
112,272,19803,5,0,0:0:0:0:
120,272,19882,1,0,0:0:0:0:
128,272,19960,1,0,0:0:0:0:
136,272,20039,1,0,0:0:0:0:
144,272,20118,1,8,0:0:0:0:
408,72,20750,5,0,0:0:0:0:
400,72,20829,1,0,0:0:0:0:
392,72,20908,1,0,0:0:0:0:
384,72,20986,1,0,0:0:0:0:
376,72,21065,1,0,3:0:0:0:
376,304,22013,5,8,0:0:0:0:
345,313,22091,1,0,0:0:0:0:
312,312,22170,1,0,0:0:0:0:
282,300,22249,1,0,0:0:0:0:
257,279,22328,1,0,0:0:0:0:
241,251,22407,1,0,0:0:0:0:
235,220,22486,1,0,0:0:0:0:
232,188,22565,1,0,0:0:0:0:
217,159,22644,1,0,0:0:0:0:
193,137,22723,1,0,0:0:0:0:
164,123,22802,1,0,0:0:0:0:
131,121,22881,1,0,0:0:0:0:
100,129,22960,1,0,3:0:0:0:
328,288,23592,6,0,L|296:256,4,32.5,0|0|0|0|8,0:0|0:0|0:0|0:0|0:0,0:0:0:0:
104,112,24539,5,0,0:0:0:0:
136,96,24618,1,0,0:0:0:0:
172,88,24697,2,0,L|212:112,1,32.5
192,184,24855,2,0,P|288:220|320:196,1,130,0|0,3:0|0:0,0:0:0:0:
368,164,25329,2,0,P|280:116|256:124,1,130,0|0,3:0|0:0,0:0:0:0:
104,336,25803,2,0,P|204:308|218:287,1,130,8|0,0:0|0:0,0:0:0:0:
384,96,26276,2,0,P|384:176|368:240,1,130,0|0,0:0|0:0,0:0:0:0:
336,320,26750,5,0,3:0:0:0:
216,272,26908,1,0,0:0:0:0:
376,256,27066,1,0,0:0:0:0:
256,208,27224,1,0,3:0:0:0:
88,256,27539,2,0,L|32:184,1,65,0|8,0:0|0:0,0:0:0:0:
216,48,28171,1,0,3:0:0:0:
144,228,28645,6,0,P|264:116|248:12,1,260,0|0,3:0|3:0,0:0:0:0:
128,288,29592,1,8,0:0:0:0:
336,208,29908,2,0,P|368:160|312:88,1,130,0|8,3:0|0:0,0:0:0:0:
128,64,30539,1,0,3:0:0:0:
336,280,30855,1,8,0:0:0:0:
72,304,31171,5,0,3:0:0:0:
80,296,31250,1,0,0:0:0:0:
88,288,31329,1,0,0:0:0:0:
96,280,31408,1,0,0:0:0:0:
104,272,31487,2,0,B|188:204|188:204|220:240|220:240|308:164,1,260,8|8,0:0|0:0,0:0:0:0:
292,140,32197,5,0,0:0:0:0:
276,112,32276,1,0,0:0:0:0:
248,96,32355,1,0,0:0:0:0:
216,88,32434,1,0,3:0:0:0:
320,288,32750,1,8,0:0:0:0:
128,248,33066,5,0,3:0:0:0:
92,76,33382,5,10,0:0:0:0:
124,88,33461,1,0,0:0:0:0:
160,92,33540,1,0,0:0:0:0:
196,88,33619,1,0,0:0:0:0:
228,76,33697,1,0,3:0:0:0:
260,60,33777,1,0,0:0:0:0:
292,48,33856,1,0,0:0:0:0:
324,64,33935,1,0,0:0:0:0:
332,100,34014,1,8,0:0:0:0:
316,132,34093,1,0,0:0:0:0:
288,156,34172,1,0,0:0:0:0:
252,164,34251,1,0,0:0:0:0:
216,164,34330,5,0,3:0:0:0:
96,80,34645,1,8,0:0:0:0:
320,296,34960,1,0,3:0:0:0:
304,264,35039,1,0,0:0:0:0:
280,232,35118,1,0,0:0:0:0:
248,208,35197,1,0,0:0:0:0:
216,192,35276,2,0,B|108:168|56:276,1,195,8|0,0:0|0:0,0:0:0:0:
124,328,35908,5,8,0:0:0:0:
156,332,35987,1,0,0:0:0:0:
188,328,36066,1,0,0:0:0:0:
220,316,36145,1,0,0:0:0:0:
244,296,36224,2,0,B|304:224|304:224|312:168,1,130,0|8,3:0|0:0,0:0:0:0:
256,80,36697,2,0,P|224:128|168:180,1,130,0|0,3:0|3:0,0:0:0:0:
168,216,37171,6,8,L|168:276,3,32.5
204,240,37487,2,0,L|204:280,3,32.5
248,268,37803,1,0,2:0:0:0:
288,284,37882,1,0,2:0:0:0:
328,288,37960,1,0,2:0:0:0:
368,276,38039,1,0,3:0:0:0:
400,248,38118,1,0,3:0:0:0:
328,88,38750,6,0,P|340:120|296:204,1,130,0|8,3:0|0:0,0:0:0:0:
120,72,39382,1,0,0:0:0:0:
152,184,39697,1,0,3:0:0:0:
248,232,40013,2,0,P|272:224|304:168,2,65
344,104,40645,1,2,0:0:0:0:
248,232,40960,2,0,P|272:224|296:168,2,65,8|0|0,3:0|0:0|0:0,0:0:0:0:
272,64,41592,1,8,0:0:0:0:
131,40,41908,5,2,0:3:0:0:
401,189,42382,1,2,0:3:0:0:
131,40,42855,1,10,0:3:0:0:
136,348,43329,1,2,0:3:0:0:
444,327,43803,5,2,2:3:0:0:
428,300,43882,1,0,2:3:0:0:
404,276,43960,1,0,2:3:0:0:
376,260,44039,1,0,2:3:0:0:
348,244,44118,1,0,2:3:0:0:
316,232,44197,1,0,2:3:0:0:
288,212,44276,1,0,2:3:0:0:
272,184,44355,1,0,2:3:0:0:
264,152,44434,1,0,2:3:0:0:
272,120,44513,1,0,2:3:0:0:
288,92,44592,1,0,2:3:0:0:
308,68,44671,1,0,2:3:0:0:
336,52,44750,1,2,2:3:0:0:
368,48,44829,1,0,2:3:0:0:
396,60,44908,1,0,2:3:0:0:
408,92,44987,1,0,2:3:0:0:
408,156,45066,5,8,2:2:0:0:
408,180,45145,1,8,2:2:0:0:
408,204,45224,1,8,2:2:0:0:
408,228,45303,1,8,2:2:0:0:
408,252,45381,1,8,2:2:0:0:
408,276,45460,1,8,2:2:0:0:
408,300,45539,1,8,2:2:0:0:
408,324,45618,1,8,2:2:0:0:
408,348,45697,1,10,2:3:0:0:
160,104,53276,5,0,0:0:0:0:
312,72,53434,1,0,0:0:0:0:
112,256,53592,2,0,L|160:224,1,48.750001859665
160,280,54224,5,8,0:0:0:0:
312,312,54382,1,0,0:0:0:0:
112,128,54539,2,0,L|160:152,1,48.750001859665,0|0,0:0|0:0,0:0:0:0:
304,72,55171,5,0,0:0:0:0:
192,136,55329,2,0,L|192:184,2,48.750001859665,0|0|0,0:0|0:0|0:0,0:0:0:0:
304,200,55803,1,0,0:0:0:0:
144,320,55960,1,0,0:0:0:0:
288,312,56118,6,0,L|264:272,11,24.3750009298325,8|0|0|0|0|0|0|0|0|0|0|0,0:0|0:0|0:0|0:0|0:0|0:0|0:0|0:0|0:0|0:0|0:0|0:0,0:0:0:0:
275,291,57066,5,0,0:0:0:0:
424,312,57224,1,0,0:0:0:0:
224,128,57382,2,0,L|272:160,1,48.750001859665
240,280,58013,5,8,0:0:0:0:
88,312,58171,1,0,0:0:0:0:
288,128,58329,2,0,L|240:160,1,48.750001859665
304,312,58960,5,0,0:0:0:0:
192,248,59118,2,0,L|192:200,2,48.750001859665,0|0|0,0:0|0:0|0:0,0:0:0:0:
304,184,59592,1,0,0:0:0:0:
144,64,59749,1,0,0:0:0:0:
288,72,59908,6,0,L|272:104,3,24.3750009298325,10|0|0|0,0:0|0:0|0:0|0:0,0:0:0:0:
304,88,60224,2,0,L|288:120,3,24.3750009298325,2|0|0|0,0:0|0:0|0:0|0:0,0:0:0:0:
332,128,60539,1,14,0:0:0:0:
144,64,60855,5,0,0:0:0:0:
96,280,61171,1,8,0:0:0:0:
208,272,61329,2,0,P|328:168|344:104,1,221.000004215241
264,104,61803,1,8,0:0:0:0:
400,272,62118,1,0,0:0:0:0:
304,328,62276,1,0,0:0:0:0:
196,304,62434,1,8,0:0:0:0:
160,80,62750,5,0,0:0:0:0:
256,136,62908,1,0,0:0:0:0:
352,80,63066,1,8,0:0:0:0:
368,184,63224,1,0,0:0:0:0:
144,184,63382,2,0,P|160:240|200:296,1,110.50000210762,0|0,0:0|0:0,0:0:0:0:
368,304,63697,6,0,L|352:264,3,32.5,8|0|0|0,0:0|0:0|0:0|0:0,0:0:0:0:
344,304,64013,2,0,L|328:248,3,32.5,0|0|0|0,0:0|0:0|0:0|0:0,0:0:0:0:
328,304,64329,1,12,0:0:0:0:
296,304,64408,1,0,0:0:0:0:
264,304,64487,1,0,0:0:0:0:
232,304,64566,1,0,0:0:0:0:
208,304,64645,5,4,0:0:0:0:
156,88,64960,1,8,0:0:0:0:
272,96,65118,2,0,P|363:154|407:254,1,221.000004215241
408,332,65592,1,8,0:0:0:0:
464,96,65908,1,0,0:0:0:0:
368,40,66066,1,0,0:0:0:0:
260,56,66224,1,8,0:0:0:0:
224,288,66540,5,0,0:0:0:0:
320,232,66698,1,0,0:0:0:0:
416,288,66855,1,8,0:0:0:0:
432,184,67014,1,0,0:0:0:0:
208,184,67172,2,0,P|224:128|264:72,1,110.50000210762,0|0,0:0|0:0,0:0:0:0:
88,120,67487,6,0,P|168:72|200:80,1,110.50000210762,8|0,0:0|0:0,0:0:0:0:
424,120,67803,2,0,P|344:72|312:80,1,110.50000210762
88,232,68118,2,0,P|168:184|200:192,1,110.50000210762,8|8,0:0|0:0,0:0:0:0:
424,232,68434,5,6,0:0:0:0:
200,108,68750,1,0,0:0:0:0:
256,140,68908,1,0,0:0:0:0:
312,172,69066,1,0,0:0:0:0:
368,204,69224,1,0,0:0:0:0:
152,320,69382,1,8,0:0:0:0:
244,312,69539,5,0,0:0:0:0:
308,304,69697,1,0,0:0:0:0:
268,248,69855,1,0,0:0:0:0:
232,304,70013,1,0,0:0:0:0:
196,252,70171,1,0,0:0:0:0:
96,160,70329,6,0,P|128:112|152:96,1,65,0|0,0:0|0:0,0:0:0:0:
272,80,70645,1,0,0:0:0:0:
336,96,70803,1,0,0:0:0:0:
400,72,70960,1,0,0:0:0:0:
288,216,71118,1,0,0:0:0:0:
272,80,71276,2,0,L|224:104,2,32.5,8|0|0,0:0|0:0|0:0,0:0:0:0:
128,256,71592,2,0,L|160:216,2,32.5,0|0|0,0:0|0:0|0:0,0:0:0:0:
368,336,71908,1,0,0:0:0:0:
376,176,72066,1,0,0:0:0:0:
368,184,72145,1,0,0:0:0:0:
360,192,72224,5,2,0:0:0:0:
200,152,72382,1,0,0:0:0:0:
304,240,72539,1,0,0:0:0:0:
88,112,72697,6,0,P|136:80|168:80,1,65,0|0,0:0|0:0,0:0:0:0:
176,76,72934,1,0,0:0:0:0:
208,84,73013,1,0,0:0:0:0:
232,104,73092,1,0,0:0:0:0:
240,136,73171,5,8,0:0:0:0:
312,56,73329,1,0,0:0:0:0:
152,224,73487,1,0,0:0:0:0:
344,56,73645,1,0,0:0:0:0:
280,168,73803,1,0,3:2:0:0:
288,176,73882,1,0,0:0:0:0:
296,184,73961,1,0,0:0:0:0:
304,192,74040,1,0,0:0:0:0:
312,200,74119,1,2,0:0:0:0:
136,64,74276,5,0,0:0:0:0:
376,64,74434,1,0,0:0:0:0:
136,192,74592,1,0,0:0:0:0:
376,192,74750,1,0,0:0:0:0:
136,128,74908,1,0,0:0:0:0:
376,128,75066,1,8,0:0:0:0:
136,256,75224,1,0,0:0:0:0:
376,256,75382,5,0,0:0:0:0:
256,24,75697,1,8,0:0:0:0:
136,256,76013,1,6,0:0:0:0:
256,192,76329,5,0,0:0:0:0:
256,192,76487,1,0,0:0:0:0:
256,192,76645,1,0,0:0:0:0:
256,192,76803,1,0,0:0:0:0:
96,80,76960,1,8,0:0:0:0:
256,192,77276,5,0,0:0:0:0:
256,192,77434,1,0,0:0:0:0:
256,192,77592,1,0,0:0:0:0:
256,192,77750,1,0,0:0:0:0:
96,304,77908,1,2,0:0:0:0:
256,192,78224,5,0,0:0:0:0:
256,192,78382,1,0,0:0:0:0:
256,192,78540,1,0,0:0:0:0:
256,192,78698,1,0,0:0:0:0:
416,80,78855,1,8,0:0:0:0:
96,80,79171,1,0,0:0:0:0:
256,144,79487,5,2,2:0:0:0:
256,184,79566,1,2,2:0:0:0:
256,224,79645,1,2,2:0:0:0:
256,264,79724,1,2,2:0:0:0:
256,304,79803,1,2,2:0:0:0:
371,72,80118,5,0,0:0:0:0:
137,71,80276,1,0,0:0:0:0:
136,304,80434,1,0,0:0:0:0:
373,303,80592,1,0,0:0:0:0:
280,192,80750,2,0,L|216:192,1,48.750001859665,8|0,0:0|0:0,0:0:0:0:
314,36,81066,1,0,0:0:0:0:
99,127,81224,1,0,0:0:0:0:
189,341,81382,1,0,0:0:0:0:
407,248,81540,1,0,0:0:0:0:
136,56,81697,6,8,L|128:96,3,32.5,10|8|8|8,2:0|2:0|2:0|2:0,2:0:0:0:
160,72,82013,2,0,L|152:112,3,32.5,0|0|0|0,2:0|2:0|2:0|2:0,2:0:0:0:
184,96,82329,1,0,3:0:0:0:
208,120,82408,1,0,3:0:0:0:
224,152,82487,1,0,3:0:0:0:
224,184,82566,1,0,3:0:0:0:
240,216,82645,2,0,L|264:256,3,32.5
288,264,82960,1,8,0:0:0:0:
320,272,83039,1,8,0:0:0:0:
352,272,83118,1,8,0:0:0:0:
380,260,83197,1,8,0:0:0:0:
404,236,83276,2,0,L|448:248,3,32.5
368,104,83592,6,0,P|264:88|152:128,1,195,4|0,0:0|0:0,0:0:0:0:
152,24,84224,1,0,0:0:0:0:
92,315,84382,1,0,0:0:0:0:
372,219,84539,2,0,P|268:251|188:219,1,195,8|0,0:0|0:0,0:0:0:0:
191,221,85171,1,0,0:0:0:0:
432,128,85329,1,0,0:0:0:0:
112,112,85487,6,0,L|156:56,1,65,4|0,0:2|0:0,0:0:0:0:
208,120,85803,2,0,L|272:72,1,65
296,164,86118,1,0,0:0:0:0:
368,112,86276,1,0,0:0:0:0:
456,188,86434,1,8,0:0:0:0:
368,248,86750,5,0,0:0:0:0:
408,248,86829,1,0,0:0:0:0:
440,268,86908,1,0,0:0:0:0:
464,300,86987,1,0,0:0:0:0:
460,340,87066,1,0,0:0:0:0:
368,340,87224,1,0,0:0:0:0:
288,296,87382,1,4,0:0:0:0:
136,144,87697,5,0,0:0:0:0:
120,188,87776,1,0,0:0:0:0:
144,228,87855,1,0,0:0:0:0:
184,248,87934,1,0,0:0:0:0:
228,240,88013,1,0,0:0:0:0:
276,164,88171,1,0,0:0:0:0:
240,80,88329,2,0,P|200:56|152:44,1,65,8|0,0:0|0:0,0:0:0:0:
92,52,88645,1,0,0:0:0:0:
136,132,88803,1,0,0:0:0:0:
304,192,88960,5,0,0:0:0:0:
296,200,89039,1,0,0:0:0:0:
288,208,89118,1,0,0:0:0:0:
280,216,89197,1,0,0:0:0:0:
272,224,89276,2,0,P|208:232|120:200,1,130,0|0,0:0|0:0,0:0:0:0:
112,200,89908,1,0,0:0:0:0:
168,72,90224,6,0,L|168:136,1,65,8|0,0:0|0:0,0:0:0:0:
208,88,90539,2,0,L|208:160,1,65,0|0,0:0|0:0,0:0:0:0:
256,104,90855,2,2,L|256:192,1,65,2|2,2:0|2:0,2:0:0:0:
256,224,91171,1,4,0:0:0:0:
104,72,91487,5,0,0:0:0:0:
208,208,91645,1,0,0:0:0:0:
200,32,91803,1,0,0:0:0:0:
288,176,91960,1,0,0:0:0:0:
312,32,92118,1,8,0:0:0:0:
440,120,92434,6,0,P|356:141|336:176,1,97.50000371933,0|0,0:0|0:0,0:0:0:0:
256,248,92750,2,0,L|160:144,1,97.50000371933,0|8,0:0|0:0,0:0:0:0:
104,72,93066,1,0,0:0:0:0:
128,248,93539,5,0,0:0:0:0:
296,64,93697,2,0,P|224:96|96:72,1,195.00000743866,8|0,0:0|0:0,0:0:0:0:
360,240,94329,1,0,0:0:0:0:
347,239,94408,1,0,0:0:0:0:
335,235,94487,1,0,0:0:0:0:
324,227,94566,1,0,0:0:0:0:
316,217,94645,1,8,0:0:0:0:
304,211,94724,1,0,0:0:0:0:
293,215,94803,1,0,0:0:0:0:
200,240,94960,6,0,P|144:152|184:64,1,195.00000743866,4|0,0:0|0:0,0:0:0:0:
264,32,95434,2,0,P|358:76|370:172,1,195.00000743866
376,256,95908,2,0,B|328:168|328:168|208:104,1,195.00000743866,8|0,0:0|0:0,0:0:0:0:
144,136,96382,2,0,B|105:228|105:228|131:362,1,195.00000743866,0|8,0:0|0:0,0:0:0:0:
240,216,96855,5,4,0:0:0:0:
208,72,97013,1,0,0:0:0:0:
91,177,97171,1,0,0:0:0:0:
123,321,97329,2,0,B|176:280|200:240|188:192|160:144|160:144|228:216,1,292.50001115799,0|4,0:0|0:0,0:0:0:0:
304,256,98118,1,0,0:0:0:0:
408,72,98276,2,8,L|392:168,2,97.50000371933
376,264,98750,5,4,0:0:0:0:
80,296,99224,5,0,0:0:0:0:
96,272,99382,1,0,0:0:0:0:
112,248,99539,1,0,0:0:0:0:
304,112,99697,1,8,0:0:0:0:
104,72,100013,5,0,0:0:0:0:
144,88,100171,2,0,L|208:112,1,65,0|0,0:0|0:0,0:0:0:0:
248,120,100487,1,0,0:0:0:0:
416,320,100645,1,0,3:0:0:0:
336,160,100960,5,0,0:0:0:0:
272,236,101118,1,0,0:0:0:0:
180,268,101276,1,0,0:0:0:0:
164,172,101434,1,0,0:0:0:0:
252,132,101592,1,8,0:0:0:0:
176,72,101750,1,0,0:0:0:0:
96,128,101908,1,0,0:0:0:0:
96,224,102066,1,0,0:0:0:0:
164,292,102224,1,4,0:3:0:0:
192,200,102382,1,0,0:0:0:0:
236,112,102539,1,0,3:0:0:0:
356,88,102855,5,0,0:0:0:0:
424,140,103013,1,0,0:0:0:0:
348,176,103171,1,0,0:0:0:0:
388,248,103329,1,0,0:0:0:0:
464,212,103487,2,0,L|432:280,1,65,8|0,0:0|0:0,0:0:0:0:
232,332,103803,5,0,0:0:0:0:
156,272,103960,1,0,0:0:0:0:
112,184,104118,1,0,0:0:0:0:
208,188,104276,1,0,0:0:0:0:
268,108,104434,1,0,3:0:0:0:
172,96,104592,1,0,0:0:0:0:
172,96,104750,1,0,0:0:0:0:
112,184,104908,1,0,0:0:0:0:
112,184,105066,1,0,0:0:0:0:
68,88,105224,1,0,3:0:0:0:
171,88,105382,6,0,L|204:128,2,32.5,8|0|0,3:0|3:0|3:0,3:0:0:0:
208,316,105697,2,0,L|228:272,2,32.5,8|0|0,3:0|3:0|3:0,3:0:0:0:
387,171,106013,2,0,L|320:184,1,65,8|0,3:0|3:0,3:0:0:0:
171,88,106329,1,4,0:0:0:0:
168,304,106645,5,0,0:0:0:0:
391,147,106803,1,0,0:0:0:0:
120,147,106960,1,0,0:0:0:0:
339,307,107118,1,0,0:0:0:0:
256,49,107276,1,8,0:0:0:0:
144,88,107592,6,0,L|144:24,1,65,0|0,0:0|0:0,0:0:0:0:
216,176,107908,2,0,L|216:104,1,65,0|0,0:0|0:0,0:0:0:0:
288,264,108224,1,0,3:0:0:0:
384,88,108539,5,0,0:0:0:0:
328,64,108697,1,0,0:0:0:0:
264,64,108855,1,0,0:0:0:0:
208,96,109013,1,0,0:0:0:0:
168,152,109171,1,8,0:0:0:0:
152,216,109329,1,0,0:0:0:0:
168,280,109487,1,0,3:0:0:0:
224,312,109645,1,0,0:0:0:0:
288,308,109803,2,0,P|336:292|352:280,1,65,4|0,3:0|0:0,0:0:0:0:
428,188,110118,1,8,0:0:0:0:
184,340,110434,6,0,P|138:336|96:316,2,65,0|0|0,0:0|2:0|2:0,2:0:0:0:
296,304,110908,1,0,0:0:0:0:
400,256,111066,2,0,P|429:233|444:208,2,65,8|0|0,0:0|0:0|0:0,0:0:0:0:
296,304,111539,1,0,0:0:0:0:
240,208,111697,1,0,0:0:0:0:
324,136,111855,2,0,L|392:88,1,65,0|8,0:0|0:0,0:0:0:0:
104,88,112329,6,0,L|104:144,3,32.5,0|0|0|0,0:0|0:0|0:0|0:0,0:0:0:0:
140,108,112645,2,0,L|140:156,3,32.5,0|0|0|0,0:0|0:0|0:0|0:0,0:0:0:0:
176,136,112960,1,8,0:0:0:0:
204,160,113039,1,0,0:0:0:0:
228,188,113118,1,0,0:0:0:0:
244,220,113197,1,0,0:0:0:0:
244,256,113276,2,0,L|268:280,3,32.5,0|0|0|0,0:0|0:0|0:0|0:0,0:0:0:0:
232,296,113592,1,2,0:0:0:0:
160,332,113908,6,0,P|80:292|64:132,1,233.999992858887
104,72,114539,1,0,0:0:0:0:
136,56,114618,1,0,0:0:0:0:
176,56,114697,1,0,0:0:0:0:
208,80,114776,1,0,0:0:0:0:
232,112,114855,6,0,P|260:196|158:321,1,233.999992858887,8|0,0:0|0:0,0:0:0:0:
120,252,115487,1,0,0:0:0:0:
80,204,115566,1,0,0:0:0:0:
96,140,115645,1,0,0:0:0:0:
48,100,115724,1,0,0:0:0:0:
59,44,115803,2,0,B|232:36|232:36|336:156,1,311.999990478516,0|0,3:0|0:0,0:0:0:0:
333,232,116750,5,8,0:0:0:0:
305,263,116829,1,0,0:0:0:0:
266,278,116908,1,0,0:0:0:0:
225,273,116987,1,0,0:0:0:0:
190,249,117066,1,0,0:0:0:0:
171,212,117145,1,0,0:0:0:0:
171,171,117224,1,0,0:0:0:0:
190,134,117303,1,0,0:0:0:0:
225,110,117382,1,0,0:0:0:0:
266,105,117460,1,0,0:0:0:0:
305,120,117539,1,0,0:0:0:0:
333,151,117618,1,0,0:0:0:0:
333,232,117697,5,0,3:0:0:0:
88,64,118329,1,0,0:0:0:0:
88,64,118408,1,0,0:0:0:0:
88,64,118487,1,0,0:0:0:0:
88,64,118566,1,0,0:0:0:0:
88,64,118645,5,8,0:0:0:0:
336,112,119276,1,0,3:0:0:0:
336,112,119355,1,0,3:0:0:0:
336,112,119434,1,0,3:0:0:0:
336,112,119513,1,0,3:0:0:0:
336,112,119592,2,0,L|368:144,1,38.9999988098145,0|0,3:0|0:0,0:0:0:0:
208,120,119750,5,0,0:0:0:0:
181,140,119829,1,0,0:0:0:0:
155,160,119908,2,0,L|149:206,1,38.9999988098145,0|0,0:0|0:0,0:0:0:0:
160,296,120066,1,0,0:0:0:0:
192,280,120145,1,0,0:0:0:0:
224,264,120223,1,0,0:0:0:0:
248,240,120302,1,0,0:0:0:0:
272,216,120382,1,0,0:0:0:0:
288,184,120460,1,0,0:0:0:0:
304,152,120539,2,0,L|360:176,1,38.9999988098145,0|0,0:0|0:0,0:0:0:0:
184,56,120697,6,0,L|184:112,3,38.9999988098145,0|0|0|0,0:0|0:0|0:0|0:0,0:0:0:0:
248,80,121013,1,0,0:0:0:0:
304,104,121092,1,0,0:0:0:0:
352,144,121171,1,12,0:0:0:0:
80,176,121487,6,0,P|176:168|232:184,1,155.999995239258,0|8,0:0|0:0,0:0:0:0:
144,312,121960,1,0,0:0:0:0:
376,296,122276,1,0,0:0:0:0:
416,184,122434,2,0,P|352:112|264:80,1,155.999995239258,8|0,0:0|0:0,0:0:0:0:
216,56,122908,2,0,L|216:136,2,77.999997619629,0|8|0,0:0|0:0|0:0,0:0:0:0:
72,96,123382,5,0,0:0:0:0:
88,120,123539,1,0,0:0:0:0:
104,144,123697,1,8,0:0:0:0:
120,168,123855,2,0,B|192:176|248:208|248:208|280:176,1,155.999995239258
312,152,124329,1,8,0:0:0:0:
176,56,124645,1,0,0:0:0:0:
408,328,124960,1,8,0:0:0:0:
416,192,125276,6,0,P|360:120|224:112,1,195.00000743866,0|8,0:0|0:0,0:0:0:0:
168,120,125750,1,0,0:0:0:0:
80,296,126066,1,0,0:0:0:0:
176,328,126224,1,8,0:0:0:0:
96,152,126539,5,0,0:0:0:0:
152,72,126697,1,0,0:0:0:0:
232,16,126855,1,8,0:0:0:0:
328,16,127013,1,0,0:0:0:0:
408,72,127171,1,0,0:0:0:0:
336,248,127487,2,0,P|232:304|120:192,1,292.50001115799,8|0,0:0|0:0,0:0:0:0:
104,104,128118,1,8,0:0:0:0:
184,344,128434,5,0,0:0:0:0:
176,336,128513,1,0,0:0:0:0:
168,328,128592,1,0,0:0:0:0:
160,320,128671,1,0,0:0:0:0:
152,312,128750,1,8,0:0:0:0:
280,160,129066,1,4,0:0:0:0:
80,80,129382,5,8,0:0:0:0:
160,320,129539,1,0,0:0:0:0:
160,320,129855,1,0,0:0:0:0:
80,80,130013,1,8,0:0:0:0:
304,96,130329,1,0,0:0:0:0:
320,144,130408,1,0,0:0:0:0:
336,192,130487,1,0,0:0:0:0:
336,240,130566,1,0,0:0:0:0:
320,288,130645,1,8,0:0:0:0:
104,152,130960,6,0,P|176:64|280:48,1,195.00000743866,0|8,0:0|0:0,0:0:0:0:
320,144,131434,2,0,P|272:256|192:288,1,195.00000743866,0|0,0:0|0:0,0:0:0:0:
96,216,131829,1,0,0:0:0:0:
96,216,131908,2,0,P|111:95|179:42,1,195.00000743866,8|0,0:0|0:0,0:0:0:0:
220,60,132303,1,0,0:0:0:0:
276,80,132382,1,0,0:0:0:0:
320,116,132460,1,0,0:0:0:0:
348,168,132539,2,0,P|364:240|364:268,1,97.50000371933,8|0,0:0|0:0,0:0:0:0:
192,312,132855,5,0,0:0:0:0:
88,160,133171,1,8,0:0:0:0:
112,56,133329,1,0,0:0:0:0:
176,140,133487,1,0,0:0:0:0:
208,40,133645,1,0,0:0:0:0:
220,36,133724,1,0,0:0:0:0:
236,32,133803,2,0,B|276:104|235:153|268:224,1,195.00000743866,8|0,0:0|0:0,0:0:0:0:
292,276,134197,1,0,0:0:0:0:
328,316,134276,1,0,0:0:0:0:
384,336,134355,1,0,0:0:0:0:
444,320,134434,2,0,B|468:276|468:276|464:224,1,97.50000371933,8|0,0:0|0:0,0:0:0:0:
280,216,134750,5,0,0:0:0:0:
104,128,135066,1,8,0:0:0:0:
176,312,135382,1,0,0:0:0:0:
176,312,135460,1,0,0:0:0:0:
176,312,135539,1,0,0:0:0:0:
176,312,135618,1,0,0:0:0:0:
176,312,135697,1,8,0:0:0:0:
112,64,136013,5,0,0:0:0:0:
160,72,136092,1,0,0:0:0:0:
208,80,136171,1,0,0:0:0:0:
256,88,136250,1,0,0:0:0:0:
288,156,136329,1,8,0:0:0:0:
332,180,136408,1,0,0:0:0:0:
376,204,136487,1,0,0:0:0:0:
416,232,136566,1,0,0:0:0:0:
360,280,136645,5,4,0:0:0:0:
104,320,136960,1,8,0:0:0:0:
104,320,137118,2,0,L|200:348|312:312,1,195.00000743866
342,138,137513,1,0,0:0:0:0:
342,138,137592,2,0,L|208:280,1,195.00000743866,8|0,0:0|0:0,0:0:0:0:
120,168,137987,2,0,L|151:205,2,48.750001859665
88,132,138224,1,8,0:0:0:0:
48,320,138539,2,0,L|200:168,1,195.00000743866,0|8,0:0|0:0,0:0:0:0:
272,112,139013,2,0,P|153:221|125:222,1,195.00000743866,0|0,0:0|0:0,0:0:0:0:
100,184,139408,2,0,L|80:132,1,48.750001859665,0|8,0:0|0:0,0:0:0:0:
56,72,139566,5,0,0:0:0:0:
56,80,139645,1,0,0:0:0:0:
56,88,139724,1,0,0:0:0:0:
56,96,139803,1,0,0:0:0:0:
56,104,139882,1,0,0:0:0:0:
56,112,139960,1,0,0:0:0:0:
56,120,140039,1,0,0:0:0:0:
56,124,140118,2,0,L|56:212,3,48.750001859665,8|0|0|0,0:0|0:0|0:0|0:0,0:0:0:0:
56,336,140434,6,0,B|136:280|136:280|232:352,1,195.00000743866,0|8,0:0|0:0,0:0:0:0:
456,336,140908,2,0,B|376:280|376:280|280:352,1,195.00000743866
298,338,141303,1,0,0:0:0:0:
298,338,141382,1,8,0:0:0:0:
204,168,141697,2,0,L|247:215,3,48.750001859665
160,132,142013,1,8,0:0:0:0:
72,64,142329,5,0,0:0:0:0:
368,88,142645,1,8,0:0:0:0:
432,200,142803,1,0,0:0:0:0:
376,312,142960,2,0,P|304:344|252:340,1,97.50000371933
144,320,143197,1,0,0:0:0:0:
144,320,143276,6,0,L|160:256,1,65,8|0,0:0|0:0,0:0:0:0:
252,312,143592,1,0,0:0:0:0:
284,313,143670,1,0,0:0:0:0:
316,307,143749,1,0,0:0:0:0:
346,295,143828,1,0,0:0:0:0:
372,275,143907,1,8,0:0:0:0:
393,251,143986,1,0,0:0:0:0:
408,222,144065,1,0,0:0:0:0:
417,191,144144,1,0,0:0:0:0:
418,159,144223,1,0,0:0:0:0:
196,64,144539,5,8,0:0:0:0:
228,62,144617,1,0,0:0:0:0:
260,68,144696,1,0,0:0:0:0:
290,81,144775,1,0,0:0:0:0:
316,100,144855,1,0,0:0:0:0:
337,124,144933,1,0,0:0:0:0:
352,153,145012,1,0,0:0:0:0:
361,184,145091,1,0,0:0:0:0:
362,216,145170,1,8,0:0:0:0:
88,200,145487,5,0,0:0:0:0:
89,232,145566,1,0,0:0:0:0:
97,263,145645,1,0,0:0:0:0:
113,292,145724,1,0,0:0:0:0:
134,316,145803,1,8,0:0:0:0:
160,335,145882,1,0,0:0:0:0:
190,348,145961,1,0,0:0:0:0:
222,354,146040,1,0,0:0:0:0:
254,352,146118,1,0,0:0:0:0:
256,56,146434,5,8,0:0:0:0:
256,312,146592,1,0,0:0:0:0:
256,56,146908,1,0,0:0:0:0:
256,104,146987,1,0,0:0:0:0:
256,152,147066,1,8,0:0:0:0:
224,280,147382,5,0,0:0:0:0:
209,229,147460,1,0,0:0:0:0:
251,199,147539,1,0,0:0:0:0:
293,231,147618,1,0,0:0:0:0:
276,280,147697,2,0,L|256:324,3,32.5,8|0|0|0,0:0|0:0|0:0|0:0,0:0:0:0:
256,340,148013,6,0,B|208:360|208:360|116:332,1,130,0|8,0:0|0:0,0:0:0:0:
32,216,148487,1,0,0:0:0:0:
32,216,148803,1,0,0:0:0:0:
36,184,148882,1,0,0:0:0:0:
56,160,148960,1,8,0:0:0:0:
264,208,149276,5,0,0:0:0:0:
256,196,149355,1,0,0:0:0:0:
248,184,149434,1,0,0:0:0:0:
240,172,149513,1,0,0:0:0:0:
232,160,149592,1,8,0:0:0:0:
440,336,149908,5,0,0:0:0:0:
384,96,150224,5,8,0:0:0:0:
104,320,150382,1,0,0:0:0:0:
64,80,150697,5,0,0:0:0:0:
64,80,150776,1,0,0:0:0:0:
64,80,150855,1,8,0:0:0:0:
160,76,151013,1,8,0:0:0:0:
76,128,151171,1,8,0:0:0:0:
160,180,151329,1,8,0:0:0:0:
244,128,151487,1,8,0:0:0:0:
324,180,151645,1,8,0:0:0:0:
404,128,151803,5,4,3:0:0:0:
188,296,152118,2,0,L|156:208,1,65
324,296,152434,2,0,L|346:234,1,65
120,104,152750,2,0,L|184:132,1,65,8|0,0:0|0:0,0:0:0:0:
392,104,153066,2,0,L|328:132,1,65
164,264,153382,1,0,0:0:0:0:
348,264,153539,1,0,0:0:0:0:
256,124,153697,2,0,L|256:260,1,130,0|0,3:0|0:0,0:0:0:0:
164,172,154171,5,0,0:0:0:0:
348,172,154328,1,0,0:0:0:0:
256,312,154487,1,0,0:0:0:0:
256,148,154645,1,12,0:0:0:0:
112,68,154803,1,0,0:0:0:0:
272,48,154960,1,0,0:0:0:0:
180,180,155118,1,0,0:0:0:0:
332,124,155276,1,4,3:2:0:0:
188,44,155434,1,0,0:0:0:0:
348,24,155591,5,4,3:0:0:0:
412,256,155908,5,0,0:0:0:0:
440,96,156066,1,0,0:0:0:0:
484,252,156224,1,0,0:0:0:0:
336,324,156382,1,0,0:0:0:0:
248,188,156539,2,0,L|172:72,1,130,8|0,0:0|0:0,0:0:0:0:
340,88,157013,1,0,0:0:0:0:
184,136,157171,1,0,0:0:0:0:
340,176,157329,1,0,0:0:0:0:
184,224,157487,6,0,L|308:276,1,130,0|0,3:0|0:0,0:0:0:0:
292,112,157960,1,0,0:0:0:0:
140,168,158118,1,0,0:0:0:0:
100,324,158276,1,0,3:0:0:0:
100,324,158434,2,0,B|176:268|176:268|284:260,1,195.00000743866,12|0,0:0|0:0,0:0:0:0:
276,260,158908,1,4,3:2:0:0:
96,88,159382,5,4,3:0:0:0:
416,64,159697,1,8,0:0:0:0:
104,288,160013,1,8,0:0:0:0:
128,264,160092,1,0,0:0:0:0:
160,248,160171,1,0,0:0:0:0:
192,248,160250,1,0,0:0:0:0:
224,248,160329,1,8,0:0:0:0:
448,336,160645,5,8,0:0:0:0:
224,168,160960,1,8,0:0:0:0:
224,168,161039,1,0,0:0:0:0:
224,168,161118,1,0,0:0:0:0:
224,168,161197,1,0,0:0:0:0:
224,168,161276,1,8,0:0:0:0:
56,72,161592,5,8,0:0:0:0:
96,48,161671,1,0,0:0:0:0:
144,32,161750,1,0,0:0:0:0:
192,24,161829,1,0,0:0:0:0:
240,24,161908,1,8,0:0:0:0:
288,40,161987,1,0,0:0:0:0:
336,56,162066,1,0,0:0:0:0:
376,80,162145,1,0,0:0:0:0:
416,112,162224,1,8,0:0:0:0:
88,248,162539,2,0,L|88:200,4,48.750001859665,8|0|0|0|8,0:0|0:0|0:0|0:0|0:0,0:0:0:0:
416,320,163171,5,8,0:0:0:0:
80,104,163487,2,0,B|136:64|136:64|168:112,1,97.50000371933,8|0,0:0|0:0,0:0:0:0:
224,96,163803,2,0,B|283:129|283:129|253:179,1,97.50000371933,8|0,0:0|0:0,0:0:0:0:
157,284,164118,2,0,B|220:258|220:258|208:232,1,97.50000371933,8|0,0:0|0:0,0:0:0:0:
360,160,164434,2,0,B|292:145|292:145|282:201,1,97.50000371933,8|0,0:0|0:0,0:0:0:0:
432,240,164750,2,0,L|376:240,4,48.750001859665,8|0|0|0|12,0:0|0:0|0:0|0:0|0:0,0:0:0:0:
320,240,165224,5,8,0:0:0:0:
256,240,165382,1,8,0:0:0:0:
192,240,165539,1,8,0:0:0:0:
348,284,166013,1,8,0:0:0:0:
348,99,166171,1,8,0:0:0:0:
163,99,166329,1,8,0:0:0:0:
163,284,166487,1,8,0:0:0:0:
163,284,166960,6,0,P|64:192|88:104,1,195.00000743866,4|0,3:0|0:0,0:0:0:0:
160,64,167592,1,0,0:0:0:0:
200,48,167750,1,0,0:0:0:0:
240,56,167908,2,0,B|352:72|352:72|364:168|488:160,1,292.50001115799,8|0,0:0|0:0,0:0:0:0:
438,73,168539,1,0,0:0:0:0:
424,272,168697,1,8,0:0:0:0:
264,160,168855,2,0,B|200:108|200:108|208:179|160:312|160:312|132:216,1,390.00001487732
112,152,169645,1,0,0:0:0:0:
64,320,169803,2,0,B|288:328|288:328|336:272,1,292.50001115799,12|0,0:3|0:0,0:0:0:0:
400,344,170434,1,8,0:0:0:0:
232,120,170750,5,4,3:0:0:0:
423,229,171224,2,0,L|420:129,2,97.50000371933
232,120,171697,2,0,B|160:136|160:136|160:240|320:272,1,292.50001115799,8|0,0:0|0:0,0:0:0:0:
328,120,172329,1,0,0:0:0:0:
152,232,172487,1,8,0:0:0:0:
332,316,172645,1,4,3:0:0:0:
256,192,172724,12,8,173592,3:3:0:0:
208,94,173750,5,0,0:0:0:0:
246,101,173829,1,0,0:0:0:0:
282,114,173908,1,0,3:0:0:0:
272,191,174066,1,0,0:0:0:0:
233,194,174145,1,0,0:0:0:0:
196,207,174224,2,0,L|170:238,6,24.3750009298325,8|0|0|0|0|0|0,0:0|0:0|0:0|0:0|0:0|0:0|0:0,0:0:0:0:
72,328,174539,5,4,3:0:0:0:
120,160,174697,1,0,0:0:0:0:
168,212,174855,1,0,0:0:0:0:
212,160,175013,1,0,0:0:0:0:
256,212,175171,1,0,3:0:0:0:
296,160,175329,1,0,0:0:0:0:
456,228,175487,1,8,0:0:0:0:
384,64,175645,5,0,0:0:0:0:
324,92,175803,1,0,0:0:0:0:
256,100,175960,1,0,0:0:0:0:
188,92,176118,1,0,3:0:0:0:
124,256,176276,1,8,0:0:0:0:
296,220,176434,5,0,3:0:0:0:
292,316,176592,1,0,0:0:0:0:
212,264,176750,1,0,0:0:0:0:
188,168,176908,1,0,0:0:0:0:
136,84,177066,1,0,3:0:0:0:
136,296,177224,1,0,3:0:0:0:
352,184,177382,2,0,L|56:184,1,292.50001115799,8|0,0:0|3:0,0:0:0:0:
248,64,178013,1,8,0:0:0:0:
432,320,178329,5,4,3:0:0:0:
64,176,178803,5,0,0:0:0:0:
112,176,178960,1,0,0:0:0:0:
160,176,179118,1,0,0:0:0:0:
288,40,179276,1,8,0:0:0:0:
64,312,179592,6,0,P|144:304|168:256,1,97.50000371933,0|0,0:0|0:0,0:0:0:0:
208,216,179908,2,8,P|240:180|287:174,1,97.50000371933,0|8,0:0|0:0,0:0:0:0:
344,256,180224,1,0,3:0:0:0:
48,56,180697,2,0,B|240:104|240:104|220:140,1,195.00000743866,0|0,3:0|3:0,3:0:0:0:
216,148,181092,1,0,3:0:0:0:
196,192,181171,1,8,3:0:0:0:
128,336,181487,1,8,0:0:0:0:
128,336,181803,2,0,B|172:336|172:336|232:272|168:272|224:336|224:336|268:336|268:336,1,195.00000743866,8|4,0:0|3:0,0:0:0:0:
408,328,182434,5,0,0:0:0:0:
448,192,182750,1,0,0:0:0:0:
408,56,183066,2,0,B|224:56|96:160,1,292.50001115799,8|0,0:0|0:0,0:0:0:0:
344,321,183697,1,0,0:0:0:0:
406,52,183855,1,8,0:0:0:0:
131,137,184013,1,0,3:0:0:0:
80,48,184329,5,0,0:0:0:0:
64,80,184487,1,0,0:0:0:0:
48,120,184645,1,0,0:0:0:0:
40,160,184803,1,0,0:0:0:0:
40,200,184960,1,12,0:0:0:0:
48,240,185118,1,0,0:0:0:0:
64,272,185276,1,0,0:0:0:0:
88,304,185434,1,0,0:0:0:0:
176,56,185592,1,12,0:3:0:0:
248,312,185908,6,0,B|344:144|248:40,1,292.50001115799,4|0,3:0|0:0,0:0:0:0:
408,112,186539,1,0,0:0:0:0:
80,120,186697,1,0,0:0:0:0:
248,40,186855,2,0,B|344:144|248:312,1,292.50001115799,8|0,0:0|0:0,0:0:0:0:
80,120,187487,2,0,P|144:104|192:112,1,97.50000371933,0|8,0:0|0:0,0:0:0:0:
408,112,187803,6,0,L|312:128,1,97.50000371933,4|0,3:0|0:0,0:0:0:0:
416,176,188118,2,0,L|312:184,1,97.50000371933,0|0,0:0|0:0,0:0:0:0:
408,240,188434,2,0,L|296:240,1,97.50000371933,0|0,0:0|0:0,0:0:0:0:
284,196,188671,1,0,0:0:0:0:
264,152,188750,1,8,0:0:0:0:
204,76,188908,5,0,0:0:0:0:
160,96,188987,1,0,0:0:0:0:
144,144,189066,1,8,0:0:0:0:
152,192,189145,1,0,0:0:0:0:
192,224,189224,1,0,0:0:0:0:
248,208,189303,1,0,0:0:0:0:
288,168,189382,2,0,L|304:120,7,29.2499991073609,8|0|0|0|0|0|0|0,0:0|0:0|0:0|0:0|0:0|0:0|0:0|0:0,0:0:0:0:
296,64,189697,5,4,3:0:0:0:
404,130,189855,1,0,0:0:0:0:
304,272,190013,1,0,0:0:0:0:
120,312,190171,1,0,0:0:0:0:
64,120,190329,1,0,3:0:0:0:
248,64,190487,1,0,0:0:0:0:
96,272,190645,1,8,3:0:0:0:
40,80,190803,1,0,0:0:0:0:
224,24,190961,1,0,0:0:0:0:
280,232,191119,1,0,0:0:0:0:
168,144,191276,5,0,3:0:0:0:
208,344,191434,1,0,3:0:0:0:
416,232,191592,1,0,3:0:0:0:
376,232,191750,1,0,0:0:0:0:
336,232,191908,1,0,0:0:0:0:
288,120,192066,1,0,0:0:0:0:
224,344,192224,2,0,P|256:328|216:264,1,116.999996429443,0|0,3:0|3:0,3:0:0:0:
120,240,192539,2,0,P|48:224|88:104,1,233.999992858887,8|0,0:0|3:0,0:0:0:0:
133,94,192934,2,0,P|160:83|188:75,2,58.4999982147217,0|0|0,3:0|3:0|3:0,3:0:0:0:
233,62,193171,1,8,0:0:0:0:
320,152,193487,5,4,3:0:0:0:
424,56,193803,2,0,B|424:272|424:272|272:336|152:192,1,467.999985717774,0|8,0:0|0:0,0:0:0:0:
328,160,194750,1,0,0:0:0:0:
48,128,195066,5,0,3:0:0:0:
48,128,195224,1,0,0:0:0:0:
48,128,195382,2,0,P|104:232|240:260,1,233.999992858887,0|0,3:0|0:0,0:0:0:0:
264,188,195855,2,0,P|152:172|112:64,1,233.999992858887,0|0,3:0|0:0,0:0:0:0:
384,72,196329,1,8,0:0:0:0:
384,184,196645,1,8,0:0:0:0:
384,296,196960,1,8,0:0:0:0:
384,296,197039,1,8,0:0:0:0:
384,296,197118,1,8,0:0:0:0:
384,296,197197,1,8,0:0:0:0:
384,296,197276,5,0,0:0:0:0:
200,296,197434,1,0,0:0:0:0:
80,72,198224,5,0,0:0:0:0:
264,72,198382,1,0,0:0:0:0:
192,296,199171,5,0,0:0:0:0:
64,160,199329,1,0,0:0:0:0:
100,268,200118,5,8,0:0:0:0:
89,233,200196,1,0,0:0:0:0:
90,198,200275,1,0,0:0:0:0:
106,166,200354,1,0,0:0:0:0:
135,146,200433,1,0,0:0:0:0:
170,142,200512,1,0,0:0:0:0:
203,155,200591,1,0,0:0:0:0:
226,182,200670,1,0,0:0:0:0:
240,215,200749,1,0,0:0:0:0:
252,239,200828,1,0,0:0:0:0:
271,209,200907,1,0,0:0:0:0:
281,175,200986,1,0,0:0:0:0:
285,140,201066,5,0,0:0:0:0:
212,312,201224,1,0,0:0:0:0:
96,136,202013,5,0,0:0:0:0:
224,272,202171,1,0,0:0:0:0:
236,308,202960,5,0,0:0:0:0:
276,124,203118,1,0,0:0:0:0:
256,192,203197,12,8,204539,0:0:0:0:
256,192,204855,5,4,0:0:0:0:
180,88,205171,1,8,0:0:0:0:
116,76,205329,2,0,P|80:160|100:216,1,130
116,252,205803,2,0,P|160:296|224:280,1,130,8|0,0:0|0:0,0:0:0:0:
248,256,206197,1,0,0:0:0:0:
272,232,206276,1,0,0:0:0:0:
288,208,206355,1,0,0:0:0:0:
296,176,206434,2,0,P|296:136|280:96,1,65,8|0,0:0|2:0,0:0:0:0:
136,80,206750,5,0,0:0:0:0:
176,312,207066,1,8,0:0:0:0:
212,200,207224,1,0,0:0:0:0:
416,84,207539,1,0,0:0:0:0:
244,240,207697,1,8,0:0:0:0:
360,256,208013,5,0,0:0:0:0:
336,280,208092,1,0,0:0:0:0:
304,288,208171,1,0,0:0:0:0:
272,280,208250,1,0,0:0:0:0:
248,264,208329,2,0,P|224:232|240:184,1,65,8|0,0:0|2:0,0:0:0:0:
288,80,208645,5,0,0:0:0:0:
48,336,208960,2,0,L|56:240,1,65,8|0,0:0|0:0,0:0:0:0:
288,120,209434,5,0,0:0:0:0:
288,120,209513,1,0,0:0:0:0:
288,120,209592,1,8,0:0:0:0:
120,72,209908,5,0,0:0:0:0:
96,112,209987,1,0,0:0:0:0:
80,160,210066,1,0,0:0:0:0:
80,208,210145,1,0,0:0:0:0:
88,256,210224,1,8,0:0:0:0:
224,336,210539,5,0,0:0:0:0:
256,152,210855,1,8,0:0:0:0:
156,212,211013,1,0,0:0:0:0:
352,96,211329,5,0,0:0:0:0:
352,96,211408,1,0,0:0:0:0:
352,96,211487,1,8,0:0:0:0:
96,48,211803,6,0,L|88:88,1,32.5,0|0,0:0|0:0,0:0:0:0:
223,172,211961,2,0,L|200:208,1,32.5,0|0,0:0|0:0,0:0:0:0:
167,340,212118,2,0,L|200:312,1,32.5,8|0,0:0|0:0,0:0:0:0:
352,296,212276,2,0,L|320:268,1,32.5
230,253,212434,2,0,P|320:204|223:172,1,260,4|8,0:0|0:0,0:0:0:0:
368,112,212908,1,0,0:0:0:0:
232,176,213224,1,0,0:0:0:0:
256,136,213303,1,0,0:0:0:0:
256,88,213382,1,8,0:0:0:0:
136,80,213697,5,0,0:0:0:0:
112,120,213776,1,0,0:0:0:0:
104,168,213855,1,0,0:0:0:0:
120,216,213934,1,0,0:0:0:0:
144,256,214013,1,8,0:0:0:0:
344,80,214329,6,0,P|360:168|340:232,1,155.999995239258,0|8,0:0|0:0,0:0:0:0:
120,104,214803,1,0,0:0:0:0:
144,320,215118,1,0,0:0:0:0:
184,320,215197,1,0,0:0:0:0:
216,320,215276,2,0,B|272:320|272:320|328:280|348:244,1,155.999995239258,8|0,0:0|0:0,0:0:0:0:
364,220,215671,1,0,0:0:0:0:
356,172,215750,1,0,0:0:0:0:
324,132,215829,1,0,0:0:0:0:
284,108,215908,1,8,0:0:0:0:
120,80,216224,6,0,B|80:192|80:192|112:216|112:216,1,155.999995239258,0|8,0:0|0:0,0:0:0:0:
144,292,216697,2,0,B|201:312|220:362|220:362|275:332,1,155.999995239258
336,296,217092,1,0,0:0:0:0:
336,296,217171,2,0,P|288:232|208:200,1,155.999995239258,8|0,0:0|0:0,0:0:0:0:
176,192,217566,1,0,0:0:0:0:
132,192,217645,1,0,0:0:0:0:
88,196,217724,1,0,0:0:0:0:
52,216,217803,5,8,0:0:0:0:
184,108,218118,1,0,0:0:0:0:
96,256,218434,6,0,B|192:272|328:232,1,233.999992858887,8|0,0:0|0:0,0:0:0:0:
368,224,218987,1,0,0:0:0:0:
408,212,219066,1,8,0:0:0:0:
144,128,219382,5,0,0:0:0:0:
138,154,219460,1,0,0:0:0:0:
141,181,219539,1,0,0:0:0:0:
148,205,219618,1,0,0:0:0:0:
195,196,219697,1,8,0:0:0:0:
244,196,219776,1,0,0:0:0:0:
284,200,219855,1,0,0:0:0:0:
341,205,219934,1,0,0:0:0:0:
389,212,220013,5,4,0:0:0:0:
256,160,220329,1,8,0:0:0:0:
112,264,220487,1,0,0:0:0:0:
368,304,220803,1,0,0:0:0:0:
360,264,220882,1,0,0:0:0:0:
336,232,220960,1,8,0:0:0:0:
216,128,221276,5,0,0:0:0:0:
216,128,221355,1,0,0:0:0:0:
216,128,221434,1,0,0:0:0:0:
216,128,221513,1,0,0:0:0:0:
216,128,221592,1,8,0:0:0:0:
96,96,221908,6,0,P|80:160|104:256,1,155.999995239258,0|8,0:0|0:0,0:0:0:0:
165,278,222382,2,0,P|184:203|168:128,1,155.999995239258,0|0,0:0|0:0,0:0:0:0:
152,88,222776,1,0,0:0:0:0:
128,56,222855,1,8,0:0:0:0:
352,88,223171,6,0,L|312:120,1,38.9999988098145,0|0,0:0|0:0,0:0:0:0:
232,184,223329,2,0,L|256:224,1,38.9999988098145,0|0,0:0|0:0,0:0:0:0:
344,296,223487,2,0,L|320:256,1,38.9999988098145,8|0,0:0|0:0,0:0:0:0:
208,288,223645,2,0,L|176:240,1,38.9999988098145,0|0,0:0|0:0,0:0:0:0:
120,160,223803,2,0,P|176:112|280:88,1,155.999995239258,4|8,0:0|0:0,0:0:0:0:
192,216,224276,1,0,0:0:0:0:
344,144,224592,5,0,0:0:0:0:
344,144,224671,1,0,0:0:0:0:
344,144,224750,1,8,0:0:0:0:
248,72,225066,5,0,0:0:0:0:
240,110,225144,1,0,0:0:0:0:
237,149,225223,1,0,0:0:0:0:
229,187,225302,1,0,0:0:0:0:
216,224,225382,2,0,B|168:300|84:292,1,155.999995239258,8|0,0:0|0:0,0:0:0:0:
96,112,226013,2,0,L|160:160,1,77.999997619629,8|0,0:0|0:0,0:0:0:0:
408,128,226487,1,0,0:0:0:0:
410,141,226566,1,0,0:0:0:0:
413,155,226645,5,8,0:0:0:0:
416,169,226724,1,0,0:0:0:0:
418,182,226803,1,0,0:0:0:0:
421,199,226882,1,0,0:0:0:0:
424,215,226960,1,0,0:0:0:0:
427,232,227039,1,0,0:0:0:0:
429,248,227118,1,0,0:0:0:0:
432,265,227197,1,0,0:0:0:0:
435,281,227276,1,8,0:0:0:0:
400,296,227355,1,0,0:0:0:0:
360,300,227434,1,0,0:0:0:0:
320,296,227513,1,0,0:0:0:0:
280,288,227592,1,0,0:0:0:0:
120,72,227908,6,0,L|120:160,1,77.999997619629,8|0,0:0|0:0,0:0:0:0:
192,120,228224,2,0,L|192:208,1,77.999997619629
264,162,228460,1,0,0:0:0:0:
264,162,228539,2,0,L|264:240,1,77.999997619629,8|0,0:0|0:0,0:0:0:0:
120,72,228855,5,0,0:0:0:0:
111,109,228933,1,0,0:0:0:0:
115,148,229012,1,0,0:0:0:0:
130,184,229091,1,0,0:0:0:0:
155,214,229170,1,8,0:0:0:0:
224,256,229329,2,0,P|272:280|320:280,1,77.999997619629,0|0,0:0|0:0,0:0:0:0:
312,208,229645,1,0,0:0:0:0:
160,280,229803,1,8,0:0:0:0:
88,136,229960,6,0,L|176:184,1,77.999997619629
376,288,230276,1,0,0:0:0:0:
376,272,230355,1,0,0:0:0:0:
376,256,230434,1,8,0:0:0:0:
336,104,230750,1,0,0:0:0:0:
345,141,230828,1,0,0:0:0:0:
334,178,230907,1,0,0:0:0:0:
304,201,230986,1,0,0:0:0:0:
266,202,231065,1,8,0:0:0:0:
233,181,231144,1,0,0:0:0:0:
203,202,231223,1,0,0:0:0:0:
166,214,231302,1,0,0:0:0:0:
127,212,231381,1,0,0:0:0:0:
224,64,231697,6,0,P|184:96|160:128,1,77.999997619629,8|0,0:0|0:0,0:0:0:0:
128,192,232013,1,0,0:0:0:0:
128,272,232171,5,0,0:0:0:0:
152,304,232250,1,0,0:0:0:0:
192,312,232329,2,0,P|264:304|296:280,1,77.999997619629,8|0,0:0|0:0,0:0:0:0:
376,88,232645,1,0,0:0:0:0:
340,103,232723,1,0,0:0:0:0:
309,126,232802,1,0,0:0:0:0:
284,156,232881,1,0,0:0:0:0:
264,190,232960,1,0,0:0:0:0:
245,224,233039,1,0,0:0:0:0:
223,256,233118,1,0,0:0:0:0:
194,283,233197,1,0,0:0:0:0:
161,303,233276,1,0,0:0:0:0:
144,72,233592,6,0,L|96:176,1,77.999997619629,8|0,0:0|0:0,0:0:0:0:
152,232,233908,2,0,L|192:160,1,77.999997619629,0|0,0:0|0:0,0:0:0:0:
296,88,234224,5,8,0:0:0:0:
184,248,234382,1,8,0:0:0:0:
312,304,234539,1,8,0:0:0:0:
192,112,234697,1,8,0:0:0:0:
328,240,234855,1,8,0:0:0:0:
120,176,235013,1,8,0:0:0:0:
400,112,235171,1,4,0:0:0:0:
120,88,235487,5,0,0:0:0:0:
120,184,235645,1,0,0:0:0:0:
216,168,235803,1,0,0:0:0:0:
184,256,235960,1,0,0:0:0:0:
272,304,236118,2,0,L|168:328,1,97.50000371933,8|0,0:0|0:0,0:0:0:0:
136,208,236434,1,0,0:0:0:0:
192,128,236592,1,0,0:0:0:0:
288,152,236750,1,0,0:0:0:0:
384,128,236908,1,0,0:0:0:0:
424,216,237066,6,0,L|456:80,1,97.50000371933,0|0,3:0|0:0,0:0:0:0:
264,152,237382,1,0,0:0:0:0:
192,88,237539,1,0,0:0:0:0:
168,184,237697,1,0,0:0:0:0:
200,280,237855,1,0,0:0:0:0:
264,192,238013,1,8,0:0:0:0:
200,280,238171,1,0,0:0:0:0:
200,280,238329,1,0,0:0:0:0:
288,232,238487,5,0,0:0:0:0:
336,144,238645,1,12,3:0:0:0:
248,104,238803,1,0,0:0:0:0:
200,192,238960,1,4,3:0:0:0:
64,104,239276,5,0,0:0:0:0:
56,200,239434,1,0,0:0:0:0:
72,248,239513,1,0,0:0:0:0:
96,288,239592,1,0,0:0:0:0:
152,208,239750,1,0,0:0:0:0:
192,296,239908,1,8,3:0:0:0:
152,208,240066,2,0,L|208:120,1,97.50000371933,0|0,0:0|0:0,0:0:0:0:
176,272,240382,5,0,0:0:0:0:
256,216,240539,1,0,0:0:0:0:
296,304,240697,1,0,0:0:0:0:
368,232,240855,1,0,3:0:0:0:
360,136,241013,1,0,0:0:0:0:
288,72,241171,2,0,P|240:56|184:72,1,97.50000371933,0|0,0:0|0:0,0:0:0:0:
304,248,241487,5,0,0:0:0:0:
272,284,241566,1,0,0:0:0:0:
228,300,241645,1,0,0:0:0:0:
180,300,241724,1,0,0:0:0:0:
136,280,241803,1,12,0:0:0:0:
108,240,241882,1,0,0:0:0:0:
100,192,241960,1,0,0:0:0:0:
108,144,242039,1,0,0:0:0:0:
132,100,242118,2,0,L|180:132,3,48.750001859665
180,76,242434,2,8,L|212:124,3,48.750001859665
228,72,242750,1,4,3:0:0:0:
344,104,243066,6,0,L|328:192,3,48.750001859665,8|0|0|0,0:0|0:0|0:0|0:0,0:0:0:0:
256,304,243382,2,0,L|232:256,3,48.750001859665,8|0|0|0,0:0|0:0|0:0|0:0,0:0:0:0:
112,152,243697,2,0,L|104:200,3,48.750001859665,8|0|0|0,0:0|0:0|0:0|0:0,0:0:0:0:
256,56,244013,5,8,0:0:0:0:
268,104,244092,1,0,0:0:0:0:
272,152,244171,1,0,0:0:0:0:
268,200,244250,1,0,0:0:0:0:
256,248,244329,2,0,L|208:296,3,48.750001859665,8|0|0|0,0:0|0:0|0:0|0:0,0:0:0:0:
164,268,244645,5,8,0:0:0:0:
128,236,244724,1,0,0:0:0:0:
108,192,244803,1,0,0:0:0:0:
100,144,244882,1,0,0:0:0:0:
108,96,244960,2,0,L|148:40,3,48.750001859665,8|0|0|0,0:0|0:0|0:0|0:0,0:0:0:0:
320,160,245276,2,0,L|272:192,3,48.750001859665,8|0|0|0,0:0|0:0|0:0|0:0,0:0:0:0:
200,72,245592,2,0,L|192:120,3,48.750001859665,8|0|0|0,0:0|0:0|0:0|0:0,0:0:0:0:
312,96,245908,5,8,0:0:0:0:
292,124,245987,1,0,0:0:0:0:
312,136,246066,1,0,0:0:0:0:
292,164,246145,1,0,0:0:0:0:
312,176,246224,1,8,0:0:0:0:
292,196,246303,1,0,0:0:0:0:
312,208,246382,1,0,0:0:0:0:
292,228,246460,1,0,0:0:0:0:
272,244,246539,2,0,L|232:280,3,48.750001859665,8|0|0|0,0:0|0:0|0:0|0:0,0:0:0:0:
80,112,246855,5,8,0:0:0:0:
80,112,246934,1,0,0:0:0:0:
80,112,247013,2,0,L|96:184,1,48.750001859665
120,312,247171,5,8,0:0:0:0:
120,312,247250,1,0,0:0:0:0:
120,312,247329,2,0,L|161:251,1,48.750001859665
238,146,247487,5,8,0:0:0:0:
238,146,247566,1,0,0:0:0:0:
238,146,247645,2,0,L|295:100,1,48.750001859665
400,22,247803,5,8,0:0:0:0:
384,56,247882,1,0,0:0:0:0:
356,84,247960,1,0,0:0:0:0:
320,100,248039,1,0,0:0:0:0:
280,104,248118,1,8,0:0:0:0:
240,96,248197,1,0,0:0:0:0:
204,108,248276,1,0,0:0:0:0:
188,144,248355,1,0,0:0:0:0:
196,184,248434,2,8,P|217:225|284:287,3,97.50000371933
168,80,249382,5,8,0:0:0:0:
64,208,249539,1,8,0:0:0:0:
168,328,249697,1,8,0:0:0:0:
272,208,249855,2,0,B|337:166|337:166|314:135|314:135|382:92,1,195.00000743866,8|0,0:0|3:0,0:0:0:0:
380,92,250329,5,4,0:0:0:0:
392,105,250803,1,0,0:0:0:0:
392,105,250960,1,0,0:0:0:0:
392,105,251118,1,0,0:0:0:0:
392,105,251276,2,0,P|408:161|304:249,1,195.00000743866,8|0,0:0|0:0,0:0:0:0:
160,240,251750,6,0,L|88:320,1,97.50000371933,0|0,0:0|0:0,0:0:0:0:
128,176,252066,2,0,L|40:216,1,97.50000371933,8|0,0:0|0:0,0:0:0:0:
137,100,252539,5,0,0:0:0:0:
170,90,252697,1,0,0:0:0:0:
202,95,252855,1,0,0:0:0:0:
229,116,253013,1,0,0:0:0:0:
256,138,253171,1,8,0:0:0:0:
288,143,253329,1,0,0:0:0:0:
320,138,253487,1,0,0:0:0:0:
352,127,253645,1,0,0:0:0:0:
424,56,253803,1,8,0:0:0:0:
272,248,254118,6,0,B|270:173|240:112|240:112|296:140,1,195,4|0,0:0|0:0,0:0:0:0:
337,155,254750,1,0,0:0:0:0:
195,192,254908,1,0,0:0:0:0:
375,136,255066,1,8,0:0:0:0:
416,144,255382,2,0,L|376:208,1,65
408,264,255697,1,0,0:0:0:0:
384,288,255776,1,0,0:0:0:0:
352,296,255855,1,8,0:0:0:0:
320,288,255934,1,0,0:0:0:0:
296,272,256013,1,0,0:0:0:0:
96,112,256329,5,0,0:0:0:0:
85,204,256487,1,0,0:0:0:0:
144,120,256645,1,0,0:0:0:0:
133,212,256803,1,0,0:0:0:0:
160,168,256882,1,0,0:0:0:0:
192,128,256960,1,8,0:0:0:0:
181,220,257118,1,0,0:0:0:0:
212,176,257197,1,0,0:0:0:0:
240,136,257276,1,8,0:0:0:0:
232,228,257434,1,0,0:0:0:0:
264,184,257513,1,0,0:0:0:0:
292,140,257592,1,8,0:0:0:0:
344,152,257671,1,0,0:0:0:0:
384,188,257750,1,0,0:0:0:0:
408,232,257829,1,0,0:0:0:0:
408,284,257908,5,4,3:0:0:0:
183,311,258066,1,0,0:0:0:0:
104,152,258224,1,0,0:0:0:0:
256,232,258382,1,0,0:0:0:0:
200,96,258539,2,0,L|157:47,1,65,0|0,0:0|3:0,0:0:0:0:
312,96,258855,2,0,L|361:139,1,65,8|0,0:0|0:0,0:0:0:0:
352,256,259171,5,0,0:0:0:0:
200,216,259329,1,0,0:0:0:0:
216,352,259487,1,0,3:0:0:0:
80,288,259645,1,8,0:0:0:0:
160,160,259803,1,0,3:0:0:0:
240,264,259960,2,0,L|304:192,1,65,0|0,0:0|0:0,0:0:0:0:
304,96,260276,2,0,L|224:120,1,65,0|0,0:0|3:0,0:0:0:0:
336,216,260592,1,0,3:0:0:0:
96,80,260750,6,0,L|160:128,1,65,8|0,0:0|0:0,0:0:0:0:
88,88,261066,2,0,L|152:136,1,65,8|0,0:0|0:0,0:0:0:0:
80,96,261382,2,8,L|136:144,1,65
80,200,261697,2,0,P|136:224|208:176,1,130,4|0,3:0|0:0,0:0:0:0:
272,120,262171,5,0,0:0:0:0:
328,152,262329,1,0,0:0:0:0:
384,208,262487,1,0,0:0:0:0:
400,296,262645,1,8,0:0:0:0:
224,296,262960,6,0,L|216:216,1,65,0|0,0:0|0:0,0:0:0:0:
88,248,263276,2,0,L|128:176,1,65,0|0,0:0|3:0,0:0:0:0:
208,64,263592,5,8,0:0:0:0:
344,72,263750,5,8,0:0:0:0:
320,96,263829,1,8,0:0:0:0:
312,132,263908,1,8,0:0:0:0:
316,168,263987,1,8,0:0:0:0:
328,200,264066,1,0,0:0:0:0:
324,236,264145,1,0,0:0:0:0:
312,268,264224,1,0,0:0:0:0:
288,296,264303,1,0,0:0:0:0:
252,308,264382,1,0,0:0:0:0:
216,308,264460,1,0,0:0:0:0:
180,300,264539,6,0,L|132:280,1,32.5
152,144,264697,2,0,L|152:112,1,32.5,0|0,0:0|0:0,0:0:0:0:
288,80,264855,2,0,L|336:64,1,32.5
368,224,265013,2,0,L|400:256,1,32.5
416,224,265171,1,8,0:0:0:0:
244,100,265329,1,8,0:0:0:0:
192,320,265487,1,4,0:0:0:0:
104,72,265803,5,0,0:0:0:0:
136,160,265960,1,0,0:0:0:0:
200,224,266118,2,0,L|224:152,1,65
344,128,266434,1,8,0:0:0:0:
448,312,266750,5,0,0:0:0:0:
352,280,266908,2,0,P|316:300|272:296,1,65
192,304,267224,1,8,0:0:0:0:
312,240,267382,1,0,0:0:0:0:
96,72,267697,5,0,0:0:0:0:
88,80,267855,1,0,0:0:0:0:
80,96,268013,1,0,0:0:0:0:
72,120,268171,1,0,0:0:0:0:
72,144,268329,1,8,0:0:0:0:
80,176,268487,1,0,0:0:0:0:
88,216,268645,1,0,0:0:0:0:
88,264,268803,1,0,0:0:0:0:
288,128,268960,1,8,0:0:0:0:
48,216,269276,6,0,P|64:256|160:296,1,130,4|0,0:0|0:0,0:0:0:0:
240,216,269750,1,0,0:0:0:0:
192,328,269908,1,0,0:0:0:0:
192,328,270066,1,0,0:0:0:0:
352,280,270224,1,8,0:0:0:0:
288,120,270539,6,0,B|256:64,1,65,0|0,0:0|0:0,0:0:0:0:
192,72,270855,1,0,0:0:0:0:
160,80,270934,1,0,0:0:0:0:
128,96,271013,1,0,0:0:0:0:
104,112,271092,1,0,0:0:0:0:
80,136,271171,1,0,3:0:0:0:
96,248,271487,6,0,L|144:200,1,65,0|0,0:0|0:0,0:0:0:0:
160,264,271803,2,0,L|192:208,1,65,0|0,0:0|0:0,0:0:0:0:
208,224,272039,1,0,0:0:0:0:
232,256,272118,2,0,L|232:192,1,65,12|0,0:0|0:0,0:0:0:0:
256,208,272355,1,0,0:0:0:0:
280,240,272434,1,12,0:0:0:0:
320,152,272592,5,0,0:0:0:0:
344,172,272671,1,0,0:0:0:0:
364,200,272750,1,12,0:0:0:0:
372,232,272829,1,8,0:0:0:0:
368,264,272908,1,8,0:0:0:0:
352,292,272987,1,8,0:0:0:0:
328,316,273066,6,0,P|297:331|264:336,1,65,4|0,0:0|0:0,0:0:0:0:
144,192,273382,1,0,0:0:0:0:
64,296,273539,1,0,0:0:0:0:
48,136,273697,2,0,L|96:72,1,65,2|0,0:0|0:0,0:0:0:0:
280,80,274013,1,8,0:0:0:0:
160,80,274171,1,0,0:0:0:0:
320,152,274329,2,0,L|280:208,1,65,0|0,0:0|0:0,0:0:0:0:
416,112,274645,2,0,L|352:168,1,65,2|0,0:0|0:0,0:0:0:0:
264,167,274960,1,2,0:0:0:0:
306,332,275118,1,0,0:0:0:0:
136,288,275276,2,0,L|136:200,1,65
144,112,275592,5,2,0:0:0:0:
168,264,275750,1,0,0:0:0:0:
40,184,275908,1,10,0:0:0:0:
192,272,276066,1,0,0:0:0:0:
40,184,276224,1,0,0:0:0:0:
64,160,276303,1,0,0:0:0:0:
96,152,276382,1,0,0:0:0:0:
128,152,276460,1,0,0:0:0:0:
156,164,276539,1,10,0:0:0:0:
180,188,276618,1,0,0:0:0:0:
192,220,276697,1,0,0:0:0:0:
212,248,276776,1,0,0:0:0:0:
244,252,276855,1,2,0:0:0:0:
216,112,277171,5,0,0:0:0:0:
96,312,277329,1,0,0:0:0:0:
96,312,277487,1,2,0:0:0:0:
96,312,277645,1,0,0:0:0:0:
256,192,277803,1,10,0:0:0:0:
376,288,278118,5,0,0:0:0:0:
96,144,278276,2,0,P|160:96|168:96,1,65,0|2,0:0|0:0,0:0:0:0:
232,120,278592,2,0,L|192:176,1,65,0|2,0:0|0:0,0:0:0:0:
208,200,278829,1,0,0:0:0:0:
256,235,278908,1,0,0:0:0:0:
304,268,278987,1,0,0:0:0:0:
360,304,279066,1,0,0:0:0:0:
414,333,279145,1,0,0:0:0:0:
416,304,279224,1,0,0:0:0:0:
412,276,279303,1,0,0:0:0:0:
404,248,279382,1,10,0:0:0:0:
392,224,279460,1,0,0:0:0:0:
380,200,279539,1,0,0:0:0:0:
364,176,279618,1,0,0:0:0:0:
344,152,279697,2,0,L|328:192,3,32.5,2|0|0|0,0:0|0:0|0:0|0:0,0:0:0:0:
304,172,280013,2,0,L|288:204,3,32.5
264,188,280329,2,8,L|220:244,2,65,10|8|6,0:0|0:0|0:0,0:0:0:0:
344,272,281118,6,0,L|288:224,2,65,0|0|0,0:0|0:0|0:0,0:0:0:0:
344,272,281592,1,8,0:0:0:0:
152,104,281908,1,2,0:0:0:0:
312,112,282066,1,2,0:0:0:0:
176,184,282224,1,2,0:0:0:0:
336,192,282382,1,2,0:0:0:0:
204,264,282539,1,2,0:0:0:0:
256,192,282618,12,12,284118,0:0:0:0:
400,312,284435,5,0,0:0:0:0:
352,96,284750,1,0,0:0:0:0:
112,304,285066,1,8,0:0:0:0:
352,96,285224,1,0,0:0:0:0:
80,64,285539,6,0,L|120:120,1,65
232,88,286013,1,0,0:0:0:0:
280,136,286171,1,0,0:0:0:0:
385,63,286329,1,8,0:0:0:0:
172,298,286487,1,0,0:0:0:0:
88,312,286960,6,0,L|88:248,1,65,0|0,0:0|0:0,0:0:0:0:
144,312,287276,2,0,L|144:240,1,65,0|0,0:0|0:0,0:0:0:0:
296,144,287592,1,8,0:0:0:0:
56,352,287750,1,0,0:0:0:0:
88,128,288224,5,0,0:0:0:0:
128,80,288382,1,0,0:0:0:0:
184,48,288540,1,0,0:0:0:0:
248,32,288698,1,0,0:0:0:0:
312,48,288856,1,8,0:0:0:0:
352,128,289013,1,8,0:0:0:0:
328,216,289171,1,8,0:0:0:0:
352,128,289329,1,8,0:0:0:0:
224,216,289487,5,4,0:0:0:0:
96,312,289645,1,0,0:0:0:0:
96,200,289803,2,0,L|168:200,2,65,0|0|8,0:0|0:0|0:0,0:0:0:0:
440,312,290276,2,0,L|368:264,1,65,0|0,0:0|0:0,0:0:0:0:
424,168,290592,1,0,0:0:0:0:
144,56,290750,2,0,P|208:96|208:160,1,130,0|0,0:0|0:0,0:0:0:0:
213,145,291382,1,8,0:0:0:0:
88,320,291539,1,0,0:0:0:0:
240,320,291697,6,0,L|224:256,1,65,0|0,0:0|0:0,0:0:0:0:
328,312,292013,2,0,P|352:232|312:192,1,130,0|0,0:0|0:0,0:0:0:0:
88,136,292487,1,0,0:0:0:0:
88,136,292645,2,0,L|152:168,1,65,8|0,0:0|0:0,0:0:0:0:
208,104,292960,1,0,0:0:0:0:
272,112,293118,1,0,0:0:0:0:
112,272,293276,2,0,B|176:272|176:272|160:192,1,130
163,207,293671,1,0,0:0:0:0:
163,207,293750,1,0,0:0:0:0:
163,207,293829,1,0,0:0:0:0:
163,207,293908,5,8,0:0:0:0:
96,144,294066,1,0,0:0:0:0:
144,328,294223,1,0,0:0:0:0:
328,328,294381,1,0,0:0:0:0:
384,64,294539,6,0,L|368:128,2,65,4|0|0,0:0|0:0|0:0,0:0:0:0:
104,64,295171,5,8,0:0:0:0:
104,64,295328,1,0,0:0:0:0:
104,64,295486,1,0,0:0:0:0:
104,64,295644,1,0,0:0:0:0:
64,224,295803,5,0,0:0:0:0:
112,232,295960,1,0,0:0:0:0:
160,240,296118,1,0,0:0:0:0:
360,96,296434,1,8,0:0:0:0:
160,240,296591,1,0,0:0:0:0:
440,328,297065,5,0,0:0:0:0:
392,256,297223,1,0,0:0:0:0:
344,184,297381,1,0,0:0:0:0:
360,56,297697,1,8,0:0:0:0:
160,240,297855,1,0,0:0:0:0:
100,56,298329,5,0,0:0:0:0:
86,92,298407,1,0,0:0:0:0:
79,130,298486,1,0,0:0:0:0:
76,169,298565,1,0,0:0:0:0:
80,208,298644,1,0,0:0:0:0:
88,246,298723,1,0,0:0:0:0:
102,282,298802,1,0,0:0:0:0:
122,316,298881,1,0,0:0:0:0:
148,344,298960,1,0,0:0:0:0:
183,359,299038,1,0,0:0:0:0:
222,364,299117,1,0,0:0:0:0:
260,358,299196,1,0,0:0:0:0:
295,342,299275,1,0,0:0:0:0:
324,316,299354,1,0,0:0:0:0:
345,283,299433,1,0,0:0:0:0:
355,245,299512,1,0,0:0:0:0:
356,212,299592,6,0,L|252:108,1,130,4|0,0:0|0:0,0:0:0:0:
180,112,300066,2,0,P|248:40|296:48,1,130
328,96,300539,2,0,L|288:160,1,65
352,184,300855,2,0,P|368:256|304:288,1,130,0|0,0:0|0:0,0:0:0:0:
264,296,301328,1,0,0:0:0:0:
200,296,301486,1,0,0:0:0:0:
136,280,301644,1,0,0:0:0:0:
80,248,301802,1,0,0:0:0:0:
56,192,301960,1,0,0:0:0:0:
64,128,302118,6,0,L|184:64,1,130
232,104,302591,1,0,0:0:0:0:
272,160,302750,2,0,L|224:96,1,65,0|0,0:0|0:0,0:0:0:0:
176,72,303066,2,0,L|88:96,1,65,0|0,0:0|0:0,0:0:0:0:
64,136,303381,2,0,L|88:216,1,65
128,248,303697,2,0,B|160:269|160:269|192:248,1,65
232,208,304013,1,8,0:0:0:0:
336,112,304250,1,0,0:0:0:0:
360,120,304328,1,0,3:0:0:0:
336,176,304486,1,0,3:0:0:0:
312,232,304644,6,0,L|184:144,1,130,4|0,3:0|0:0,0:0:0:0:
160,120,305118,2,0,P|256:64|288:64,1,130,0|0,0:0|0:0,0:0:0:0:
328,96,305592,2,0,L|288:160,1,65
352,184,305908,2,0,P|360:232|344:268,2,65,0|0|0,3:2|3:2|3:2,3:2:0:0:
96,264,306382,5,0,3:0:0:0:
112,120,306539,1,0,3:0:0:0:
112,120,306697,1,0,3:0:0:0:
184,200,306855,1,0,3:0:0:0:
192,200,307013,1,0,3:0:0:0:
288,200,307171,1,8,3:0:0:0:
280,200,307329,1,0,3:0:0:0:
144,272,307487,5,8,3:0:0:0:
239,101,307645,1,8,3:0:0:0:
334,269,307803,1,0,3:0:0:0:
168,296,307961,1,8,3:0:0:0:
263,125,308119,1,0,3:0:0:0:
358,293,308276,1,8,3:0:0:0:
120,264,308435,5,8,3:0:0:0:
215,93,308592,1,0,3:0:0:0:
310,261,308751,1,8,3:0:0:0:
360,160,308908,2,8,L|360:208,6,32.5,8|8|8|8|8|8|8,3:0|3:0|3:0|3:0|3:0|3:0|3:0,3:0:0:0:
88,104,309698,6,0,L|96:136,5,32.5,2|0|8|0|0|0,0:0|0:0|0:0|0:0|0:0|0:0,0:0:0:0:
152,96,310171,2,0,L|128:144,5,32.5,10|0|0|0|8|0,0:0|0:0|0:0|0:0|0:0|0:0,0:0:0:0:
176,144,310645,2,0,L|128:152,3,32.5,2|0|8|0,0:0|0:0|0:0|0:0,0:0:0:0:
216,216,310961,6,0,L|208:184,5,32.5,2|0|8|0|0|0,0:0|0:0|0:0|0:0|0:0|0:0,0:0:0:0:
249,213,311434,2,0,L|264:184,5,32.5,10|0|0|0|8|0,0:0|0:0|0:0|0:0|0:0|0:0,0:0:0:0:
255,237,311908,2,0,L|296:232,3,32.5,2|0|8|0,0:0|0:0|0:0|0:0,0:0:0:0:
176,96,312224,5,2,0:0:0:0:
161,102,312302,1,0,0:0:0:0:
147,111,312381,1,8,0:0:0:0:
136,123,312460,1,0,0:0:0:0:
126,136,312539,1,0,0:0:0:0:
112,152,312618,1,0,0:0:0:0:
103,165,312697,1,10,0:0:0:0:
96,180,312776,1,0,0:0:0:0:
93,196,312856,1,0,0:0:0:0:
94,212,312934,1,0,0:0:0:0:
97,228,313013,1,8,0:0:0:0:
103,243,313092,1,0,0:0:0:0:
120,272,313171,5,2,0:0:0:0:
143,291,313249,1,0,0:0:0:0:
171,305,313328,1,8,0:0:0:0:
200,312,313407,1,0,0:0:0:0:
248,312,313487,5,2,0:0:0:0:
284,296,313565,1,0,0:0:0:0:
312,264,313644,1,8,0:0:0:0:
316,220,313723,1,0,0:0:0:0:
292,184,313802,1,0,0:0:0:0:
320,152,313881,1,0,0:0:0:0:
360,164,313960,1,10,0:0:0:0:
396,140,314039,5,0,0:0:0:0:
348,100,314118,1,0,0:0:0:0:
288,88,314197,1,0,0:0:0:0:
228,100,314276,1,8,0:0:0:0:
180,140,314355,1,0,0:0:0:0:
196,204,314434,1,2,0:0:0:0:
232,256,314513,1,0,0:0:0:0:
256,316,314592,1,10,0:0:0:0:
208,360,314671,1,0,0:0:0:0:
152,324,314750,6,0,L|160:289,5,32.5,6|0|8|0|0|0,0:0|0:0|0:0|0:0|0:0|0:0,0:0:0:0:
205,296,315224,2,0,L|184:264,5,32.5,10|0|0|0|8|0,0:0|0:0|0:0|0:0|0:0|0:0,0:0:0:0:
232,243,315697,2,0,L|184:232,3,32.5,2|0|8|0,0:0|0:0|0:0|0:0,0:0:0:0:
276,164,316013,6,0,L|267:200,5,32.5,2|0|8|0|0|0,0:0|0:0|0:0|0:0|0:0|0:0,0:0:0:0:
313,167,316487,2,0,L|328:200,5,32.5,10|0|0|0|8|0,0:0|0:0|0:0|0:0|0:0|0:0,0:0:0:0:
320,140,316961,2,0,L|360:152,3,32.5,2|0|8|0,0:0|0:0|0:0|0:0,0:0:0:0:
336,96,317277,5,2,0:0:0:0:
351,102,317355,1,0,0:0:0:0:
365,111,317434,1,8,0:0:0:0:
376,123,317513,1,0,0:0:0:0:
386,136,317592,1,0,0:0:0:0:
400,152,317671,1,0,0:0:0:0:
408,165,317750,1,10,0:0:0:0:
415,180,317829,1,0,0:0:0:0:
418,196,317908,1,0,0:0:0:0:
417,212,317987,1,0,0:0:0:0:
414,228,318066,1,8,0:0:0:0:
408,243,318145,1,0,0:0:0:0:
392,272,318224,5,2,0:0:0:0:
368,291,318303,1,0,0:0:0:0:
340,305,318381,1,8,0:0:0:0:
310,311,318460,1,0,0:0:0:0:
280,320,318540,5,2,0:0:0:0:
216,320,318618,1,0,0:0:0:0:
168,280,318697,1,8,0:0:0:0:
184,216,318776,1,0,0:0:0:0:
240,176,318855,1,0,0:0:0:0:
288,136,318934,1,0,0:0:0:0:
300,72,319013,1,10,0:0:0:0:
248,40,319092,1,0,0:0:0:0:
192,72,319171,1,2,0:0:0:0:
208,136,319250,1,0,0:0:0:0:
248,188,319329,1,8,0:0:0:0:
268,248,319408,1,0,0:0:0:0:
280,312,319487,1,2,0:0:0:0:
228,344,319566,1,0,0:0:0:0:
172,312,319645,1,10,0:0:0:0:
188,248,319724,1,0,0:0:0:0:
152,200,319803,6,0,L|108:168,7,48.750001859665,4|0|8|0|0|0|8|0,0:0|0:0|0:0|0:0|0:0|0:0|0:0|0:0,0:0:0:0:
112,112,320434,1,0,0:0:0:0:
160,76,320513,1,0,0:0:0:0:
216,64,320592,1,8,0:0:0:0:
272,80,320671,1,0,0:0:0:0:
320,112,320750,1,0,0:0:0:0:
352,160,320829,1,0,0:0:0:0:
328,212,320908,2,0,L|296:260,1,48.750001859665,8|0,0:0|0:0,0:0:0:0:
244,260,321066,2,0,L|172:252,7,48.750001859665,0|0|8|0|0|0|8|0,0:0|0:0|0:0|0:0|0:0|0:0|0:0|0:0,0:0:0:0:
152,296,321697,5,0,0:0:0:0:
200,332,321776,1,0,0:0:0:0:
256,340,321855,1,8,0:0:0:0:
312,328,321934,1,0,0:0:0:0:
360,296,322013,1,0,0:0:0:0:
396,248,322092,1,0,0:0:0:0:
404,192,322171,2,0,L|380:136,1,48.750001859665,8|0,0:0|0:0,0:0:0:0:
252,88,322329,6,0,L|212:120,7,48.750001859665,0|0|8|0|0|0|8|0,0:0|0:0|0:0|0:0|0:0|0:0|0:0|0:0,0:0:0:0:
192,140,322960,1,0,0:0:0:0:
176,164,323039,1,0,0:0:0:0:
164,192,323118,1,8,0:0:0:0:
164,220,323197,1,0,0:0:0:0:
176,248,323276,1,0,0:0:0:0:
196,272,323355,1,0,0:0:0:0:
220,288,323434,1,8,0:0:0:0:
276,272,323513,1,0,0:0:0:0:
320,232,323592,1,0,0:0:0:0:
352,184,323671,1,0,0:0:0:0:
348,156,323750,1,8,0:0:0:0:
332,132,323829,1,0,0:0:0:0:
308,116,323908,1,0,0:0:0:0:
280,116,323987,1,0,0:0:0:0:
252,128,324066,2,0,L|204:156,1,48.750001859665,8|0,0:0|0:0,0:0:0:0:
160,120,324224,5,0,0:0:0:0:
152,152,324303,1,0,0:0:0:0:
140,184,324382,1,8,0:0:0:0:
132,216,324460,1,0,0:0:0:0:
100,228,324539,1,0,0:0:0:0:
88,260,324618,1,0,0:0:0:0:
76,292,324697,1,8,0:0:0:0:
68,324,324776,1,0,0:0:0:0:
100,336,324855,2,0,L|152:328,7,48.750001859665,0|0|8|0|0|0|8|0,0:0|0:0|0:0|0:0|0:0|0:0|0:0|0:0,0:0:0:0:
192,224,325487,5,0,0:0:0:0:
220,276,325566,1,0,0:0:0:0:
276,296,325645,1,8,0:0:0:0:
336,292,325724,1,0,0:0:0:0:
384,256,325803,1,0,0:0:0:0:
408,204,325882,1,0,0:0:0:0:
392,148,325960,1,8,0:0:0:0:
348,108,326039,1,0,0:0:0:0:
292,84,326118,2,0,P|248:80|228:88,7,48.750001859665,0|0|8|0|0|0|8|0,0:0|0:0|0:0|0:0|0:0|0:0|0:0|0:0,0:0:0:0:
192,108,326750,5,0,0:0:0:0:
204,164,326829,1,0,0:0:0:0:
240,208,326908,1,8,0:0:0:0:
284,244,326987,1,0,0:0:0:0:
340,264,327066,1,0,0:0:0:0:
304,308,327145,1,0,0:0:0:0:
356,332,327224,1,8,0:0:0:0:
412,320,327303,1,0,0:0:0:0:
448,272,327382,2,0,P|456:232|456:208,7,48.750001859665,0|0|8|0|0|0|8|0,0:0|0:0|0:0|0:0|0:0|0:0|0:0|0:0,0:0:0:0:
424,96,328013,5,0,0:0:0:0:
396,104,328092,1,0,0:0:0:0:
368,116,328171,1,8,0:0:0:0:
340,124,328250,1,0,0:0:0:0:
312,132,328329,1,0,0:0:0:0:
268,136,328408,1,0,0:0:0:0:
224,124,328487,1,8,0:0:0:0:
188,96,328566,1,0,0:0:0:0:
144,88,328645,5,0,0:0:0:0:
100,124,328724,1,0,0:0:0:0:
88,180,328803,1,8,0:0:0:0:
104,236,328882,1,0,0:0:0:0:
148,272,328960,1,0,0:0:0:0:
220,304,329039,1,0,0:0:0:0:
296,296,329118,1,8,0:0:0:0:
352,244,329197,5,0,0:0:0:0:
376,172,329276,1,0,0:0:0:0:
344,100,329355,1,0,0:0:0:0:
268,56,329434,1,8,0:0:0:0:
184,76,329513,1,0,0:0:0:0:
124,140,329592,1,0,0:0:0:0:
120,228,329671,1,0,0:0:0:0:
184,288,329750,2,0,P|220:304|240:300,1,48.750001859665,8|0,0:0|0:0,0:0:0:0:
360,312,329908,5,10,2:0:0:0:
360,312,329987,1,8,2:0:0:0:
360,312,330066,1,8,2:0:0:0:
352,208,330224,1,10,2:0:0:0:
452,148,330382,1,8,2:0:0:0:
224,312,330539,5,10,2:0:0:0:
224,312,330618,1,8,2:0:0:0:
224,312,330697,1,8,2:0:0:0:
184,208,330855,1,10,2:0:0:0:
80,144,331012,1,8,2:0:0:0:
360,64,331171,5,10,2:0:0:0:
360,64,331250,1,8,2:0:0:0:
360,64,331329,1,8,2:0:0:0:
392,160,331487,1,10,2:0:0:0:
192,64,331645,1,8,2:0:0:0:
414,192,331803,5,10,2:0:0:0:
416,192,331882,1,8,2:0:0:0:
416,192,331961,1,8,2:0:0:0:
176,55,332119,1,10,2:0:0:0:
176,56,332198,1,8,2:0:0:0:
176,56,332277,1,8,2:0:0:0:
176,330,332435,1,10,2:0:0:0:
176,330,332513,1,8,2:0:0:0:
176,330,332592,1,8,2:0:0:0:
112,136,332750,5,10,2:0:0:0:
272,248,332908,1,8,2:0:0:0:
304,88,333066,1,10,2:0:0:0:
304,88,333145,1,8,2:0:0:0:
304,88,333224,1,8,2:0:0:0:
336,288,333382,1,10,2:0:0:0:
168,176,333540,1,8,2:0:0:0:
352,336,333698,1,10,2:0:0:0:
352,336,333777,1,8,2:0:0:0:
352,336,333856,1,8,2:0:0:0:
104,304,334013,5,8,2:0:0:0:
368,136,334171,2,8,P|248:120|168:168,1,195.00000743866,8|8,2:0|2:0,2:0:0:0:
320,288,334803,1,8,0:0:0:0:
120,208,334961,1,10,0:0:0:0:
120,208,335040,1,8,0:0:0:0:
120,208,335119,1,8,0:0:0:0:
200,64,335277,5,10,0:0:0:0:
384,240,335435,1,8,0:0:0:0:
120,208,335592,1,10,0:0:0:0:
120,208,335671,1,8,0:0:0:0:
120,208,335750,1,8,0:0:0:0:
272,312,335908,1,10,0:0:0:0:
272,96,336066,1,8,0:0:0:0:
48,184,336381,5,8,0:0:0:0:
152,136,336539,1,8,0:0:0:0:
224,232,336697,1,8,0:0:0:0:
312,176,336855,2,8,L|416:176,3,97.50000371933
113,110,337644,5,8,0:0:0:0:
113,110,337803,2,0,L|205:175,1,97.50000371933,0|8,0:0|0:0,0:0:0:0:
411,313,338118,1,0,0:0:0:0:
411,313,338276,2,0,L|307:287,1,97.50000371933,8|0,0:0|0:0,0:0:0:0:
174,259,338591,1,8,0:0:0:0:
309,130,338749,1,0,0:0:0:0:
128,305,338908,5,8,0:0:0:0:
227,73,339065,1,0,0:0:0:0:
378,274,339223,1,8,0:0:0:0:
227,73,339381,1,0,0:0:0:0:
128,305,339539,1,8,0:0:0:0:
378,274,339697,1,0,0:0:0:0:
120,168,339855,2,0,L|81:77,1,97.50000371933,8|0,0:0|0:0,0:0:0:0:
398,272,340171,5,8,0:0:0:0:
400,272,340329,2,0,L|298:199,1,97.50000371933,0|8,0:0|0:0,0:0:0:0:
99,69,340645,1,0,0:0:0:0:
99,69,340803,2,0,L|64:168,1,97.50000371933,8|0,0:0|0:0,0:0:0:0:
336,123,341118,1,8,0:0:0:0:
201,252,341276,1,0,0:0:0:0:
381,76,341434,5,8,0:0:0:0:
283,308,341592,1,0,0:0:0:0:
131,107,341750,1,8,0:0:0:0:
283,308,341908,1,0,0:0:0:0:
381,76,342066,1,8,0:0:0:0:
131,107,342224,1,0,0:0:0:0:
391,216,342382,2,0,L|294:250,1,97.50000371933,8|0,0:0|0:0,0:0:0:0:
113,299,342698,5,8,0:0:0:0:
113,299,342777,1,0,0:0:0:0:
113,299,342856,2,0,L|219:306,1,97.50000371933,0|8,0:0|0:0,0:0:0:0:
404,306,343171,1,0,0:0:0:0:
404,306,343250,1,0,0:0:0:0:
404,306,343329,2,0,L|321:230,1,97.50000371933,8|0,0:0|0:0,0:0:0:0:
181,96,343645,1,8,0:0:0:0:
181,96,343724,1,0,0:0:0:0:
181,96,343803,1,0,0:0:0:0:
297,282,343960,5,8,0:0:0:0:
177,126,344118,1,0,0:0:0:0:
210,281,344276,1,8,0:0:0:0:
256,90,344434,1,0,0:0:0:0:
156,211,344592,1,8,0:0:0:0:
335,129,344750,1,0,0:0:0:0:
350,218,344908,2,0,B|259:177,1,97.50000371933,8|0,0:0|0:0,0:0:0:0:
83,84,345224,6,0,L|83:140,3,48.750001859665,8|0|0|0,0:0|0:0|0:0|0:0,0:0:0:0:
112,105,345539,2,0,L|112:157,3,48.750001859665,8|0|0|0,0:0|0:0|0:0|0:0,0:0:0:0:
140,127,345855,1,8,0:0:0:0:
162,148,345934,1,0,0:0:0:0:
176,177,346012,1,0,0:0:0:0:
184,206,346091,1,0,0:0:0:0:
191,235,346170,1,8,0:0:0:0:
205,263,346249,1,0,0:0:0:0:
227,285,346328,1,0,0:0:0:0:
256,285,346407,1,0,0:0:0:0:
317,177,346487,6,0,L|272:193,1,48.750001859665,8|8,0:0|0:0,0:0:0:0:
270,134,346645,2,8,L|303:98,1,48.750001859665
264,196,346803,2,8,P|336:212|344:160,1,130
342,134,347118,2,8,L|280:160,2,58.4999982147217,8|8|4,0:0|0:0|3:0,0:0:0:0:
97,177,347592,5,0,2:3:0:0:
97,177,347749,1,0,0:0:0:0:
97,177,347908,1,4,0:3:0:0:
191,299,348065,1,0,0:0:0:0:
198,307,348224,1,12,3:0:0:0:
198,307,348381,1,0,0:0:0:0:
270,98,348539,5,0,0:0:0:0:
270,98,348697,1,0,0:0:0:0:
270,98,348855,1,4,3:0:0:0:
349,263,349012,1,0,0:0:0:0:
349,263,349170,1,0,0:0:0:0:
349,263,349328,1,0,0:0:0:0:
263,220,349487,6,0,P|234:170|256:120,2,97.50000371933,12|0|0,3:0|0:0|0:0,0:0:0:0:
126,307,349960,2,0,L|119:199,1,97.50000371933,0|4,0:0|3:0,0:0:0:0:
112,134,350276,1,0,0:0:0:0:
198,156,350434,1,0,0:0:0:0:
385,84,350591,5,0,0:0:0:0:
385,84,350749,1,12,3:0:0:0:
385,84,350907,1,0,0:0:0:0:
204,194,351065,1,0,0:0:0:0:
277,146,351223,1,0,0:0:0:0:
283,233,351381,1,4,3:0:0:0:
169,91,351539,6,0,L|263:62,1,97.50000371933,0|0,0:0|0:0,0:0:0:0:
241,120,351855,1,0,0:0:0:0:
83,156,352013,1,12,3:0:0:0:
119,263,352170,1,0,0:0:0:0:
83,156,352328,1,0,0:0:0:0:
119,263,352486,1,0,0:0:0:0:
421,314,352644,6,0,L|408:208,2,97.50000371933,4|0|0,3:0|0:0|0:0,0:0:0:0:
336,184,353118,2,0,L|346:288,2,97.50000371933,0|12|0,0:0|3:0|0:0,0:0:0:0:
220,98,353592,1,0,0:0:0:0:
356,84,353750,1,0,0:0:0:0:
191,292,353907,2,0,P|240:320|296:304,2,97.50000371933,4|0|0,3:0|0:0|0:0,0:0:0:0:
248,244,354381,2,0,P|297:216|353:232,2,97.50000371933,0|12|0,3:0|3:0|0:0,0:0:0:0:
83,285,354855,2,0,L|119:192,1,97.50000371933,0|0,0:0|0:0,0:0:0:0:
76,69,355170,5,6,3:3:0:0:
76,69,355328,1,2,0:3:0:0:
76,69,355486,1,2,0:3:0:0:
148,256,355644,1,0,0:0:0:0:
234,278,355802,1,14,0:3:0:0:
284,213,355960,1,0,0:0:0:0:
428,328,356118,5,2,3:0:0:0:
407,307,356276,1,0,0:0:0:0:
385,285,356434,1,6,0:3:0:0:
399,163,356592,6,0,P|306:98|192:112,1,233.999992858887,0|0,0:0|0:0,0:0:0:0:
104,112,357065,5,2,0:3:0:0:
80,160,357144,1,0,0:3:0:0:
84,212,357223,1,2,0:3:0:0:
116,256,357302,1,0,0:3:0:0:
168,272,357381,1,2,0:3:0:0:
220,260,357460,1,0,0:3:0:0:
264,232,357539,1,2,0:3:0:0:
284,184,357618,1,0,0:3:0:0:
292,132,357697,6,2,P|250:171|193:181,1,116.999996429443,6|0,3:0|2:0,3:0:0:0:
193,179,358013,1,0,0:0:0:0:
332,48,358171,2,0,P|404:55|462:12,1,116.999996429443,0|12,0:0|3:0,0:0:0:0:
442,35,358487,1,0,0:0:0:0:
421,321,358645,2,0,P|371:263|385:192,1,116.999996429443
370,226,358959,1,4,3:0:0:0:
104,292,359118,5,0,0:0:0:0:
104,184,359276,1,0,0:0:0:0:
184,292,359434,1,0,0:0:0:0:
184,184,359592,2,0,P|199:124|237:71,1,116.999996429443,12|0,3:0|0:0,0:0:0:0:
290,98,359907,2,0,P|275:158|237:211,1,116.999996429443
428,314,360223,5,6,3:0:0:0:
371,148,360382,2,0,L|291:249,1,116.999996429443,0|0,0:0|0:0,0:0:0:0:
378,271,360698,1,0,2:0:0:0:
320,105,360856,2,0,L|241:206,1,116.999996429443,12|0,3:0|0:0,0:0:0:0:
371,328,361171,1,0,0:0:0:0:
313,163,361328,2,0,L|234:263,1,116.999996429443,0|4,0:0|3:0,0:0:0:0:
97,163,361645,6,0,B|112:227|112:227|176:242,1,116.999996429443,0|0,0:0|0:0,0:0:0:0:
248,271,361960,2,0,P|284:220|256:163,4,116.999996429443,0|12|0|0|0,0:0|3:0|0:0|0:0|0:0,0:0:0:0:
126,98,362749,5,6,3:0:0:0:
126,98,362907,1,0,0:0:0:0:
126,199,363065,1,0,0:0:0:0:
126,98,363223,1,0,0:0:0:0:
176,227,363381,1,12,3:0:0:0:
169,127,363539,1,0,0:0:0:0:
97,299,363698,5,0,0:0:0:0:
97,299,363856,1,0,0:0:0:0:
191,299,364013,1,4,3:0:0:0:
90,292,364171,1,0,0:0:0:0:
97,299,364329,1,0,0:0:0:0:
320,299,364487,2,0,L|216:248,3,116.999996429443,0|12|0|0,0:0|3:0|0:0|0:0,0:0:0:0:
349,213,365118,1,0,0:0:0:0:
220,192,365276,6,0,P|202:138|240:85,1,116.999996429443,4|0,0:3|0:0,0:0:0:0:
275,146,365592,1,8,0:0:0:0:
126,91,365749,2,0,L|97:213,1,116.999996429443,4|0,0:3|0:0,0:0:0:0:
291,62,366065,1,8,0:0:0:0:
291,120,366224,1,4,3:0:0:0:
291,177,366381,1,0,0:0:0:0:
291,235,366539,1,8,0:0:0:0:
200,324,366697,6,8,P|256:344|320:340,2,116.999996429443,12|0|0,3:0|0:0|0:0,0:0:0:0:
168,216,367170,2,8,P|233:209|296:232,2,116.999996429443,12|0|0,3:0|0:0|0:0,0:0:0:0:
342,314,367644,5,4,3:0:0:0:
56,328,367802,1,4,3:0:0:0:
112,272,375387,6,0,L|144:208,1,65,0|0,3:0|0:0,0:0:0:0:
112,128,375703,1,0,0:0:0:0:
176,72,375861,1,0,0:0:0:0:
192,192,376019,1,0,0:0:0:0:
288,232,376177,1,0,0:0:0:0:
344,328,376335,2,0,P|288:336|256:320,1,65,2|0,0:3|0:0,0:0:0:0:
416,256,376651,1,0,0:0:0:0:
408,168,376809,1,0,0:0:0:0:
280,264,376966,1,0,0:0:0:0:
240,144,377124,1,0,0:0:0:0:
368,72,377282,6,0,B|320:88|320:88|328:128,1,65,0|0,3:0|0:0,0:0:0:0:
344,200,377598,1,0,0:0:0:0:
160,192,377756,1,0,0:0:0:0:
40,168,377914,1,0,0:0:0:0:
80,288,378072,1,0,0:0:0:0:
224,304,378230,2,0,L|152:248,1,65,2|0,0:3|0:0,0:0:0:0:
64,168,378545,1,2,0:0:0:0:
232,72,378861,1,2,0:0:0:0:
128,88,379019,2,0,B|192:168|192:168|240:160,1,130,2|0,0:0|0:0,0:0:0:0:
416,144,379493,5,0,0:0:0:0:
328,256,379651,1,0,0:0:0:0:
272,144,379809,1,0,0:0:0:0:
424,280,379966,1,0,0:0:0:0:
424,152,380124,2,0,L|344:128,1,65,2|0,0:3|0:0,0:0:0:0:
112,288,380440,1,0,0:0:0:0:
160,160,380598,1,0,0:0:0:0:
240,288,380756,2,0,L|160:248,1,65
80,56,381072,6,0,L|160:96,1,65,0|0,3:0|0:0,3:0:0:0:
352,56,381387,1,0,0:0:0:0:
344,152,381545,1,0,0:0:0:0:
288,240,381703,1,0,0:0:0:0:
272,136,381861,1,0,0:0:0:0:
200,232,382019,2,0,L|128:280,1,65,2|0,0:3|0:0,0:0:0:0:
96,200,382335,2,0,L|88:128,1,65,2|0,0:0|0:0,0:0:0:0:
168,40,382651,2,2,L|112:84,1,65
116,240,382966,5,2,0:0:0:0:
344,292,383282,2,0,L|360:232,3,48.750001859665,0|2|0|0,0:0|0:0|0:0|0:0,0:0:0:0:
332,168,383914,1,2,0:0:0:0:
168,92,384230,2,0,L|152:152,3,48.750001859665,0|2|0|0,0:0|0:0|0:0|0:0,0:0:0:0:
180,216,384861,1,2,0:0:0:0:
332,296,385177,5,0,0:0:0:0:
352,220,385335,1,2,0:0:0:0:
328,144,385493,1,0,0:0:0:0:
272,92,385651,1,0,0:0:0:0:
196,76,385809,2,2,P|128:88|92:112,2,97.50000371933
272,92,386598,1,0,0:0:0:0:
328,148,386756,6,0,P|277:222|258:238,1,97.50000371933,2|0,0:0|0:0,0:0:0:0:
56,335,387230,2,0,L|56:227,1,97.50000371933,2|0,0:0|0:0,0:0:0:0:
55,55,387703,2,0,L|132:120,1,97.50000371933,2|0,0:0|0:0,0:0:0:0:
376,336,388177,2,0,P|392:284|384:220,1,97.50000371933,2|0,0:0|0:0,0:0:0:0:
308,204,388651,2,0,B|232:292|180:168|76:236|76:236|132:264,1,292.50001115799,2|2,0:0|0:0,0:0:0:0:
248,336,389914,1,2,0:0:0:0:
240,180,390230,1,2,0:0:0:0:
240,180,390387,1,0,0:0:0:0:
376,84,390545,5,2,0:0:0:0:
288,344,390861,1,0,0:0:0:0:
192,324,391019,1,2,0:0:0:0:
184,40,391335,1,0,0:0:0:0:
280,44,391493,1,2,0:0:0:0:
408,312,391809,1,0,0:0:0:0:
312,328,391966,1,2,0:0:0:0:
216,308,392124,5,0,0:0:0:0:
140,248,392282,1,0,0:0:0:0:
108,156,392440,2,0,P|144:128|196:120,1,97.50000371933,2|0,0:0|0:0,0:0:0:0:
276,176,392914,2,0,L|264:120,2,48.750001859665,2|0|0,0:0|0:0|0:0,0:0:0:0:
276,176,393387,1,2,0:0:0:0:
380,288,393703,1,2,0:0:0:0:
184,304,394019,1,2,0:0:0:0:
64,160,394335,6,0,B|160:112|160:112|168:144,1,130,2|0,0:0|0:0,0:0:0:0:
184,224,394809,2,0,P|200:296|264:288,1,130,2|0,0:0|0:0,0:0:0:0:
384,168,395282,2,0,B|320:168|288:208|288:208|264:200,1,130,2|0,0:0|0:0,0:0:0:0:
80,128,395756,1,2,0:0:0:0:
352,272,396072,1,0,0:0:0:0:
360,96,396230,6,2,L|312:128,3,32.5,2|2|2|2,0:0|0:0|0:0|0:0,0:0:0:0:
328,80,396545,2,2,L|304:128,3,32.5,2|2|2|2,0:0|0:0|0:0|0:0,0:0:0:0:
296,80,396861,2,2,L|304:120,3,32.5,2|2|2|2,0:0|0:0|0:0|0:0,0:0:0:0:
272,136,397177,2,2,L|288:208,2,65
176,224,397651,1,0,0:0:0:0:
176,224,397730,1,0,0:0:0:0:
176,224,397809,1,2,0:0:0:0:
72,80,397966,1,0,0:0:0:0:
72,80,398045,1,0,0:0:0:0:
72,80,398124,5,4,3:3:0:0:
82,323,398598,1,0,0:0:0:0:
82,323,398914,1,0,0:0:0:0:
280,200,399072,2,0,P|238:106|336:144,1,260,8|0,0:0|0:0,0:0:0:0:
344,160,399861,1,0,0:0:0:0:
352,192,400019,5,0,3:0:0:0:
232,208,400493,1,0,0:0:0:0:
392,296,400809,1,0,0:0:0:0:
160,248,400966,1,8,0:0:0:0:
96,88,401282,1,0,0:0:0:0:
240,168,401598,1,0,0:0:0:0:
252,136,401677,1,0,0:0:0:0:
276,112,401756,1,0,0:0:0:0:
304,96,401835,1,0,0:0:0:0:
336,88,401914,5,0,3:0:0:0:
88,256,402387,1,4,0:0:0:0:
336,264,402703,1,0,0:0:0:0:
88,256,402861,1,8,0:0:0:0:
304,176,403493,2,0,L|216:176,1,65,0|0,0:0|0:0,0:0:0:0:
104,176,403809,5,0,3:0:0:0:
304,176,404282,1,2,0:0:0:0:
104,176,404598,1,4,0:0:0:0:
304,176,404756,5,8,0:0:0:0:
292,196,404835,1,0,0:0:0:0:
280,216,404914,1,0,0:0:0:0:
268,232,404993,1,0,0:0:0:0:
280,260,405072,1,4,0:0:0:0:
268,280,405151,1,0,0:0:0:0:
256,300,405230,1,0,0:0:0:0:
244,316,405309,1,0,0:0:0:0:
216,328,405387,2,0,L|160:300,3,32.5,2|0|2|0,0:0|0:0|0:0|0:0,0:0:0:0:
112,264,405703,5,0,2:0:0:0:
368,240,406177,1,4,0:0:0:0:
200,80,406493,1,0,0:0:0:0:
64,232,406651,2,0,P|64:128|96:96,1,130,8|0,0:0|0:0,0:0:0:0:
192,48,407282,2,0,L|120:96,1,65,0|0,0:0|0:0,0:0:0:0:
360,72,407598,5,0,3:0:0:0:
240,200,408072,1,0,0:0:0:0:
144,280,408387,1,0,0:0:0:0:
360,72,408545,1,12,0:0:0:0:
88,144,408861,1,2,0:0:0:0:
360,72,409177,2,2,L|280:80,1,65
136,64,409493,5,4,3:0:0:0:
224,88,409809,2,0,L|320:184,1,130,0|0,0:0|0:0,0:0:0:0:
296,264,410440,2,0,P|256:296|160:264,1,130,8|0,0:0|0:0,0:0:0:0:
128,200,410914,2,0,P|200:168|280:176,1,130,0|0,0:0|0:0,0:0:0:0:
296,96,411387,2,0,P|336:144|328:224,1,130,0|0,3:0|0:0,0:0:0:0:
296,96,411861,2,0,P|233:92|174:147,1,130
263,164,412335,5,8,0:0:0:0:
96,136,412651,1,8,0:0:0:0:
384,88,412966,1,8,0:0:0:0:
416,144,413124,1,0,3:0:0:0:
408,208,413282,6,0,P|328:264|72:184,1,363.999988891602,4|0,3:0|0:0,0:0:0:0:
168,168,414072,1,0,0:0:0:0:
256,136,414230,2,0,B|158:319|158:319|229:321|317:259,1,363.999988891602,12|0,3:0|0:0,0:0:0:0:
336,184,415019,1,0,0:0:0:0:
304,96,415177,2,0,B|212:172|212:172|248:188|248:188|127:216|76:304,1,363.999988891602,4|0,3:0|0:0,0:0:0:0:
112,220,415966,1,0,0:0:0:0:
76,128,416124,6,0,L|76:200,2,60.666664815267,12|0|0,0:3|0:0|0:0,0:0:0:0:
144,216,416440,2,0,L|144:152,2,60.666664815267,8|0|0,0:0|0:0|0:0,0:0:0:0:
196,264,416756,1,8,3:0:0:0:
260,304,416861,1,0,3:0:0:0:
332,296,416966,1,0,3:0:0:0:
380,240,417072,5,4,3:0:0:0:
400,72,417387,1,0,0:0:0:0:
400,288,417703,1,0,0:0:0:0:
208,64,418019,2,0,B|152:144,1,90.9999972229005,8|0,0:0|0:0,0:0:0:0:
112,248,418335,2,0,L|200:216,1,90.9999972229005,0|0,0:0|0:0,0:0:0:0:
328,136,418651,2,0,L|264:208,1,90.9999972229005,0|0,0:0|0:0,0:0:0:0:
208,328,418966,2,0,L|304:272,1,90.9999972229005,0|0,3:0|0:0,0:0:0:0:
392,216,419282,1,0,0:0:0:0:
112,160,419440,1,2,0:0:0:0:
264,160,419598,5,0,0:0:0:0:
176,240,419756,1,0,0:0:0:0:
296,328,419914,2,0,L|232:248,1,90.9999972229005,12|0,0:0|0:0,0:0:0:0:
321,219,420230,2,0,L|233:259,1,90.9999972229005,0|4,0:0|0:0,0:0:0:0:
88,128,420545,1,0,0:0:0:0:
128,248,420703,1,0,0:0:0:0:
184,120,420861,2,0,B|256:96|312:164|304:248|304:248|376:260|436:248|464:192,1,363.999988891602,2|0,3:2|0:0,0:0:0:0:
408,120,421651,5,0,0:0:0:0:
320,88,421809,1,8,0:0:0:0:
96,80,422124,5,0,0:0:0:0:
96,80,422203,1,0,0:0:0:0:
96,80,422282,1,0,0:0:0:0:
96,80,422361,1,0,0:0:0:0:
96,80,422440,1,0,0:0:0:0:
177,54,422598,1,0,0:0:0:0:
144,128,422756,6,0,P|128:211|239:235,1,181.999994445801,0|0,3:0|0:0,0:0:0:0:
192,179,423230,1,0,0:0:0:0:
344,96,423545,2,0,L|248:136,1,90.9999972229005,0|12,0:0|0:0,0:0:0:0:
256,257,424019,1,0,0:0:0:0:
321,192,424177,1,2,0:0:0:0:
256,126,424335,1,0,0:0:0:0:
190,192,424493,1,0,0:0:0:0:
160,336,424651,1,0,3:0:0:0:
352,336,424966,1,0,0:0:0:0:
256,56,425282,5,0,0:0:0:0:
256,80,425361,1,0,0:0:0:0:
256,104,425440,1,0,0:0:0:0:
256,128,425519,1,0,0:0:0:0:
256,152,425598,1,8,0:0:0:0:
96,136,425914,5,0,0:0:0:0:
136,256,426072,1,0,0:0:0:0:
176,168,426230,1,0,0:0:0:0:
216,288,426387,1,0,0:0:0:0:
360,136,426545,6,0,L|288:176,1,65,2|0,2:0|0:0,0:0:0:0:
368,224,426861,2,0,L|304:232,1,65,2|0,0:0|0:0,0:0:0:0:
152,136,427177,2,0,L|224:176,1,65,2|0,3:2|3:2,0:0:0:0:
144,224,427493,2,2,L|208:232,1,65,10|2,0:0|0:0,0:0:0:0:
392,72,427809,2,2,L|352:140,1,65
120,72,428124,2,2,L|160:140,2,65,2|2|2,0:0|0:0|3:2,0:0:0:0:
215,160,428756,1,0,0:0:0:0:
116,209,428914,6,0,L|104:272,1,65
128,92,429230,2,0,L|216:84,1,65,0|12,0:0|0:0,0:0:0:0:
192,86,429703,5,0,0:0:0:0:
144,232,429861,1,0,0:0:0:0:
256,192,430019,1,0,0:0:0:0:
120,128,430177,1,0,0:0:0:0:
368,96,430335,2,0,L|288:120,1,65,0|0,3:0|0:0,0:0:0:0:
305,114,430651,1,0,0:0:0:0:
376,200,430809,2,0,L|296:224,1,65,0|0,3:0|0:0,0:0:0:0:
313,218,431125,1,0,0:0:0:0:
160,64,431282,6,0,L|160:136,1,65,8|0,3:0|3:0,0:0:0:0:
224,88,431598,2,0,L|224:160,1,65,0|0,0:0|0:0,0:0:0:0:
288,112,431914,2,0,L|288:184,1,65,0|0,0:0|3:0,0:0:0:0:
400,72,432230,1,4,3:0:0:0:
96,120,432545,5,0,0:0:0:0:
76,144,432624,1,0,0:0:0:0:
68,176,432703,1,0,0:0:0:0:
76,208,432782,1,0,0:0:0:0:
96,236,432861,1,0,0:0:0:0:
160,296,433019,2,0,P|184:315|216:319,1,65,0|10,0:0|0:0,0:0:0:0:
336,96,433493,5,0,0:0:0:0:
336,96,433572,1,0,0:0:0:0:
336,96,433651,1,0,0:0:0:0:
312,152,433809,1,0,0:0:0:0:
352,208,433966,1,0,0:0:0:0:
288,200,434124,2,0,L|208:176,1,65,0|0,3:0|0:0,0:0:0:0:
120,232,434440,2,0,L|192:168,1,65,0|0,0:0|0:0,0:0:0:0:
64,168,434756,2,0,L|120:240,1,65,0|0,0:0|0:0,0:0:0:0:
200,320,435072,6,0,L|200:272,1,32.5,8|0,0:0|0:0,0:0:0:0:
232,296,435230,2,0,L|224:264,1,32.5,0|0,0:0|0:0,0:0:0:0:
256,264,435387,2,0,L|224:232,1,32.5,0|0,0:0|0:0,0:0:0:0:
264,224,435545,1,0,0:0:0:0:
264,192,435624,1,0,0:0:0:0:
256,160,435703,2,0,L|208:176,3,32.5,2|0|2|0,0:0|0:0|0:0|0:0,0:0:0:0:
225,170,436019,1,2,3:2:0:0:
96,80,436335,5,0,0:0:0:0:
112,232,436493,1,0,0:0:0:0:
176,152,436651,2,0,L|256:144,1,65,0|0,0:0|0:0,0:0:0:0:
368,80,436966,2,0,L|336:140,1,65,8|0,0:0|0:0,0:0:0:0:
272,248,437282,2,0,L|284:312,1,65
252,308,437598,1,0,0:0:0:0:
368,115,437756,1,0,0:0:0:0:
144,112,437914,2,0,P|128:176|136:240,1,130,0|0,3:0|0:0,0:0:0:0:
220,116,438387,2,0,P|198:177|213:245,1,130,0|0,0:0|3:0,0:0:0:0:
277,183,438861,5,8,0:0:0:0:
384,192,439019,1,0,0:0:0:0:
352,200,439098,1,0,0:0:0:0:
320,200,439177,1,0,0:0:0:0:
288,192,439256,1,0,0:0:0:0:
256,184,439335,1,0,0:0:0:0:
224,184,439414,1,0,0:0:0:0:
192,192,439493,2,0,L|144:192,3,32.5,0|0|0|0,0:0|0:0|0:0|0:0,0:0:0:0:
159,192,439809,1,4,3:0:0:0:
104,88,440124,6,0,L|120:160,1,65,0|0,0:0|0:0,0:0:0:0:
216,128,440440,2,0,L|160:184,1,65,0|0,0:0|0:0,0:0:0:0:
208,272,440756,1,12,0:0:0:0:
360,248,440914,2,0,L|288:264,1,65,0|0,0:0|0:0,0:0:0:0:
392,160,441230,1,0,0:0:0:0:
296,72,441387,2,0,L|240:144,1,65
192,192,441703,6,0,L|272:184,1,65,0|0,3:0|0:0,0:0:0:0:
328,160,442019,1,0,0:0:0:0:
152,320,442177,1,0,0:0:0:0:
368,288,442335,1,0,0:0:0:0:
216,252,442493,2,0,L|184:172,1,65,0|12,0:0|3:0,0:0:0:0:
368,96,442966,1,4,0:0:0:0:
272,320,443282,1,4,0:0:0:0:
128,248,443598,6,0,P|96:144|152:72,1,195,4|0,3:0|0:0,0:0:0:0:
309,279,444387,1,0,0:0:0:0:
189,166,444545,1,12,0:0:0:0:
128,248,444861,2,0,L|256:176,1,130,0|0,0:0|0:0,0:0:0:0:
388,120,445493,1,4,3:0:0:0:
256,192,445572,12,4,447387,3:0:0:0:
240,96,451177,5,0,0:0:0:0:
184,248,451335,1,0,0:0:0:0:
336,336,451493,2,0,L|272:248,1,97.50000371933
178,249,452124,5,8,0:0:0:0:
244,101,452282,1,0,0:0:0:0:
414,143,452440,2,0,L|307:162,1,97.50000371933
184,196,452756,5,0,0:0:0:0:
226,220,452835,1,0,0:0:0:0:
268,246,452914,1,0,0:0:0:0:
310,272,452993,1,0,0:0:0:0:
352,298,453072,1,0,0:0:0:0:
256,192,453151,12,0,454966,0:0:0:0:
88,184,455440,5,0,0:0:0:0:
360,96,455756,1,0,0:0:0:0:
152,288,455914,1,8,0:0:0:0:
104,96,456230,6,0,L|184:200,1,97.50000371933,0|0,0:0|0:0,0:0:0:0:
256,248,456545,2,0,L|256:136,1,97.50000371933,0|0,0:0|0:0,0:0:0:0:
392,176,456861,1,0,0:0:0:0:
292,112,457019,1,0,0:0:0:0:
284,228,457177,1,0,0:0:0:0:
128,312,457335,5,0,0:0:0:0:
244,288,457493,1,0,0:0:0:0:
164,200,457651,1,0,0:0:0:0:
63,189,457809,2,0,P|151:105|247:137,1,195.00000743866,8|0,0:0|0:0,0:0:0:0:
368,272,458282,2,0,L|368:182,2,65,8|0|0,0:0|0:0|0:0,0:0:0:0:
368,88,458756,6,0,L|160:120,1,195.00000743866,4|0,0:0|0:0,0:0:0:0:
360,184,459230,1,0,0:0:0:0:
223,321,459387,1,0,0:0:0:0:
168,140,459545,1,0,0:0:0:0:
64,136,459703,2,0,P|68:202|78:235,1,97.50000371933,8|0,0:0|0:0,0:0:0:0:
112,312,460019,2,0,B|134:266|134:266|185:251,1,97.50000371933
179,252,460256,1,0,0:0:0:0:
179,251,460335,1,0,0:0:0:0:
112,192,460493,1,0,0:0:0:0:
168,72,460651,6,0,L|168:192,1,97.50000371933
224,288,460966,2,0,L|224:176,1,97.50000371933
288,120,461282,2,0,L|288:224,1,97.50000371933,0|0,0:0|0:0,0:0:0:0:
352,216,461598,2,0,L|352:96,1,97.50000371933,12|0,0:0|0:0,0:0:0:0:
440,192,461914,2,0,L|352:192,1,48.750001859665
332,192,462072,2,0,L|276:192,1,48.750001859665
224,192,462230,2,0,L|168:192,1,48.750001859665
112,192,462387,2,0,L|40:192,2,48.750001859665,0|0|4,0:0|0:0|0:0,0:0:0:0:
216,104,462861,5,0,0:0:0:0:
216,312,463019,1,0,0:0:0:0:
408,296,463335,1,0,0:0:0:0:
384,256,463414,1,0,0:0:0:0:
352,224,463493,1,8,0:0:0:0:
256,296,463966,1,0,0:0:0:0:
232,256,464045,1,0,0:0:0:0:
200,224,464124,1,4,0:0:0:0:
112,192,464282,1,0,0:0:0:0:
95,319,464440,6,0,P|63:228|68:132,1,195.00000743866,0|0,0:0|0:0,0:0:0:0:
328,296,464914,1,0,0:0:0:0:
304,256,464993,1,0,0:0:0:0:
272,224,465072,1,0,0:0:0:0:
252,296,465230,1,0,0:0:0:0:
228,256,465309,1,0,0:0:0:0:
196,224,465387,2,0,P|184:192|144:268,1,185.714285714286,8|0,0:0|0:0,0:0:0:0:
168,232,465703,2,0,L|240:144,1,97.50000371933,12|0,0:0|0:0,0:0:0:0:
168,288,466019,2,0,L|240:192,1,97.50000371933,12|0,0:0|0:0,0:0:0:0:
376,80,466335,5,4,0:0:0:0:
269,128,466493,1,0,0:0:0:0:
236,240,466651,1,0,0:0:0:0:
126,282,466809,1,0,0:0:0:0:
96,80,467124,1,0,0:0:0:0:
96,80,467203,1,0,0:0:0:0:
96,80,467282,1,8,0:0:0:0:
96,192,467598,6,0,L|208:192,1,97.50000371933,0|0,0:0|0:0,0:0:0:0:
256,80,467914,1,0,0:0:0:0:
200,192,468072,1,0,0:0:0:0:
304,280,468230,2,0,L|384:200,1,97.50000371933,0|0,0:0|0:0,0:0:0:0:
360,96,468545,6,0,L|320:176,2,65.0000024795533,0|0|0,0:0|0:0|0:0,0:0:0:0:
296,112,468861,2,0,L|256:184,2,65.0000024795533,0|0|0,0:0|0:0|0:0,0:0:0:0:
227,135,469177,1,0,0:0:0:0:
189,195,469282,1,0,0:0:0:0:
184,266,469387,1,0,0:0:0:0:
204,336,469493,2,0,L|266:354,1,65.0000024795533,8|0,0:0|0:0,0:0:0:0:
260,288,469703,2,0,L|322:306,1,65.0000024795533,8|0,0:0|0:0,0:0:0:0:
292,224,469914,1,0,0:0:0:0:
300,152,470019,1,0,0:0:0:0:
268,88,470124,5,4,0:0:0:0:
152,96,470440,2,0,L|216:192,1,97.50000371933,0|0,0:0|0:0,0:0:0:0:
120,264,470914,2,0,L|192:368,1,97.50000371933,0|8,0:0|0:0,0:0:0:0:
368,304,471387,1,0,0:0:0:0:
352,312,471466,1,0,0:0:0:0:
328,312,471545,1,0,0:0:0:0:
312,304,471624,1,0,0:0:0:0:
304,288,471703,1,8,0:0:0:0:
72,328,472019,5,0,0:0:0:0:
72,176,472335,5,8,0:0:0:0:
224,328,472493,1,0,0:0:0:0:
120,328,472809,5,0,0:0:0:0:
272,176,472966,1,8,0:0:0:0:
392,124,473282,5,0,0:0:0:0:
376,169,473360,1,0,0:0:0:0:
340,201,473439,1,0,0:0:0:0:
293,212,473518,1,0,0:0:0:0:
247,199,473597,1,8,0:0:0:0:
213,165,473676,1,0,0:0:0:0:
200,118,473755,1,0,0:0:0:0:
211,71,473834,1,0,0:0:0:0:
244,36,473913,5,0,0:0:0:0:
88,96,474230,2,0,B|136:136|120:200,1,97.50000371933,8|0,0:0|0:0,0:0:0:0:
112,296,474703,1,0,0:0:0:0:
216,296,474861,1,8,0:0:0:0:
352,296,475177,1,0,0:0:0:0:
160,264,475335,1,0,0:0:0:0:
88,96,475493,1,8,0:0:0:0:
400,64,475809,6,0,P|416:144|368:248,1,195.00000743866,0|8,0:0|0:0,0:0:0:0:
344,132,476282,2,0,P|328:176|164:224,1,195.00000743866
80,192,476756,1,8,0:0:0:0:
128,264,476914,1,0,0:0:0:0:
128,184,477072,2,0,L|162:82,1,97.50000371933
320,72,477387,1,8,0:0:0:0:
276,84,477466,1,0,0:0:0:0:
240,108,477545,1,0,0:0:0:0:
216,144,477624,1,0,0:0:0:0:
216,188,477703,5,4,0:0:0:0:
88,80,478019,1,8,0:0:0:0:
136,304,478177,2,0,B|168:208|168:208|272:144,1,195.00000743866,0|0,0:0|0:0,0:0:0:0:
272,312,478651,1,8,0:0:0:0:
320,80,478966,1,0,0:0:0:0:
352,120,479045,1,0,0:0:0:0:
368,168,479124,1,0,0:0:0:0:
368,216,479203,1,0,0:0:0:0:
344,256,479282,1,12,0:0:0:0:
64,136,479598,6,0,B|109:219|188:222|188:222|188:293,1,195.00000743866,4|8,0:0|0:0,0:0:0:0:
64,328,480072,1,0,0:0:0:0:
64,136,480387,2,0,P|96:84|131:52,1,97.50000371933,0|8,0:0|0:0,0:0:0:0:
230,52,480703,1,0,0:0:0:0:
239,177,480861,1,0,0:0:0:0:
278,166,480940,1,0,0:0:0:0:
320,176,481019,1,0,0:0:0:0:
364,164,481098,1,0,0:0:0:0:
396,132,481177,2,0,B|440:104|440:104|452:252|320:236,1,240.499999082565,8|0,0:0|0:0,0:0:0:0:
144,112,481809,5,8,0:0:0:0:
240,296,481966,1,0,0:0:0:0:
32,112,482282,1,0,0:0:0:0:
200,232,482439,1,8,0:0:0:0:
344,80,482756,6,0,L|272:176,4,97.50000371933,0|0|8|0|0,0:0|0:0|0:0|0:0|0:0,0:0:0:0:
256,192,483466,12,4,485282,0:0:0:0:
130,217,485756,5,0,0:0:0:0:
160,320,485914,1,0,0:0:0:0:
256,344,486072,1,0,0:0:0:0:
344,296,486230,2,0,P|368:240|352:176,1,97.50000371933,8|0,0:0|0:0,0:0:0:0:
224,104,486545,1,0,0:0:0:0:
312,272,486703,1,0,0:0:0:0:
312,272,486782,1,0,0:0:0:0:
312,272,486861,1,0,0:0:0:0:
424,112,487019,1,8,0:0:0:0:
272,212,487177,6,0,B|208:160|208:160|216:231|168:364,1,292.50001115799
130,283,487809,1,0,0:0:0:0:
101,197,487966,1,0,0:0:0:0:
74,116,488124,2,0,B|282:56|282:56,1,195.00000743866,8|0,0:0|0:0,0:0:0:0:
294,103,488519,2,0,L|323:166,3,48.750001859665,0|0|0|8,0:0|0:0|0:0|0:0,0:0:0:0:
339,189,488835,1,0,0:0:0:0:
346,237,488914,1,0,0:0:0:0:
319,278,488993,1,0,0:0:0:0:
271,288,489072,5,0,0:0:0:0:
368,240,489387,1,0,0:0:0:0:
328,368,489545,1,0,0:0:0:0:
328,232,489703,1,0,0:0:0:0:
288,360,489861,1,0,0:0:0:0:
232,264,490019,2,0,B|160:248|160:248|200:160|280:168,1,195.00000743866,8|0,0:0|0:0,0:0:0:0:
356,170,490493,2,0,L|324:274,1,97.50000371933
152,152,490809,1,8,0:0:0:0:
128,296,490966,5,0,0:0:0:0:
160,340,491045,1,0,0:0:0:0:
212,360,491124,1,0,0:0:0:0:
264,356,491203,1,0,0:0:0:0:
312,332,491282,1,0,0:0:0:0:
348,292,491361,1,0,0:0:0:0:
368,244,491440,1,0,0:0:0:0:
376,192,491519,1,0,0:0:0:0:
368,140,491598,1,0,0:0:0:0:
356,156,491677,1,0,0:0:0:0:
340,172,491756,1,0,0:0:0:0:
324,188,491835,1,0,0:0:0:0:
308,204,491914,5,8,0:0:0:0:
216,160,492072,1,8,0:0:0:0:
232,264,492230,1,8,0:0:0:0:
160,328,492387,1,8,0:0:0:0:
80,272,492545,1,8,0:0:0:0:
128,184,492703,1,8,0:0:0:0:
64,104,492861,5,2,0:0:0:0:
120,224,493019,1,0,0:0:0:0:
164,176,493177,1,0,0:0:0:0:
208,224,493335,1,0,0:0:0:0:
252,176,493493,1,0,0:0:0:0:
296,224,493651,2,0,L|232:160,1,48.750001859665
152,104,493809,1,10,0:0:0:0:
384,320,493967,5,0,0:0:0:0:
392,224,494125,1,0,0:0:0:0:
296,224,494282,1,0,0:0:0:0:
248,240,494361,1,0,0:0:0:0:
208,264,494440,1,0,0:0:0:0:
208,168,494598,1,0,0:0:0:0:
128,112,494756,2,0,L|224:72,1,97.50000371933,2|0,0:0|0:0,0:0:0:0:
272,152,495072,5,0,0:0:0:0:
240,248,495230,1,0,0:0:0:0:
152,296,495388,1,0,0:0:0:0:
120,88,495546,1,0,0:0:0:0:
352,200,495703,2,0,L|248:200,2,97.50000371933,10|0|0,0:0|0:0|0:0,0:0:0:0:
248,320,496177,1,0,0:0:0:0:
248,320,496256,1,0,0:0:0:0:
248,320,496335,1,10,0:0:0:0:
472,304,496651,5,0,0:0:0:0:
56,120,497124,1,0,0:0:0:0:
104,120,497282,1,0,0:0:0:0:
152,120,497440,1,0,0:0:0:0:
288,344,497598,1,10,0:0:0:0:
64,72,497914,6,0,P|144:80|168:128,1,97.50000371933,0|0,0:0|0:0,0:0:0:0:
176,128,498151,1,0,0:0:0:0:
208,168,498230,2,0,P|240:204|287:210,1,97.50000371933,8|0,0:0|0:0,0:0:0:0:
393,144,498545,5,0,0:0:0:0:
240,144,498782,1,2,0:0:0:0:
392,296,499019,1,0,0:0:0:0:
256,280,499177,1,0,0:0:0:0:
88,256,499414,1,8,0:0:0:0:
88,248,499493,1,10,0:0:0:0:
88,144,499651,2,0,L|152:48,1,97.50000371933,0|8,0:0|0:0,0:0:0:0:
225,190,499966,1,0,0:0:0:0:
200,260,500124,2,0,P|304:204|264:128,1,195.00000743866,8|2,0:0|0:0,0:0:0:0:
408,56,500756,5,0,0:0:0:0:
328,152,500914,1,0,0:0:0:0:
448,192,501072,1,0,0:0:0:0:
448,192,501230,1,0,0:0:0:0:
408,328,501387,2,0,B|256:312|128:240,1,292.50001115799,10|0,0:0|0:0,0:0:0:0:
344,63,502019,1,0,0:0:0:0:
406,332,502177,1,0,0:0:0:0:
131,247,502335,1,2,0:0:0:0:
80,336,502651,5,0,0:0:0:0:
44,276,502809,1,0,0:0:0:0:
28,208,502967,1,0,0:0:0:0:
28,140,503125,1,0,0:0:0:0:
44,72,503282,1,10,0:0:0:0:
80,16,503440,1,0,0:0:0:0:
148,8,503598,1,0,0:0:0:0:
176,40,503677,1,0,0:0:0:0:
188,80,503756,1,0,0:0:0:0:
196,124,503835,1,0,0:0:0:0:
192,168,503914,2,0,P|184:208|176:227,3,48.750001859665,8|0|0|0,0:0|0:0|0:0|0:0,0:0:0:0:
248,72,504230,6,0,B|322:174|322:174|293:271,1,195.00000743866,2|0,0:0|0:0,0:0:0:0:
272,344,504703,5,0,0:0:0:0:
272,344,504861,1,0,0:0:0:0:
416,264,505019,1,0,0:0:0:0:
416,264,505177,1,10,0:0:0:0:
207,95,505493,1,0,0:0:0:0:
48,112,505650,1,0,0:0:0:0:
40,144,505730,1,0,0:0:0:0:
32,176,505809,1,0,0:0:0:0:
176,264,505966,1,0,0:0:0:0:
344,272,506125,2,0,L|248:256,1,97.50000371933,2|0,0:0|0:0,0:0:0:0:
400,120,506440,5,0,3:0:0:0:
344,80,506545,1,0,0:0:0:0:
280,56,506651,1,0,0:0:0:0:
216,48,506756,1,8,0:0:0:0:
152,40,506861,2,0,L|176:144,2,65.0000024795533,0|0|2,0:0|0:0|0:0,0:0:0:0:
96,80,507177,2,0,L|112:152,2,65.0000024795533,0|0|8,0:0|0:0|0:0,0:0:0:0:
128,160,507493,1,0,0:0:0:0:
128,160,507598,1,0,0:0:0:0:
128,160,507703,1,0,0:0:0:0:
88,248,507861,1,0,0:0:0:0:
95,248,508019,6,0,L|207:216,1,116.999996429443,2|0,0:0|0:0,0:0:0:0:
304,112,508335,1,0,0:0:0:0:
120,72,508493,1,0,0:0:0:0:
64,264,508651,1,0,0:0:0:0:
248,320,508809,1,0,0:0:0:0:
96,112,508966,5,10,0:0:0:0:
40,304,509125,1,0,0:0:0:0:
224,360,509282,1,0,0:0:0:0:
280,152,509441,1,0,0:0:0:0:
240,200,509519,1,0,0:0:0:0:
192,240,509598,1,0,0:0:0:0:
208,40,509756,1,0,0:0:0:0:
416,152,509914,5,2,0:0:0:0:
352,56,510072,1,0,0:0:0:0:
288,152,510230,1,0,0:0:0:0:
288,264,510388,1,0,0:0:0:0:
256,56,510546,1,0,0:0:0:0:
191,157,510704,1,0,0:0:0:0:
144,144,510861,6,8,P|80:128|80:280,1,233.999992858887,10|0,0:0|0:0,0:0:0:0:
72,304,511256,1,0,0:0:0:0:
128,328,511335,1,0,0:0:0:0:
188,328,511414,1,0,0:0:0:0:
240,304,511493,1,8,0:0:0:0:
368,336,511809,5,2,0:0:0:0:
368,336,512125,2,0,B|368:120|368:120|216:56|96:200,1,467.999985717774,0|10,0:0|0:0,0:0:0:0:
328,224,513072,1,0,0:0:0:0:
116,328,513230,1,0,0:0:0:0:
68,296,513309,1,0,0:0:0:0:
44,256,513387,1,8,0:0:0:0:
44,256,513546,1,0,0:0:0:0:
44,256,513703,6,0,P|116:148|240:136,1,233.999992858887,2|0,0:0|0:0,0:0:0:0:
252,216,514177,2,0,P|145:214|124:328,1,233.999992858887
360,336,514651,5,10,0:0:0:0:
368,256,514809,1,0,0:0:0:0:
357,229,514887,1,0,0:0:0:0:
344,200,514966,1,0,0:0:0:0:
440,208,515124,1,0,0:0:0:0:
424,184,515202,1,0,0:0:0:0:
408,160,515282,2,0,P|296:160|352:212,1,243.75,10|0,0:0|0:0,0:0:0:0:
327,206,515598,1,4,0:0:0:0:
80,176,515914,6,0,L|192:168,1,77.999997619629,0|0,0:0|0:0,0:0:0:0:
88,280,516230,2,0,L|184:240,1,77.999997619629,0|0,0:0|0:0,0:0:0:0:
168,344,516545,1,10,0:0:0:0:
304,248,516704,1,0,0:0:0:0:
224,96,516861,1,0,0:0:0:0:
136,248,517019,2,0,L|192:160,1,77.999997619629,0|0,0:0|0:0,0:0:0:0:
240,224,517335,1,0,0:0:0:0:
192,88,517493,5,10,0:0:0:0:
232,80,517651,1,8,0:0:0:0:
272,80,517809,1,8,0:0:0:0:
312,88,517966,1,8,0:0:0:0:
352,96,518124,1,8,0:0:0:0:
392,96,518282,1,8,0:0:0:0:
408,240,518440,5,2,0:0:0:0:
336,271,518598,1,0,0:0:0:0:
259,284,518756,1,0,0:0:0:0:
181,271,518914,1,0,0:0:0:0:
109,240,519072,2,0,L|161:175,1,77.999997619629,4|0,0:0|0:0,0:0:0:0:
256,56,519387,5,4,3:0:0:0:
356,280,519703,1,0,0:0:0:0:
112,240,520019,2,0,L|152:216,4,32.5,0|0|0|0|8,0:0|0:0|0:0|0:0|0:0,0:0:0:0:
248,172,520651,1,0,0:0:0:0:
368,104,520966,2,0,L|336:120,4,32.5,0|0|0|0|0,0:0|0:0|0:0|0:0|3:0,0:0:0:0:
120,112,521598,1,0,0:0:0:0:
112,300,521914,1,0,0:0:0:0:
232,168,522230,6,0,L|216:224,3,32.5,8|0|0|0,0:0|0:0|0:0|0:0,0:0:0:0:
248,176,522545,2,0,L|240:216,3,32.5,0|0|0|0,0:0|0:0|0:0|0:0,0:0:0:0:
264,184,522861,1,2,0:0:0:0:
296,200,522940,1,0,0:0:0:0:
328,216,523019,1,2,0:0:0:0:
360,232,523098,1,0,0:0:0:0:
392,248,523177,1,2,3:2:0:0:
256,320,523493,1,0,0:0:0:0:
112,272,523809,5,0,0:0:0:0:
120,272,523888,1,0,0:0:0:0:
128,272,523966,1,0,0:0:0:0:
136,272,524045,1,0,0:0:0:0:
144,272,524124,1,8,0:0:0:0:
300,192,524440,1,0,0:0:0:0:
408,72,524756,5,0,0:0:0:0:
400,72,524835,1,0,0:0:0:0:
392,72,524914,1,0,0:0:0:0:
384,72,524993,1,0,0:0:0:0:
376,72,525072,1,0,3:0:0:0:
132,96,525387,2,0,P|128:144|184:224,1,130
376,304,526019,5,8,0:0:0:0:
392,260,526098,1,0,0:0:0:0:
392,216,526177,1,0,0:0:0:0:
364,180,526256,1,0,0:0:0:0:
320,164,526335,1,0,0:0:0:0:
280,184,526414,1,0,0:0:0:0:
256,224,526493,1,0,0:0:0:0:
220,252,526572,1,0,0:0:0:0:
180,272,526651,1,4,0:0:0:0:
136,268,526730,1,0,0:0:0:0:
100,236,526809,1,0,0:0:0:0:
92,192,526888,1,0,0:0:0:0:
108,152,526966,1,0,3:0:0:0:
344,44,527282,1,0,0:0:0:0:
328,288,527598,6,0,L|296:256,4,32.5,0|0|0|0|8,0:0|0:0|0:0|0:0|0:0,0:0:0:0:
296,128,528230,1,0,0:0:0:0:
104,112,528545,1,0,0:0:0:0:
136,96,528624,1,0,0:0:0:0:
172,84,528703,2,0,L|224:112,1,32.5
192,184,528861,6,0,P|288:224|312:216,1,130,0|0,3:0|0:0,0:0:0:0:
384,144,529335,6,0,P|332:106|268:110,1,130,0|0,3:0|0:0,0:0:0:0:
120,248,529809,1,8,0:0:0:0:
160,288,529887,1,0,0:0:0:0:
216,288,529966,1,0,0:0:0:0:
264,256,530045,1,0,0:0:0:0:
284,204,530124,1,0,0:0:0:0:
276,148,530203,1,0,0:0:0:0:
256,96,530282,1,0,0:0:0:0:
280,48,530361,1,0,0:0:0:0:
336,36,530440,1,0,0:0:0:0:
388,60,530519,1,0,0:0:0:0:
416,108,530598,1,0,0:0:0:0:
420,164,530677,1,0,0:0:0:0:
404,216,530756,5,0,3:0:0:0:
216,272,530914,1,0,0:0:0:0:
376,256,531072,1,0,0:0:0:0:
256,208,531230,1,0,3:0:0:0:
132,248,531387,1,0,0:0:0:0:
72,224,531466,1,0,0:0:0:0:
40,168,531545,1,0,0:0:0:0:
52,104,531624,1,0,0:0:0:0:
92,52,531703,5,8,0:0:0:0:
372,44,532177,1,2,0:0:0:0:
248,84,532335,1,0,0:0:0:0:
188,112,532414,1,0,0:0:0:0:
144,156,532493,1,0,0:0:0:0:
116,216,532572,1,0,0:0:0:0:
134,280,532651,2,0,B|285:236|240:73|240:73|196:62|159:86,1,337.999984527589,0|0,3:0|3:0,0:0:0:0:
128,288,533598,5,8,0:0:0:0:
172,304,533677,1,0,0:0:0:0:
216,308,533756,1,0,0:0:0:0:
260,292,533835,1,0,0:0:0:0:
296,264,533914,1,0,3:0:0:0:
324,228,533993,1,0,0:0:0:0:
332,184,534072,1,0,0:0:0:0:
312,144,534151,1,0,0:0:0:0:
272,124,534230,1,8,0:0:0:0:
232,144,534309,1,0,0:0:0:0:
188,128,534387,1,0,0:0:0:0:
152,100,534466,1,0,0:0:0:0:
128,64,534545,5,4,3:0:0:0:
336,280,534861,1,0,0:0:0:0:
72,304,535177,1,0,0:0:0:0:
80,296,535256,1,0,0:0:0:0:
88,288,535335,1,0,0:0:0:0:
96,280,535414,1,0,0:0:0:0:
104,272,535493,2,0,B|214:178|214:178|211:241|211:241|320:146,1,337.999984527589,8|0,0:0|0:0,0:0:0:0:
288,112,536203,5,0,0:0:0:0:
264,88,536282,1,0,0:0:0:0:
232,72,536361,1,0,0:0:0:0:
192,64,536440,1,0,3:0:0:0:
320,288,536756,1,0,0:0:0:0:
128,248,537072,5,0,0:0:0:0:
92,76,537387,5,10,0:0:0:0:
128,68,537466,1,0,0:0:0:0:
164,60,537545,1,0,0:0:0:0:
200,56,537624,1,0,0:0:0:0:
236,56,537703,1,0,0:0:0:0:
272,60,537782,1,0,0:0:0:0:
304,76,537861,1,0,0:0:0:0:
328,104,537940,1,0,0:0:0:0:
328,140,538019,1,0,0:0:0:0:
308,168,538098,1,0,0:0:0:0:
276,184,538177,1,0,0:0:0:0:
240,180,538256,1,0,0:0:0:0:
208,172,538335,5,0,3:0:0:0:
96,80,538651,1,0,0:0:0:0:
320,296,538966,1,0,0:0:0:0:
304,264,539045,1,0,0:0:0:0:
280,232,539124,1,0,0:0:0:0:
248,208,539203,1,0,0:0:0:0:
216,192,539282,2,0,B|128:168|88:240,1,146.250005578995,8|0,0:0|0:0,0:0:0:0:
148,304,539914,1,0,0:0:0:0:
196,272,539993,1,0,0:0:0:0:
252,260,540072,1,0,0:0:0:0:
308,280,540151,1,0,0:0:0:0:
364,260,540230,5,0,3:0:0:0:
256,80,540703,2,0,P|208:136|184:152,1,97.50000371933
168,216,541177,2,8,L|148:304,1,48.750001859665
236,288,541335,2,8,L|246:240,1,48.750001859665
330,256,541493,2,0,L|310:344,1,48.750001859665
400,332,541651,2,0,L|410:284,1,48.750001859665
444,208,541809,1,0,0:0:0:0:
428,148,541887,1,0,0:0:0:0:
384,104,541966,1,0,0:0:0:0:
324,80,542045,1,0,0:0:0:0:
260,84,542124,5,0,0:0:0:0:
104,144,542756,1,0,3:0:0:0:
112,188,542835,1,0,0:0:0:0:
92,228,542914,1,0,0:0:0:0:
108,268,542993,1,0,0:0:0:0:
136,300,543072,1,8,0:0:0:0:
120,72,543388,1,0,0:0:0:0:
152,184,543703,1,2,0:0:0:0:
248,232,544019,2,0,P|296:216|328:176,2,97.50000371933,0|0|0,3:0|3:0|3:0,3:0:0:0:
344,104,544651,1,2,0:0:0:0:
248,232,544966,2,0,P|272:220|300:185,4,48.750001859665,8|0|0|0|0,3:0|3:0|3:0|3:0|3:0,3:0:0:0:
195,235,545361,1,0,3:0:0:0:
147,213,545440,1,0,3:0:0:0:
129,164,545519,1,0,3:0:0:0:
144,114,545598,1,0,3:0:0:0:
185,82,545677,1,0,3:0:0:0:
227,52,545756,1,0,3:0:0:0:
180,28,545835,1,0,3:0:0:0:
131,40,545914,5,0,3:0:0:0:
401,189,546388,1,0,3:0:0:0:
311,137,546545,1,0,3:0:0:0:
265,111,546624,1,0,3:0:0:0:
219,85,546703,1,0,3:0:0:0:
173,58,546782,1,0,3:0:0:0:
131,40,546861,1,8,3:0:0:0:
136,348,547335,1,0,3:0:0:0:
239,341,547493,1,0,3:0:0:0:
290,337,547572,1,0,3:0:0:0:
341,333,547651,1,0,3:0:0:0:
392,329,547730,1,0,3:0:0:0:
443,326,547809,5,0,3:0:0:0:
320,64,548124,1,0,3:0:0:0:
380,104,548282,1,0,3:0:0:0:
420,164,548440,1,0,3:0:0:0:
416,236,548598,1,0,3:0:0:0:
336,164,548756,5,8,0:0:0:0:
312,140,548835,1,0,0:0:0:0:
280,124,548914,1,0,0:0:0:0:
248,108,548993,1,0,0:0:0:0:
216,108,549072,1,0,0:0:0:0:
184,92,549151,1,0,0:0:0:0:
160,68,549230,1,0,0:0:0:0:
128,44,549309,2,0,L|72:4,4,48.750001859665,0|0|0|0|0,0:0|0:0|0:0|0:0|0:0,0:0:0:0:
80,56,549703,5,8,0:0:0:0:
80,288,549861,1,8,0:0:0:0:
80,56,550019,1,8,0:0:0:0:
208,320,550177,1,8,0:0:0:0:
400,72,550651,5,8,0:0:0:0:
168,152,550809,1,8,0:0:0:0:
400,32,550966,1,8,0:0:0:0:
160,320,551124,1,8,0:0:0:0:
256,344,551598,5,8,0:0:0:0:
96,120,551756,1,8,0:0:0:0:
72,352,551914,1,8,0:0:0:0:
336,112,552072,1,8,0:0:0:0:
56,192,552545,5,8,0:0:0:0:
175,191,552703,1,8,0:0:0:0:
296,192,552861,1,8,0:0:0:0:
416,192,553019,2,8,P|323:144|249:199,1,195.00000743866,8|0,0:0|0:0,0:0:0:0:
254,187,553493,1,4,3:0:0:0:
256,192,553572,12,0,563586,0:0:0:0:
216,160,583796,5,4,0:0:0:0:
216,160,584270,1,4,0:0:0:0:
216,160,584743,1,4,0:0:0:0:
160,280,586322,6,4,P|120:176|168:88,2,195
392,280,588533,5,0,0:0:0:0:
392,88,588849,2,4,B|264:152|264:152|232:224,2,195
176,232,591375,6,0,P|128:160|128:112,1,130,4|0,0:0|0:0,0:0:0:0:
192,96,591849,2,0,P|264:112|304:152,1,130,4|0,0:0|0:0,0:0:0:0:
416,80,592322,2,0,P|384:168|416:200,1,130,4|8,0:0|0:0,0:0:0:0:
104,312,593112,5,2,0:0:0:0:
104,312,593270,1,2,0:0:0:0:
167,315,593586,1,2,0:0:0:0:
167,315,593743,1,2,0:0:0:0:
232,312,593901,6,4,B|244:208|244:208|340:188,2,195
88,80,595164,5,0,0:0:0:0:
88,80,595480,1,4,0:0:0:0:
88,80,595796,1,0,0:0:0:0:
88,80,596112,1,4,0:0:0:0:
192,296,596428,2,4,B|140:232|32:284|40:176,2,195,4|4|4,3:0|3:0|3:0,3:0:0:0:
352,104,597691,5,0,0:0:0:0:
352,104,597849,1,0,0:0:0:0:
312,328,598007,1,4,0:0:0:0:
296,72,598322,1,0,0:0:0:0:
296,72,598480,1,0,0:0:0:0:
256,296,598638,1,4,0:0:0:0:
168,288,598954,5,0,3:0:0:0:
168,288,599112,1,0,0:0:0:0:
128,64,599270,1,4,0:0:0:0:
112,320,599585,1,0,0:0:0:0:
112,320,599743,1,0,0:0:0:0:
72,96,599901,1,4,0:0:0:0:
264,56,600217,5,0,0:0:0:0:
264,56,600375,1,0,0:0:0:0:
224,280,600533,1,4,0:0:0:0:
208,24,600848,1,0,0:0:0:0:
208,24,601006,1,0,0:0:0:0:
168,248,601164,1,4,0:0:0:0:
96,200,601480,5,4,0:0:0:0:
104,152,601638,1,0,0:0:0:0:
128,112,601796,1,0,0:0:0:0:
160,72,601954,1,4,0:0:0:0:
208,56,602112,1,0,0:0:0:0:
256,56,602270,1,0,0:0:0:0:
296,88,602428,1,4,0:0:0:0:
256,112,602586,1,0,0:0:0:0:
240,160,602743,1,0,0:0:0:0:
256,208,602901,1,4,0:0:0:0:
296,240,603059,1,0,0:0:0:0:
344,256,603217,1,0,0:0:0:0:
384,232,603375,1,12,0:0:0:0:
448,304,603691,1,4,0:0:0:0:
200,296,604007,5,0,3:0:0:0:
200,296,604322,1,0,0:0:0:0:
280,160,604638,1,8,0:0:0:0:
128,192,604954,2,0,P|195:170|224:168,1,97.50000371933,0|0,0:0|3:0,0:0:0:0:
88,280,605586,1,0,0:0:0:0:
168,96,605901,1,8,0:0:0:0:
336,96,606217,1,4,0:0:0:0:
168,96,606533,5,0,3:0:0:0:
192,208,606849,1,0,0:0:0:0:
192,304,607007,1,0,0:0:0:0:
256,128,607164,1,8,0:0:0:0:
480,32,607480,2,0,L|436:64,1,48.750001859665,4|0,2:0|0:0,0:0:0:0:
296,176,607954,1,0,0:0:0:0:
128,272,608270,1,0,0:0:0:0:
152,232,608349,1,0,0:0:0:0:
184,200,608428,1,8,0:0:0:0:
384,192,608743,1,4,0:0:0:0:
80,208,609059,5,4,3:0:0:0:
152,96,609375,1,0,0:0:0:0:
128,296,609533,2,0,L|160:248,1,48.750001859665,0|8,0:0|0:0,0:0:0:0:
288,336,610007,1,0,3:0:0:0:
352,192,610322,1,0,0:0:0:0:
248,240,610480,1,0,0:0:0:0:
352,192,610638,1,0,3:0:0:0:
248,240,610796,1,0,0:0:0:0:
312,112,610954,1,8,0:0:0:0:
128,304,611270,5,4,3:0:0:0:
128,304,611586,1,4,3:0:0:0:
128,304,612059,1,4,3:0:0:0:
128,304,612533,1,4,3:0:0:0:
112,80,612770,5,8,0:0:0:0:
112,80,612849,1,8,0:0:0:0:
160,88,613007,1,8,0:0:0:0:
200,120,613164,1,8,0:0:0:0:
232,152,613322,1,0,0:0:0:0:
248,200,613480,2,0,L|216:248,1,48.750001859665,8|0,0:0|0:0,0:0:0:0:
256,280,613796,2,8,L|288:224,1,48.750001859665,8|0,0:0|0:0,0:0:0:0:
336,88,614112,5,4,3:0:0:0:
336,88,614428,1,0,0:0:0:0:
224,208,614586,1,0,0:0:0:0:
336,88,614743,1,8,0:0:0:0:
80,224,615059,1,0,0:0:0:0:
200,320,615375,5,0,0:0:0:0:
200,320,615691,1,0,0:0:0:0:
344,288,615849,1,0,0:0:0:0:
152,208,616007,1,8,0:0:0:0:
352,184,616322,1,0,3:0:0:0:
200,320,616638,1,0,3:0:0:0:
208,136,616954,1,0,0:0:0:0:
112,128,617112,1,0,0:0:0:0:
104,160,617191,1,0,0:0:0:0:
104,192,617270,5,8,0:0:0:0:
304,112,617586,1,2,0:0:0:0:
352,288,617901,2,0,L|288:232,1,65
400,224,618217,2,0,L|348:180,1,65
332,160,618454,1,0,0:0:0:0:
316,136,618533,2,0,P|276:112|180:112,1,130,8|0,0:0|0:0,0:0:0:0:
376,72,619164,5,4,3:0:0:0:
104,312,619638,1,4,3:0:0:0:
376,72,620112,1,4,3:0:0:0:
176,200,620270,1,0,0:0:0:0:
176,200,620428,1,0,0:0:0:0:
304,264,620664,5,8,0:0:0:0:
304,264,620743,1,8,0:0:0:0:
344,208,620901,1,8,0:0:0:0:
328,144,621059,2,8,L|264:152,1,65
304,264,621375,1,0,3:0:0:0:
80,112,621691,2,0,L|80:216,2,97.5,0|0|0,3:0|3:0|3:0,3:0:0:0:
136,192,622401,1,0,3:0:0:0:
216,128,622559,1,8,3:0:0:0:
224,120,622638,5,8,3:0:0:0:
328,88,622796,1,0,3:0:0:0:
320,208,622954,1,8,3:0:0:0:
328,88,623112,1,0,3:0:0:0:
416,168,623270,1,8,3:0:0:0:
376,312,623428,5,0,3:0:0:0:
344,328,623507,1,0,3:0:0:0:
312,328,623586,1,8,3:0:0:0:
280,320,623664,1,0,3:0:0:0:
256,296,623743,2,0,L|232:264,2,32.5,0|0|8,3:0|3:0|3:0,3:0:0:0:
304,200,624059,1,4,3:0:0:0:
200,204,624217,1,4,3:0:0:0:
80,112,624533,5,0,0:0:0:0:
88,288,624691,1,0,0:0:0:0:
232,128,624849,1,8,0:0:0:0:
88,288,625007,1,0,0:0:0:0:
88,288,625164,1,0,3:0:0:0:
328,336,625480,6,0,P|368:312|384:288,1,65
432,328,625796,1,0,0:0:0:0:
460,220,625954,1,0,0:0:0:0:
468,188,626033,1,0,0:0:0:0:
460,156,626112,1,8,0:0:0:0:
144,264,626428,1,0,0:0:0:0:
392,152,626743,1,4,3:0:0:0:
80,64,627059,5,0,0:0:0:0:
96,336,627375,1,8,0:0:0:0:
216,240,627533,1,0,0:0:0:0:
96,336,627691,1,0,0:0:0:0:
296,328,628007,1,0,0:0:0:0:
296,328,628322,2,0,L|232:272,1,65
392,216,628638,1,8,0:0:0:0:
72,136,628954,1,0,0:0:0:0:
72,264,629270,5,8,0:0:0:0:
104,280,629349,1,0,0:0:0:0:
136,280,629428,1,0,0:0:0:0:
168,264,629507,1,0,0:0:0:0:
192,248,629586,2,0,L|218:228,3,32.5,8|0|8|0,0:0|0:0|0:0|0:0,0:0:0:0:
240,200,629901,1,0,0:0:0:0:
264,176,629980,1,0,0:0:0:0:
296,168,630059,1,8,0:0:0:0:
328,176,630138,1,0,0:0:0:0:
344,208,630217,2,0,L|352:248,3,32.5,8|0|0|0,0:0|0:0|0:0|0:0,0:0:0:0:
320,240,630533,2,0,L|328:280,3,32.5,8|0|0|0,0:0|0:0|0:0|0:0,0:0:0:0:
408,168,630849,5,8,3:0:0:0:
408,168,630928,1,0,3:0:0:0:
408,168,631007,1,0,3:0:0:0:
408,168,631086,1,0,3:0:0:0:
408,168,631164,1,8,3:0:0:0:
416,216,631243,1,0,0:0:0:0:
392,256,631322,1,0,0:0:0:0:
352,280,631401,1,0,0:0:0:0:
304,288,631480,1,8,0:0:0:0:
256,288,631559,1,8,0:0:0:0:
208,272,631638,1,8,0:0:0:0:
168,248,631717,1,8,0:0:0:0:
136,216,631796,2,0,L|176:168,5,48.750001859665,8|0|0|0|0|0,0:0|0:0|0:0|0:0|0:0|0:0,0:0:0:0:
136,136,632270,2,0,L|96:192,3,48.750001859665,8|0|0|0,0:0|0:0|0:0|0:0,0:0:0:0:
80,136,632586,1,8,0:0:0:0:
80,96,632664,1,0,0:0:0:0:
120,64,632743,5,8,0:0:0:0:
168,72,632822,1,0,0:0:0:0:
208,96,632901,1,0,0:0:0:0:
232,136,632980,1,0,0:0:0:0:
232,184,633059,1,8,0:0:0:0:
192,216,633138,1,0,0:0:0:0:
192,264,633217,1,0,0:0:0:0:
232,296,633296,1,0,0:0:0:0:
280,288,633375,1,8,0:0:0:0:
320,256,633454,1,0,0:0:0:0:
328,208,633533,1,0,0:0:0:0:
320,160,633612,1,0,0:0:0:0:
288,120,633691,2,2,L|224:152,3,48.750001859665,10|2|2|2,0:0|0:0|0:0|0:0,0:0:0:0:
256,96,634007,2,2,L|216:152,3,48.750001859665,10|2|2|2,0:0|0:0|0:0|0:0,0:0:0:0:
208,88,634322,5,4,3:0:0:0:
80,320,634796,1,0,0:0:0:0:
104,128,634954,1,8,0:0:0:0:
80,320,635112,1,0,0:0:0:0:
80,320,635270,1,0,0:0:0:0:
320,128,635743,1,0,0:0:0:0:
320,128,636059,1,0,0:0:0:0:
352,288,636217,1,8,0:0:0:0:
242,266,636533,6,0,L|184:296,4,65.0000024795533
184,240,637059,2,0,L|128:272,3,65.0000024795533,0|0|0|0,3:0|3:0|3:0|3:0,3:0:0:0:
148,184,637480,1,0,3:0:0:0:
164,120,637586,1,0,3:0:0:0:
220,84,637691,1,0,3:0:0:0:
284,100,637796,1,8,3:0:0:0:
312,160,637901,1,8,3:0:0:0:
304,224,638007,1,8,3:0:0:0:
260,272,638112,5,8,3:0:0:0:
196,256,638217,1,0,3:0:0:0:
148,212,638322,2,0,P|112:176|80:124,1,65.0000024795533,0|4,3:0|3:0,3:0:0:0:
88,152,638664,1,0,3:0:0:0:
88,152,638743,2,0,L|184:192,3,65.0000024795533,8|0|0|4,3:0|3:0|3:0|3:0,3:0:0:0:
256,192,639375,5,4,3:0:0:0:
256,192,639480,12,0,644426,3:0:0:0:
136,128,645057,6,0,L|184:152,4,32.5,0|0|0|0|8,0:0|0:0|0:0|0:0|0:0,0:0:0:0:
208,248,646004,2,0,L|256:256,4,32.5,0|0|0|0|0,0:0|0:0|0:0|0:0|0:0,0:0:0:0:
224,136,647268,6,0,L|256:168,12,32.5,8|0|0|0|0|0|0|0|0|0|0|0|0,0:0|0:0|0:0|0:0|0:0|0:0|0:0|0:0|0:0|0:0|0:0|0:0|0:0,0:0:0:0:
136,128,648847,6,0,L|184:152,4,32.5,0|0|0|0|8,0:0|0:0|0:0|0:0|0:0,0:0:0:0:
283,263,649794,2,0,L|304:288,4,32.5,0|0|0|0|0,0:0|0:0|0:0|0:0|0:0,0:0:0:0:
240,188,651057,6,0,L|256:216,3,32.5,8|0|0|0,0:0|0:0|0:0|0:0,0:0:0:0:
267,159,651373,2,0,L|292:180,3,32.5
285,125,651689,2,0,L|316:136,3,32.5
316,84,652004,5,8,0:0:0:0:
