osu file format v14

[General]
AudioFilename: Avenged Sevenfold - Save me.mp3
AudioLeadIn: 0
PreviewTime: 166893
Countdown: 0
SampleSet: None
StackLeniency: 0.7
Mode: 1
LetterboxInBreaks: 0
WidescreenStoryboard: 0

[Editor]
Bookmarks: 319814,329920,382972
DistanceSpacing: 0.8
BeatDivisor: 4
GridSize: 32
TimelineZoom: 2.999999

[Metadata]
Title:Save Me
TitleUnicode:Save Me
Artist:Avenged Sevenfold
ArtistUnicode:Avenged Sevenfold
Creator:Grimbow
Version:Salvation
Source:
Tags:Nightmare A7x Metal Rock frukoyurdakul
BeatmapID:1397058
BeatmapSetID:515626

[Difficulty]
HPDrainRate:4
CircleSize:2
OverallDifficulty:6.5
ApproachRate:10
SliderMultiplier:1.4
SliderTickRate:1

[Events]
//Background and Video events
0,0,"walpap.jpg",0,0
//Break Periods
2,368014,382521
2,563171,573257
//Storyboard Layer 0 (Background)
//Storyboard Layer 1 (Fail)
//Storyboard Layer 2 (Pass)
//Storyboard Layer 3 (Foreground)
//Storyboard Sound Samples

[TimingPoints]
236,315.789473684211,3,1,2,25,1,0
236,-133.333333333333,3,1,2,25,0,0
13657,-133.333333333333,3,1,6,25,0,0
13893,-129.032258064516,3,1,6,50,0,0
14051,-125,3,1,6,53,0,0
14209,-121.212121212121,3,1,6,57,0,0
14367,-117.647058823529,3,1,6,60,0,0
14525,-114.285714285714,3,1,6,63,0,0
14683,-111.111111111111,3,1,6,67,0,0
14841,-108.108108108108,3,1,6,70,0,0
14999,-105.263157894737,3,1,6,73,0,0
15157,-102.564102564103,3,1,6,77,0,0
15314,-100,3,1,6,80,0,0
22696,-100,3,1,4,80,0,0
22775,-100,3,1,8,80,0,0
22854,-100,3,1,3,80,0,0
22933,-100,3,1,6,80,0,0
29643,-100,3,1,4,80,0,0
29722,-100,3,1,8,80,0,0
29801,-100,3,1,3,80,0,0
29880,-100,3,1,4,80,0,0
29959,-100,3,1,8,80,0,0
30038,-100,3,1,3,80,0,0
30117,-100,3,1,6,80,0,0
34064,-100,3,1,4,80,0,0
34143,-100,3,1,6,80,0,0
34301,-100,3,1,6,80,0,0
37459,-100,3,1,4,80,0,0
37617,-100,3,1,6,80,0,0
37775,-100,3,1,4,80,0,0
37854,-100,3,1,8,80,0,0
37933,-100,3,1,3,80,0,0
38051,-100,3,1,6,80,0,0
44091,-100,3,1,4,80,0,0
44249,-100,3,1,6,80,0,0
44407,-100,3,1,8,80,0,0
44564,-100,3,1,6,80,0,0
44722,-100,3,1,9,80,0,0
44880,-100,3,1,6,80,0,0
45236,-100,3,1,6,80,0,0
45314,-97.5609756097561,3,1,6,80,0,0
45393,-95.2380952380952,3,1,6,80,0,0
45472,-93.0232558139535,3,1,6,80,0,0
45551,-90.9090909090909,3,1,6,80,0,0
45630,-88.8888888888889,3,1,6,80,0,0
45709,-86.9565217391304,3,1,6,80,0,0
45788,-90.9090909090909,3,1,2,80,0,0
45946,-95.2380952380952,3,1,2,80,0,0
46104,-100,3,1,2,80,0,0
46262,-100,3,1,6,80,0,0
46736,-100,3,1,2,80,0,0
47209,-100,3,1,6,80,0,0
47683,-100,3,1,2,80,0,0
48472,-100,3,1,6,80,0,0
49578,-100,3,1,2,80,0,0
50051,-100,3,1,6,80,0,0
50525,-100,3,1,2,80,0,0
50999,-100,3,1,6,80,0,0
51472,-100,3,1,2,80,0,0
52262,-100,3,1,6,80,0,0
52933,-100,3,1,4,80,0,0
53091,-100,3,1,8,80,0,0
53170,-100,3,1,3,80,0,0
53249,-100,3,1,0,80,0,0
54196,-100,3,1,6,80,0,0
54314,-100,3,1,0,80,0,0
56051,-100,3,1,6,80,0,0
56249,-100,3,1,0,80,0,0
57986,-100,3,1,6,80,0,0
58104,-100,3,1,0,80,0,0
59841,-100,3,1,6,80,0,0
60196,-100,3,1,4,80,0,0
60275,-100,3,1,8,80,0,0
60354,-100,3,1,3,80,0,0
60433,-100,3,1,6,80,0,0
67499,-100,3,1,6,80,0,0
67578,-97.9591836734694,3,1,6,80,0,0
67657,-96,3,1,6,80,0,0
67736,-94.1176470588235,3,1,6,80,0,0
67775,-92.3076923076923,3,1,4,80,0,0
67854,-90.5660377358491,3,1,8,80,0,0
67933,-88.8888888888889,3,1,6,80,0,0
68051,-87.2727272727273,3,1,6,80,0,0
68130,-85.7142857142857,3,1,6,80,0,0
68209,-84.2105263157895,3,1,6,80,0,0
68288,-82.7586206896552,3,1,6,80,0,0
68367,-81.3559322033898,3,1,6,80,0,0
68446,-80,3,1,6,80,0,0
68525,-88.8888888888889,3,1,6,80,0,0
68683,-100,3,1,2,80,0,0
69236,-100,3,1,6,80,0,0
69630,-100,3,1,2,80,0,0
70183,-100,3,1,6,80,0,0
70578,-100,3,1,2,80,0,0
71130,-100,3,1,6,80,0,0
71683,-100,3,1,4,80,0,0
71841,-100,3,1,8,80,0,0
71999,-100,3,1,4,80,0,0
72157,-100,3,1,8,80,0,0
72314,-100,3,1,8,80,0,0
72472,-100,3,1,2,80,0,0
73025,-100,3,1,6,80,0,0
73420,-100,3,1,2,80,0,0
73972,-100,3,1,6,80,0,0
74367,-100,3,1,2,80,0,0
74920,-100,3,1,6,80,0,0
75867,-90.9090909090909,3,1,6,80,0,0
76025,-83.3333333333333,3,1,6,80,0,0
76183,-90.9090909090909,3,1,2,80,0,0
76657,-100,3,1,2,80,0,0
76814,-100,3,1,6,80,0,0
77209,-100,3,1,2,80,0,0
77762,-100,3,1,6,80,0,0
78157,-100,3,1,2,80,0,0
78709,-100,3,1,6,80,0,0
78946,-100,3,1,4,80,0,0
79104,-100,3,1,6,80,0,0
79262,-100,3,1,8,80,0,0
79420,-100,3,1,6,80,0,0
79578,-100,3,1,4,80,0,0
79736,-100,3,1,6,80,0,0
79893,-100,3,1,8,80,0,0
80051,-100,3,1,2,80,0,0
80604,-100,3,1,6,80,0,0
80999,-100,3,1,2,80,0,0
81472,-100,3,1,6,80,0,0
81986,-100,3,1,4,80,0,0
82064,-100,3,1,6,80,0,0
82143,-100,3,1,4,80,0,0
82222,-100,3,1,8,80,0,0
82301,-100,3,1,6,80,0,0
82459,-100,3,1,8,80,0,0
82538,-100,3,1,6,80,0,0
82617,-100,3,1,8,80,0,0
82696,-100,3,1,9,80,0,0
82775,-100,3,1,6,80,0,0
82775,-100,3,1,6,80,0,0
82933,-100,3,1,8,80,0,0
83012,-100,3,1,3,80,0,0
83091,-100,3,1,6,80,0,0
105472,-97.9591836734694,3,1,6,80,0,0
105551,-96,3,1,6,80,0,0
105630,-94.1176470588235,3,1,6,80,0,0
105709,-92.3076923076923,3,1,6,80,0,0
105788,-90.5660377358491,3,1,6,80,0,0
105867,-88.8888888888889,3,1,6,80,0,0
105946,-87.2727272727273,3,1,6,80,0,0
106025,-85.7142857142857,3,1,6,80,0,0
106183,-82.7586206896552,3,1,6,80,0,0
106341,-80,3,1,6,80,0,0
106657,-86.9565217391304,3,1,6,80,0,0
106814,-90.9090909090909,3,1,6,80,0,0
106893,-93.0232558139535,3,1,6,80,0,0
106972,-95.2380952380952,3,1,6,80,0,0
107130,-100,3,1,6,80,0,0
112143,-100,3,1,6,80,0,0
112222,-98.5915492957747,3,1,6,80,0,0
112301,-97.2222222222222,3,1,4,80,0,0
112380,-95.8904109589041,3,1,4,80,0,0
112459,-94.5945945945946,3,1,6,80,0,0
112538,-93.3333333333333,3,1,6,80,0,0
112617,-92.1052631578947,3,1,4,80,0,0
112696,-90.9090909090909,3,1,4,80,0,0
112775,-89.7435897435897,3,1,4,80,0,0
112854,-88.6075949367089,3,1,4,80,0,0
112933,-87.5,3,1,6,80,0,0
113012,-86.4197530864197,3,1,6,80,0,0
113091,-85.3658536585366,3,1,4,80,0,0
113170,-84.3373493975904,3,1,4,80,0,0
113249,-83.3333333333333,3,1,4,80,0,0
113328,-82.3529411764706,3,1,4,80,0,0
113407,-81.3953488372093,3,1,6,80,0,0
113486,-80.4597701149425,3,1,6,80,0,0
113564,-79.5454545454545,3,1,6,80,0,0
113643,-78.6516853932584,3,1,6,80,0,0
113722,-77.7777777777778,3,1,6,80,0,0
113801,-76.9230769230769,3,1,6,80,0,0
114236,-100,3,1,6,80,0,0
119564,-100,3,1,2,80,0,0
121143,-100,3,1,6,80,0,0
121499,-111.111111111111,3,1,6,80,0,0
150788,-100,3,1,0,80,0,0
151736,-100,3,1,6,80,0,0
158762,-98.0392156862745,3,1,6,80,0,0
158920,-96.1538461538461,3,1,6,80,0,0
159078,-94.3396226415094,3,1,6,80,0,0
159236,-92.5925925925926,3,1,6,80,0,0
159393,-90.9090909090909,3,1,6,80,0,0
161012,-90.9090909090909,3,1,4,80,0,0
161091,-90.9090909090909,3,1,8,80,0,0
161170,-90.9090909090909,3,1,6,80,0,0
162907,-90.9090909090909,3,1,4,80,0,0
162986,-90.9090909090909,3,1,8,80,0,0
163064,-90.9090909090909,3,1,3,80,0,0
163143,-90.9090909090909,3,1,6,80,0,0
164486,-90.9090909090909,3,1,4,80,0,0
164564,-90.9090909090909,3,1,6,80,0,0
164801,-90.9090909090909,3,1,8,80,0,0
164880,-90.9090909090909,3,1,3,80,0,0
164999,-90.9090909090909,3,1,0,80,0,0
166814,-83.3333333333333,3,1,6,80,0,0
166972,-83.3333333333333,3,1,6,80,0,1
173643,-83.3333333333333,3,1,4,80,0,1
173722,-82.089552238806,3,1,6,80,0,1
173801,-80.8823529411765,3,1,6,80,0,1
173880,-79.7101449275362,3,1,8,80,0,1
173959,-78.5714285714286,3,1,3,80,0,1
174038,-77.4647887323944,3,1,6,80,0,1
174117,-76.3888888888889,3,1,6,80,0,1
174196,-75.3424657534247,3,1,6,80,0,1
174275,-74.3243243243243,3,1,6,80,0,1
174354,-73.3333333333333,3,1,6,80,0,1
174433,-72.3684210526316,3,1,6,80,0,1
174512,-71.4285714285714,3,1,6,80,0,1
174709,-83.3333333333333,3,1,6,80,0,1
181183,-83.3333333333333,3,1,6,80,0,1
181341,-81.0810810810811,3,1,6,80,0,1
181499,-78.9473684210526,3,1,6,80,0,1
181657,-76.9230769230769,3,1,6,80,0,1
181814,-75,3,1,6,80,0,1
181972,-73.1707317073171,3,1,6,80,0,1
182130,-71.4285714285714,3,1,6,80,0,1
182446,-83.3333333333333,3,1,6,80,0,1
188801,-83.3333333333333,3,1,6,80,0,1
188880,-82.089552238806,3,1,6,80,0,1
188959,-80.8823529411765,3,1,6,80,0,1
189038,-79.7101449275362,3,1,4,80,0,1
189117,-78.5714285714286,3,1,4,80,0,1
189196,-77.4647887323944,3,1,6,80,0,1
189275,-76.3888888888889,3,1,6,80,0,1
189354,-75.3424657534247,3,1,6,80,0,1
189433,-74.3243243243243,3,1,6,80,0,1
189512,-73.3333333333333,3,1,6,80,0,1
189591,-72.3684210526316,3,1,6,80,0,1
189670,-71.4285714285714,3,1,6,80,0,1
189867,-83.3333333333333,3,1,6,80,0,1
196341,-83.3333333333333,3,1,6,80,0,1
196499,-85.7142857142857,3,1,6,80,0,1
196657,-88.2352941176471,3,1,6,80,0,1
196814,-90.9090909090909,3,1,6,80,0,1
196972,-93.75,3,1,6,80,0,1
197130,-96.7741935483871,3,1,6,80,0,1
197288,-100,3,1,6,80,0,0
197525,-100,3,1,1,80,0,0
198078,-100,3,1,6,80,0,0
198472,-100,3,1,1,80,0,0
199025,-100,3,1,6,80,0,0
199420,-100,3,1,1,80,0,0
199972,-100,3,1,6,80,0,0
201314,-100,3,1,1,80,0,0
201867,-100,3,1,6,80,0,0
202262,-100,3,1,1,80,0,0
202814,-100,3,1,6,80,0,0
204551,-100,3,1,6,100,0,0
204709,-111.111111111111,3,1,6,80,0,0
234157,-100,3,1,0,80,0,0
235104,-100,3,1,6,80,0,0
241814,-100,3,1,6,80,0,0
241893,-99.1735537190083,3,1,6,80,0,0
241972,-98.3606557377049,3,1,6,80,0,0
242051,-97.5609756097561,3,1,6,80,0,0
242091,-96.7741935483871,3,1,4,80,0,0
242209,-96,3,1,4,80,0,0
242249,-95.2380952380952,3,1,6,80,0,0
242367,-94.488188976378,3,1,6,80,0,0
242446,-93.75,3,1,6,80,0,0
242525,-93.0232558139535,3,1,6,80,0,0
242604,-92.3076923076923,3,1,6,80,0,0
242683,-91.6030534351145,3,1,6,80,0,0
242762,-90.9090909090909,3,1,6,80,0,0
244380,-90.9090909090909,3,1,4,80,0,0
244459,-90.9090909090909,3,1,8,80,0,0
244538,-90.9090909090909,3,1,6,80,0,0
246275,-90.9090909090909,3,1,4,80,0,0
246354,-90.9090909090909,3,1,8,80,0,0
246433,-90.9090909090909,3,1,3,80,0,0
246512,-90.9090909090909,3,1,6,80,0,0
247854,-90.9090909090909,3,1,4,80,0,0
247933,-90.9090909090909,3,1,8,80,0,0
248012,-90.9090909090909,3,1,6,80,0,0
248170,-90.9090909090909,3,1,8,80,0,0
248249,-90.9090909090909,3,1,3,80,0,0
248367,-90.9090909090909,3,1,0,80,0,0
250183,-90.9090909090909,3,1,6,80,0,0
250341,-83.3333333333333,3,1,6,80,0,1
257249,-83.3333333333333,3,1,4,80,0,1
257328,-83.3333333333333,3,1,8,80,0,1
257407,-83.3333333333333,3,1,6,80,0,1
263604,-83.3333333333333,3,1,6,80,0,1
263683,-82.4742268041237,3,1,6,80,0,1
263762,-81.6326530612245,3,1,6,80,0,1
263841,-80.8080808080808,3,1,6,80,0,1
263880,-80,3,1,4,80,0,1
263999,-79.2079207920792,3,1,4,80,0,1
264078,-78.4313725490196,3,1,4,80,0,1
264157,-77.6699029126214,3,1,4,80,0,1
264196,-76.9230769230769,3,1,6,80,0,1
264314,-76.1904761904762,3,1,6,80,0,1
264354,-75.4716981132076,3,1,8,80,0,1
264433,-74.7663551401869,3,1,6,80,0,1
264512,-74.0740740740741,3,1,8,80,0,1
264630,-73.394495412844,3,1,8,80,0,1
264670,-72.7272727272727,3,1,3,80,0,1
264788,-72.0720720720721,3,1,3,80,0,1
264828,-71.4285714285714,3,1,8,80,0,1
264946,-70.7964601769911,3,1,3,80,0,1
265104,-70.1754385964912,3,1,6,80,0,1
265341,-69.5652173913043,3,1,6,80,0,1
265499,-68.9655172413793,3,1,6,80,0,1
265814,-83.3333333333333,3,1,6,80,0,1
276236,-83.3333333333333,3,1,6,80,0,1
276314,-81.2182741116751,3,1,6,80,0,1
276393,-79.2079207920792,3,1,6,80,0,1
276472,-77.2946859903382,3,1,6,80,0,1
276551,-75.4716981132076,3,1,6,80,0,1
276630,-73.7327188940092,3,1,6,80,0,1
276709,-72.0720720720721,3,1,6,80,0,1
276788,-70.4845814977974,3,1,6,80,0,1
276867,-68.9655172413793,3,1,6,80,0,1
277025,-83.3333333333333,3,1,6,80,0,1
278762,-83.3333333333333,3,1,6,80,0,1
278841,-82.6161790017212,3,1,6,80,0,1
278920,-81.9112627986348,3,1,6,80,0,1
278999,-81.2182741116751,3,1,6,80,0,1
279038,-80.5369127516778,3,1,4,80,0,1
279117,-79.8668885191348,3,1,8,80,0,1
279196,-79.2079207920792,3,1,6,80,0,1
279314,-78.5597381342062,3,1,6,80,0,1
279393,-77.9220779220779,3,1,6,80,0,1
279472,-77.2946859903382,3,1,6,80,0,1
279551,-76.6773162939297,3,1,6,80,0,1
279630,-76.0697305863709,3,1,6,80,0,1
279670,-75.4716981132076,3,1,4,80,0,1
279788,-74.8829953198128,3,1,4,80,0,1
279828,-74.3034055727554,3,1,6,80,0,1
279946,-73.7327188940092,3,1,6,80,0,1
279986,-73.1707317073171,3,1,4,80,0,1
280064,-72.6172465960666,3,1,8,80,0,1
280143,-72.0720720720721,3,1,3,80,0,1
280222,-71.5350223546945,3,1,6,80,0,1
280341,-71.0059171597633,3,1,6,80,0,1
280420,-70.4845814977974,3,1,6,80,0,1
280499,-69.9708454810496,3,1,6,80,0,1
280578,-69.4645441389291,3,1,6,80,0,1
280657,-68.9655172413793,3,1,6,80,0,1
280814,-83.3333333333333,3,1,6,80,0,1
282551,-83.3333333333333,3,1,6,80,0,1
282709,-86.2745098039216,3,1,6,80,0,1
282867,-89.4308943089431,3,1,6,80,0,1
283025,-92.8270042194093,3,1,6,80,0,1
283183,-96.4912280701754,3,1,6,80,0,1
283341,-100.456621004566,3,1,6,80,0,1
283499,-104.761904761905,3,1,6,80,0,1
283657,-109.452736318408,3,1,6,80,0,1
283814,-114.583333333333,3,1,6,80,0,1
283972,-120.218579234973,3,1,6,80,0,1
284130,-126.436781609195,3,1,6,80,0,1
284446,315.789473684211,4,1,6,80,1,0
284446,-133.333333333333,4,1,6,80,0,0
298340,-114.285714285714,4,1,6,80,0,0
299603,-100,4,1,6,80,0,0
305761,-133.333333333333,4,1,6,15,0,0
306077,-128,4,1,6,23,0,0
306235,-123.076923076923,4,1,6,31,0,0
306393,-118.518518518519,4,1,6,39,0,0
306551,-114.285714285714,4,1,6,48,0,0
306709,-110.344827586207,4,1,6,56,0,0
306867,-106.666666666667,4,1,6,64,0,0
307024,-103.225806451613,4,1,6,72,0,0
307182,-100,4,1,6,80,0,0
307696,-100,4,1,4,80,0,0
307774,-100,4,1,6,80,0,0
308485,-100,4,1,4,80,0,0
308564,-100,4,1,6,80,0,0
309156,-100,4,1,6,80,0,0
309235,-97.9020979020979,4,1,6,80,0,0
309314,-95.8904109589041,4,1,6,80,0,0
309393,-93.9597315436242,4,1,6,80,0,0
309472,-92.1052631578947,4,1,6,80,0,0
309551,-90.3225806451613,4,1,6,80,0,0
309630,-88.6075949367089,4,1,6,80,0,0
309709,-86.9565217391304,4,1,6,80,0,1
319182,-86.9565217391304,4,1,6,80,0,1
319261,-88.3977900552486,4,1,6,80,0,1
319340,-89.8876404494382,4,1,6,80,0,1
319419,-91.4285714285714,4,1,6,80,0,1
319498,-93.0232558139535,4,1,6,80,0,1
319577,-94.6745562130178,4,1,6,80,0,1
319656,-96.3855421686747,4,1,6,80,0,1
319735,-98.159509202454,4,1,6,80,0,1
319814,-100,4,1,6,80,0,0
319893,-100,4,1,0,80,0,0
346656,-100,4,1,0,80,0,0
346814,-101.651842439644,4,1,0,80,0,0
346972,-103.359173126615,4,1,0,80,0,0
347130,-105.124835742444,4,1,0,80,0,0
347288,-106.951871657754,4,1,0,80,0,0
347367,-108.843537414966,4,1,6,80,0,0
347603,-110.803324099723,4,1,6,80,0,0
347761,-112.834978843441,4,1,6,80,0,0
347919,-114.942528735632,4,1,6,80,0,0
356524,-114.942528735632,4,1,0,80,0,0
357314,-114.942528735632,4,1,6,80,0,0
367814,315.789473684211,3,1,6,80,1,0
367814,-114.942528735632,3,1,6,80,0,0
367892,-133.333333333333,3,1,2,30,0,0
397892,-133.333333333333,3,1,2,70,0,0
398050,-114.942528735632,3,1,6,60,0,0
399235,-114.942528735632,3,1,2,30,0,0
399985,-114.942528735632,3,1,6,60,0,0
400103,-114.942528735632,3,1,5,60,0,0
400419,-114.942528735632,3,1,1,60,0,0
400577,-114.942528735632,3,1,5,60,0,0
400735,-114.942528735632,3,1,6,60,0,0
401129,-114.942528735632,3,1,5,60,0,0
401840,-114.942528735632,3,1,0,60,0,0
401998,-114.942528735632,3,1,1,60,0,0
402156,-114.942528735632,3,1,5,60,0,0
402314,-114.942528735632,3,1,5,60,0,0
402471,-114.942528735632,3,1,6,60,0,0
403024,-114.942528735632,3,1,2,60,0,0
403735,-114.942528735632,3,1,6,60,0,0
403892,-114.942528735632,3,1,5,60,0,0
404208,-114.942528735632,3,1,1,60,0,0
404366,-114.942528735632,3,1,6,60,0,0
404524,-114.942528735632,3,1,1,60,0,0
404682,-114.942528735632,3,1,6,60,0,0
404840,-114.942528735632,3,1,5,60,0,0
405037,-114.942528735632,3,1,1,60,0,0
405629,-114.942528735632,3,1,0,60,0,0
406103,-114.942528735632,3,1,1,60,0,0
406261,-114.942528735632,3,1,6,60,0,0
406814,-114.942528735632,3,1,5,60,0,0
407564,-114.942528735632,3,1,6,60,0,0
407682,-114.942528735632,3,1,5,60,0,0
407998,-114.942528735632,3,1,1,60,0,0
408156,-114.942528735632,3,1,5,60,0,0
408314,-114.942528735632,3,1,6,60,0,0
408708,-114.942528735632,3,1,1,60,0,0
409340,-114.942528735632,3,1,1,60,0,0
409656,-114.942528735632,3,1,2,40,0,0
409892,-114.942528735632,3,1,0,60,0,0
410050,-114.942528735632,3,1,2,40,0,0
410208,-114.942528735632,3,1,0,60,0,0
410366,-114.942528735632,3,1,6,60,0,0
410524,-114.942528735632,3,1,5,60,0,0
411353,-114.942528735632,3,1,6,60,0,0
411471,-114.942528735632,3,1,5,60,0,0
411945,-114.942528735632,3,1,1,60,0,0
412103,-114.942528735632,3,1,6,60,0,0
412261,-114.942528735632,3,1,6,60,0,0
412498,-114.942528735632,3,1,4,60,0,0
412892,-114.942528735632,3,1,6,60,0,0
415498,-113.636363636364,3,1,6,60,0,0
415814,-112.359550561798,3,1,6,60,0,0
415971,-111.111111111111,3,1,4,60,0,0
416392,-111.111111111111,3,1,8,60,0,0
416708,-111.111111111111,3,1,4,60,0,0
416814,-111.111111111111,3,1,8,60,0,0
416919,-111.111111111111,3,1,3,60,0,0
417024,-111.111111111111,3,1,6,60,0,0
417235,-111.111111111111,3,1,2,60,0,0
417471,-111.111111111111,3,1,6,60,0,0
417629,-111.111111111111,3,1,2,60,0,0
417787,-111.111111111111,3,1,6,60,0,0
418182,-111.111111111111,3,1,2,30,0,0
418932,-111.111111111111,3,1,6,60,0,0
419050,-111.111111111111,3,1,2,40,0,0
419366,-111.111111111111,3,1,5,60,0,0
419682,-111.111111111111,3,1,6,60,0,0
420077,-111.111111111111,3,1,5,60,0,0
420314,-111.111111111111,3,1,1,60,0,0
420471,-111.111111111111,3,1,2,40,0,0
420629,-111.111111111111,3,1,5,60,0,0
421024,-111.111111111111,3,1,2,40,0,0
421261,-111.111111111111,3,1,6,60,0,0
421419,-111.111111111111,3,1,2,40,0,0
421577,-111.111111111111,3,1,6,60,0,0
421971,-111.111111111111,3,1,2,30,0,0
422721,-111.111111111111,3,1,6,60,0,0
422840,-111.111111111111,3,1,5,60,0,0
423156,-111.111111111111,3,1,1,60,0,0
423314,-111.111111111111,3,1,5,60,0,0
423471,-111.111111111111,3,1,6,60,0,0
423866,-111.111111111111,3,1,2,60,0,0
424103,-111.111111111111,3,1,3,60,0,0
424261,-111.111111111111,3,1,5,60,0,0
424616,-111.111111111111,3,1,6,60,0,0
424735,-111.111111111111,3,1,5,60,0,0
424892,-111.111111111111,3,1,1,60,0,0
425050,-111.111111111111,3,1,5,60,0,0
425208,-111.111111111111,3,1,1,60,0,0
425366,-111.111111111111,3,1,6,60,0,0
425761,-111.111111111111,3,1,2,30,0,0
426511,-111.111111111111,3,1,6,60,0,0
426629,-111.111111111111,3,1,5,60,0,0
426787,-111.111111111111,3,1,2,60,0,0
426945,-111.111111111111,3,1,1,60,0,0
427103,-111.111111111111,3,1,2,60,0,0
427261,-111.111111111111,3,1,6,60,0,0
427656,-111.111111111111,3,1,2,60,0,0
427892,-111.111111111111,3,1,3,60,0,0
428050,-111.111111111111,3,1,5,60,0,0
428208,-111.111111111111,3,1,6,60,0,0
428524,-111.111111111111,3,1,5,60,0,0
428682,-111.111111111111,3,1,2,60,0,0
428840,-111.111111111111,3,1,5,60,0,0
428998,-111.111111111111,3,1,2,60,0,0
429156,-111.111111111111,3,1,6,60,0,0
429550,-111.111111111111,3,1,2,40,0,0
430300,-111.111111111111,3,1,6,60,0,0
430419,-111.111111111111,3,1,5,60,0,0
430892,-111.111111111111,3,1,2,60,0,0
431050,-111.111111111111,3,1,6,60,0,0
432392,-111.111111111111,3,1,2,60,0,0
432669,-111.111111111111,3,1,5,60,0,0
432827,-111.111111111111,3,1,2,60,0,0
432945,-111.111111111111,3,1,6,60,0,0
433340,-111.111111111111,3,1,2,60,0,0
434090,-111.111111111111,3,1,6,60,0,0
434208,-111.111111111111,3,1,5,60,0,0
434682,-111.111111111111,3,1,2,60,0,0
434840,-111.111111111111,3,1,6,60,0,0
435235,-111.111111111111,3,1,2,60,0,0
435432,-111.111111111111,3,1,5,60,0,0
435985,-111.111111111111,3,1,6,60,0,0
436103,-111.111111111111,3,1,5,60,0,0
436577,-111.111111111111,3,1,2,60,0,0
436735,-111.111111111111,3,1,6,60,0,0
437129,-111.111111111111,3,1,2,60,0,0
437366,-111.111111111111,3,1,5,60,0,0
437564,-111.111111111111,3,1,2,60,0,0
437879,-111.111111111111,3,1,6,60,0,0
437998,-111.111111111111,3,1,5,60,0,0
438314,-111.111111111111,3,1,1,60,0,0
438471,-111.111111111111,3,1,5,60,0,0
438629,-111.111111111111,3,1,6,60,0,0
438945,-111.111111111111,3,1,5,60,0,0
439142,-111.111111111111,3,1,1,60,0,0
439221,-111.111111111111,3,1,5,60,0,0
439458,-111.111111111111,3,1,2,60,0,0
439735,-111.111111111111,3,1,0,60,0,0
439971,-111.111111111111,3,1,2,60,0,0
440208,-111.111111111111,3,1,6,60,0,0
440366,-111.111111111111,3,1,2,60,0,0
440564,-111.111111111111,3,1,6,60,0,0
440642,-111.111111111111,3,1,2,60,0,0
440721,-111.111111111111,3,1,6,60,0,0
440840,-111.111111111111,3,1,5,60,0,0
441037,-111.111111111111,3,1,2,60,0,0
441353,-111.111111111111,3,1,5,60,0,0
441669,-111.111111111111,3,1,6,60,0,0
441787,-111.111111111111,3,1,5,60,0,0
442261,-111.111111111111,3,1,2,60,0,0
442419,-111.111111111111,3,1,6,60,0,0
444708,-111.111111111111,3,1,3,60,0,0
445340,-111.111111111111,3,1,6,80,0,0
445577,-111.111111111111,3,1,4,60,0,0
445695,-110.552763819095,3,1,4,60,0,0
445774,-110,3,1,4,60,0,0
445853,-109.452736318408,3,1,4,60,0,0
445932,-108.910891089109,3,1,4,60,0,0
446011,-108.374384236453,3,1,4,60,0,0
446090,-107.843137254902,3,1,4,60,0,0
446169,-107.317073170732,3,1,4,60,0,0
446248,-106.796116504854,3,1,4,60,0,0
446327,-106.280193236715,3,1,4,60,0,0
446406,-105.769230769231,3,1,8,70,0,0
446485,-105.263157894737,3,1,8,70,0,0
446564,-104.761904761905,3,1,8,70,0,0
446642,-104.265402843602,3,1,8,70,0,0
446721,-103.77358490566,3,1,8,70,0,0
446800,-103.286384976526,3,1,8,70,0,0
446879,-102.803738317757,3,1,3,80,0,0
446958,-102.325581395349,3,1,3,80,0,0
447037,-101.851851851852,3,1,3,80,0,0
447116,-101.382488479263,3,1,3,80,0,0
447195,-100.917431192661,3,1,3,80,0,0
447314,-100,3,1,6,80,0,0
447471,-100,3,1,0,80,0,0
448300,-100,3,1,6,80,0,0
448419,-100,3,1,0,80,0,0
450156,-100,3,1,6,80,0,0
450471,-100,3,1,0,80,0,0
452090,-100,3,1,6,80,0,0
452208,-100,3,1,0,80,0,0
453037,-100,3,1,6,80,0,0
468524,-100,3,1,4,80,0,0
469129,-100,3,1,8,80,0,0
469445,-100,3,1,6,80,0,0
469550,-98.5915492957747,3,1,8,80,0,0
469656,-97.2222222222222,3,1,6,80,0,0
469761,-95.8904109589041,3,1,3,80,0,0
470077,-94.5945945945946,3,1,6,80,0,0
476445,-93.3333333333333,3,1,6,80,0,0
476524,-92.1052631578947,3,1,6,80,0,0
476603,-90.9090909090909,3,1,6,80,0,0
476682,-89.7435897435897,3,1,6,80,0,0
476761,-88.6075949367089,3,1,6,80,0,0
476840,-87.5,3,1,6,80,0,0
476919,-86.4197530864197,3,1,6,80,0,0
476998,-85.3658536585366,3,1,6,80,0,0
477077,-84.3373493975904,3,1,6,80,0,0
477156,-83.3333333333333,3,1,6,80,0,0
477235,-82.3529411764706,3,1,6,80,0,0
477314,-81.3953488372093,3,1,6,80,0,0
477392,-80.4597701149425,3,1,6,80,0,0
477471,-79.5454545454545,3,1,6,80,0,0
477550,-78.6516853932584,3,1,6,80,0,0
477629,-77.7777777777778,3,1,6,80,0,0
477708,-76.9230769230769,3,1,6,80,0,0
478024,-83.3333333333333,3,1,6,80,0,0
478182,-86.9565217391304,3,1,6,80,0,0
478498,-95.2380952380952,3,1,6,80,0,0
478656,-100,3,1,6,80,0,0
483392,-100,3,1,6,80,0,0
483471,-99.1735537190083,3,1,6,80,0,0
483550,-98.3606557377049,3,1,6,80,0,0
483629,-97.5609756097561,3,1,6,80,0,0
483708,-96.7741935483871,3,1,6,80,0,0
483787,-96,3,1,6,80,0,0
483866,-95.2380952380952,3,1,6,80,0,0
483906,-94.488188976378,3,1,4,80,0,0
483985,-93.75,3,1,6,80,0,0
484103,-93.0232558139535,3,1,6,80,0,0
484182,-92.3076923076923,3,1,6,80,0,0
484261,-91.6030534351145,3,1,6,80,0,0
484340,-90.9090909090909,3,1,6,80,0,0
484419,-90.2255639097744,3,1,6,80,0,0
484498,-89.5522388059701,3,1,6,80,0,0
484577,-88.8888888888889,3,1,6,80,0,0
484656,-88.2352941176471,3,1,6,80,0,0
484735,-87.5912408759124,3,1,6,80,0,0
484814,-86.9565217391304,3,1,6,80,0,0
484892,-86.3309352517986,3,1,6,80,0,0
484971,-85.7142857142857,3,1,6,80,0,0
485129,-84.5070422535211,3,1,6,80,0,0
485287,-83.3333333333333,3,1,6,80,0,1
506287,-83.3333333333333,3,1,4,80,0,1
507024,-83.3333333333333,3,1,8,80,0,1
507340,-83.3333333333333,3,1,3,80,0,1
507656,-83.3333333333333,3,1,6,80,0,1
514814,-83.3333333333333,3,1,6,80,0,1
514892,-81.6326530612245,3,1,6,80,0,1
514932,-80,3,1,4,80,0,1
515050,-78.4313725490196,3,1,4,80,0,1
515090,-76.9230769230769,3,1,6,80,0,1
515208,-75.4716981132076,3,1,6,80,0,1
515287,-74.0740740740741,3,1,6,80,0,1
515366,-72.7272727272727,3,1,6,80,0,1
515445,-71.4285714285714,3,1,6,80,0,1
515524,-70.1754385964912,3,1,6,80,0,1
515603,-68.9655172413793,3,1,6,80,0,1
515919,-83.3333333333333,3,1,6,80,0,1
519392,-83.3333333333333,3,1,6,80,0,0
519708,-90.9090909090909,3,1,6,80,0,0
520024,-100,3,1,6,80,0,0
526695,-100,3,1,4,80,0,0
526774,-100,3,1,6,80,0,0
541853,-100,3,1,4,80,0,0
541932,-100,3,1,8,80,0,0
542011,-100,3,1,3,80,0,0
542090,-100,3,1,6,80,0,0
549037,-100,3,1,4,80,0,0
549116,-100,3,1,8,80,0,0
549195,-100,3,1,6,80,0,0
549669,-100,3,1,0,80,0,0
553182,-100,3,1,6,80,0,0
553577,-100,3,3,0,80,0,0
562971,315.789473684211,4,1,2,30,1,8
563602,315.789473684211,4,1,2,30,1,0
563602,-133.333333333333,4,1,2,30,0,0
583733,-100,4,1,6,80,0,0
592496,-100,4,1,4,80,0,0
592970,-100,4,1,8,80,0,0
593444,-100,4,1,3,80,0,0
593838,-100,4,1,6,80,0,0
595023,-100,4,1,5,80,0,0
595417,-100,4,1,3,80,0,0
595654,-100,4,1,5,80,0,0
596049,-100,4,1,3,80,0,0
596286,-100,4,1,6,80,0,0
596602,-100,4,1,1,80,0,0
596838,-100,4,1,6,80,0,0
597549,-100,4,1,5,80,0,0
597944,-100,4,1,3,80,0,0
598180,-100,4,1,5,80,0,0
598575,-100,4,1,3,80,0,0
598812,-100,4,1,6,80,0,0
599128,-100,4,1,3,80,0,0
599365,-100,4,1,6,80,0,0
599523,-100,4,1,5,80,0,0
599838,-100,4,1,6,80,0,0
600075,-100,4,1,5,80,0,0
600509,-100,4,1,3,80,0,0
600707,-100,4,1,5,80,0,0
601141,-100,4,1,3,80,0,0
601338,-100,4,1,6,80,0,0
601575,-100,4,1,4,80,0,0
601891,-100,4,1,6,80,0,0
602049,-100,4,1,8,80,0,0
602404,-100,4,1,6,80,0,0
602523,-100,4,1,3,80,0,0
602878,-100,4,1,6,80,0,0
602996,-100,4,1,3,80,0,0
603470,-100,4,1,6,80,0,0
603865,-95.2380952380952,4,1,6,80,0,0
604023,-90.9090909090909,4,1,6,80,0,0
604180,-90.9090909090909,4,1,2,80,0,0
604417,-90.9090909090909,4,1,6,80,0,0
605128,-90.9090909090909,4,1,2,80,0,0
605365,-90.9090909090909,4,1,6,80,0,0
605523,-90.9090909090909,4,1,2,80,0,0
605680,-90.9090909090909,4,1,6,80,0,0
606075,-90.9090909090909,4,1,2,80,0,0
606312,-90.9090909090909,4,1,6,80,0,0
606707,-90.9090909090909,4,1,2,80,0,0
606944,-90.9090909090909,4,1,6,80,0,0
607654,-90.9090909090909,4,1,2,80,0,0
607891,-90.9090909090909,4,1,6,80,0,0
608049,-90.9090909090909,4,1,2,80,0,0
608207,-90.9090909090909,4,1,6,80,0,0
609233,-90.9090909090909,4,1,2,80,0,0
609470,-90.9090909090909,4,1,6,80,0,0
610180,-90.9090909090909,4,1,2,80,0,0
610417,-90.9090909090909,4,1,6,80,0,0
610575,-90.9090909090909,4,1,2,80,0,0
610733,-90.9090909090909,4,1,6,80,0,0
614286,-90.9090909090909,4,1,2,80,0,0
614523,-90.9090909090909,4,1,6,80,0,0
615233,-90.9090909090909,4,1,2,80,0,0
615470,-90.9090909090909,4,1,6,80,0,0
615628,-90.9090909090909,4,1,2,80,0,0
615786,-90.9090909090909,4,1,6,80,0,0
616812,-90.9090909090909,4,1,2,80,0,0
617049,-90.9090909090909,4,1,6,80,0,0
617759,-90.9090909090909,4,1,2,80,0,0
617996,-90.9090909090909,4,1,6,80,0,0
618154,-90.9090909090909,4,1,2,80,0,0
618312,-90.9090909090909,4,1,6,80,0,0
621312,-90.9090909090909,4,1,5,80,0,0
622496,-90.9090909090909,4,1,6,80,0,0
622733,-90.9090909090909,4,1,5,80,0,0
622891,-90.9090909090909,4,1,6,80,0,0
623049,-90.9090909090909,4,1,5,80,0,0
623207,-90.9090909090909,4,1,6,80,0,0
623365,-90.9090909090909,4,1,5,80,0,0
623523,-90.9090909090909,4,1,6,80,0,0
625338,-90.9090909090909,4,1,2,80,0,0
625575,-90.9090909090909,4,1,6,80,0,0
625733,-90.9090909090909,4,1,2,80,0,0
625891,-90.9090909090909,4,1,6,80,0,0
626917,-90.9090909090909,4,1,2,80,0,0
627154,-90.9090909090909,4,1,6,80,0,0
627865,-90.9090909090909,4,1,2,80,0,0
628102,-90.9090909090909,4,1,6,80,0,0
628259,-90.9090909090909,4,1,2,80,0,0
628417,-90.9090909090909,4,1,6,80,0,0
630825,-90.9090909090909,4,1,4,80,0,0
630983,-90.9090909090909,4,1,6,80,0,0
631141,-90.9090909090909,4,1,8,80,0,0
631220,-90.9090909090909,4,1,3,80,0,0
631299,-90.9090909090909,4,1,6,80,0,0
632246,-90.9090909090909,4,1,4,80,0,0
632404,-90.9090909090909,4,1,6,80,0,0
633036,-90.9090909090909,4,1,4,80,0,0
633194,-90.9090909090909,4,1,6,80,0,0
635444,-90.9090909090909,4,1,2,80,0,0
635680,-90.9090909090909,4,1,6,80,0,0
635838,-90.9090909090909,4,1,2,80,0,0
635996,-90.9090909090909,4,1,6,80,0,0
636523,-90.9090909090909,4,1,4,80,0,0
637128,-90.9090909090909,4,1,8,80,0,0
637444,-90.9090909090909,4,1,3,80,0,0
637759,-90.9090909090909,4,1,6,80,0,0
641917,-133.333333333333,4,1,6,20,0,0
642233,-130.434782608696,4,1,6,24,0,0
642391,-127.659574468085,4,1,6,28,0,0
642549,-125,4,1,6,32,0,0
642707,-122.448979591837,4,1,6,36,0,0
642865,-120,4,1,6,40,0,0
643023,-117.647058823529,4,1,6,44,0,0
643180,-115.384615384615,4,1,6,48,0,0
643338,-113.207547169811,4,1,6,52,0,0
643496,-111.111111111111,4,1,6,56,0,0
643654,-109.090909090909,4,1,6,60,0,0
643812,-107.142857142857,4,1,6,64,0,0
643970,-105.263157894737,4,1,6,68,0,0
644128,-103.448275862069,4,1,6,72,0,0
644286,-101.694915254237,4,1,6,76,0,0
644444,315.789473684211,3,1,6,80,1,0
644444,-100,3,1,6,80,0,0
651075,-100,3,1,6,80,0,0
651154,-96,3,1,6,80,0,0
651233,-92.3076923076923,3,1,6,80,0,0
651312,-88.8888888888889,3,1,6,80,0,0
651391,-85.7142857142857,3,1,6,80,0,0
651470,-82.7586206896552,3,1,6,80,0,0
651549,-80,3,1,6,80,0,0
651628,-77.4193548387097,3,1,6,80,0,0
651707,-75,3,1,6,80,0,0
651786,-72.7272727272727,3,1,6,80,0,0
651865,-70.5882352941177,3,1,6,80,0,0
651944,-68.5714285714286,3,1,6,80,0,0
651983,-66.6666666666667,3,1,0,80,0,0

[HitObjects]
352,96,236,5,8,0:0:0:0:
352,96,275,1,8,0:0:0:0:
352,96,551,1,8,0:0:0:0:
352,96,709,1,8,0:0:0:0:
352,96,867,1,8,0:0:0:0:
352,96,1025,1,8,0:0:0:0:
352,96,1183,1,8,0:0:0:0:
352,96,1499,1,8,0:0:0:0:
352,96,1657,1,8,0:0:0:0:
352,96,1814,1,8,0:0:0:0:
352,96,1972,1,8,0:0:0:0:
352,96,2130,1,8,0:0:0:0:
352,96,2446,1,8,0:0:0:0:
352,96,2604,1,8,0:0:0:0:
352,96,2762,1,8,0:0:0:0:
352,96,2920,1,8,0:0:0:0:
352,96,3078,1,8,0:0:0:0:
352,96,3117,1,8,0:0:0:0:
352,96,3393,1,8,0:0:0:0:
352,96,3551,1,8,0:0:0:0:
352,96,3709,1,8,0:0:0:0:
352,96,3867,1,8,0:0:0:0:
352,96,4025,1,8,0:0:0:0:
352,96,4064,1,8,0:0:0:0:
352,96,4341,1,8,0:0:0:0:
352,96,4499,1,8,0:0:0:0:
352,96,4657,1,8,0:0:0:0:
352,96,4814,1,8,0:0:0:0:
352,96,4972,1,8,0:0:0:0:
352,96,5288,1,8,0:0:0:0:
352,96,5446,1,8,0:0:0:0:
352,96,5604,1,8,0:0:0:0:
352,96,5762,1,8,0:0:0:0:
352,96,5920,1,8,0:0:0:0:
352,96,5959,1,8,0:0:0:0:
352,96,6236,1,8,0:0:0:0:
352,96,6393,1,8,0:0:0:0:
352,96,6551,1,8,0:0:0:0:
352,96,6709,1,8,0:0:0:0:
352,96,6867,1,8,0:0:0:0:
352,96,7025,1,8,0:0:0:0:
352,96,7104,1,8,0:0:0:0:
352,96,7183,1,8,0:0:0:0:
352,96,7341,1,8,0:0:0:0:
352,96,7499,1,8,0:0:0:0:
352,96,7657,1,8,0:0:0:0:
352,96,7814,1,8,0:0:0:0:
352,96,7854,1,8,0:0:0:0:
352,96,8130,1,8,0:0:0:0:
352,96,8288,1,8,0:0:0:0:
352,96,8446,1,8,0:0:0:0:
352,96,8604,1,8,0:0:0:0:
352,96,8762,1,8,0:0:0:0:
352,96,9078,1,8,0:0:0:0:
352,96,9236,1,8,0:0:0:0:
352,96,9393,1,8,0:0:0:0:
352,96,9551,1,8,0:0:0:0:
352,96,9709,1,8,0:0:0:0:
352,96,9749,1,8,0:0:0:0:
352,96,10025,1,8,0:0:0:0:
352,96,10183,1,8,0:0:0:0:
352,96,10341,1,8,0:0:0:0:
352,96,10499,1,8,0:0:0:0:
352,96,10657,1,8,0:0:0:0:
352,96,10736,1,8,0:0:0:0:
352,96,10814,1,8,0:0:0:0:
352,96,10972,1,8,0:0:0:0:
352,96,11051,1,8,0:0:0:0:
352,96,11130,1,8,0:0:0:0:
352,96,11288,1,8,0:0:0:0:
352,96,11446,1,8,0:0:0:0:
352,96,11604,1,8,0:0:0:0:
352,96,11643,1,8,0:0:0:0:
352,96,11920,1,8,0:0:0:0:
352,96,12078,1,8,0:0:0:0:
352,96,12236,1,8,0:0:0:0:
352,96,12393,1,8,0:0:0:0:
352,96,12551,1,8,0:0:0:0:
352,96,12867,1,8,0:0:0:0:
352,96,13025,1,8,0:0:0:0:
352,96,13183,1,8,0:0:0:0:
352,96,13341,1,8,0:0:0:0:
352,96,13499,1,8,0:0:0:0:
160,96,13814,1,0,0:0:0:0:
160,96,13972,1,0,0:0:0:0:
160,96,14130,1,0,0:0:0:0:
160,96,14288,1,0,0:0:0:0:
352,96,14446,1,8,0:0:0:0:
352,96,14604,1,8,0:0:0:0:
352,96,14762,1,8,0:0:0:0:
352,96,14920,1,8,0:0:0:0:
352,96,15078,1,8,0:0:0:0:
352,96,15236,1,8,0:0:0:0:
160,288,15393,1,4,0:0:0:0:
160,96,15709,1,0,0:0:0:0:
160,96,16025,1,0,0:0:0:0:
160,96,16104,1,0,0:0:0:0:
160,96,16183,1,0,0:0:0:0:
160,96,16262,1,0,0:0:0:0:
352,96,16341,1,8,0:0:0:0:
160,96,16657,1,0,0:0:0:0:
160,96,16972,1,0,0:0:0:0:
160,96,17051,1,0,0:0:0:0:
160,96,17130,1,0,0:0:0:0:
160,96,17209,1,0,0:0:0:0:
160,96,17288,1,0,0:0:0:0:
160,96,17604,1,0,0:0:0:0:
160,96,17920,1,0,0:0:0:0:
352,96,18236,1,8,0:0:0:0:
160,96,18314,1,0,0:0:0:0:
160,96,18393,1,0,0:0:0:0:
160,96,18472,1,0,0:0:0:0:
160,96,18551,1,0,0:0:0:0:
160,96,18630,1,0,0:0:0:0:
160,96,18709,1,0,0:0:0:0:
160,96,18788,1,0,0:0:0:0:
160,96,18867,1,0,0:0:0:0:
160,96,18946,1,0,0:0:0:0:
160,96,19025,1,0,0:0:0:0:
160,96,19104,1,0,0:0:0:0:
160,96,19183,1,0,0:0:0:0:
160,96,19499,1,0,0:0:0:0:
160,96,19814,1,0,0:0:0:0:
160,96,19893,1,0,0:0:0:0:
160,96,19972,1,0,0:0:0:0:
160,96,20051,1,0,0:0:0:0:
352,96,20130,1,8,0:0:0:0:
160,96,20446,1,0,0:0:0:0:
352,96,20762,1,8,0:0:0:0:
160,96,20841,1,0,0:0:0:0:
160,96,20920,1,0,0:0:0:0:
160,96,20999,1,0,0:0:0:0:
160,96,21078,1,0,0:0:0:0:
160,96,21393,1,0,0:0:0:0:
160,96,21709,1,0,0:0:0:0:
352,96,22025,1,8,0:0:0:0:
160,96,22104,1,0,0:0:0:0:
160,96,22183,1,0,0:0:0:0:
160,96,22262,1,0,0:0:0:0:
160,96,22341,1,0,0:0:0:0:
160,96,22420,1,0,0:0:0:0:
160,96,22499,1,0,0:0:0:0:
160,96,22578,1,0,0:0:0:0:
352,96,22657,1,8,0:0:0:0:
352,96,22736,1,8,0:0:0:0:
160,96,22814,1,0,0:0:0:0:
160,96,22893,1,0,0:0:0:0:
160,96,22972,1,0,0:0:0:0:
160,96,23288,1,0,0:0:0:0:
160,96,23604,1,0,0:0:0:0:
160,96,23683,1,0,0:0:0:0:
160,96,23762,1,0,0:0:0:0:
160,96,23841,1,0,0:0:0:0:
352,96,23920,1,8,0:0:0:0:
160,96,24236,1,0,0:0:0:0:
160,96,24551,1,0,0:0:0:0:
160,96,24630,1,0,0:0:0:0:
160,96,24709,1,0,0:0:0:0:
160,96,24788,1,0,0:0:0:0:
352,96,24867,1,8,0:0:0:0:
160,96,25183,1,0,0:0:0:0:
160,96,25499,1,0,0:0:0:0:
352,96,25814,1,8,0:0:0:0:
160,96,25893,1,0,0:0:0:0:
160,96,25972,1,0,0:0:0:0:
160,96,26051,1,0,0:0:0:0:
160,96,26130,1,0,0:0:0:0:
160,96,26209,1,0,0:0:0:0:
160,96,26288,1,0,0:0:0:0:
160,96,26367,1,0,0:0:0:0:
160,96,26446,1,0,0:0:0:0:
160,96,26525,1,0,0:0:0:0:
160,96,26604,1,0,0:0:0:0:
160,96,26683,1,0,0:0:0:0:
160,96,26762,1,0,0:0:0:0:
160,96,27078,1,0,0:0:0:0:
160,96,27393,1,0,0:0:0:0:
160,96,27472,1,0,0:0:0:0:
160,96,27551,1,0,0:0:0:0:
160,96,27630,1,0,0:0:0:0:
352,96,27709,1,8,0:0:0:0:
160,96,28025,1,0,0:0:0:0:
352,96,28341,1,8,0:0:0:0:
352,96,28420,1,8,0:0:0:0:
160,96,28499,1,0,0:0:0:0:
160,96,28578,1,0,0:0:0:0:
160,96,28657,1,0,0:0:0:0:
160,96,28972,1,0,0:0:0:0:
160,96,29288,1,0,0:0:0:0:
352,96,29604,1,8,0:0:0:0:
352,96,29683,1,8,0:0:0:0:
160,96,29762,1,0,0:0:0:0:
160,96,29841,1,0,0:0:0:0:
352,96,29920,1,8,0:0:0:0:
160,96,29999,1,0,0:0:0:0:
160,96,30078,1,0,0:0:0:0:
160,96,30157,1,0,0:0:0:0:
352,96,30236,1,8,0:0:0:0:
352,96,30314,1,8,0:0:0:0:
352,96,30393,1,8,0:0:0:0:
352,96,30472,1,8,0:0:0:0:
160,288,30551,1,4,0:0:0:0:
352,96,30867,1,8,0:0:0:0:
160,96,31183,1,0,0:0:0:0:
160,96,31262,1,0,0:0:0:0:
160,96,31341,1,0,0:0:0:0:
160,96,31420,1,0,0:0:0:0:
352,96,31499,1,8,0:0:0:0:
160,96,31814,1,0,0:0:0:0:
352,96,32130,1,8,0:0:0:0:
160,96,32209,1,0,0:0:0:0:
160,96,32288,1,0,0:0:0:0:
160,96,32367,1,0,0:0:0:0:
160,96,32446,1,0,0:0:0:0:
352,96,32762,1,8,0:0:0:0:
160,96,33078,1,0,0:0:0:0:
352,96,33393,1,8,0:0:0:0:
160,96,33472,1,0,0:0:0:0:
160,96,33551,1,0,0:0:0:0:
160,96,33630,1,0,0:0:0:0:
160,96,33709,1,0,0:0:0:0:
160,96,33788,1,0,0:0:0:0:
160,96,33867,1,0,0:0:0:0:
160,96,33946,1,0,0:0:0:0:
352,96,34025,1,8,0:0:0:0:
352,96,34104,1,8,0:0:0:0:
160,96,34183,1,0,0:0:0:0:
160,96,34262,1,0,0:0:0:0:
160,96,34341,1,0,0:0:0:0:
352,96,34657,1,8,0:0:0:0:
160,96,34972,1,0,0:0:0:0:
160,96,35051,1,0,0:0:0:0:
160,96,35130,1,0,0:0:0:0:
160,96,35209,1,0,0:0:0:0:
352,96,35288,1,8,0:0:0:0:
160,96,35604,1,0,0:0:0:0:
352,96,35920,1,8,0:0:0:0:
160,96,35999,1,0,0:0:0:0:
160,96,36078,1,0,0:0:0:0:
160,96,36157,1,0,0:0:0:0:
160,96,36236,1,0,0:0:0:0:
352,96,36551,1,8,0:0:0:0:
160,96,36867,1,0,0:0:0:0:
160,96,37025,1,0,0:0:0:0:
352,96,37183,1,8,0:0:0:0:
352,96,37262,1,8,0:0:0:0:
160,96,37341,1,0,0:0:0:0:
160,96,37420,1,0,0:0:0:0:
352,96,37499,1,8,0:0:0:0:
352,96,37578,1,8,0:0:0:0:
160,96,37657,1,0,0:0:0:0:
160,96,37736,1,0,0:0:0:0:
352,96,37814,1,8,0:0:0:0:
160,96,37893,1,0,0:0:0:0:
160,96,37972,1,0,0:0:0:0:
160,288,38130,1,4,0:0:0:0:
160,96,38446,1,0,0:0:0:0:
160,96,38762,1,0,0:0:0:0:
160,96,38841,1,0,0:0:0:0:
160,96,38920,1,0,0:0:0:0:
160,96,38999,1,0,0:0:0:0:
352,96,39078,1,8,0:0:0:0:
160,96,39393,1,0,0:0:0:0:
160,96,39709,1,0,0:0:0:0:
160,96,39788,1,0,0:0:0:0:
160,96,39867,1,0,0:0:0:0:
160,96,39946,1,0,0:0:0:0:
160,96,40025,1,0,0:0:0:0:
160,96,40341,1,0,0:0:0:0:
160,96,40657,1,0,0:0:0:0:
352,96,40972,1,8,0:0:0:0:
160,96,41051,1,0,0:0:0:0:
160,96,41130,1,0,0:0:0:0:
160,96,41209,1,0,0:0:0:0:
160,96,41288,1,0,0:0:0:0:
160,96,41367,1,0,0:0:0:0:
160,96,41446,1,0,0:0:0:0:
160,96,41525,1,0,0:0:0:0:
160,96,41604,1,0,0:0:0:0:
160,96,41683,1,0,0:0:0:0:
160,96,41762,1,0,0:0:0:0:
160,96,41841,1,0,0:0:0:0:
160,96,41920,1,0,0:0:0:0:
160,96,42236,1,0,0:0:0:0:
160,96,42551,1,0,0:0:0:0:
160,96,42630,1,0,0:0:0:0:
160,96,42709,1,0,0:0:0:0:
160,96,42788,1,0,0:0:0:0:
352,96,42867,1,8,0:0:0:0:
160,96,43183,1,0,0:0:0:0:
160,96,43499,1,0,0:0:0:0:
160,96,43657,1,0,0:0:0:0:
160,96,43736,1,0,0:0:0:0:
352,96,43814,1,8,0:0:0:0:
352,96,43893,1,8,0:0:0:0:
160,96,43972,1,0,0:0:0:0:
160,96,44051,1,0,0:0:0:0:
352,96,44130,1,8,0:0:0:0:
352,96,44209,1,8,0:0:0:0:
160,96,44288,1,0,0:0:0:0:
160,96,44367,1,0,0:0:0:0:
352,96,44446,1,8,0:0:0:0:
352,96,44525,1,8,0:0:0:0:
160,96,44604,1,0,0:0:0:0:
160,96,44683,1,0,0:0:0:0:
352,96,44762,1,8,0:0:0:0:
352,96,44841,1,8,0:0:0:0:
160,96,44920,1,0,0:0:0:0:
160,96,44999,1,0,0:0:0:0:
352,96,45078,1,8,0:0:0:0:
352,96,45236,1,8,0:0:0:0:
352,96,45314,1,8,0:0:0:0:
352,96,45393,1,8,0:0:0:0:
352,96,45472,1,8,0:0:0:0:
352,96,45551,1,8,0:0:0:0:
352,96,45630,1,8,0:0:0:0:
160,288,45709,1,4,0:0:0:0:
352,96,45867,1,8,0:0:0:0:
352,96,46025,1,8,0:0:0:0:
352,96,46183,1,8,0:0:0:0:
160,96,46341,1,0,0:0:0:0:
160,96,46420,1,0,0:0:0:0:
160,96,46499,1,0,0:0:0:0:
160,96,46578,1,0,0:0:0:0:
352,96,46657,1,8,0:0:0:0:
352,96,46814,1,8,0:0:0:0:
352,96,46972,1,8,0:0:0:0:
352,96,47130,1,8,0:0:0:0:
160,96,47288,1,0,0:0:0:0:
160,96,47367,1,0,0:0:0:0:
160,96,47446,1,0,0:0:0:0:
160,96,47525,1,0,0:0:0:0:
160,96,47604,1,0,0:0:0:0:
352,96,47762,1,8,0:0:0:0:
352,96,47920,1,8,0:0:0:0:
352,96,48078,1,8,0:0:0:0:
352,96,48236,1,8,0:0:0:0:
352,96,48393,1,8,0:0:0:0:
352,96,48551,1,8,0:0:0:0:
160,96,48630,1,0,0:0:0:0:
160,96,48709,1,0,0:0:0:0:
160,96,48788,1,0,0:0:0:0:
160,96,48867,1,0,0:0:0:0:
160,96,48946,1,0,0:0:0:0:
160,96,49025,1,0,0:0:0:0:
160,96,49104,1,0,0:0:0:0:
160,96,49183,1,0,0:0:0:0:
160,96,49262,1,0,0:0:0:0:
160,96,49341,1,0,0:0:0:0:
160,96,49420,1,0,0:0:0:0:
160,96,49499,1,0,0:0:0:0:
352,96,49657,1,8,0:0:0:0:
352,96,49814,1,8,0:0:0:0:
352,96,49972,1,8,0:0:0:0:
160,96,50130,1,0,0:0:0:0:
160,96,50209,1,0,0:0:0:0:
160,96,50288,1,0,0:0:0:0:
160,96,50367,1,0,0:0:0:0:
352,96,50446,1,8,0:0:0:0:
352,96,50604,1,8,0:0:0:0:
352,96,50762,1,8,0:0:0:0:
352,96,50920,1,8,0:0:0:0:
160,96,51078,1,0,0:0:0:0:
160,96,51157,1,0,0:0:0:0:
160,96,51236,1,0,0:0:0:0:
160,96,51314,1,0,0:0:0:0:
160,96,51393,1,0,0:0:0:0:
352,96,51551,1,8,0:0:0:0:
352,96,51709,1,8,0:0:0:0:
352,96,51867,1,8,0:0:0:0:
352,96,52025,1,8,0:0:0:0:
352,96,52183,1,8,0:0:0:0:
352,96,52341,1,8,0:0:0:0:
160,96,52420,1,0,0:0:0:0:
160,96,52499,1,0,0:0:0:0:
160,96,52578,1,0,0:0:0:0:
160,96,52657,1,0,0:0:0:0:
160,96,52736,1,0,0:0:0:0:
160,96,52814,1,0,0:0:0:0:
160,96,52893,1,0,0:0:0:0:
352,96,52972,1,8,0:0:0:0:
352,96,53051,1,8,0:0:0:0:
160,96,53130,1,0,0:0:0:0:
160,96,53209,1,0,0:0:0:0:
352,96,53288,1,8,0:0:0:0:
160,96,53446,1,0,0:0:0:0:
352,96,53604,1,8,0:0:0:0:
352,96,53762,1,8,0:0:0:0:
160,96,53920,1,0,0:0:0:0:
160,96,53999,1,0,0:0:0:0:
160,96,54078,1,0,0:0:0:0:
160,96,54157,1,0,0:0:0:0:
352,96,54236,1,8,0:0:0:0:
160,96,54393,1,0,0:0:0:0:
352,96,54551,1,8,0:0:0:0:
352,96,54709,1,8,0:0:0:0:
160,96,54867,1,0,0:0:0:0:
160,96,54946,1,0,0:0:0:0:
160,96,55025,1,0,0:0:0:0:
160,96,55104,1,0,0:0:0:0:
352,96,55183,1,8,0:0:0:0:
160,96,55341,1,0,0:0:0:0:
160,96,55499,1,0,0:0:0:0:
352,96,55657,1,8,0:0:0:0:
352,96,55814,1,8,0:0:0:0:
352,96,55972,1,8,0:0:0:0:
352,96,56130,1,8,0:0:0:0:
160,96,56209,1,0,0:0:0:0:
160,96,56288,1,0,0:0:0:0:
160,96,56367,1,0,0:0:0:0:
160,96,56446,1,0,0:0:0:0:
160,96,56525,1,0,0:0:0:0:
160,96,56604,1,0,0:0:0:0:
160,96,56683,1,0,0:0:0:0:
160,96,56762,1,0,0:0:0:0:
160,96,56841,1,0,0:0:0:0:
160,96,56920,1,0,0:0:0:0:
160,96,56999,1,0,0:0:0:0:
352,96,57078,1,8,0:0:0:0:
160,96,57236,1,0,0:0:0:0:
352,96,57393,1,8,0:0:0:0:
352,96,57551,1,8,0:0:0:0:
160,96,57709,1,0,0:0:0:0:
160,96,57788,1,0,0:0:0:0:
160,96,57867,1,0,0:0:0:0:
160,96,57946,1,0,0:0:0:0:
352,96,58025,1,8,0:0:0:0:
160,96,58183,1,0,0:0:0:0:
352,96,58341,1,8,0:0:0:0:
352,96,58499,1,8,0:0:0:0:
160,96,58657,1,0,0:0:0:0:
160,96,58736,1,0,0:0:0:0:
160,96,58814,1,0,0:0:0:0:
160,96,58893,1,0,0:0:0:0:
352,96,58972,1,8,0:0:0:0:
352,96,59130,1,8,0:0:0:0:
160,96,59288,1,0,0:0:0:0:
352,96,59446,1,8,0:0:0:0:
352,96,59604,1,8,0:0:0:0:
352,96,59762,1,8,0:0:0:0:
352,96,59920,1,8,0:0:0:0:
352,96,59999,1,8,0:0:0:0:
160,96,60078,1,0,0:0:0:0:
160,96,60157,1,0,0:0:0:0:
352,96,60236,1,8,0:0:0:0:
160,96,60314,1,0,0:0:0:0:
160,96,60393,1,0,0:0:0:0:
160,96,60472,1,0,0:0:0:0:
352,288,60551,1,12,0:0:0:0:
160,288,60867,1,4,0:0:0:0:
352,96,61183,1,8,0:0:0:0:
160,96,61499,1,0,0:0:0:0:
160,96,61578,1,0,0:0:0:0:
160,96,61657,1,0,0:0:0:0:
160,96,61736,1,0,0:0:0:0:
352,96,61814,1,8,0:0:0:0:
160,96,62130,1,0,0:0:0:0:
352,96,62446,1,8,0:0:0:0:
160,96,62525,1,0,0:0:0:0:
160,96,62604,1,0,0:0:0:0:
160,96,62683,1,0,0:0:0:0:
160,96,62762,1,0,0:0:0:0:
352,96,63078,1,8,0:0:0:0:
160,96,63393,1,0,0:0:0:0:
160,96,63551,1,0,0:0:0:0:
352,96,63709,1,8,0:0:0:0:
160,96,63788,1,0,0:0:0:0:
160,96,63867,1,0,0:0:0:0:
160,96,63946,1,0,0:0:0:0:
160,96,64025,1,0,0:0:0:0:
160,96,64104,1,0,0:0:0:0:
160,96,64183,1,0,0:0:0:0:
160,96,64262,1,0,0:0:0:0:
352,96,64341,1,8,0:0:0:0:
160,96,64420,1,0,0:0:0:0:
160,96,64499,1,0,0:0:0:0:
160,96,64578,1,0,0:0:0:0:
160,96,64657,1,0,0:0:0:0:
352,96,64972,1,8,0:0:0:0:
160,96,65288,1,0,0:0:0:0:
160,96,65367,1,0,0:0:0:0:
160,96,65446,1,0,0:0:0:0:
160,96,65525,1,0,0:0:0:0:
352,96,65604,1,8,0:0:0:0:
160,96,65920,1,0,0:0:0:0:
352,96,66236,1,8,0:0:0:0:
352,96,66314,1,8,0:0:0:0:
160,96,66393,1,0,0:0:0:0:
160,96,66472,1,0,0:0:0:0:
160,96,66551,1,0,0:0:0:0:
352,96,66867,1,8,0:0:0:0:
160,96,67183,1,0,0:0:0:0:
160,96,67341,1,0,0:0:0:0:
160,96,67420,1,0,0:0:0:0:
352,96,67499,1,8,0:0:0:0:
352,96,67578,1,8,0:0:0:0:
160,96,67657,1,0,0:0:0:0:
160,96,67736,1,0,0:0:0:0:
352,96,67814,1,8,0:0:0:0:
160,96,67893,1,0,0:0:0:0:
160,96,67972,1,0,0:0:0:0:
160,96,68051,1,0,0:0:0:0:
352,96,68130,1,8,0:0:0:0:
352,96,68209,1,8,0:0:0:0:
352,96,68288,1,8,0:0:0:0:
352,96,68367,1,8,0:0:0:0:
160,288,68446,1,4,0:0:0:0:
160,96,68604,1,0,0:0:0:0:
352,96,68762,1,8,0:0:0:0:
352,96,69078,1,8,0:0:0:0:
352,96,69393,1,8,0:0:0:0:
160,96,69551,1,0,0:0:0:0:
352,96,69709,1,8,0:0:0:0:
352,96,70025,1,8,0:0:0:0:
160,96,70341,1,0,0:0:0:0:
160,96,70499,1,0,0:0:0:0:
352,96,70657,1,8,0:0:0:0:
352,96,70972,1,8,0:0:0:0:
352,96,71288,1,8,0:0:0:0:
160,96,71446,1,0,0:0:0:0:
160,96,71604,1,0,0:0:0:0:
352,96,71762,1,8,0:0:0:0:
160,96,71920,1,0,0:0:0:0:
352,96,72078,1,8,0:0:0:0:
160,96,72236,1,0,0:0:0:0:
352,96,72393,1,8,0:0:0:0:
352,96,72551,1,8,0:0:0:0:
352,96,72867,1,8,0:0:0:0:
352,96,73183,1,8,0:0:0:0:
160,96,73341,1,0,0:0:0:0:
352,96,73499,1,8,0:0:0:0:
352,96,73814,1,8,0:0:0:0:
160,96,74130,1,0,0:0:0:0:
160,96,74288,1,0,0:0:0:0:
352,96,74446,1,8,0:0:0:0:
352,96,74762,1,8,0:0:0:0:
160,96,75078,1,0,0:0:0:0:
160,96,75157,1,0,0:0:0:0:
160,96,75236,1,0,0:0:0:0:
160,96,75314,1,0,0:0:0:0:
352,96,75393,1,8,0:0:0:0:
352,96,75472,1,8,0:0:0:0:
352,96,75551,1,8,0:0:0:0:
352,96,75630,1,8,0:0:0:0:
160,288,75709,1,4,0:0:0:0:
160,288,75867,1,4,0:0:0:0:
352,288,76025,1,12,0:0:0:0:
352,96,76341,1,8,0:0:0:0:
352,96,76657,1,8,0:0:0:0:
352,96,76972,1,8,0:0:0:0:
160,96,77130,1,0,0:0:0:0:
352,96,77288,1,8,0:0:0:0:
352,96,77604,1,8,0:0:0:0:
160,96,77920,1,0,0:0:0:0:
160,96,78078,1,0,0:0:0:0:
352,96,78236,1,8,0:0:0:0:
352,96,78551,1,8,0:0:0:0:
352,96,78867,1,8,0:0:0:0:
352,96,79025,1,8,0:0:0:0:
160,96,79183,1,0,0:0:0:0:
352,96,79341,1,8,0:0:0:0:
160,96,79499,1,0,0:0:0:0:
352,96,79657,1,8,0:0:0:0:
160,96,79814,1,0,0:0:0:0:
352,96,79972,1,8,0:0:0:0:
352,96,80130,1,8,0:0:0:0:
352,96,80446,1,8,0:0:0:0:
352,96,80762,1,8,0:0:0:0:
160,96,80920,1,0,0:0:0:0:
352,96,81078,1,8,0:0:0:0:
352,96,81393,1,8,0:0:0:0:
160,96,81551,1,0,0:0:0:0:
160,96,81630,1,0,0:0:0:0:
352,96,81709,1,8,0:0:0:0:
352,96,81788,1,8,0:0:0:0:
160,96,81867,1,0,0:0:0:0:
160,96,81946,1,0,0:0:0:0:
352,96,82025,1,8,0:0:0:0:
160,96,82104,1,0,0:0:0:0:
352,96,82183,1,8,0:0:0:0:
352,96,82262,1,8,0:0:0:0:
160,96,82341,1,0,0:0:0:0:
160,96,82420,1,0,0:0:0:0:
352,96,82499,1,8,0:0:0:0:
160,96,82578,1,0,0:0:0:0:
352,96,82657,1,8,0:0:0:0:
352,96,82736,1,8,0:0:0:0:
160,96,82814,1,0,0:0:0:0:
160,96,82893,1,0,0:0:0:0:
352,96,82972,1,8,0:0:0:0:
160,96,83051,1,0,0:0:0:0:
160,96,83130,1,0,0:0:0:0:
160,96,83209,1,0,0:0:0:0:
352,96,83288,1,8,0:0:0:0:
352,96,83367,1,8,0:0:0:0:
352,96,83446,1,8,0:0:0:0:
352,96,83525,1,8,0:0:0:0:
160,288,83604,1,4,0:0:0:0:
160,96,84078,1,0,0:0:0:0:
160,96,84393,1,0,0:0:0:0:
352,96,84551,1,8,0:0:0:0:
160,96,84867,1,0,0:0:0:0:
160,96,85025,1,0,0:0:0:0:
352,96,85341,1,8,0:0:0:0:
160,96,85499,1,0,0:0:0:0:
160,96,85814,1,0,0:0:0:0:
160,96,85972,1,0,0:0:0:0:
160,96,86288,1,0,0:0:0:0:
352,96,86446,1,8,0:0:0:0:
160,96,86762,1,0,0:0:0:0:
160,96,86841,1,0,0:0:0:0:
160,96,86920,1,0,0:0:0:0:
160,96,86999,1,0,0:0:0:0:
352,96,87078,1,8,0:0:0:0:
352,96,87236,1,8,0:0:0:0:
352,288,87393,1,12,0:0:0:0:
160,96,87709,1,0,0:0:0:0:
160,96,87867,1,0,0:0:0:0:
160,96,88183,1,0,0:0:0:0:
352,96,88341,1,8,0:0:0:0:
160,96,88657,1,0,0:0:0:0:
160,96,88972,1,0,0:0:0:0:
160,96,89288,1,0,0:0:0:0:
160,96,89446,1,0,0:0:0:0:
160,96,89762,1,0,0:0:0:0:
160,96,90078,1,0,0:0:0:0:
352,96,90236,1,8,0:0:0:0:
160,96,90551,1,0,0:0:0:0:
160,96,90630,1,0,0:0:0:0:
160,96,90709,1,0,0:0:0:0:
160,96,90788,1,0,0:0:0:0:
352,96,90867,1,8,0:0:0:0:
352,96,90946,1,8,0:0:0:0:
160,96,91025,1,0,0:0:0:0:
160,96,91104,1,0,0:0:0:0:
352,288,91183,1,12,0:0:0:0:
160,96,91657,1,0,0:0:0:0:
160,96,91814,1,0,0:0:0:0:
160,96,91972,1,0,0:0:0:0:
352,96,92130,1,8,0:0:0:0:
160,96,92604,1,0,0:0:0:0:
160,96,92762,1,0,0:0:0:0:
352,96,92920,1,8,0:0:0:0:
160,96,93078,1,0,0:0:0:0:
160,96,93551,1,0,0:0:0:0:
352,96,93709,1,8,0:0:0:0:
160,96,93867,1,0,0:0:0:0:
352,96,94025,1,8,0:0:0:0:
160,96,94341,1,0,0:0:0:0:
160,96,94420,1,0,0:0:0:0:
160,96,94499,1,0,0:0:0:0:
160,96,94578,1,0,0:0:0:0:
352,96,94657,1,8,0:0:0:0:
352,96,94736,1,8,0:0:0:0:
352,96,94814,1,8,0:0:0:0:
352,96,94893,1,8,0:0:0:0:
160,288,94972,1,4,0:0:0:0:
160,96,95446,1,0,0:0:0:0:
160,96,95762,1,0,0:0:0:0:
352,96,95920,1,8,0:0:0:0:
160,96,96393,1,0,0:0:0:0:
352,96,96709,1,8,0:0:0:0:
160,96,96867,1,0,0:0:0:0:
160,96,97025,1,0,0:0:0:0:
160,96,97183,1,0,0:0:0:0:
160,96,97341,1,0,0:0:0:0:
160,96,97657,1,0,0:0:0:0:
352,96,97814,1,8,0:0:0:0:
352,96,98288,1,8,0:0:0:0:
352,96,98446,1,8,0:0:0:0:
352,96,98604,1,8,0:0:0:0:
352,288,98762,1,12,0:0:0:0:
160,96,99078,1,0,0:0:0:0:
160,96,99236,1,0,0:0:0:0:
160,96,99393,1,0,0:0:0:0:
160,96,99551,1,0,0:0:0:0:
352,96,99709,1,8,0:0:0:0:
160,96,100025,1,0,0:0:0:0:
160,96,100183,1,0,0:0:0:0:
160,96,100341,1,0,0:0:0:0:
160,96,100499,1,0,0:0:0:0:
352,96,100657,1,8,0:0:0:0:
160,96,100972,1,0,0:0:0:0:
160,96,101130,1,0,0:0:0:0:
160,96,101288,1,0,0:0:0:0:
160,96,101446,1,0,0:0:0:0:
352,96,101604,1,8,0:0:0:0:
160,96,101762,1,0,0:0:0:0:
160,96,101920,1,0,0:0:0:0:
160,96,102078,1,0,0:0:0:0:
352,288,102236,1,12,0:0:0:0:
352,288,102551,1,12,0:0:0:0:
160,96,102867,1,0,0:0:0:0:
160,96,103025,1,0,0:0:0:0:
160,96,103183,1,0,0:0:0:0:
160,96,103341,1,0,0:0:0:0:
352,96,103499,1,8,0:0:0:0:
160,96,103814,1,0,0:0:0:0:
160,96,103972,1,0,0:0:0:0:
160,96,104130,1,0,0:0:0:0:
160,96,104288,1,0,0:0:0:0:
352,96,104446,1,8,0:0:0:0:
160,96,104762,1,0,0:0:0:0:
160,96,104920,1,0,0:0:0:0:
160,96,105078,1,0,0:0:0:0:
160,96,105236,1,0,0:0:0:0:
160,96,105314,1,0,0:0:0:0:
352,96,105393,1,8,0:0:0:0:
352,96,105472,1,8,0:0:0:0:
160,96,105551,1,0,0:0:0:0:
160,96,105630,1,0,0:0:0:0:
352,96,105709,1,8,0:0:0:0:
352,96,105788,1,8,0:0:0:0:
352,96,105867,1,8,0:0:0:0:
352,96,105946,1,8,0:0:0:0:
160,288,106025,1,4,0:0:0:0:
160,288,106183,1,4,0:0:0:0:
352,288,106341,1,12,0:0:0:0:
160,96,106657,1,0,0:0:0:0:
160,96,106814,1,0,0:0:0:0:
160,96,106893,1,0,0:0:0:0:
160,96,106972,1,0,0:0:0:0:
160,96,107130,1,0,0:0:0:0:
352,96,107288,1,8,0:0:0:0:
160,96,107604,1,0,0:0:0:0:
160,96,107683,1,0,0:0:0:0:
160,96,107762,1,0,0:0:0:0:
160,96,107920,1,0,0:0:0:0:
160,96,108078,1,0,0:0:0:0:
352,96,108236,1,8,0:0:0:0:
160,96,108551,1,0,0:0:0:0:
160,96,108709,1,0,0:0:0:0:
160,96,108867,1,0,0:0:0:0:
160,96,108946,1,0,0:0:0:0:
160,96,109025,1,0,0:0:0:0:
352,96,109183,1,8,0:0:0:0:
160,96,109341,1,0,0:0:0:0:
160,96,109499,1,0,0:0:0:0:
160,96,109657,1,0,0:0:0:0:
352,288,109814,1,12,0:0:0:0:
160,96,109972,1,0,0:0:0:0:
352,288,110130,1,12,0:0:0:0:
160,96,110446,1,0,0:0:0:0:
160,96,110604,1,0,0:0:0:0:
160,96,110683,1,0,0:0:0:0:
160,96,110762,1,0,0:0:0:0:
160,96,110920,1,0,0:0:0:0:
352,96,111078,1,8,0:0:0:0:
160,96,111393,1,0,0:0:0:0:
160,96,111472,1,0,0:0:0:0:
160,96,111551,1,0,0:0:0:0:
160,96,111709,1,0,0:0:0:0:
160,96,111867,1,0,0:0:0:0:
352,288,112025,1,12,0:0:0:0:
160,96,112183,1,0,0:0:0:0:
160,96,112262,1,0,0:0:0:0:
352,96,112341,1,8,0:0:0:0:
352,96,112420,1,8,0:0:0:0:
160,96,112499,1,0,0:0:0:0:
160,96,112578,1,0,0:0:0:0:
352,96,112657,1,8,0:0:0:0:
352,96,112736,1,8,0:0:0:0:
352,96,112814,1,8,0:0:0:0:
352,96,112893,1,8,0:0:0:0:
160,96,112972,1,0,0:0:0:0:
160,96,113051,1,0,0:0:0:0:
352,96,113130,1,8,0:0:0:0:
352,96,113209,1,8,0:0:0:0:
352,96,113288,1,8,0:0:0:0:
352,96,113367,1,8,0:0:0:0:
160,96,113446,1,0,0:0:0:0:
160,96,113525,1,0,0:0:0:0:
352,96,113604,1,8,0:0:0:0:
352,96,113643,1,8,0:0:0:0:
160,288,113920,1,4,0:0:0:0:
160,96,114551,1,0,0:0:0:0:
160,96,114630,1,0,0:0:0:0:
160,96,114709,1,0,0:0:0:0:
160,96,114788,1,0,0:0:0:0:
352,96,114867,1,8,0:0:0:0:
160,96,115499,1,0,0:0:0:0:
160,96,115578,1,0,0:0:0:0:
160,96,115657,1,0,0:0:0:0:
160,96,115736,1,0,0:0:0:0:
160,96,115814,1,0,0:0:0:0:
352,96,116762,1,8,0:0:0:0:
160,96,116841,1,0,0:0:0:0:
160,96,116920,1,0,0:0:0:0:
160,96,116999,1,0,0:0:0:0:
160,96,117078,1,0,0:0:0:0:
160,96,117157,1,0,0:0:0:0:
160,96,117236,1,0,0:0:0:0:
160,96,117314,1,0,0:0:0:0:
160,96,117393,1,0,0:0:0:0:
160,96,117472,1,0,0:0:0:0:
160,96,117551,1,0,0:0:0:0:
160,96,117630,1,0,0:0:0:0:
160,96,117709,1,0,0:0:0:0:
160,96,118341,1,0,0:0:0:0:
160,96,118420,1,0,0:0:0:0:
160,96,118499,1,0,0:0:0:0:
160,96,118578,1,0,0:0:0:0:
352,96,118657,1,8,0:0:0:0:
160,96,119288,1,0,0:0:0:0:
160,96,119367,1,0,0:0:0:0:
160,96,119446,1,0,0:0:0:0:
160,96,119525,1,0,0:0:0:0:
352,96,119604,1,8,0:0:0:0:
160,96,119683,1,0,0:0:0:0:
160,96,119762,1,0,0:0:0:0:
160,96,119841,1,0,0:0:0:0:
352,96,119920,1,8,0:0:0:0:
160,96,119999,1,0,0:0:0:0:
160,96,120078,1,0,0:0:0:0:
160,96,120157,1,0,0:0:0:0:
352,96,120236,1,8,0:0:0:0:
160,96,120314,1,0,0:0:0:0:
160,96,120393,1,0,0:0:0:0:
160,96,120472,1,0,0:0:0:0:
352,96,120551,1,8,0:0:0:0:
160,96,120630,1,0,0:0:0:0:
160,96,120709,1,0,0:0:0:0:
160,96,120788,1,0,0:0:0:0:
352,96,120867,1,8,0:0:0:0:
160,96,120946,1,0,0:0:0:0:
160,96,121025,1,0,0:0:0:0:
160,96,121104,1,0,0:0:0:0:
352,96,121183,1,8,0:0:0:0:
160,288,121499,1,4,0:0:0:0:
352,96,121814,1,8,0:0:0:0:
160,96,121972,1,0,0:0:0:0:
160,96,122288,1,0,0:0:0:0:
160,96,122367,1,0,0:0:0:0:
352,96,122446,1,8,0:0:0:0:
160,96,122762,1,0,0:0:0:0:
160,96,122841,1,0,0:0:0:0:
160,96,122920,1,0,0:0:0:0:
160,96,122999,1,0,0:0:0:0:
352,96,123078,1,8,0:0:0:0:
160,96,123393,1,0,0:0:0:0:
352,96,123709,1,8,0:0:0:0:
160,96,123867,1,0,0:0:0:0:
160,96,124183,1,0,0:0:0:0:
160,96,124262,1,0,0:0:0:0:
352,96,124341,1,8,0:0:0:0:
160,96,124657,1,0,0:0:0:0:
160,96,124736,1,0,0:0:0:0:
160,96,124814,1,0,0:0:0:0:
160,96,124893,1,0,0:0:0:0:
352,96,124972,1,8,0:0:0:0:
160,96,125130,1,0,0:0:0:0:
160,96,125288,1,0,0:0:0:0:
352,96,125604,1,8,0:0:0:0:
160,96,125762,1,0,0:0:0:0:
160,96,126078,1,0,0:0:0:0:
160,96,126157,1,0,0:0:0:0:
352,96,126236,1,8,0:0:0:0:
160,96,126551,1,0,0:0:0:0:
160,96,126630,1,0,0:0:0:0:
160,96,126709,1,0,0:0:0:0:
160,96,126788,1,0,0:0:0:0:
352,96,126867,1,8,0:0:0:0:
160,96,127183,1,0,0:0:0:0:
352,96,127499,1,8,0:0:0:0:
160,96,127657,1,0,0:0:0:0:
160,96,127972,1,0,0:0:0:0:
160,96,128051,1,0,0:0:0:0:
352,96,128130,1,8,0:0:0:0:
160,96,128446,1,0,0:0:0:0:
160,96,128525,1,0,0:0:0:0:
160,96,128604,1,0,0:0:0:0:
160,96,128683,1,0,0:0:0:0:
352,96,128762,1,8,0:0:0:0:
160,96,128920,1,0,0:0:0:0:
160,96,128999,1,0,0:0:0:0:
160,96,129078,1,0,0:0:0:0:
352,96,129393,1,8,0:0:0:0:
160,96,129551,1,0,0:0:0:0:
160,96,129867,1,0,0:0:0:0:
160,96,129946,1,0,0:0:0:0:
352,96,130025,1,8,0:0:0:0:
160,96,130341,1,0,0:0:0:0:
160,96,130420,1,0,0:0:0:0:
160,96,130499,1,0,0:0:0:0:
160,96,130578,1,0,0:0:0:0:
352,96,130657,1,8,0:0:0:0:
160,96,130972,1,0,0:0:0:0:
352,96,131288,1,8,0:0:0:0:
160,96,131446,1,0,0:0:0:0:
160,96,131762,1,0,0:0:0:0:
160,96,131841,1,0,0:0:0:0:
352,96,131920,1,8,0:0:0:0:
160,96,132236,1,0,0:0:0:0:
160,96,132314,1,0,0:0:0:0:
160,96,132393,1,0,0:0:0:0:
160,96,132472,1,0,0:0:0:0:
352,96,132551,1,8,0:0:0:0:
160,96,132709,1,0,0:0:0:0:
160,96,132867,1,0,0:0:0:0:
352,96,133183,1,8,0:0:0:0:
160,96,133341,1,0,0:0:0:0:
160,96,133657,1,0,0:0:0:0:
160,96,133736,1,0,0:0:0:0:
352,96,133814,1,8,0:0:0:0:
160,96,134130,1,0,0:0:0:0:
160,96,134209,1,0,0:0:0:0:
160,96,134288,1,0,0:0:0:0:
160,96,134367,1,0,0:0:0:0:
352,96,134446,1,8,0:0:0:0:
160,96,134762,1,0,0:0:0:0:
352,96,135078,1,8,0:0:0:0:
160,96,135236,1,0,0:0:0:0:
160,96,135551,1,0,0:0:0:0:
160,96,135630,1,0,0:0:0:0:
352,96,135709,1,8,0:0:0:0:
160,96,136025,1,0,0:0:0:0:
160,96,136104,1,0,0:0:0:0:
160,96,136183,1,0,0:0:0:0:
160,96,136262,1,0,0:0:0:0:
352,96,136341,1,8,0:0:0:0:
160,96,136420,1,0,0:0:0:0:
160,96,136499,1,0,0:0:0:0:
160,288,136657,1,4,0:0:0:0:
352,96,136972,1,8,0:0:0:0:
160,96,137051,1,0,0:0:0:0:
160,96,137130,1,0,0:0:0:0:
160,96,137446,1,0,0:0:0:0:
160,96,137525,1,0,0:0:0:0:
352,96,137604,1,8,0:0:0:0:
160,96,137920,1,0,0:0:0:0:
160,96,137999,1,0,0:0:0:0:
160,96,138078,1,0,0:0:0:0:
160,96,138157,1,0,0:0:0:0:
352,96,138236,1,8,0:0:0:0:
160,96,138551,1,0,0:0:0:0:
352,96,138867,1,8,0:0:0:0:
160,96,138946,1,0,0:0:0:0:
160,96,139025,1,0,0:0:0:0:
160,96,139341,1,0,0:0:0:0:
160,96,139420,1,0,0:0:0:0:
352,96,139499,1,8,0:0:0:0:
160,96,139814,1,0,0:0:0:0:
160,96,139893,1,0,0:0:0:0:
160,96,139972,1,0,0:0:0:0:
160,96,140051,1,0,0:0:0:0:
352,96,140130,1,8,0:0:0:0:
160,96,140209,1,0,0:0:0:0:
160,96,140288,1,0,0:0:0:0:
160,96,140367,1,0,0:0:0:0:
160,96,140446,1,0,0:0:0:0:
352,96,140762,1,8,0:0:0:0:
160,96,140841,1,0,0:0:0:0:
160,96,140920,1,0,0:0:0:0:
160,96,141236,1,0,0:0:0:0:
160,96,141314,1,0,0:0:0:0:
352,96,141393,1,8,0:0:0:0:
160,96,141709,1,0,0:0:0:0:
160,96,141788,1,0,0:0:0:0:
160,96,141867,1,0,0:0:0:0:
160,96,141946,1,0,0:0:0:0:
352,96,142025,1,8,0:0:0:0:
160,96,142341,1,0,0:0:0:0:
352,96,142657,1,8,0:0:0:0:
160,96,142736,1,0,0:0:0:0:
160,96,142814,1,0,0:0:0:0:
160,96,143130,1,0,0:0:0:0:
160,96,143209,1,0,0:0:0:0:
352,96,143288,1,8,0:0:0:0:
160,96,143604,1,0,0:0:0:0:
160,96,143683,1,0,0:0:0:0:
160,96,143762,1,0,0:0:0:0:
160,96,143841,1,0,0:0:0:0:
352,96,143920,1,8,0:0:0:0:
352,96,143999,1,8,0:0:0:0:
160,96,144078,1,0,0:0:0:0:
160,96,144157,1,0,0:0:0:0:
160,96,144236,1,0,0:0:0:0:
352,96,144551,1,8,0:0:0:0:
160,96,144630,1,0,0:0:0:0:
160,96,144709,1,0,0:0:0:0:
160,96,145025,1,0,0:0:0:0:
160,96,145104,1,0,0:0:0:0:
352,96,145183,1,8,0:0:0:0:
160,96,145499,1,0,0:0:0:0:
160,96,145578,1,0,0:0:0:0:
160,96,145657,1,0,0:0:0:0:
160,96,145736,1,0,0:0:0:0:
352,96,145814,1,8,0:0:0:0:
160,96,145972,1,0,0:0:0:0:
160,96,146130,1,0,0:0:0:0:
352,96,146446,1,8,0:0:0:0:
160,96,146525,1,0,0:0:0:0:
160,96,146604,1,0,0:0:0:0:
160,96,146920,1,0,0:0:0:0:
160,96,146999,1,0,0:0:0:0:
352,96,147078,1,8,0:0:0:0:
160,96,147393,1,0,0:0:0:0:
160,96,147472,1,0,0:0:0:0:
160,96,147551,1,0,0:0:0:0:
160,96,147630,1,0,0:0:0:0:
352,96,147709,1,8,0:0:0:0:
160,96,147788,1,0,0:0:0:0:
160,96,147867,1,0,0:0:0:0:
160,96,147946,1,0,0:0:0:0:
160,96,148025,1,0,0:0:0:0:
352,96,148341,1,8,0:0:0:0:
160,96,148420,1,0,0:0:0:0:
160,96,148499,1,0,0:0:0:0:
160,96,148814,1,0,0:0:0:0:
160,96,148893,1,0,0:0:0:0:
352,96,148972,1,8,0:0:0:0:
160,96,149288,1,0,0:0:0:0:
160,96,149367,1,0,0:0:0:0:
160,96,149446,1,0,0:0:0:0:
160,96,149525,1,0,0:0:0:0:
352,96,149604,1,8,0:0:0:0:
160,96,149762,1,0,0:0:0:0:
160,96,149920,1,0,0:0:0:0:
352,96,150236,1,8,0:0:0:0:
160,96,150314,1,0,0:0:0:0:
160,96,150393,1,0,0:0:0:0:
160,96,150709,1,0,0:0:0:0:
160,288,150867,1,4,0:0:0:0:
160,288,151025,1,4,0:0:0:0:
160,288,151183,1,4,0:0:0:0:
160,288,151341,1,4,0:0:0:0:
160,288,151499,1,4,0:0:0:0:
160,288,151657,1,4,0:0:0:0:
352,288,151814,1,12,0:0:0:0:
160,96,152130,1,0,0:0:0:0:
160,96,152288,1,0,0:0:0:0:
160,96,152446,1,0,0:0:0:0:
160,96,152604,1,0,0:0:0:0:
352,96,152762,1,8,0:0:0:0:
160,96,153078,1,0,0:0:0:0:
160,96,153236,1,0,0:0:0:0:
160,96,153393,1,0,0:0:0:0:
160,96,153551,1,0,0:0:0:0:
160,96,153709,1,0,0:0:0:0:
160,96,154025,1,0,0:0:0:0:
160,96,154183,1,0,0:0:0:0:
160,96,154341,1,0,0:0:0:0:
160,96,154499,1,0,0:0:0:0:
352,96,154657,1,8,0:0:0:0:
160,96,155130,1,0,0:0:0:0:
352,96,155288,1,8,0:0:0:0:
160,288,155604,1,4,0:0:0:0:
160,96,155920,1,0,0:0:0:0:
160,96,156078,1,0,0:0:0:0:
160,96,156236,1,0,0:0:0:0:
160,96,156393,1,0,0:0:0:0:
352,96,156551,1,8,0:0:0:0:
160,96,156867,1,0,0:0:0:0:
160,96,157025,1,0,0:0:0:0:
160,96,157183,1,0,0:0:0:0:
160,96,157341,1,0,0:0:0:0:
160,96,157499,1,0,0:0:0:0:
160,96,157814,1,0,0:0:0:0:
160,96,157972,1,0,0:0:0:0:
160,96,158130,1,0,0:0:0:0:
160,96,158288,1,0,0:0:0:0:
352,288,158446,1,12,0:0:0:0:
160,96,158762,1,0,0:0:0:0:
160,96,158801,1,0,0:0:0:0:
160,96,158920,1,0,0:0:0:0:
160,96,159078,1,0,0:0:0:0:
160,96,159236,1,0,0:0:0:0:
352,288,159393,1,12,0:0:0:0:
160,96,159551,1,0,0:0:0:0:
160,96,159630,1,0,0:0:0:0:
352,96,159709,1,8,0:0:0:0:
160,96,159788,1,0,0:0:0:0:
160,96,159867,1,0,0:0:0:0:
160,96,159946,1,0,0:0:0:0:
352,96,160025,1,8,0:0:0:0:
160,96,160104,1,0,0:0:0:0:
160,96,160183,1,0,0:0:0:0:
160,96,160262,1,0,0:0:0:0:
352,96,160341,1,8,0:0:0:0:
160,96,160420,1,0,0:0:0:0:
160,96,160499,1,0,0:0:0:0:
160,96,160578,1,0,0:0:0:0:
352,96,160657,1,8,0:0:0:0:
160,96,160736,1,0,0:0:0:0:
160,96,160814,1,0,0:0:0:0:
160,96,160893,1,0,0:0:0:0:
352,96,160972,1,8,0:0:0:0:
352,96,161051,1,8,0:0:0:0:
160,96,161130,1,0,0:0:0:0:
160,96,161209,1,0,0:0:0:0:
352,96,161288,1,8,0:0:0:0:
160,96,161367,1,0,0:0:0:0:
160,96,161446,1,0,0:0:0:0:
160,96,161525,1,0,0:0:0:0:
352,96,161604,1,8,0:0:0:0:
160,96,161683,1,0,0:0:0:0:
160,96,161762,1,0,0:0:0:0:
160,96,161841,1,0,0:0:0:0:
352,96,161920,1,8,0:0:0:0:
160,96,161999,1,0,0:0:0:0:
160,96,162078,1,0,0:0:0:0:
160,96,162157,1,0,0:0:0:0:
352,96,162236,1,8,0:0:0:0:
160,96,162314,1,0,0:0:0:0:
160,96,162393,1,0,0:0:0:0:
160,96,162472,1,0,0:0:0:0:
352,96,162551,1,8,0:0:0:0:
160,96,162630,1,0,0:0:0:0:
160,96,162709,1,0,0:0:0:0:
160,96,162788,1,0,0:0:0:0:
352,96,162867,1,8,0:0:0:0:
352,96,162946,1,8,0:0:0:0:
352,96,163025,1,8,0:0:0:0:
160,96,163104,1,0,0:0:0:0:
352,96,163183,1,8,0:0:0:0:
160,96,163262,1,0,0:0:0:0:
160,96,163341,1,0,0:0:0:0:
160,96,163420,1,0,0:0:0:0:
352,96,163499,1,8,0:0:0:0:
160,96,163578,1,0,0:0:0:0:
160,96,163657,1,0,0:0:0:0:
160,96,163736,1,0,0:0:0:0:
352,96,163814,1,8,0:0:0:0:
160,96,163893,1,0,0:0:0:0:
160,96,163972,1,0,0:0:0:0:
160,96,164051,1,0,0:0:0:0:
352,96,164130,1,8,0:0:0:0:
160,96,164209,1,0,0:0:0:0:
160,96,164288,1,0,0:0:0:0:
160,96,164367,1,0,0:0:0:0:
352,96,164446,1,8,0:0:0:0:
352,96,164525,1,8,0:0:0:0:
160,96,164604,1,0,0:0:0:0:
160,96,164683,1,0,0:0:0:0:
352,96,164762,1,8,0:0:0:0:
160,96,164841,1,0,0:0:0:0:
160,96,164920,1,0,0:0:0:0:
160,288,165078,1,4,0:0:0:0:
160,288,165236,1,4,0:0:0:0:
160,288,165393,1,4,0:0:0:0:
160,288,165551,1,4,0:0:0:0:
160,288,166025,1,4,0:0:0:0:
160,288,166183,1,4,0:0:0:0:
160,288,166341,1,4,0:0:0:0:
160,288,166499,1,4,0:0:0:0:
160,288,166972,1,4,0:0:0:0:
160,96,167446,1,0,0:0:0:0:
160,96,167604,1,0,0:0:0:0:
160,96,167762,1,0,0:0:0:0:
352,96,167920,1,8,0:0:0:0:
160,96,168393,1,0,0:0:0:0:
160,96,168551,1,0,0:0:0:0:
352,96,168709,1,8,0:0:0:0:
160,96,168867,1,0,0:0:0:0:
160,96,169341,1,0,0:0:0:0:
160,96,169499,1,0,0:0:0:0:
160,96,169657,1,0,0:0:0:0:
352,96,169814,1,8,0:0:0:0:
160,96,169972,1,0,0:0:0:0:
160,96,170051,1,0,0:0:0:0:
160,96,170130,1,0,0:0:0:0:
160,96,170288,1,0,0:0:0:0:
352,96,170446,1,8,0:0:0:0:
160,288,170762,1,4,0:0:0:0:
160,96,171236,1,0,0:0:0:0:
160,96,171393,1,0,0:0:0:0:
160,96,171551,1,0,0:0:0:0:
352,96,171709,1,8,0:0:0:0:
160,96,172183,1,0,0:0:0:0:
160,96,172341,1,0,0:0:0:0:
160,96,172499,1,0,0:0:0:0:
160,96,172657,1,0,0:0:0:0:
160,96,173130,1,0,0:0:0:0:
160,96,173288,1,0,0:0:0:0:
160,96,173446,1,0,0:0:0:0:
352,96,173604,1,8,0:0:0:0:
352,96,173683,1,8,0:0:0:0:
160,96,173762,1,0,0:0:0:0:
160,96,173841,1,0,0:0:0:0:
352,96,173920,1,8,0:0:0:0:
160,96,173999,1,0,0:0:0:0:
160,96,174078,1,0,0:0:0:0:
160,96,174157,1,0,0:0:0:0:
352,96,174236,1,8,0:0:0:0:
352,96,174314,1,8,0:0:0:0:
352,96,174393,1,8,0:0:0:0:
352,96,174472,1,8,0:0:0:0:
160,288,174551,1,4,0:0:0:0:
160,96,175025,1,0,0:0:0:0:
160,96,175183,1,0,0:0:0:0:
160,96,175341,1,0,0:0:0:0:
352,96,175499,1,8,0:0:0:0:
160,96,175972,1,0,0:0:0:0:
160,96,176130,1,0,0:0:0:0:
352,96,176288,1,8,0:0:0:0:
160,96,176446,1,0,0:0:0:0:
160,96,176920,1,0,0:0:0:0:
160,96,177078,1,0,0:0:0:0:
160,96,177236,1,0,0:0:0:0:
160,96,177314,1,0,0:0:0:0:
352,96,177393,1,8,0:0:0:0:
160,96,177551,1,0,0:0:0:0:
160,96,177709,1,0,0:0:0:0:
160,96,177867,1,0,0:0:0:0:
352,288,178025,1,12,0:0:0:0:
160,288,178341,1,4,0:0:0:0:
160,96,178814,1,0,0:0:0:0:
160,96,178972,1,0,0:0:0:0:
160,96,179130,1,0,0:0:0:0:
352,96,179288,1,8,0:0:0:0:
160,96,179762,1,0,0:0:0:0:
160,96,179920,1,0,0:0:0:0:
352,96,180078,1,8,0:0:0:0:
160,96,180236,1,0,0:0:0:0:
160,96,180709,1,0,0:0:0:0:
160,96,181025,1,0,0:0:0:0:
160,96,181104,1,0,0:0:0:0:
352,96,181183,1,8,0:0:0:0:
352,96,181341,1,8,0:0:0:0:
352,96,181499,1,8,0:0:0:0:
352,96,181657,1,8,0:0:0:0:
352,288,181814,1,12,0:0:0:0:
352,288,181972,1,12,0:0:0:0:
160,288,182130,1,4,0:0:0:0:
160,96,182604,1,0,0:0:0:0:
160,96,182683,1,0,0:0:0:0:
160,96,182762,1,0,0:0:0:0:
160,96,182920,1,0,0:0:0:0:
352,96,183078,1,8,0:0:0:0:
160,96,183551,1,0,0:0:0:0:
160,96,183630,1,0,0:0:0:0:
160,96,183709,1,0,0:0:0:0:
352,96,183867,1,8,0:0:0:0:
160,96,184025,1,0,0:0:0:0:
160,96,184499,1,0,0:0:0:0:
160,96,184578,1,0,0:0:0:0:
160,96,184657,1,0,0:0:0:0:
160,96,184814,1,0,0:0:0:0:
352,96,184972,1,8,0:0:0:0:
160,96,185130,1,0,0:0:0:0:
160,96,185209,1,0,0:0:0:0:
160,96,185288,1,0,0:0:0:0:
160,96,185446,1,0,0:0:0:0:
352,96,185604,1,8,0:0:0:0:
160,288,185920,1,4,0:0:0:0:
160,96,186393,1,0,0:0:0:0:
160,96,186472,1,0,0:0:0:0:
160,96,186551,1,0,0:0:0:0:
160,96,186709,1,0,0:0:0:0:
352,96,186867,1,8,0:0:0:0:
160,96,187341,1,0,0:0:0:0:
160,96,187420,1,0,0:0:0:0:
160,96,187499,1,0,0:0:0:0:
160,96,187657,1,0,0:0:0:0:
160,96,187814,1,0,0:0:0:0:
160,96,188288,1,0,0:0:0:0:
160,96,188604,1,0,0:0:0:0:
160,96,188683,1,0,0:0:0:0:
352,96,188762,1,8,0:0:0:0:
160,96,188920,1,0,0:0:0:0:
160,96,188999,1,0,0:0:0:0:
352,96,189078,1,8,0:0:0:0:
352,96,189157,1,8,0:0:0:0:
160,96,189236,1,0,0:0:0:0:
160,96,189314,1,0,0:0:0:0:
352,96,189393,1,8,0:0:0:0:
160,96,189472,1,0,0:0:0:0:
352,96,189551,1,8,0:0:0:0:
352,96,189630,1,8,0:0:0:0:
160,288,189709,1,4,0:0:0:0:
160,96,190183,1,0,0:0:0:0:
160,96,190341,1,0,0:0:0:0:
160,96,190420,1,0,0:0:0:0:
160,96,190499,1,0,0:0:0:0:
352,96,190657,1,8,0:0:0:0:
160,96,191130,1,0,0:0:0:0:
160,96,191288,1,0,0:0:0:0:
160,96,191367,1,0,0:0:0:0:
160,96,191446,1,0,0:0:0:0:
160,96,191604,1,0,0:0:0:0:
160,96,192078,1,0,0:0:0:0:
160,96,192236,1,0,0:0:0:0:
160,96,192314,1,0,0:0:0:0:
160,96,192393,1,0,0:0:0:0:
352,96,192551,1,8,0:0:0:0:
160,96,192709,1,0,0:0:0:0:
352,96,192867,1,8,0:0:0:0:
160,96,193025,1,0,0:0:0:0:
352,96,193183,1,8,0:0:0:0:
160,96,193341,1,0,0:0:0:0:
160,288,193499,1,4,0:0:0:0:
160,96,193972,1,0,0:0:0:0:
160,96,194130,1,0,0:0:0:0:
160,96,194288,1,0,0:0:0:0:
160,96,194367,1,0,0:0:0:0:
352,96,194446,1,8,0:0:0:0:
160,96,194920,1,0,0:0:0:0:
160,96,195078,1,0,0:0:0:0:
160,96,195236,1,0,0:0:0:0:
160,96,195314,1,0,0:0:0:0:
160,96,195393,1,0,0:0:0:0:
160,96,195867,1,0,0:0:0:0:
160,96,196025,1,0,0:0:0:0:
160,96,196183,1,0,0:0:0:0:
160,96,196262,1,0,0:0:0:0:
352,96,196341,1,8,0:0:0:0:
160,96,196499,1,0,0:0:0:0:
352,96,196657,1,8,0:0:0:0:
352,96,196814,1,8,0:0:0:0:
352,96,196972,1,8,0:0:0:0:
352,96,197130,1,8,0:0:0:0:
160,96,197288,1,0,0:0:0:0:
160,96,197446,1,0,0:0:0:0:
352,96,197604,1,8,0:0:0:0:
352,96,197920,1,8,0:0:0:0:
352,96,198236,1,8,0:0:0:0:
160,96,198393,1,0,0:0:0:0:
352,96,198551,1,8,0:0:0:0:
352,96,198867,1,8,0:0:0:0:
160,96,199183,1,0,0:0:0:0:
160,96,199341,1,0,0:0:0:0:
352,96,199499,1,8,0:0:0:0:
352,96,199814,1,8,0:0:0:0:
352,96,200130,1,8,0:0:0:0:
160,96,200209,1,0,0:0:0:0:
160,96,200288,1,0,0:0:0:0:
160,96,200367,1,0,0:0:0:0:
160,96,200446,1,0,0:0:0:0:
160,96,200525,1,0,0:0:0:0:
160,96,200604,1,0,0:0:0:0:
160,96,200683,1,0,0:0:0:0:
160,96,200762,1,0,0:0:0:0:
160,96,200841,1,0,0:0:0:0:
160,96,200920,1,0,0:0:0:0:
160,96,200999,1,0,0:0:0:0:
160,96,201078,1,0,0:0:0:0:
160,96,201236,1,0,0:0:0:0:
352,96,201393,1,8,0:0:0:0:
352,96,201709,1,8,0:0:0:0:
352,96,202025,1,8,0:0:0:0:
160,96,202183,1,0,0:0:0:0:
352,96,202341,1,8,0:0:0:0:
352,96,202657,1,8,0:0:0:0:
160,288,202972,1,4,0:0:0:0:
160,288,203130,1,4,0:0:0:0:
352,96,204551,1,8,0:0:0:0:
160,288,204867,1,4,0:0:0:0:
352,96,205183,1,8,0:0:0:0:
160,96,205341,1,0,0:0:0:0:
160,96,205657,1,0,0:0:0:0:
160,96,205736,1,0,0:0:0:0:
352,96,205814,1,8,0:0:0:0:
160,96,206130,1,0,0:0:0:0:
160,96,206209,1,0,0:0:0:0:
160,96,206288,1,0,0:0:0:0:
160,96,206367,1,0,0:0:0:0:
352,96,206446,1,8,0:0:0:0:
160,96,206762,1,0,0:0:0:0:
352,96,207078,1,8,0:0:0:0:
160,96,207236,1,0,0:0:0:0:
160,96,207551,1,0,0:0:0:0:
160,96,207630,1,0,0:0:0:0:
352,96,207709,1,8,0:0:0:0:
160,96,208025,1,0,0:0:0:0:
160,96,208104,1,0,0:0:0:0:
160,96,208183,1,0,0:0:0:0:
160,96,208262,1,0,0:0:0:0:
352,96,208341,1,8,0:0:0:0:
160,96,208499,1,0,0:0:0:0:
160,96,208657,1,0,0:0:0:0:
352,96,208972,1,8,0:0:0:0:
160,96,209130,1,0,0:0:0:0:
160,96,209446,1,0,0:0:0:0:
160,96,209525,1,0,0:0:0:0:
352,96,209604,1,8,0:0:0:0:
160,96,209920,1,0,0:0:0:0:
160,96,209999,1,0,0:0:0:0:
160,96,210078,1,0,0:0:0:0:
160,96,210157,1,0,0:0:0:0:
352,96,210236,1,8,0:0:0:0:
160,96,210551,1,0,0:0:0:0:
352,96,210867,1,8,0:0:0:0:
160,96,211025,1,0,0:0:0:0:
160,96,211341,1,0,0:0:0:0:
160,96,211420,1,0,0:0:0:0:
352,96,211499,1,8,0:0:0:0:
160,96,211814,1,0,0:0:0:0:
160,96,211893,1,0,0:0:0:0:
160,96,211972,1,0,0:0:0:0:
160,96,212051,1,0,0:0:0:0:
352,96,212130,1,8,0:0:0:0:
160,96,212288,1,0,0:0:0:0:
160,96,212367,1,0,0:0:0:0:
160,96,212446,1,0,0:0:0:0:
352,96,212762,1,8,0:0:0:0:
160,96,212920,1,0,0:0:0:0:
160,96,213236,1,0,0:0:0:0:
160,96,213314,1,0,0:0:0:0:
352,96,213393,1,8,0:0:0:0:
160,96,213709,1,0,0:0:0:0:
160,96,213788,1,0,0:0:0:0:
160,96,213867,1,0,0:0:0:0:
160,96,213946,1,0,0:0:0:0:
352,96,214025,1,8,0:0:0:0:
160,96,214341,1,0,0:0:0:0:
352,96,214657,1,8,0:0:0:0:
160,96,214814,1,0,0:0:0:0:
160,96,215130,1,0,0:0:0:0:
160,96,215209,1,0,0:0:0:0:
352,96,215288,1,8,0:0:0:0:
160,96,215604,1,0,0:0:0:0:
160,96,215683,1,0,0:0:0:0:
160,96,215762,1,0,0:0:0:0:
160,96,215841,1,0,0:0:0:0:
352,96,215920,1,8,0:0:0:0:
160,96,216078,1,0,0:0:0:0:
160,96,216236,1,0,0:0:0:0:
352,96,216551,1,8,0:0:0:0:
160,96,216709,1,0,0:0:0:0:
160,96,217025,1,0,0:0:0:0:
160,96,217104,1,0,0:0:0:0:
352,96,217183,1,8,0:0:0:0:
160,96,217499,1,0,0:0:0:0:
160,96,217578,1,0,0:0:0:0:
160,96,217657,1,0,0:0:0:0:
160,96,217736,1,0,0:0:0:0:
352,96,217814,1,8,0:0:0:0:
160,96,218130,1,0,0:0:0:0:
352,96,218446,1,8,0:0:0:0:
160,96,218604,1,0,0:0:0:0:
160,96,218920,1,0,0:0:0:0:
160,96,218999,1,0,0:0:0:0:
352,96,219078,1,8,0:0:0:0:
160,96,219393,1,0,0:0:0:0:
160,96,219472,1,0,0:0:0:0:
160,96,219551,1,0,0:0:0:0:
160,96,219630,1,0,0:0:0:0:
352,96,219709,1,8,0:0:0:0:
160,96,219788,1,0,0:0:0:0:
160,96,219867,1,0,0:0:0:0:
160,288,220025,1,4,0:0:0:0:
352,96,220341,1,8,0:0:0:0:
160,96,220420,1,0,0:0:0:0:
160,96,220499,1,0,0:0:0:0:
160,96,220814,1,0,0:0:0:0:
160,96,220893,1,0,0:0:0:0:
352,96,220972,1,8,0:0:0:0:
160,96,221288,1,0,0:0:0:0:
160,96,221367,1,0,0:0:0:0:
160,96,221446,1,0,0:0:0:0:
160,96,221525,1,0,0:0:0:0:
352,96,221604,1,8,0:0:0:0:
160,96,221920,1,0,0:0:0:0:
352,96,222236,1,8,0:0:0:0:
160,96,222314,1,0,0:0:0:0:
160,96,222393,1,0,0:0:0:0:
160,96,222709,1,0,0:0:0:0:
160,96,222788,1,0,0:0:0:0:
352,96,222867,1,8,0:0:0:0:
160,96,223183,1,0,0:0:0:0:
160,96,223262,1,0,0:0:0:0:
160,96,223341,1,0,0:0:0:0:
160,96,223420,1,0,0:0:0:0:
352,96,223499,1,8,0:0:0:0:
160,96,223578,1,0,0:0:0:0:
160,96,223657,1,0,0:0:0:0:
160,96,223736,1,0,0:0:0:0:
160,96,223814,1,0,0:0:0:0:
352,96,224130,1,8,0:0:0:0:
160,96,224209,1,0,0:0:0:0:
160,96,224288,1,0,0:0:0:0:
160,96,224604,1,0,0:0:0:0:
160,96,224683,1,0,0:0:0:0:
352,96,224762,1,8,0:0:0:0:
160,96,225078,1,0,0:0:0:0:
160,96,225157,1,0,0:0:0:0:
160,96,225236,1,0,0:0:0:0:
160,96,225314,1,0,0:0:0:0:
352,96,225393,1,8,0:0:0:0:
160,96,225709,1,0,0:0:0:0:
352,96,226025,1,8,0:0:0:0:
160,96,226104,1,0,0:0:0:0:
160,96,226183,1,0,0:0:0:0:
160,96,226499,1,0,0:0:0:0:
160,96,226578,1,0,0:0:0:0:
352,96,226657,1,8,0:0:0:0:
160,96,226972,1,0,0:0:0:0:
160,96,227051,1,0,0:0:0:0:
160,96,227130,1,0,0:0:0:0:
160,96,227209,1,0,0:0:0:0:
352,96,227288,1,8,0:0:0:0:
352,96,227367,1,8,0:0:0:0:
160,96,227446,1,0,0:0:0:0:
160,96,227525,1,0,0:0:0:0:
160,96,227604,1,0,0:0:0:0:
352,96,227920,1,8,0:0:0:0:
160,96,227999,1,0,0:0:0:0:
160,96,228078,1,0,0:0:0:0:
160,96,228393,1,0,0:0:0:0:
160,96,228472,1,0,0:0:0:0:
352,96,228551,1,8,0:0:0:0:
160,96,228867,1,0,0:0:0:0:
160,96,228946,1,0,0:0:0:0:
160,96,229025,1,0,0:0:0:0:
160,96,229104,1,0,0:0:0:0:
352,96,229183,1,8,0:0:0:0:
160,96,229341,1,0,0:0:0:0:
160,96,229499,1,0,0:0:0:0:
352,96,229814,1,8,0:0:0:0:
160,96,229893,1,0,0:0:0:0:
160,96,229972,1,0,0:0:0:0:
160,96,230288,1,0,0:0:0:0:
160,96,230367,1,0,0:0:0:0:
352,96,230446,1,8,0:0:0:0:
160,96,230762,1,0,0:0:0:0:
160,96,230841,1,0,0:0:0:0:
160,96,230920,1,0,0:0:0:0:
160,96,230999,1,0,0:0:0:0:
352,96,231078,1,8,0:0:0:0:
160,96,231157,1,0,0:0:0:0:
160,96,231236,1,0,0:0:0:0:
160,96,231314,1,0,0:0:0:0:
160,96,231393,1,0,0:0:0:0:
352,96,231709,1,8,0:0:0:0:
160,96,231788,1,0,0:0:0:0:
160,96,231867,1,0,0:0:0:0:
160,96,232183,1,0,0:0:0:0:
160,96,232262,1,0,0:0:0:0:
352,96,232341,1,8,0:0:0:0:
160,96,232657,1,0,0:0:0:0:
160,96,232736,1,0,0:0:0:0:
160,96,232814,1,0,0:0:0:0:
160,96,232893,1,0,0:0:0:0:
352,96,232972,1,8,0:0:0:0:
160,96,233130,1,0,0:0:0:0:
160,96,233288,1,0,0:0:0:0:
352,96,233604,1,8,0:0:0:0:
160,96,233683,1,0,0:0:0:0:
160,96,233762,1,0,0:0:0:0:
160,96,234078,1,0,0:0:0:0:
160,288,234236,1,4,0:0:0:0:
160,288,234393,1,4,0:0:0:0:
160,288,234551,1,4,0:0:0:0:
160,288,234709,1,4,0:0:0:0:
160,288,234867,1,4,0:0:0:0:
160,288,235025,1,4,0:0:0:0:
352,288,235183,1,12,0:0:0:0:
160,96,235499,1,0,0:0:0:0:
160,96,235657,1,0,0:0:0:0:
160,96,235814,1,0,0:0:0:0:
160,96,235972,1,0,0:0:0:0:
352,96,236130,1,8,0:0:0:0:
160,96,236446,1,0,0:0:0:0:
160,96,236604,1,0,0:0:0:0:
160,96,236762,1,0,0:0:0:0:
160,96,236920,1,0,0:0:0:0:
160,96,237078,1,0,0:0:0:0:
160,96,237393,1,0,0:0:0:0:
160,96,237551,1,0,0:0:0:0:
160,96,237709,1,0,0:0:0:0:
160,96,237867,1,0,0:0:0:0:
352,96,238025,1,8,0:0:0:0:
160,96,238499,1,0,0:0:0:0:
352,96,238657,1,8,0:0:0:0:
160,288,238972,1,4,0:0:0:0:
160,96,239288,1,0,0:0:0:0:
160,96,239446,1,0,0:0:0:0:
160,96,239604,1,0,0:0:0:0:
160,96,239762,1,0,0:0:0:0:
352,96,239920,1,8,0:0:0:0:
160,96,240236,1,0,0:0:0:0:
160,96,240393,1,0,0:0:0:0:
160,96,240551,1,0,0:0:0:0:
160,96,240709,1,0,0:0:0:0:
160,96,240867,1,0,0:0:0:0:
160,96,241183,1,0,0:0:0:0:
160,96,241341,1,0,0:0:0:0:
160,96,241499,1,0,0:0:0:0:
160,96,241657,1,0,0:0:0:0:
352,288,241814,1,12,0:0:0:0:
160,96,241972,1,0,0:0:0:0:
160,96,242051,1,0,0:0:0:0:
352,96,242130,1,8,0:0:0:0:
352,96,242209,1,8,0:0:0:0:
160,96,242288,1,0,0:0:0:0:
160,96,242367,1,0,0:0:0:0:
352,96,242446,1,8,0:0:0:0:
352,96,242525,1,8,0:0:0:0:
352,96,242604,1,8,0:0:0:0:
352,96,242683,1,8,0:0:0:0:
160,288,242762,1,4,0:0:0:0:
160,96,242920,1,0,0:0:0:0:
160,96,242999,1,0,0:0:0:0:
352,96,243078,1,8,0:0:0:0:
160,96,243157,1,0,0:0:0:0:
160,96,243236,1,0,0:0:0:0:
160,96,243314,1,0,0:0:0:0:
352,96,243393,1,8,0:0:0:0:
160,96,243472,1,0,0:0:0:0:
160,96,243551,1,0,0:0:0:0:
160,96,243630,1,0,0:0:0:0:
352,96,243709,1,8,0:0:0:0:
160,96,243788,1,0,0:0:0:0:
160,96,243867,1,0,0:0:0:0:
160,96,243946,1,0,0:0:0:0:
352,96,244025,1,8,0:0:0:0:
160,96,244104,1,0,0:0:0:0:
160,96,244183,1,0,0:0:0:0:
160,96,244262,1,0,0:0:0:0:
352,96,244341,1,8,0:0:0:0:
352,96,244420,1,8,0:0:0:0:
160,96,244499,1,0,0:0:0:0:
160,96,244578,1,0,0:0:0:0:
352,96,244657,1,8,0:0:0:0:
160,96,244736,1,0,0:0:0:0:
160,96,244814,1,0,0:0:0:0:
160,96,244893,1,0,0:0:0:0:
352,96,244972,1,8,0:0:0:0:
160,96,245051,1,0,0:0:0:0:
160,96,245130,1,0,0:0:0:0:
160,96,245209,1,0,0:0:0:0:
352,96,245288,1,8,0:0:0:0:
160,96,245367,1,0,0:0:0:0:
160,96,245446,1,0,0:0:0:0:
160,96,245525,1,0,0:0:0:0:
352,96,245604,1,8,0:0:0:0:
160,96,245683,1,0,0:0:0:0:
160,96,245762,1,0,0:0:0:0:
160,96,245841,1,0,0:0:0:0:
352,96,245920,1,8,0:0:0:0:
160,96,245999,1,0,0:0:0:0:
160,96,246078,1,0,0:0:0:0:
160,96,246157,1,0,0:0:0:0:
352,96,246236,1,8,0:0:0:0:
352,96,246314,1,8,0:0:0:0:
352,96,246393,1,8,0:0:0:0:
160,96,246472,1,0,0:0:0:0:
352,96,246551,1,8,0:0:0:0:
160,96,246630,1,0,0:0:0:0:
160,96,246709,1,0,0:0:0:0:
160,96,246788,1,0,0:0:0:0:
352,96,246867,1,8,0:0:0:0:
160,96,246946,1,0,0:0:0:0:
160,96,247025,1,0,0:0:0:0:
160,96,247104,1,0,0:0:0:0:
352,96,247183,1,8,0:0:0:0:
160,96,247262,1,0,0:0:0:0:
160,96,247341,1,0,0:0:0:0:
160,96,247420,1,0,0:0:0:0:
352,96,247499,1,8,0:0:0:0:
160,96,247578,1,0,0:0:0:0:
160,96,247657,1,0,0:0:0:0:
160,96,247736,1,0,0:0:0:0:
352,96,247814,1,8,0:0:0:0:
352,96,247893,1,8,0:0:0:0:
160,96,247972,1,0,0:0:0:0:
160,96,248051,1,0,0:0:0:0:
352,96,248130,1,8,0:0:0:0:
160,96,248209,1,0,0:0:0:0:
160,96,248288,1,0,0:0:0:0:
160,288,248446,1,4,0:0:0:0:
160,288,248604,1,4,0:0:0:0:
160,288,248762,1,4,0:0:0:0:
160,288,248920,1,4,0:0:0:0:
160,288,249393,1,4,0:0:0:0:
160,288,249551,1,4,0:0:0:0:
160,288,249709,1,4,0:0:0:0:
160,288,249867,1,4,0:0:0:0:
160,288,250341,1,4,0:0:0:0:
160,96,250814,1,0,0:0:0:0:
160,96,250972,1,0,0:0:0:0:
160,96,251130,1,0,0:0:0:0:
352,96,251288,1,8,0:0:0:0:
160,96,251762,1,0,0:0:0:0:
160,96,251920,1,0,0:0:0:0:
352,96,252078,1,8,0:0:0:0:
160,96,252236,1,0,0:0:0:0:
160,96,252709,1,0,0:0:0:0:
160,96,252867,1,0,0:0:0:0:
160,96,253025,1,0,0:0:0:0:
352,96,253183,1,8,0:0:0:0:
160,96,253341,1,0,0:0:0:0:
160,96,253420,1,0,0:0:0:0:
160,96,253499,1,0,0:0:0:0:
160,96,253657,1,0,0:0:0:0:
352,96,253814,1,8,0:0:0:0:
160,288,254130,1,4,0:0:0:0:
160,96,254604,1,0,0:0:0:0:
160,96,254762,1,0,0:0:0:0:
160,96,254920,1,0,0:0:0:0:
352,96,255078,1,8,0:0:0:0:
160,96,255551,1,0,0:0:0:0:
160,96,255709,1,0,0:0:0:0:
352,96,255867,1,8,0:0:0:0:
160,96,256025,1,0,0:0:0:0:
160,96,256499,1,0,0:0:0:0:
160,96,256657,1,0,0:0:0:0:
160,96,256814,1,0,0:0:0:0:
352,96,256972,1,8,0:0:0:0:
352,96,257051,1,8,0:0:0:0:
160,96,257130,1,0,0:0:0:0:
160,96,257209,1,0,0:0:0:0:
352,96,257288,1,8,0:0:0:0:
160,96,257367,1,0,0:0:0:0:
160,96,257446,1,0,0:0:0:0:
160,96,257525,1,0,0:0:0:0:
352,96,257604,1,8,0:0:0:0:
352,96,257683,1,8,0:0:0:0:
352,96,257762,1,8,0:0:0:0:
352,96,257841,1,8,0:0:0:0:
160,288,257920,1,4,0:0:0:0:
160,96,258393,1,0,0:0:0:0:
160,96,258551,1,0,0:0:0:0:
160,96,258709,1,0,0:0:0:0:
352,96,258867,1,8,0:0:0:0:
160,96,259341,1,0,0:0:0:0:
160,96,259499,1,0,0:0:0:0:
352,96,259657,1,8,0:0:0:0:
160,96,259814,1,0,0:0:0:0:
160,96,260288,1,0,0:0:0:0:
160,96,260446,1,0,0:0:0:0:
160,96,260604,1,0,0:0:0:0:
160,96,260683,1,0,0:0:0:0:
352,96,260762,1,8,0:0:0:0:
160,96,260920,1,0,0:0:0:0:
352,96,261078,1,8,0:0:0:0:
160,96,261236,1,0,0:0:0:0:
352,288,261393,1,12,0:0:0:0:
160,96,261551,1,0,0:0:0:0:
160,288,261709,1,4,0:0:0:0:
160,96,262183,1,0,0:0:0:0:
160,96,262341,1,0,0:0:0:0:
160,96,262499,1,0,0:0:0:0:
352,96,262657,1,8,0:0:0:0:
160,96,263130,1,0,0:0:0:0:
160,96,263446,1,0,0:0:0:0:
352,288,263604,1,12,0:0:0:0:
160,96,263762,1,0,0:0:0:0:
160,96,263841,1,0,0:0:0:0:
352,96,263920,1,8,0:0:0:0:
352,96,263999,1,8,0:0:0:0:
352,96,264078,1,8,0:0:0:0:
352,96,264157,1,8,0:0:0:0:
160,96,264236,1,0,0:0:0:0:
160,96,264314,1,0,0:0:0:0:
352,96,264393,1,8,0:0:0:0:
160,96,264472,1,0,0:0:0:0:
352,96,264551,1,8,0:0:0:0:
352,96,264630,1,8,0:0:0:0:
160,96,264709,1,0,0:0:0:0:
160,96,264788,1,0,0:0:0:0:
352,96,264867,1,8,0:0:0:0:
160,96,265025,1,0,0:0:0:0:
352,288,265183,1,12,0:0:0:0:
352,288,265341,1,12,0:0:0:0:
160,288,265499,1,4,0:0:0:0:
160,96,265972,1,0,0:0:0:0:
160,96,266051,1,0,0:0:0:0:
160,96,266130,1,0,0:0:0:0:
160,96,266288,1,0,0:0:0:0:
352,96,266446,1,8,0:0:0:0:
160,96,266920,1,0,0:0:0:0:
160,96,266999,1,0,0:0:0:0:
160,96,267078,1,0,0:0:0:0:
352,96,267236,1,8,0:0:0:0:
160,96,267393,1,0,0:0:0:0:
160,96,267867,1,0,0:0:0:0:
160,96,267946,1,0,0:0:0:0:
160,96,268025,1,0,0:0:0:0:
160,96,268183,1,0,0:0:0:0:
352,96,268341,1,8,0:0:0:0:
160,96,268499,1,0,0:0:0:0:
160,96,268578,1,0,0:0:0:0:
160,96,268657,1,0,0:0:0:0:
160,96,268814,1,0,0:0:0:0:
352,96,268972,1,8,0:0:0:0:
160,288,269288,1,4,0:0:0:0:
160,96,269762,1,0,0:0:0:0:
160,96,269841,1,0,0:0:0:0:
160,96,269920,1,0,0:0:0:0:
160,96,270078,1,0,0:0:0:0:
352,96,270236,1,8,0:0:0:0:
160,96,270709,1,0,0:0:0:0:
160,96,270788,1,0,0:0:0:0:
160,96,270867,1,0,0:0:0:0:
160,96,271025,1,0,0:0:0:0:
160,96,271183,1,0,0:0:0:0:
160,96,271657,1,0,0:0:0:0:
160,96,271972,1,0,0:0:0:0:
160,96,272051,1,0,0:0:0:0:
352,96,272130,1,8,0:0:0:0:
160,96,272288,1,0,0:0:0:0:
352,96,272446,1,8,0:0:0:0:
160,96,272604,1,0,0:0:0:0:
352,96,272762,1,8,0:0:0:0:
160,96,272920,1,0,0:0:0:0:
160,288,273078,1,4,0:0:0:0:
160,96,273551,1,0,0:0:0:0:
160,96,273709,1,0,0:0:0:0:
160,96,273788,1,0,0:0:0:0:
160,96,273867,1,0,0:0:0:0:
352,96,274025,1,8,0:0:0:0:
160,96,274499,1,0,0:0:0:0:
160,96,274657,1,0,0:0:0:0:
160,96,274736,1,0,0:0:0:0:
160,96,274814,1,0,0:0:0:0:
160,96,274972,1,0,0:0:0:0:
160,96,275446,1,0,0:0:0:0:
160,96,275604,1,0,0:0:0:0:
160,96,275683,1,0,0:0:0:0:
160,96,275762,1,0,0:0:0:0:
352,96,275920,1,8,0:0:0:0:
160,96,276236,1,0,0:0:0:0:
160,96,276314,1,0,0:0:0:0:
160,96,276393,1,0,0:0:0:0:
160,96,276472,1,0,0:0:0:0:
352,96,276551,1,8,0:0:0:0:
352,96,276630,1,8,0:0:0:0:
352,96,276709,1,8,0:0:0:0:
352,96,276788,1,8,0:0:0:0:
160,288,276867,1,4,0:0:0:0:
160,96,277341,1,0,0:0:0:0:
160,96,277499,1,0,0:0:0:0:
160,96,277657,1,0,0:0:0:0:
160,96,277736,1,0,0:0:0:0:
352,96,277814,1,8,0:0:0:0:
160,96,278288,1,0,0:0:0:0:
160,96,278604,1,0,0:0:0:0:
352,288,278762,1,12,0:0:0:0:
160,96,278920,1,0,0:0:0:0:
160,96,278999,1,0,0:0:0:0:
352,96,279078,1,8,0:0:0:0:
160,96,279157,1,0,0:0:0:0:
160,96,279236,1,0,0:0:0:0:
160,96,279314,1,0,0:0:0:0:
352,96,279393,1,8,0:0:0:0:
352,96,279472,1,8,0:0:0:0:
160,96,279551,1,0,0:0:0:0:
160,96,279630,1,0,0:0:0:0:
352,96,279709,1,8,0:0:0:0:
352,96,279788,1,8,0:0:0:0:
160,96,279867,1,0,0:0:0:0:
160,96,279946,1,0,0:0:0:0:
352,96,280025,1,8,0:0:0:0:
160,96,280104,1,0,0:0:0:0:
160,96,280183,1,0,0:0:0:0:
160,96,280262,1,0,0:0:0:0:
352,288,280341,1,12,0:0:0:0:
352,288,280499,1,12,0:0:0:0:
160,288,280657,1,4,0:0:0:0:
160,96,281130,1,0,0:0:0:0:
160,96,281209,1,0,0:0:0:0:
160,96,281288,1,0,0:0:0:0:
160,96,281446,1,0,0:0:0:0:
352,96,281604,1,8,0:0:0:0:
160,96,282078,1,0,0:0:0:0:
160,96,282157,1,0,0:0:0:0:
160,96,282236,1,0,0:0:0:0:
160,96,282393,1,0,0:0:0:0:
352,288,282551,1,12,0:0:0:0:
160,96,282709,1,0,0:0:0:0:
352,96,282867,1,8,0:0:0:0:
352,96,283025,1,8,0:0:0:0:
352,96,283183,1,8,0:0:0:0:
352,96,283341,1,8,0:0:0:0:
352,96,283499,1,8,0:0:0:0:
352,96,283657,1,8,0:0:0:0:
352,96,283814,1,8,0:0:0:0:
352,96,283972,1,8,0:0:0:0:
352,96,284130,1,8,0:0:0:0:
352,96,284170,1,8,0:0:0:0:
160,288,284446,1,4,0:0:0:0:
160,96,284761,1,0,0:0:0:0:
352,96,285077,1,8,0:0:0:0:
160,96,285235,1,0,0:0:0:0:
160,96,285551,1,0,0:0:0:0:
160,96,285709,1,0,0:0:0:0:
160,96,286024,1,0,0:0:0:0:
352,96,286340,1,8,0:0:0:0:
160,96,286498,1,0,0:0:0:0:
160,96,286972,1,0,0:0:0:0:
160,96,287288,1,0,0:0:0:0:
352,96,287603,1,8,0:0:0:0:
160,96,287761,1,0,0:0:0:0:
160,96,288235,1,0,0:0:0:0:
160,96,288551,1,0,0:0:0:0:
352,96,288867,1,8,0:0:0:0:
352,96,289024,1,8,0:0:0:0:
352,96,289182,1,8,0:0:0:0:
352,96,289340,1,8,0:0:0:0:
160,288,289498,1,4,0:0:0:0:
160,96,289814,1,0,0:0:0:0:
352,96,290130,1,8,0:0:0:0:
160,96,290288,1,0,0:0:0:0:
160,96,290603,1,0,0:0:0:0:
160,96,290761,1,0,0:0:0:0:
160,96,291077,1,0,0:0:0:0:
352,96,291393,1,8,0:0:0:0:
160,96,291551,1,0,0:0:0:0:
160,96,291867,1,0,0:0:0:0:
160,96,292024,1,0,0:0:0:0:
160,96,292340,1,0,0:0:0:0:
352,96,292656,1,8,0:0:0:0:
160,96,292814,1,0,0:0:0:0:
160,96,293130,1,0,0:0:0:0:
160,96,293288,1,0,0:0:0:0:
160,96,293603,1,0,0:0:0:0:
160,96,293761,1,0,0:0:0:0:
352,96,293919,1,8,0:0:0:0:
160,96,294077,1,0,0:0:0:0:
160,96,294235,1,0,0:0:0:0:
352,96,294393,1,8,0:0:0:0:
160,288,294551,1,4,0:0:0:0:
160,96,294867,1,0,0:0:0:0:
352,96,295182,1,8,0:0:0:0:
160,96,295340,1,0,0:0:0:0:
160,96,295656,1,0,0:0:0:0:
160,96,295814,1,0,0:0:0:0:
160,96,296130,1,0,0:0:0:0:
352,96,296446,1,8,0:0:0:0:
160,96,296603,1,0,0:0:0:0:
352,96,296919,1,8,0:0:0:0:
160,96,297077,1,0,0:0:0:0:
160,96,297393,1,0,0:0:0:0:
352,96,297709,1,8,0:0:0:0:
160,96,297867,1,0,0:0:0:0:
352,288,298340,1,12,0:0:0:0:
160,96,298498,1,0,0:0:0:0:
160,96,298577,1,0,0:0:0:0:
160,96,298656,1,0,0:0:0:0:
352,96,298814,1,8,0:0:0:0:
352,96,298972,1,8,0:0:0:0:
160,96,299130,1,0,0:0:0:0:
160,96,299288,1,0,0:0:0:0:
160,96,299446,1,0,0:0:0:0:
160,288,299603,1,4,0:0:0:0:
352,96,304024,1,8,0:0:0:0:
352,96,304064,1,8,0:0:0:0:
160,96,304287,1,0,0:0:0:0:
160,96,304340,1,0,0:0:0:0:
160,288,304656,1,4,0:0:0:0:
352,96,305919,1,8,0:0:0:0:
352,96,306077,1,8,0:0:0:0:
352,96,306235,1,8,0:0:0:0:
352,96,306393,1,8,0:0:0:0:
352,96,306551,1,8,0:0:0:0:
352,96,306709,1,8,0:0:0:0:
352,96,306867,1,8,0:0:0:0:
352,96,307024,1,8,0:0:0:0:
352,96,307182,1,8,0:0:0:0:
160,96,307261,1,0,0:0:0:0:
160,96,307340,1,0,0:0:0:0:
160,96,307419,1,0,0:0:0:0:
352,96,307498,1,8,0:0:0:0:
160,96,307577,1,0,0:0:0:0:
352,96,307656,1,8,0:0:0:0:
352,96,307735,1,8,0:0:0:0:
160,96,307814,1,0,0:0:0:0:
160,96,307893,1,0,0:0:0:0:
352,96,307972,1,8,0:0:0:0:
160,96,308051,1,0,0:0:0:0:
160,96,308130,1,0,0:0:0:0:
160,96,308209,1,0,0:0:0:0:
352,96,308288,1,8,0:0:0:0:
160,96,308367,1,0,0:0:0:0:
352,96,308446,1,8,0:0:0:0:
352,96,308524,1,8,0:0:0:0:
160,96,308603,1,0,0:0:0:0:
160,96,308682,1,0,0:0:0:0:
352,96,308761,1,8,0:0:0:0:
160,96,308840,1,0,0:0:0:0:
160,96,308919,1,0,0:0:0:0:
160,96,308998,1,0,0:0:0:0:
352,96,309077,1,8,0:0:0:0:
352,96,309156,1,8,0:0:0:0:
352,96,309235,1,8,0:0:0:0:
352,96,309314,1,8,0:0:0:0:
352,96,309393,1,8,0:0:0:0:
352,96,309472,1,8,0:0:0:0:
352,96,309551,1,8,0:0:0:0:
352,96,309630,1,8,0:0:0:0:
160,288,309709,1,4,0:0:0:0:
352,96,309867,1,8,0:0:0:0:
160,96,310024,1,0,0:0:0:0:
160,96,310103,1,0,0:0:0:0:
352,96,310182,1,8,0:0:0:0:
160,96,310340,1,0,0:0:0:0:
352,96,310498,1,8,0:0:0:0:
160,96,310656,1,0,0:0:0:0:
160,96,310735,1,0,0:0:0:0:
352,96,310814,1,8,0:0:0:0:
160,96,310972,1,0,0:0:0:0:
352,96,311130,1,8,0:0:0:0:
160,96,311288,1,0,0:0:0:0:
160,96,311367,1,0,0:0:0:0:
352,96,311446,1,8,0:0:0:0:
160,96,311603,1,0,0:0:0:0:
352,96,311761,1,8,0:0:0:0:
160,96,311840,1,0,0:0:0:0:
160,96,311919,1,0,0:0:0:0:
160,96,311998,1,0,0:0:0:0:
352,96,312077,1,8,0:0:0:0:
160,96,312235,1,0,0:0:0:0:
352,96,312393,1,8,0:0:0:0:
160,96,312551,1,0,0:0:0:0:
160,96,312630,1,0,0:0:0:0:
352,96,312709,1,8,0:0:0:0:
160,96,312867,1,0,0:0:0:0:
352,96,313024,1,8,0:0:0:0:
160,96,313182,1,0,0:0:0:0:
160,96,313261,1,0,0:0:0:0:
352,96,313340,1,8,0:0:0:0:
352,96,313419,1,8,0:0:0:0:
160,96,313498,1,0,0:0:0:0:
352,96,313656,1,8,0:0:0:0:
160,96,313814,1,0,0:0:0:0:
160,96,313893,1,0,0:0:0:0:
352,96,313972,1,8,0:0:0:0:
160,96,314130,1,0,0:0:0:0:
352,96,314288,1,8,0:0:0:0:
160,96,314446,1,0,0:0:0:0:
160,96,314524,1,0,0:0:0:0:
352,96,314603,1,8,0:0:0:0:
160,288,314761,1,4,0:0:0:0:
352,96,314919,1,8,0:0:0:0:
160,96,315077,1,0,0:0:0:0:
160,96,315156,1,0,0:0:0:0:
352,96,315235,1,8,0:0:0:0:
160,96,315393,1,0,0:0:0:0:
352,96,315551,1,8,0:0:0:0:
160,96,315630,1,0,0:0:0:0:
160,96,315709,1,0,0:0:0:0:
160,96,315788,1,0,0:0:0:0:
352,96,315867,1,8,0:0:0:0:
160,96,316024,1,0,0:0:0:0:
352,96,316182,1,8,0:0:0:0:
160,96,316340,1,0,0:0:0:0:
160,96,316419,1,0,0:0:0:0:
352,96,316498,1,8,0:0:0:0:
160,96,316656,1,0,0:0:0:0:
352,96,316814,1,8,0:0:0:0:
352,96,316893,1,8,0:0:0:0:
160,96,316972,1,0,0:0:0:0:
160,96,317051,1,0,0:0:0:0:
352,96,317130,1,8,0:0:0:0:
160,96,317288,1,0,0:0:0:0:
352,96,317446,1,8,0:0:0:0:
160,96,317603,1,0,0:0:0:0:
160,96,317682,1,0,0:0:0:0:
352,96,317761,1,8,0:0:0:0:
160,96,317840,1,0,0:0:0:0:
160,96,317919,1,0,0:0:0:0:
352,96,318077,1,8,0:0:0:0:
160,96,318235,1,0,0:0:0:0:
160,96,318314,1,0,0:0:0:0:
352,96,318393,1,8,0:0:0:0:
160,96,318551,1,0,0:0:0:0:
160,96,318630,1,0,0:0:0:0:
352,96,318709,1,8,0:0:0:0:
160,96,318867,1,0,0:0:0:0:
160,96,318946,1,0,0:0:0:0:
352,96,319024,1,8,0:0:0:0:
160,96,319182,1,0,0:0:0:0:
160,96,319261,1,0,0:0:0:0:
352,96,319340,1,8,0:0:0:0:
352,96,319419,1,8,0:0:0:0:
160,96,319498,1,0,0:0:0:0:
160,96,319577,1,0,0:0:0:0:
352,96,319656,1,8,0:0:0:0:
160,288,319814,1,4,0:0:0:0:
352,96,319972,1,8,0:0:0:0:
160,96,320130,1,0,0:0:0:0:
160,96,320209,1,0,0:0:0:0:
352,96,320288,1,8,0:0:0:0:
352,96,320446,1,8,0:0:0:0:
352,96,320524,1,8,0:0:0:0:
160,96,320603,1,0,0:0:0:0:
352,96,320682,1,8,0:0:0:0:
160,96,320761,1,0,0:0:0:0:
160,96,320840,1,0,0:0:0:0:
352,96,320919,1,8,0:0:0:0:
160,96,320998,1,0,0:0:0:0:
352,96,321077,1,8,0:0:0:0:
352,96,321235,1,8,0:0:0:0:
160,96,321393,1,0,0:0:0:0:
160,96,321472,1,0,0:0:0:0:
352,96,321551,1,8,0:0:0:0:
352,96,321709,1,8,0:0:0:0:
352,96,321788,1,8,0:0:0:0:
160,96,321867,1,0,0:0:0:0:
160,96,321946,1,0,0:0:0:0:
160,96,322024,1,0,0:0:0:0:
160,96,322103,1,0,0:0:0:0:
352,96,322182,1,8,0:0:0:0:
352,96,322261,1,8,0:0:0:0:
352,96,322340,1,8,0:0:0:0:
352,96,322498,1,8,0:0:0:0:
160,96,322656,1,0,0:0:0:0:
160,96,322735,1,0,0:0:0:0:
352,96,322814,1,8,0:0:0:0:
160,96,322972,1,0,0:0:0:0:
160,96,323051,1,0,0:0:0:0:
352,96,323130,1,8,0:0:0:0:
160,96,323209,1,0,0:0:0:0:
352,96,323288,1,8,0:0:0:0:
160,96,323367,1,0,0:0:0:0:
160,96,323446,1,0,0:0:0:0:
352,96,323524,1,8,0:0:0:0:
352,96,323603,1,8,0:0:0:0:
352,96,323682,1,8,0:0:0:0:
160,96,323761,1,0,0:0:0:0:
160,96,323840,1,0,0:0:0:0:
352,96,323919,1,8,0:0:0:0:
160,96,323998,1,0,0:0:0:0:
352,96,324077,1,8,0:0:0:0:
160,96,324156,1,0,0:0:0:0:
352,96,324235,1,8,0:0:0:0:
352,96,324314,1,8,0:0:0:0:
160,96,324393,1,0,0:0:0:0:
352,96,324472,1,8,0:0:0:0:
352,96,324551,1,8,0:0:0:0:
160,96,324630,1,0,0:0:0:0:
352,96,324709,1,8,0:0:0:0:
160,96,324788,1,0,0:0:0:0:
352,96,324867,1,8,0:0:0:0:
352,96,325024,1,8,0:0:0:0:
160,96,325182,1,0,0:0:0:0:
160,96,325261,1,0,0:0:0:0:
352,96,325340,1,8,0:0:0:0:
352,96,325498,1,8,0:0:0:0:
352,96,325577,1,8,0:0:0:0:
160,96,325656,1,0,0:0:0:0:
352,96,325735,1,8,0:0:0:0:
160,96,325814,1,0,0:0:0:0:
160,96,325893,1,0,0:0:0:0:
352,96,325972,1,8,0:0:0:0:
160,96,326051,1,0,0:0:0:0:
352,96,326130,1,8,0:0:0:0:
352,96,326288,1,8,0:0:0:0:
160,96,326446,1,0,0:0:0:0:
160,96,326524,1,0,0:0:0:0:
352,96,326603,1,8,0:0:0:0:
352,96,326761,1,8,0:0:0:0:
160,96,326840,1,0,0:0:0:0:
160,96,326919,1,0,0:0:0:0:
352,96,326998,1,8,0:0:0:0:
352,96,327077,1,8,0:0:0:0:
160,96,327156,1,0,0:0:0:0:
352,96,327235,1,8,0:0:0:0:
160,96,327393,1,0,0:0:0:0:
352,96,327551,1,8,0:0:0:0:
160,96,327709,1,0,0:0:0:0:
160,96,327788,1,0,0:0:0:0:
352,96,327867,1,8,0:0:0:0:
160,96,328024,1,0,0:0:0:0:
160,96,328103,1,0,0:0:0:0:
352,96,328182,1,8,0:0:0:0:
352,96,328261,1,8,0:0:0:0:
160,96,328340,1,0,0:0:0:0:
160,96,328419,1,0,0:0:0:0:
352,96,328498,1,8,0:0:0:0:
160,96,328577,1,0,0:0:0:0:
352,96,328656,1,8,0:0:0:0:
352,96,328709,1,8,0:0:0:0:
352,96,328761,1,8,0:0:0:0:
160,96,328814,1,0,0:0:0:0:
160,96,328867,1,0,0:0:0:0:
160,96,328919,1,0,0:0:0:0:
352,96,328972,1,8,0:0:0:0:
352,96,329051,1,8,0:0:0:0:
160,96,329130,1,0,0:0:0:0:
160,96,329182,1,0,0:0:0:0:
160,96,329235,1,0,0:0:0:0:
352,96,329288,1,8,0:0:0:0:
352,96,329340,1,8,0:0:0:0:
352,96,329393,1,8,0:0:0:0:
160,96,329446,1,0,0:0:0:0:
352,96,329524,1,8,0:0:0:0:
160,96,329603,1,0,0:0:0:0:
160,96,329682,1,0,0:0:0:0:
352,96,329761,1,8,0:0:0:0:
160,288,329919,1,4,0:0:0:0:
160,96,330077,1,0,0:0:0:0:
160,96,330156,1,0,0:0:0:0:
352,96,330235,1,8,0:0:0:0:
160,96,330314,1,0,0:0:0:0:
352,96,330393,1,8,0:0:0:0:
160,96,330472,1,0,0:0:0:0:
352,96,330551,1,8,0:0:0:0:
160,96,330630,1,0,0:0:0:0:
160,96,330709,1,0,0:0:0:0:
352,96,330788,1,8,0:0:0:0:
160,96,330867,1,0,0:0:0:0:
160,96,330946,1,0,0:0:0:0:
352,96,331024,1,8,0:0:0:0:
160,96,331103,1,0,0:0:0:0:
352,96,331182,1,8,0:0:0:0:
160,96,331261,1,0,0:0:0:0:
352,96,331340,1,8,0:0:0:0:
160,96,331419,1,0,0:0:0:0:
352,96,331498,1,8,0:0:0:0:
352,96,331577,1,8,0:0:0:0:
160,96,331656,1,0,0:0:0:0:
352,96,331735,1,8,0:0:0:0:
352,96,331814,1,8,0:0:0:0:
352,96,331893,1,8,0:0:0:0:
160,96,331972,1,0,0:0:0:0:
352,96,332051,1,8,0:0:0:0:
160,96,332130,1,0,0:0:0:0:
160,96,332209,1,0,0:0:0:0:
352,96,332288,1,8,0:0:0:0:
352,96,332367,1,8,0:0:0:0:
160,96,332446,1,0,0:0:0:0:
352,96,332524,1,8,0:0:0:0:
160,96,332603,1,0,0:0:0:0:
352,96,332682,1,8,0:0:0:0:
160,96,332761,1,0,0:0:0:0:
352,96,332840,1,8,0:0:0:0:
352,96,332919,1,8,0:0:0:0:
352,96,332998,1,8,0:0:0:0:
160,96,333077,1,0,0:0:0:0:
352,96,333156,1,8,0:0:0:0:
352,96,333235,1,8,0:0:0:0:
160,96,333314,1,0,0:0:0:0:
352,96,333393,1,8,0:0:0:0:
352,96,333472,1,8,0:0:0:0:
160,96,333551,1,0,0:0:0:0:
160,96,333630,1,0,0:0:0:0:
352,96,333709,1,8,0:0:0:0:
160,96,333788,1,0,0:0:0:0:
352,96,333867,1,8,0:0:0:0:
352,96,333946,1,8,0:0:0:0:
160,96,334024,1,0,0:0:0:0:
352,96,334103,1,8,0:0:0:0:
352,96,334182,1,8,0:0:0:0:
160,96,334261,1,0,0:0:0:0:
352,96,334340,1,8,0:0:0:0:
352,96,334419,1,8,0:0:0:0:
160,96,334498,1,0,0:0:0:0:
352,96,334577,1,8,0:0:0:0:
352,96,334656,1,8,0:0:0:0:
352,96,334735,1,8,0:0:0:0:
160,96,334814,1,0,0:0:0:0:
160,96,334893,1,0,0:0:0:0:
352,96,334972,1,8,0:0:0:0:
352,96,335051,1,8,0:0:0:0:
160,96,335130,1,0,0:0:0:0:
352,96,335209,1,8,0:0:0:0:
160,96,335288,1,0,0:0:0:0:
160,96,335367,1,0,0:0:0:0:
352,96,335446,1,8,0:0:0:0:
352,96,335524,1,8,0:0:0:0:
160,96,335603,1,0,0:0:0:0:
352,96,335682,1,8,0:0:0:0:
160,96,335761,1,0,0:0:0:0:
160,96,335840,1,0,0:0:0:0:
352,96,335919,1,8,0:0:0:0:
352,96,335998,1,8,0:0:0:0:
352,96,336077,1,8,0:0:0:0:
352,96,336156,1,8,0:0:0:0:
160,96,336235,1,0,0:0:0:0:
160,96,336314,1,0,0:0:0:0:
352,96,336393,1,8,0:0:0:0:
352,96,336472,1,8,0:0:0:0:
352,96,336551,1,8,0:0:0:0:
160,96,336630,1,0,0:0:0:0:
160,96,336709,1,0,0:0:0:0:
160,96,336788,1,0,0:0:0:0:
352,96,336867,1,8,0:0:0:0:
352,96,336946,1,8,0:0:0:0:
160,96,337024,1,0,0:0:0:0:
160,96,337103,1,0,0:0:0:0:
352,96,337182,1,8,0:0:0:0:
160,96,337261,1,0,0:0:0:0:
160,96,337340,1,0,0:0:0:0:
160,96,337498,1,0,0:0:0:0:
352,96,337656,1,8,0:0:0:0:
352,96,337735,1,8,0:0:0:0:
352,96,337814,1,8,0:0:0:0:
160,96,337972,1,0,0:0:0:0:
352,96,338130,1,8,0:0:0:0:
352,96,338209,1,8,0:0:0:0:
160,96,338288,1,0,0:0:0:0:
352,96,338367,1,8,0:0:0:0:
352,96,338446,1,8,0:0:0:0:
160,96,338524,1,0,0:0:0:0:
352,96,338603,1,8,0:0:0:0:
160,96,338682,1,0,0:0:0:0:
352,96,338761,1,8,0:0:0:0:
352,96,338919,1,8,0:0:0:0:
352,96,339077,1,8,0:0:0:0:
160,96,339235,1,0,0:0:0:0:
352,96,339393,1,8,0:0:0:0:
352,96,339551,1,8,0:0:0:0:
160,96,339709,1,0,0:0:0:0:
160,96,339867,1,0,0:0:0:0:
160,96,340024,1,0,0:0:0:0:
160,96,340103,1,0,0:0:0:0:
160,96,340182,1,0,0:0:0:0:
160,96,340261,1,0,0:0:0:0:
160,96,340340,1,0,0:0:0:0:
160,96,340419,1,0,0:0:0:0:
352,96,340498,1,8,0:0:0:0:
352,96,340577,1,8,0:0:0:0:
352,96,340656,1,8,0:0:0:0:
352,96,340735,1,8,0:0:0:0:
160,96,340814,1,0,0:0:0:0:
160,96,340893,1,0,0:0:0:0:
160,96,340972,1,0,0:0:0:0:
160,96,341051,1,0,0:0:0:0:
352,96,341130,1,8,0:0:0:0:
160,96,341209,1,0,0:0:0:0:
160,96,341288,1,0,0:0:0:0:
352,96,341446,1,8,0:0:0:0:
352,96,341603,1,8,0:0:0:0:
160,96,341761,1,0,0:0:0:0:
352,96,341919,1,8,0:0:0:0:
352,96,342077,1,8,0:0:0:0:
352,96,342235,1,8,0:0:0:0:
160,96,342393,1,0,0:0:0:0:
352,96,342551,1,8,0:0:0:0:
352,96,342630,1,8,0:0:0:0:
160,96,342709,1,0,0:0:0:0:
352,96,342788,1,8,0:0:0:0:
160,96,342867,1,0,0:0:0:0:
160,96,342946,1,0,0:0:0:0:
352,96,343024,1,8,0:0:0:0:
160,96,343103,1,0,0:0:0:0:
352,96,343182,1,8,0:0:0:0:
352,96,343261,1,8,0:0:0:0:
160,96,343340,1,0,0:0:0:0:
352,96,343419,1,8,0:0:0:0:
160,96,343498,1,0,0:0:0:0:
160,96,343577,1,0,0:0:0:0:
352,96,343656,1,8,0:0:0:0:
160,96,343735,1,0,0:0:0:0:
352,96,343814,1,8,0:0:0:0:
352,96,343972,1,8,0:0:0:0:
352,96,344130,1,8,0:0:0:0:
160,96,344288,1,0,0:0:0:0:
352,96,344446,1,8,0:0:0:0:
352,96,344603,1,8,0:0:0:0:
352,96,344761,1,8,0:0:0:0:
160,96,344919,1,0,0:0:0:0:
352,96,345077,1,8,0:0:0:0:
160,96,345156,1,0,0:0:0:0:
352,96,345235,1,8,0:0:0:0:
160,96,345314,1,0,0:0:0:0:
160,96,345393,1,0,0:0:0:0:
352,96,345472,1,8,0:0:0:0:
160,96,345551,1,0,0:0:0:0:
160,96,345630,1,0,0:0:0:0:
352,96,345709,1,8,0:0:0:0:
160,96,345788,1,0,0:0:0:0:
160,96,345867,1,0,0:0:0:0:
352,96,345946,1,8,0:0:0:0:
160,96,346024,1,0,0:0:0:0:
160,96,346103,1,0,0:0:0:0:
352,96,346182,1,8,0:0:0:0:
160,96,346261,1,0,0:0:0:0:
352,96,346340,1,8,0:0:0:0:
352,96,346498,1,8,0:0:0:0:
352,96,346656,1,8,0:0:0:0:
160,96,346814,1,0,0:0:0:0:
352,96,346972,1,8,0:0:0:0:
352,96,347130,1,8,0:0:0:0:
352,96,347288,1,8,0:0:0:0:
160,288,347446,1,4,0:0:0:0:
160,96,347761,1,0,0:0:0:0:
160,288,347919,1,4,0:0:0:0:
352,288,348235,1,12,0:0:0:0:
160,96,348393,1,0,0:0:0:0:
160,96,348709,1,0,0:0:0:0:
160,288,348867,1,4,0:0:0:0:
160,96,349182,1,0,0:0:0:0:
160,96,349340,1,0,0:0:0:0:
352,288,349498,1,12,0:0:0:0:
160,96,349814,1,0,0:0:0:0:
160,288,350130,1,4,0:0:0:0:
160,96,350288,1,0,0:0:0:0:
160,96,350446,1,0,0:0:0:0:
352,288,350761,1,12,0:0:0:0:
160,96,350919,1,0,0:0:0:0:
160,96,351235,1,0,0:0:0:0:
160,288,351393,1,4,0:0:0:0:
160,96,351709,1,0,0:0:0:0:
160,96,351867,1,0,0:0:0:0:
352,288,352024,1,12,0:0:0:0:
160,96,352182,1,0,0:0:0:0:
160,96,352340,1,0,0:0:0:0:
160,288,352656,1,4,0:0:0:0:
160,96,352814,1,0,0:0:0:0:
160,96,352972,1,0,0:0:0:0:
352,288,353288,1,12,0:0:0:0:
160,96,353446,1,0,0:0:0:0:
160,96,353761,1,0,0:0:0:0:
160,288,353919,1,4,0:0:0:0:
160,96,354235,1,0,0:0:0:0:
160,96,354393,1,0,0:0:0:0:
352,288,354551,1,12,0:0:0:0:
160,96,354867,1,0,0:0:0:0:
160,288,355182,1,4,0:0:0:0:
160,96,355340,1,0,0:0:0:0:
160,96,355498,1,0,0:0:0:0:
352,288,355814,1,12,0:0:0:0:
160,96,355972,1,0,0:0:0:0:
160,96,356288,1,0,0:0:0:0:
160,96,356446,1,0,0:0:0:0:
160,288,356603,1,4,0:0:0:0:
160,288,356761,1,4,0:0:0:0:
160,96,356919,1,0,0:0:0:0:
160,288,357077,1,4,0:0:0:0:
160,288,357235,1,4,0:0:0:0:
160,288,357393,1,4,0:0:0:0:
352,288,357551,1,12,0:0:0:0:
160,96,357867,1,0,0:0:0:0:
160,288,358024,1,4,0:0:0:0:
352,288,358340,1,12,0:0:0:0:
160,96,358498,1,0,0:0:0:0:
160,96,358814,1,0,0:0:0:0:
160,288,358972,1,4,0:0:0:0:
160,96,359288,1,0,0:0:0:0:
160,96,359446,1,0,0:0:0:0:
352,288,359603,1,12,0:0:0:0:
160,96,359919,1,0,0:0:0:0:
160,288,360235,1,4,0:0:0:0:
160,96,360393,1,0,0:0:0:0:
160,96,360551,1,0,0:0:0:0:
352,288,360867,1,12,0:0:0:0:
160,96,361024,1,0,0:0:0:0:
160,96,361340,1,0,0:0:0:0:
160,288,361498,1,4,0:0:0:0:
160,96,361814,1,0,0:0:0:0:
160,96,361972,1,0,0:0:0:0:
352,288,362130,1,12,0:0:0:0:
160,96,362288,1,0,0:0:0:0:
160,96,362446,1,0,0:0:0:0:
160,288,362761,1,4,0:0:0:0:
160,96,362919,1,0,0:0:0:0:
160,96,363077,1,0,0:0:0:0:
352,288,363393,1,12,0:0:0:0:
160,96,363551,1,0,0:0:0:0:
160,96,363867,1,0,0:0:0:0:
160,288,364024,1,4,0:0:0:0:
160,96,364340,1,0,0:0:0:0:
160,96,364498,1,0,0:0:0:0:
352,288,364656,1,12,0:0:0:0:
160,96,364814,1,0,0:0:0:0:
160,96,364972,1,0,0:0:0:0:
160,288,365288,1,4,0:0:0:0:
352,96,365446,1,8,0:0:0:0:
352,96,365603,1,8,0:0:0:0:
160,288,365761,1,4,0:0:0:0:
352,96,365919,1,8,0:0:0:0:
352,96,366077,1,8,0:0:0:0:
160,288,366235,1,4,0:0:0:0:
352,96,366393,1,8,0:0:0:0:
352,96,366551,1,8,0:0:0:0:
160,288,366709,1,4,0:0:0:0:
352,96,366867,1,8,0:0:0:0:
352,96,367024,1,8,0:0:0:0:
352,96,367182,1,8,0:0:0:0:
352,96,367222,1,8,0:0:0:0:
352,96,367340,1,8,0:0:0:0:
160,288,367498,1,4,0:0:0:0:
352,288,367656,1,12,0:0:0:0:
352,288,367814,1,12,0:0:0:0:
352,96,382971,5,8,0:0:0:0:
352,96,383011,1,8,0:0:0:0:
352,96,383287,1,8,0:0:0:0:
352,96,383445,1,8,0:0:0:0:
352,96,383603,1,8,0:0:0:0:
352,96,383761,1,8,0:0:0:0:
352,96,383919,1,8,0:0:0:0:
352,96,384235,1,8,0:0:0:0:
352,96,384392,1,8,0:0:0:0:
352,96,384708,1,8,0:0:0:0:
352,96,384866,1,8,0:0:0:0:
352,96,384906,1,8,0:0:0:0:
352,96,385182,1,8,0:0:0:0:
352,96,385340,1,8,0:0:0:0:
352,96,385498,1,8,0:0:0:0:
352,96,385656,1,8,0:0:0:0:
352,96,385814,1,8,0:0:0:0:
352,96,385853,1,8,0:0:0:0:
352,96,386129,1,8,0:0:0:0:
352,96,386287,1,8,0:0:0:0:
352,96,386445,1,8,0:0:0:0:
352,96,386603,1,8,0:0:0:0:
352,96,386761,1,8,0:0:0:0:
352,96,386800,1,8,0:0:0:0:
352,96,387077,1,8,0:0:0:0:
352,96,387235,1,8,0:0:0:0:
352,96,387550,1,8,0:0:0:0:
352,96,387708,1,8,0:0:0:0:
352,96,387748,1,8,0:0:0:0:
352,96,388024,1,8,0:0:0:0:
352,96,388182,1,8,0:0:0:0:
352,96,388340,1,8,0:0:0:0:
352,96,388498,1,8,0:0:0:0:
352,96,388656,1,8,0:0:0:0:
352,96,388695,1,8,0:0:0:0:
352,96,388971,1,8,0:0:0:0:
352,96,389129,1,8,0:0:0:0:
352,96,389445,1,8,0:0:0:0:
352,96,389603,1,8,0:0:0:0:
352,96,389761,1,8,0:0:0:0:
352,96,389919,1,8,0:0:0:0:
352,96,390077,1,8,0:0:0:0:
352,96,390235,1,8,0:0:0:0:
352,96,390314,1,8,0:0:0:0:
352,96,390392,1,8,0:0:0:0:
352,96,390550,1,8,0:0:0:0:
352,96,390866,1,8,0:0:0:0:
352,96,391024,1,8,0:0:0:0:
352,96,391182,1,8,0:0:0:0:
352,96,391340,1,8,0:0:0:0:
352,96,391498,1,8,0:0:0:0:
352,96,391814,1,8,0:0:0:0:
352,96,391971,1,8,0:0:0:0:
352,96,392129,1,8,0:0:0:0:
352,96,392287,1,8,0:0:0:0:
352,96,392445,1,8,0:0:0:0:
352,96,392485,1,8,0:0:0:0:
352,96,392761,1,8,0:0:0:0:
352,96,392919,1,8,0:0:0:0:
352,96,393077,1,8,0:0:0:0:
352,96,393392,1,8,0:0:0:0:
352,96,393432,1,8,0:0:0:0:
352,96,393708,1,8,0:0:0:0:
352,96,393866,1,8,0:0:0:0:
352,96,394024,1,8,0:0:0:0:
352,96,394103,1,8,0:0:0:0:
352,96,394182,1,8,0:0:0:0:
352,96,394261,1,8,0:0:0:0:
352,96,394340,1,8,0:0:0:0:
352,96,394498,1,8,0:0:0:0:
352,96,394656,1,8,0:0:0:0:
352,96,394814,1,8,0:0:0:0:
352,96,394971,1,8,0:0:0:0:
352,96,395129,1,8,0:0:0:0:
352,96,395287,1,8,0:0:0:0:
352,96,395445,1,8,0:0:0:0:
352,96,395603,1,8,0:0:0:0:
352,96,395761,1,8,0:0:0:0:
352,96,395919,1,8,0:0:0:0:
352,96,396235,1,8,0:0:0:0:
352,96,396314,1,8,0:0:0:0:
352,96,396392,1,8,0:0:0:0:
352,96,396471,1,8,0:0:0:0:
352,96,396550,1,8,0:0:0:0:
352,96,396629,1,8,0:0:0:0:
352,96,396708,1,8,0:0:0:0:
352,96,396787,1,8,0:0:0:0:
352,96,396866,1,8,0:0:0:0:
352,96,396945,1,8,0:0:0:0:
352,96,397024,1,8,0:0:0:0:
352,96,397103,1,8,0:0:0:0:
352,96,397182,1,8,0:0:0:0:
352,96,397340,1,8,0:0:0:0:
352,96,397419,1,8,0:0:0:0:
352,96,397498,1,8,0:0:0:0:
352,96,397656,1,8,0:0:0:0:
352,96,397735,1,8,0:0:0:0:
352,96,397814,1,8,0:0:0:0:
160,96,397971,1,0,0:0:0:0:
160,288,398129,1,4,0:0:0:0:
160,96,398603,1,0,0:0:0:0:
160,96,398919,1,0,0:0:0:0:
352,96,399077,1,8,0:0:0:0:
352,96,399392,1,8,0:0:0:0:
352,96,399471,1,8,0:0:0:0:
352,96,399550,1,8,0:0:0:0:
352,96,399629,1,8,0:0:0:0:
352,96,399708,1,8,0:0:0:0:
352,96,399787,1,8,0:0:0:0:
352,96,399866,1,8,0:0:0:0:
352,96,399945,1,8,0:0:0:0:
160,96,400024,1,0,0:0:0:0:
160,96,400182,1,0,0:0:0:0:
160,96,400261,1,0,0:0:0:0:
160,96,400340,1,0,0:0:0:0:
352,96,400498,1,8,0:0:0:0:
160,96,400656,1,0,0:0:0:0:
160,96,400814,1,0,0:0:0:0:
352,96,400971,1,8,0:0:0:0:
160,96,401287,1,0,0:0:0:0:
160,96,401366,1,0,0:0:0:0:
160,96,401445,1,0,0:0:0:0:
160,96,401603,1,0,0:0:0:0:
160,96,401682,1,0,0:0:0:0:
160,96,401761,1,0,0:0:0:0:
160,288,401919,1,4,0:0:0:0:
352,96,402077,1,8,0:0:0:0:
160,96,402235,1,0,0:0:0:0:
160,96,402392,1,0,0:0:0:0:
160,96,402550,1,0,0:0:0:0:
160,96,402708,1,0,0:0:0:0:
352,96,402866,1,8,0:0:0:0:
352,96,403182,1,8,0:0:0:0:
352,96,403340,1,8,0:0:0:0:
352,96,403498,1,8,0:0:0:0:
352,96,403656,1,8,0:0:0:0:
160,96,403814,1,0,0:0:0:0:
160,96,403971,1,0,0:0:0:0:
160,96,404050,1,0,0:0:0:0:
160,96,404129,1,0,0:0:0:0:
352,96,404287,1,8,0:0:0:0:
160,96,404445,1,0,0:0:0:0:
352,96,404603,1,8,0:0:0:0:
352,96,404761,1,8,0:0:0:0:
160,96,404919,1,0,0:0:0:0:
160,96,404998,1,0,0:0:0:0:
352,96,405077,1,8,0:0:0:0:
352,96,405235,1,8,0:0:0:0:
352,96,405392,1,8,0:0:0:0:
352,96,405550,1,8,0:0:0:0:
160,288,405708,1,4,0:0:0:0:
160,96,406024,1,0,0:0:0:0:
352,96,406182,1,8,0:0:0:0:
160,96,406340,1,0,0:0:0:0:
160,96,406498,1,0,0:0:0:0:
352,96,406656,1,8,0:0:0:0:
160,96,406971,1,0,0:0:0:0:
160,96,407050,1,0,0:0:0:0:
160,96,407129,1,0,0:0:0:0:
160,96,407208,1,0,0:0:0:0:
160,96,407287,1,0,0:0:0:0:
160,96,407366,1,0,0:0:0:0:
160,96,407445,1,0,0:0:0:0:
160,96,407524,1,0,0:0:0:0:
160,96,407603,1,0,0:0:0:0:
160,96,407761,1,0,0:0:0:0:
160,96,407919,1,0,0:0:0:0:
352,96,408077,1,8,0:0:0:0:
160,96,408235,1,0,0:0:0:0:
160,96,408392,1,0,0:0:0:0:
352,96,408550,1,8,0:0:0:0:
352,96,408866,1,8,0:0:0:0:
352,96,409182,1,8,0:0:0:0:
160,288,409498,1,4,0:0:0:0:
352,96,409814,1,8,0:0:0:0:
160,96,409971,1,0,0:0:0:0:
352,96,410129,1,8,0:0:0:0:
160,96,410287,1,0,0:0:0:0:
352,96,410445,1,8,0:0:0:0:
160,96,410603,1,0,0:0:0:0:
160,96,410761,1,0,0:0:0:0:
160,96,410840,1,0,0:0:0:0:
160,96,410919,1,0,0:0:0:0:
160,96,410998,1,0,0:0:0:0:
160,96,411077,1,0,0:0:0:0:
160,96,411156,1,0,0:0:0:0:
160,96,411235,1,0,0:0:0:0:
160,96,411314,1,0,0:0:0:0:
160,96,411392,1,0,0:0:0:0:
160,96,411550,1,0,0:0:0:0:
160,96,411708,1,0,0:0:0:0:
160,96,411866,1,0,0:0:0:0:
352,96,412024,1,8,0:0:0:0:
160,96,412182,1,0,0:0:0:0:
352,96,412340,1,8,0:0:0:0:
352,96,412656,1,8,0:0:0:0:
352,96,412814,1,8,0:0:0:0:
352,288,412971,1,12,0:0:0:0:
160,288,413287,1,4,0:0:0:0:
160,96,413761,1,0,0:0:0:0:
160,96,414077,1,0,0:0:0:0:
352,96,414235,1,8,0:0:0:0:
160,96,414550,1,0,0:0:0:0:
160,96,414866,1,0,0:0:0:0:
160,96,415182,1,0,0:0:0:0:
160,96,415498,1,0,0:0:0:0:
160,96,415814,1,0,0:0:0:0:
352,96,416129,1,8,0:0:0:0:
352,96,416182,1,8,0:0:0:0:
352,96,416235,1,8,0:0:0:0:
352,96,416340,1,8,0:0:0:0:
160,96,416445,1,0,0:0:0:0:
160,96,416498,1,0,0:0:0:0:
160,96,416550,1,0,0:0:0:0:
160,96,416656,1,0,0:0:0:0:
352,96,416761,1,8,0:0:0:0:
160,96,416866,1,0,0:0:0:0:
160,96,416971,1,0,0:0:0:0:
160,288,417077,1,4,0:0:0:0:
352,96,417392,1,8,0:0:0:0:
160,96,417550,1,0,0:0:0:0:
352,96,417708,1,8,0:0:0:0:
160,96,417866,1,0,0:0:0:0:
352,96,418024,1,8,0:0:0:0:
352,96,418340,1,8,0:0:0:0:
352,96,418419,1,8,0:0:0:0:
352,96,418498,1,8,0:0:0:0:
352,96,418577,1,8,0:0:0:0:
352,96,418656,1,8,0:0:0:0:
352,96,418735,1,8,0:0:0:0:
352,96,418814,1,8,0:0:0:0:
352,96,418892,1,8,0:0:0:0:
160,96,418971,1,0,0:0:0:0:
352,96,419129,1,8,0:0:0:0:
352,96,419208,1,8,0:0:0:0:
352,96,419287,1,8,0:0:0:0:
160,96,419445,1,0,0:0:0:0:
160,96,419603,1,0,0:0:0:0:
160,96,419761,1,0,0:0:0:0:
352,96,419919,1,8,0:0:0:0:
160,96,420235,1,0,0:0:0:0:
352,96,420392,1,8,0:0:0:0:
352,96,420550,1,8,0:0:0:0:
160,96,420708,1,0,0:0:0:0:
160,96,420866,1,0,0:0:0:0:
352,96,421182,1,8,0:0:0:0:
160,96,421340,1,0,0:0:0:0:
352,96,421498,1,8,0:0:0:0:
160,96,421656,1,0,0:0:0:0:
352,96,421814,1,8,0:0:0:0:
352,96,422129,1,8,0:0:0:0:
352,96,422208,1,8,0:0:0:0:
352,96,422287,1,8,0:0:0:0:
352,96,422366,1,8,0:0:0:0:
352,96,422445,1,8,0:0:0:0:
352,96,422524,1,8,0:0:0:0:
352,96,422603,1,8,0:0:0:0:
352,96,422682,1,8,0:0:0:0:
160,96,422761,1,0,0:0:0:0:
160,96,422919,1,0,0:0:0:0:
160,96,423077,1,0,0:0:0:0:
352,96,423235,1,8,0:0:0:0:
160,96,423392,1,0,0:0:0:0:
160,96,423550,1,0,0:0:0:0:
352,96,423708,1,8,0:0:0:0:
352,96,424024,1,8,0:0:0:0:
352,96,424182,1,8,0:0:0:0:
160,96,424340,1,0,0:0:0:0:
160,96,424498,1,0,0:0:0:0:
160,96,424577,1,0,0:0:0:0:
160,96,424656,1,0,0:0:0:0:
160,96,424814,1,0,0:0:0:0:
352,96,424971,1,8,0:0:0:0:
160,96,425129,1,0,0:0:0:0:
352,96,425287,1,8,0:0:0:0:
160,96,425445,1,0,0:0:0:0:
352,96,425603,1,8,0:0:0:0:
352,96,425919,1,8,0:0:0:0:
352,96,425998,1,8,0:0:0:0:
352,96,426077,1,8,0:0:0:0:
352,96,426156,1,8,0:0:0:0:
352,96,426235,1,8,0:0:0:0:
352,96,426314,1,8,0:0:0:0:
352,96,426392,1,8,0:0:0:0:
352,96,426471,1,8,0:0:0:0:
160,96,426550,1,0,0:0:0:0:
160,96,426708,1,0,0:0:0:0:
352,96,426866,1,8,0:0:0:0:
352,96,427024,1,8,0:0:0:0:
352,96,427182,1,8,0:0:0:0:
160,96,427340,1,0,0:0:0:0:
352,96,427498,1,8,0:0:0:0:
352,96,427814,1,8,0:0:0:0:
352,96,427971,1,8,0:0:0:0:
160,96,428129,1,0,0:0:0:0:
160,96,428287,1,0,0:0:0:0:
160,96,428445,1,0,0:0:0:0:
160,96,428603,1,0,0:0:0:0:
352,96,428761,1,8,0:0:0:0:
160,96,428919,1,0,0:0:0:0:
352,96,429077,1,8,0:0:0:0:
160,96,429235,1,0,0:0:0:0:
352,96,429392,1,8,0:0:0:0:
352,96,429708,1,8,0:0:0:0:
352,96,429787,1,8,0:0:0:0:
352,96,429866,1,8,0:0:0:0:
352,96,429945,1,8,0:0:0:0:
352,96,430024,1,8,0:0:0:0:
352,96,430103,1,8,0:0:0:0:
352,96,430182,1,8,0:0:0:0:
352,96,430261,1,8,0:0:0:0:
160,96,430340,1,0,0:0:0:0:
160,96,430498,1,0,0:0:0:0:
160,96,430656,1,0,0:0:0:0:
160,96,430814,1,0,0:0:0:0:
352,96,430971,1,8,0:0:0:0:
160,96,431129,1,0,0:0:0:0:
352,96,431287,1,8,0:0:0:0:
160,96,431445,1,0,0:0:0:0:
160,96,431761,1,0,0:0:0:0:
160,288,432077,1,4,0:0:0:0:
352,288,432235,1,12,0:0:0:0:
352,96,432550,1,8,0:0:0:0:
352,96,432629,1,8,0:0:0:0:
160,96,432708,1,0,0:0:0:0:
160,96,432787,1,0,0:0:0:0:
352,96,432866,1,8,0:0:0:0:
160,96,433024,1,0,0:0:0:0:
352,96,433182,1,8,0:0:0:0:
352,96,433498,1,8,0:0:0:0:
352,96,433577,1,8,0:0:0:0:
352,96,433656,1,8,0:0:0:0:
352,96,433735,1,8,0:0:0:0:
352,96,433814,1,8,0:0:0:0:
352,96,433892,1,8,0:0:0:0:
352,96,433971,1,8,0:0:0:0:
352,96,434050,1,8,0:0:0:0:
160,96,434129,1,0,0:0:0:0:
160,96,434287,1,0,0:0:0:0:
160,96,434366,1,0,0:0:0:0:
160,96,434445,1,0,0:0:0:0:
160,96,434603,1,0,0:0:0:0:
352,96,434761,1,8,0:0:0:0:
160,96,434919,1,0,0:0:0:0:
352,96,435077,1,8,0:0:0:0:
352,96,435392,1,8,0:0:0:0:
160,96,435471,1,0,0:0:0:0:
160,96,435550,1,0,0:0:0:0:
160,96,435629,1,0,0:0:0:0:
160,96,435708,1,0,0:0:0:0:
160,96,435787,1,0,0:0:0:0:
160,96,435866,1,0,0:0:0:0:
160,96,435945,1,0,0:0:0:0:
160,96,436024,1,0,0:0:0:0:
160,96,436182,1,0,0:0:0:0:
160,96,436261,1,0,0:0:0:0:
160,96,436340,1,0,0:0:0:0:
160,96,436498,1,0,0:0:0:0:
352,96,436656,1,8,0:0:0:0:
160,96,436814,1,0,0:0:0:0:
352,96,436971,1,8,0:0:0:0:
352,96,437287,1,8,0:0:0:0:
160,96,437445,1,0,0:0:0:0:
160,96,437524,1,0,0:0:0:0:
352,96,437603,1,8,0:0:0:0:
352,96,437682,1,8,0:0:0:0:
352,96,437761,1,8,0:0:0:0:
352,96,437840,1,8,0:0:0:0:
160,96,437919,1,0,0:0:0:0:
160,96,438077,1,0,0:0:0:0:
160,96,438235,1,0,0:0:0:0:
352,96,438392,1,8,0:0:0:0:
160,96,438550,1,0,0:0:0:0:
160,96,438708,1,0,0:0:0:0:
352,96,438866,1,8,0:0:0:0:
160,96,439024,1,0,0:0:0:0:
160,96,439103,1,0,0:0:0:0:
352,96,439182,1,8,0:0:0:0:
160,96,439261,1,0,0:0:0:0:
160,96,439340,1,0,0:0:0:0:
160,96,439419,1,0,0:0:0:0:
352,96,439498,1,8,0:0:0:0:
352,96,439656,1,8,0:0:0:0:
160,288,439814,1,4,0:0:0:0:
352,96,440129,1,8,0:0:0:0:
160,96,440287,1,0,0:0:0:0:
352,96,440445,1,8,0:0:0:0:
352,96,440524,1,8,0:0:0:0:
160,96,440603,1,0,0:0:0:0:
352,96,440682,1,8,0:0:0:0:
352,96,440761,1,8,0:0:0:0:
160,96,440919,1,0,0:0:0:0:
160,96,440998,1,0,0:0:0:0:
352,96,441077,1,8,0:0:0:0:
352,96,441156,1,8,0:0:0:0:
352,96,441235,1,8,0:0:0:0:
352,96,441314,1,8,0:0:0:0:
160,96,441392,1,0,0:0:0:0:
160,96,441471,1,0,0:0:0:0:
160,96,441550,1,0,0:0:0:0:
160,96,441629,1,0,0:0:0:0:
160,96,441708,1,0,0:0:0:0:
160,96,441866,1,0,0:0:0:0:
160,96,441945,1,0,0:0:0:0:
160,96,442024,1,0,0:0:0:0:
160,96,442182,1,0,0:0:0:0:
352,96,442340,1,8,0:0:0:0:
160,96,442498,1,0,0:0:0:0:
352,96,442656,1,8,0:0:0:0:
160,96,442971,1,0,0:0:0:0:
160,96,443287,1,0,0:0:0:0:
160,288,443603,1,4,0:0:0:0:
160,96,443919,1,0,0:0:0:0:
160,96,444077,1,0,0:0:0:0:
160,96,444392,1,0,0:0:0:0:
352,96,444550,1,8,0:0:0:0:
352,96,444866,1,8,0:0:0:0:
352,96,445182,1,8,0:0:0:0:
160,288,445498,1,4,0:0:0:0:
352,96,445656,1,8,0:0:0:0:
352,96,445735,1,8,0:0:0:0:
352,96,445814,1,8,0:0:0:0:
352,96,445892,1,8,0:0:0:0:
352,96,445971,1,8,0:0:0:0:
352,96,446050,1,8,0:0:0:0:
352,96,446129,1,8,0:0:0:0:
352,96,446208,1,8,0:0:0:0:
352,96,446287,1,8,0:0:0:0:
352,96,446366,1,8,0:0:0:0:
160,96,446445,1,0,0:0:0:0:
160,96,446524,1,0,0:0:0:0:
160,96,446603,1,0,0:0:0:0:
160,96,446682,1,0,0:0:0:0:
160,96,446761,1,0,0:0:0:0:
160,96,446840,1,0,0:0:0:0:
160,96,446919,1,0,0:0:0:0:
160,96,446998,1,0,0:0:0:0:
160,96,447077,1,0,0:0:0:0:
160,96,447156,1,0,0:0:0:0:
160,96,447235,1,0,0:0:0:0:
160,288,447392,1,4,0:0:0:0:
160,96,447550,1,0,0:0:0:0:
352,96,447708,1,8,0:0:0:0:
352,96,447866,1,8,0:0:0:0:
160,96,448024,1,0,0:0:0:0:
160,96,448103,1,0,0:0:0:0:
160,96,448182,1,0,0:0:0:0:
160,96,448261,1,0,0:0:0:0:
352,96,448340,1,8,0:0:0:0:
160,96,448498,1,0,0:0:0:0:
352,96,448656,1,8,0:0:0:0:
352,96,448814,1,8,0:0:0:0:
160,96,448971,1,0,0:0:0:0:
160,96,449050,1,0,0:0:0:0:
160,96,449129,1,0,0:0:0:0:
160,96,449208,1,0,0:0:0:0:
352,96,449287,1,8,0:0:0:0:
160,96,449445,1,0,0:0:0:0:
160,96,449603,1,0,0:0:0:0:
352,96,449761,1,8,0:0:0:0:
352,96,449919,1,8,0:0:0:0:
352,96,450077,1,8,0:0:0:0:
352,96,450235,1,8,0:0:0:0:
160,96,450314,1,0,0:0:0:0:
160,96,450392,1,0,0:0:0:0:
160,96,450471,1,0,0:0:0:0:
160,96,450550,1,0,0:0:0:0:
160,96,450629,1,0,0:0:0:0:
160,96,450708,1,0,0:0:0:0:
160,96,450787,1,0,0:0:0:0:
160,96,450866,1,0,0:0:0:0:
160,96,450945,1,0,0:0:0:0:
160,96,451024,1,0,0:0:0:0:
160,96,451103,1,0,0:0:0:0:
352,96,451182,1,8,0:0:0:0:
160,96,451340,1,0,0:0:0:0:
352,96,451498,1,8,0:0:0:0:
352,96,451656,1,8,0:0:0:0:
160,96,451814,1,0,0:0:0:0:
160,96,451892,1,0,0:0:0:0:
160,96,451971,1,0,0:0:0:0:
160,96,452050,1,0,0:0:0:0:
352,96,452129,1,8,0:0:0:0:
160,96,452287,1,0,0:0:0:0:
352,96,452445,1,8,0:0:0:0:
352,96,452603,1,8,0:0:0:0:
160,96,452761,1,0,0:0:0:0:
160,96,452840,1,0,0:0:0:0:
160,96,452919,1,0,0:0:0:0:
160,96,452998,1,0,0:0:0:0:
352,96,453077,1,8,0:0:0:0:
160,288,454971,1,4,0:0:0:0:
160,96,455287,1,0,0:0:0:0:
160,96,455445,1,0,0:0:0:0:
160,96,455761,1,0,0:0:0:0:
352,96,455919,1,8,0:0:0:0:
160,96,456235,1,0,0:0:0:0:
160,96,456392,1,0,0:0:0:0:
160,96,456471,1,0,0:0:0:0:
160,96,456550,1,0,0:0:0:0:
160,96,456866,1,0,0:0:0:0:
160,96,457182,1,0,0:0:0:0:
160,96,457340,1,0,0:0:0:0:
160,96,457656,1,0,0:0:0:0:
352,96,457814,1,8,0:0:0:0:
160,96,458129,1,0,0:0:0:0:
160,96,458208,1,0,0:0:0:0:
160,96,458287,1,0,0:0:0:0:
160,96,458366,1,0,0:0:0:0:
352,288,458445,1,12,0:0:0:0:
160,288,458761,1,4,0:0:0:0:
160,96,459077,1,0,0:0:0:0:
160,96,459235,1,0,0:0:0:0:
160,96,459550,1,0,0:0:0:0:
352,96,459708,1,8,0:0:0:0:
160,96,460024,1,0,0:0:0:0:
160,96,460182,1,0,0:0:0:0:
160,96,460261,1,0,0:0:0:0:
160,96,460340,1,0,0:0:0:0:
160,96,460498,1,0,0:0:0:0:
160,96,460656,1,0,0:0:0:0:
160,96,460814,1,0,0:0:0:0:
160,96,461129,1,0,0:0:0:0:
160,96,461445,1,0,0:0:0:0:
352,96,461603,1,8,0:0:0:0:
160,96,461919,1,0,0:0:0:0:
160,96,461998,1,0,0:0:0:0:
352,96,462077,1,8,0:0:0:0:
352,96,462156,1,8,0:0:0:0:
352,96,462235,1,8,0:0:0:0:
160,288,462550,1,4,0:0:0:0:
160,96,463024,1,0,0:0:0:0:
160,96,463340,1,0,0:0:0:0:
160,96,463419,1,0,0:0:0:0:
352,96,463498,1,8,0:0:0:0:
160,96,463814,1,0,0:0:0:0:
160,96,463971,1,0,0:0:0:0:
160,96,464050,1,0,0:0:0:0:
352,96,464129,1,8,0:0:0:0:
160,96,464445,1,0,0:0:0:0:
160,96,464603,1,0,0:0:0:0:
160,96,464919,1,0,0:0:0:0:
160,96,465235,1,0,0:0:0:0:
160,96,465314,1,0,0:0:0:0:
352,96,465392,1,8,0:0:0:0:
160,96,465550,1,0,0:0:0:0:
352,96,465708,1,8,0:0:0:0:
160,96,465866,1,0,0:0:0:0:
352,96,466024,1,8,0:0:0:0:
160,96,466182,1,0,0:0:0:0:
160,288,466340,1,4,0:0:0:0:
160,96,466656,1,0,0:0:0:0:
160,96,466814,1,0,0:0:0:0:
160,96,467129,1,0,0:0:0:0:
160,96,467208,1,0,0:0:0:0:
352,96,467287,1,8,0:0:0:0:
160,96,467603,1,0,0:0:0:0:
160,288,467919,1,4,0:0:0:0:
160,288,468235,1,4,0:0:0:0:
160,96,468445,1,0,0:0:0:0:
160,96,468498,1,0,0:0:0:0:
352,96,468550,1,8,0:0:0:0:
352,96,468656,1,8,0:0:0:0:
352,96,468761,1,8,0:0:0:0:
352,96,468866,1,8,0:0:0:0:
352,96,468971,1,8,0:0:0:0:
352,96,469077,1,8,0:0:0:0:
160,96,469182,1,0,0:0:0:0:
160,96,469287,1,0,0:0:0:0:
160,96,469392,1,0,0:0:0:0:
352,96,469498,1,8,0:0:0:0:
160,96,469603,1,0,0:0:0:0:
352,96,469708,1,8,0:0:0:0:
160,96,469814,1,0,0:0:0:0:
160,96,469919,1,0,0:0:0:0:
160,96,470024,1,0,0:0:0:0:
352,288,470129,1,12,0:0:0:0:
352,96,470445,1,8,0:0:0:0:
160,96,470603,1,0,0:0:0:0:
160,96,470919,1,0,0:0:0:0:
352,96,471077,1,8,0:0:0:0:
160,96,471392,1,0,0:0:0:0:
160,96,471471,1,0,0:0:0:0:
160,96,471550,1,0,0:0:0:0:
160,96,471629,1,0,0:0:0:0:
352,96,471708,1,8,0:0:0:0:
160,288,472024,1,4,0:0:0:0:
352,96,472340,1,8,0:0:0:0:
160,96,472498,1,0,0:0:0:0:
160,96,472814,1,0,0:0:0:0:
352,288,472971,1,12,0:0:0:0:
160,96,473287,1,0,0:0:0:0:
160,96,473366,1,0,0:0:0:0:
160,96,473445,1,0,0:0:0:0:
160,96,473524,1,0,0:0:0:0:
352,96,473603,1,8,0:0:0:0:
160,288,473919,1,4,0:0:0:0:
352,96,474235,1,8,0:0:0:0:
160,96,474392,1,0,0:0:0:0:
160,96,474708,1,0,0:0:0:0:
352,288,474866,1,12,0:0:0:0:
160,96,475182,1,0,0:0:0:0:
160,96,475340,1,0,0:0:0:0:
352,288,475498,1,12,0:0:0:0:
160,96,475814,1,0,0:0:0:0:
160,96,475892,1,0,0:0:0:0:
160,96,475971,1,0,0:0:0:0:
160,96,476050,1,0,0:0:0:0:
352,96,476129,1,8,0:0:0:0:
160,96,476287,1,0,0:0:0:0:
352,96,476366,1,8,0:0:0:0:
160,96,476445,1,0,0:0:0:0:
160,96,476524,1,0,0:0:0:0:
160,96,476603,1,0,0:0:0:0:
160,96,476682,1,0,0:0:0:0:
352,96,476761,1,8,0:0:0:0:
352,96,476840,1,8,0:0:0:0:
160,96,476919,1,0,0:0:0:0:
160,96,476998,1,0,0:0:0:0:
352,96,477077,1,8,0:0:0:0:
352,96,477156,1,8,0:0:0:0:
352,96,477235,1,8,0:0:0:0:
352,96,477314,1,8,0:0:0:0:
160,96,477392,1,0,0:0:0:0:
160,96,477471,1,0,0:0:0:0:
160,96,477550,1,0,0:0:0:0:
160,96,477629,1,0,0:0:0:0:
352,288,477708,1,12,0:0:0:0:
352,96,478024,1,8,0:0:0:0:
160,96,478182,1,0,0:0:0:0:
160,96,478498,1,0,0:0:0:0:
352,96,478656,1,8,0:0:0:0:
160,96,478971,1,0,0:0:0:0:
160,96,479050,1,0,0:0:0:0:
160,96,479129,1,0,0:0:0:0:
160,96,479208,1,0,0:0:0:0:
352,96,479287,1,8,0:0:0:0:
160,288,479603,1,4,0:0:0:0:
352,96,479919,1,8,0:0:0:0:
160,288,480077,1,4,0:0:0:0:
160,96,480392,1,0,0:0:0:0:
352,288,480550,1,12,0:0:0:0:
160,96,480866,1,0,0:0:0:0:
160,96,480945,1,0,0:0:0:0:
160,96,481024,1,0,0:0:0:0:
160,96,481103,1,0,0:0:0:0:
352,96,481182,1,8,0:0:0:0:
160,288,481498,1,4,0:0:0:0:
352,96,481814,1,8,0:0:0:0:
160,288,481971,1,4,0:0:0:0:
160,96,482287,1,0,0:0:0:0:
352,288,482445,1,12,0:0:0:0:
160,96,482761,1,0,0:0:0:0:
160,96,482840,1,0,0:0:0:0:
160,96,482919,1,0,0:0:0:0:
160,96,482998,1,0,0:0:0:0:
352,96,483077,1,8,0:0:0:0:
160,96,483235,1,0,0:0:0:0:
160,96,483314,1,0,0:0:0:0:
352,96,483392,1,8,0:0:0:0:
352,96,483471,1,8,0:0:0:0:
160,96,483550,1,0,0:0:0:0:
160,96,483629,1,0,0:0:0:0:
352,96,483708,1,8,0:0:0:0:
160,96,483787,1,0,0:0:0:0:
352,96,483866,1,8,0:0:0:0:
352,96,483945,1,8,0:0:0:0:
160,96,484024,1,0,0:0:0:0:
160,96,484103,1,0,0:0:0:0:
352,96,484182,1,8,0:0:0:0:
160,96,484261,1,0,0:0:0:0:
160,96,484340,1,0,0:0:0:0:
160,96,484419,1,0,0:0:0:0:
352,96,484498,1,8,0:0:0:0:
352,96,484577,1,8,0:0:0:0:
352,96,484656,1,8,0:0:0:0:
352,96,484735,1,8,0:0:0:0:
160,96,484814,1,0,0:0:0:0:
160,96,484892,1,0,0:0:0:0:
352,288,484971,1,12,0:0:0:0:
352,288,485129,1,12,0:0:0:0:
160,288,485287,1,4,0:0:0:0:
160,96,485761,1,0,0:0:0:0:
160,96,486077,1,0,0:0:0:0:
352,96,486235,1,8,0:0:0:0:
160,96,486708,1,0,0:0:0:0:
160,96,486787,1,0,0:0:0:0:
160,96,486866,1,0,0:0:0:0:
160,96,487182,1,0,0:0:0:0:
160,96,487656,1,0,0:0:0:0:
160,96,487971,1,0,0:0:0:0:
160,96,488050,1,0,0:0:0:0:
352,96,488129,1,8,0:0:0:0:
160,96,488445,1,0,0:0:0:0:
160,96,488524,1,0,0:0:0:0:
160,96,488603,1,0,0:0:0:0:
160,96,488682,1,0,0:0:0:0:
352,96,488761,1,8,0:0:0:0:
352,96,488840,1,8,0:0:0:0:
352,96,488919,1,8,0:0:0:0:
352,96,488998,1,8,0:0:0:0:
160,288,489077,1,4,0:0:0:0:
160,96,489550,1,0,0:0:0:0:
160,96,489866,1,0,0:0:0:0:
352,96,490024,1,8,0:0:0:0:
160,96,490498,1,0,0:0:0:0:
160,96,490656,1,0,0:0:0:0:
160,96,490971,1,0,0:0:0:0:
160,96,491445,1,0,0:0:0:0:
160,96,491761,1,0,0:0:0:0:
352,96,491919,1,8,0:0:0:0:
352,96,492077,1,8,0:0:0:0:
352,96,492235,1,8,0:0:0:0:
352,96,492392,1,8,0:0:0:0:
352,96,492550,1,8,0:0:0:0:
352,288,492708,1,12,0:0:0:0:
160,288,492866,1,4,0:0:0:0:
160,96,493340,1,0,0:0:0:0:
160,96,493656,1,0,0:0:0:0:
160,96,493735,1,0,0:0:0:0:
352,96,493814,1,8,0:0:0:0:
160,96,494287,1,0,0:0:0:0:
160,96,494366,1,0,0:0:0:0:
160,96,494445,1,0,0:0:0:0:
160,96,494761,1,0,0:0:0:0:
160,96,495235,1,0,0:0:0:0:
160,96,495550,1,0,0:0:0:0:
352,96,495708,1,8,0:0:0:0:
160,96,496024,1,0,0:0:0:0:
160,96,496103,1,0,0:0:0:0:
160,96,496182,1,0,0:0:0:0:
160,96,496261,1,0,0:0:0:0:
352,96,496340,1,8,0:0:0:0:
160,288,496656,1,4,0:0:0:0:
160,96,497129,1,0,0:0:0:0:
160,96,497445,1,0,0:0:0:0:
352,96,497603,1,8,0:0:0:0:
160,96,498077,1,0,0:0:0:0:
160,96,498156,1,0,0:0:0:0:
352,96,498235,1,8,0:0:0:0:
160,96,498550,1,0,0:0:0:0:
160,96,498787,1,0,0:0:0:0:
160,96,499024,1,0,0:0:0:0:
160,96,499182,1,0,0:0:0:0:
352,96,499419,1,8,0:0:0:0:
352,96,499498,1,8,0:0:0:0:
352,96,499656,1,8,0:0:0:0:
160,288,499814,1,4,0:0:0:0:
160,288,499971,1,4,0:0:0:0:
352,288,500129,1,12,0:0:0:0:
352,288,500287,1,12,0:0:0:0:
160,288,500445,1,4,0:0:0:0:
160,96,500919,1,0,0:0:0:0:
160,96,501235,1,0,0:0:0:0:
160,96,501314,1,0,0:0:0:0:
352,96,501392,1,8,0:0:0:0:
160,96,501866,1,0,0:0:0:0:
160,96,501945,1,0,0:0:0:0:
160,96,502024,1,0,0:0:0:0:
160,96,502340,1,0,0:0:0:0:
160,96,502814,1,0,0:0:0:0:
160,96,503129,1,0,0:0:0:0:
160,96,503208,1,0,0:0:0:0:
352,96,503287,1,8,0:0:0:0:
160,96,503603,1,0,0:0:0:0:
160,96,503682,1,0,0:0:0:0:
160,96,503761,1,0,0:0:0:0:
352,96,503840,1,8,0:0:0:0:
352,96,503919,1,8,0:0:0:0:
160,96,503998,1,0,0:0:0:0:
160,96,504077,1,0,0:0:0:0:
160,96,504156,1,0,0:0:0:0:
352,288,504235,1,12,0:0:0:0:
160,96,504708,1,0,0:0:0:0:
160,96,505024,1,0,0:0:0:0:
352,96,505182,1,8,0:0:0:0:
160,96,505656,1,0,0:0:0:0:
160,96,505735,1,0,0:0:0:0:
352,96,505814,1,8,0:0:0:0:
352,96,506129,1,8,0:0:0:0:
352,96,506445,1,8,0:0:0:0:
352,96,506498,1,8,0:0:0:0:
352,96,506550,1,8,0:0:0:0:
352,96,506656,1,8,0:0:0:0:
352,96,506761,1,8,0:0:0:0:
352,96,506814,1,8,0:0:0:0:
352,96,506866,1,8,0:0:0:0:
352,96,506971,1,8,0:0:0:0:
160,96,507077,1,0,0:0:0:0:
160,96,507129,1,0,0:0:0:0:
160,96,507182,1,0,0:0:0:0:
160,96,507287,1,0,0:0:0:0:
160,96,507392,1,0,0:0:0:0:
160,96,507498,1,0,0:0:0:0:
160,96,507603,1,0,0:0:0:0:
352,288,507708,1,12,0:0:0:0:
352,288,507866,1,12,0:0:0:0:
160,288,508024,1,4,0:0:0:0:
160,96,508340,1,0,0:0:0:0:
160,96,508498,1,0,0:0:0:0:
160,96,508814,1,0,0:0:0:0:
352,96,508971,1,8,0:0:0:0:
160,96,509445,1,0,0:0:0:0:
160,96,509524,1,0,0:0:0:0:
160,96,509603,1,0,0:0:0:0:
160,96,509919,1,0,0:0:0:0:
160,96,510392,1,0,0:0:0:0:
160,96,510708,1,0,0:0:0:0:
352,96,510866,1,8,0:0:0:0:
160,96,511182,1,0,0:0:0:0:
160,96,511261,1,0,0:0:0:0:
160,96,511340,1,0,0:0:0:0:
160,96,511419,1,0,0:0:0:0:
352,288,511498,1,12,0:0:0:0:
160,288,511814,1,4,0:0:0:0:
160,96,512287,1,0,0:0:0:0:
160,96,512603,1,0,0:0:0:0:
352,96,512761,1,8,0:0:0:0:
160,96,513235,1,0,0:0:0:0:
160,96,513314,1,0,0:0:0:0:
160,96,513392,1,0,0:0:0:0:
160,96,513708,1,0,0:0:0:0:
160,96,514182,1,0,0:0:0:0:
352,96,514340,1,8,0:0:0:0:
160,96,514498,1,0,0:0:0:0:
352,96,514656,1,8,0:0:0:0:
160,96,514814,1,0,0:0:0:0:
160,96,514892,1,0,0:0:0:0:
352,96,514971,1,8,0:0:0:0:
352,96,515050,1,8,0:0:0:0:
160,96,515129,1,0,0:0:0:0:
160,96,515208,1,0,0:0:0:0:
352,96,515287,1,8,0:0:0:0:
352,96,515366,1,8,0:0:0:0:
352,96,515445,1,8,0:0:0:0:
352,96,515524,1,8,0:0:0:0:
160,288,515603,1,4,0:0:0:0:
160,96,515919,1,0,0:0:0:0:
160,96,516077,1,0,0:0:0:0:
160,96,516392,1,0,0:0:0:0:
352,96,516550,1,8,0:0:0:0:
160,96,517024,1,0,0:0:0:0:
160,96,517340,1,0,0:0:0:0:
352,96,517498,1,8,0:0:0:0:
352,96,517537,1,8,0:0:0:0:
352,96,517656,1,8,0:0:0:0:
352,96,517695,1,8,0:0:0:0:
352,96,517814,1,8,0:0:0:0:
352,96,517853,1,8,0:0:0:0:
352,96,517971,1,8,0:0:0:0:
352,96,518011,1,8,0:0:0:0:
352,96,518129,1,8,0:0:0:0:
352,96,518169,1,8,0:0:0:0:
352,96,518287,1,8,0:0:0:0:
352,96,518327,1,8,0:0:0:0:
160,96,518445,1,0,0:0:0:0:
160,96,518485,1,0,0:0:0:0:
160,96,518603,1,0,0:0:0:0:
160,96,518642,1,0,0:0:0:0:
160,96,518761,1,0,0:0:0:0:
160,96,518800,1,0,0:0:0:0:
160,96,518919,1,0,0:0:0:0:
160,96,518958,1,0,0:0:0:0:
352,288,519077,1,12,0:0:0:0:
352,288,519235,1,12,0:0:0:0:
160,288,519392,1,4,0:0:0:0:
160,96,519708,1,0,0:0:0:0:
160,96,520024,1,0,0:0:0:0:
160,96,520103,1,0,0:0:0:0:
160,96,520182,1,0,0:0:0:0:
160,96,520261,1,0,0:0:0:0:
352,96,520340,1,8,0:0:0:0:
160,96,520656,1,0,0:0:0:0:
160,96,520971,1,0,0:0:0:0:
160,96,521050,1,0,0:0:0:0:
160,96,521129,1,0,0:0:0:0:
160,96,521208,1,0,0:0:0:0:
160,96,521287,1,0,0:0:0:0:
160,96,521603,1,0,0:0:0:0:
160,96,521919,1,0,0:0:0:0:
352,96,522235,1,8,0:0:0:0:
160,96,522314,1,0,0:0:0:0:
160,96,522392,1,0,0:0:0:0:
160,96,522471,1,0,0:0:0:0:
160,96,522550,1,0,0:0:0:0:
160,96,522629,1,0,0:0:0:0:
160,96,522708,1,0,0:0:0:0:
160,96,522787,1,0,0:0:0:0:
160,96,522866,1,0,0:0:0:0:
160,96,522945,1,0,0:0:0:0:
160,96,523024,1,0,0:0:0:0:
160,96,523103,1,0,0:0:0:0:
160,96,523182,1,0,0:0:0:0:
160,96,523498,1,0,0:0:0:0:
160,96,523814,1,0,0:0:0:0:
160,96,523892,1,0,0:0:0:0:
160,96,523971,1,0,0:0:0:0:
160,96,524050,1,0,0:0:0:0:
352,96,524129,1,8,0:0:0:0:
160,96,524445,1,0,0:0:0:0:
352,96,524761,1,8,0:0:0:0:
160,96,524840,1,0,0:0:0:0:
160,96,524919,1,0,0:0:0:0:
160,96,524998,1,0,0:0:0:0:
160,96,525077,1,0,0:0:0:0:
160,96,525392,1,0,0:0:0:0:
160,96,525708,1,0,0:0:0:0:
352,96,526024,1,8,0:0:0:0:
160,96,526103,1,0,0:0:0:0:
160,96,526182,1,0,0:0:0:0:
160,96,526261,1,0,0:0:0:0:
160,96,526340,1,0,0:0:0:0:
160,96,526419,1,0,0:0:0:0:
160,96,526498,1,0,0:0:0:0:
160,96,526577,1,0,0:0:0:0:
352,96,526656,1,8,0:0:0:0:
352,96,526735,1,8,0:0:0:0:
160,96,526814,1,0,0:0:0:0:
160,96,526892,1,0,0:0:0:0:
160,96,526971,1,0,0:0:0:0:
160,96,527287,1,0,0:0:0:0:
160,96,527603,1,0,0:0:0:0:
160,96,527682,1,0,0:0:0:0:
160,96,527761,1,0,0:0:0:0:
160,96,527840,1,0,0:0:0:0:
352,96,527919,1,8,0:0:0:0:
160,96,528235,1,0,0:0:0:0:
160,96,528550,1,0,0:0:0:0:
160,96,528629,1,0,0:0:0:0:
160,96,528708,1,0,0:0:0:0:
160,96,528787,1,0,0:0:0:0:
352,96,528866,1,8,0:0:0:0:
160,96,529182,1,0,0:0:0:0:
160,96,529498,1,0,0:0:0:0:
352,96,529813,1,8,0:0:0:0:
160,96,529892,1,0,0:0:0:0:
160,96,529971,1,0,0:0:0:0:
160,96,530050,1,0,0:0:0:0:
160,96,530129,1,0,0:0:0:0:
160,96,530208,1,0,0:0:0:0:
160,96,530287,1,0,0:0:0:0:
160,96,530366,1,0,0:0:0:0:
160,96,530445,1,0,0:0:0:0:
160,96,530524,1,0,0:0:0:0:
160,96,530603,1,0,0:0:0:0:
160,96,530682,1,0,0:0:0:0:
160,96,530761,1,0,0:0:0:0:
160,96,531077,1,0,0:0:0:0:
160,96,531392,1,0,0:0:0:0:
160,96,531471,1,0,0:0:0:0:
160,96,531550,1,0,0:0:0:0:
160,96,531629,1,0,0:0:0:0:
352,96,531708,1,8,0:0:0:0:
160,96,532024,1,0,0:0:0:0:
352,96,532340,1,8,0:0:0:0:
352,96,532419,1,8,0:0:0:0:
160,96,532498,1,0,0:0:0:0:
160,96,532577,1,0,0:0:0:0:
160,96,532656,1,0,0:0:0:0:
160,96,532971,1,0,0:0:0:0:
160,96,533287,1,0,0:0:0:0:
352,96,533603,1,8,0:0:0:0:
160,96,533682,1,0,0:0:0:0:
160,96,533761,1,0,0:0:0:0:
160,96,533840,1,0,0:0:0:0:
160,96,533919,1,0,0:0:0:0:
160,96,533998,1,0,0:0:0:0:
160,96,534077,1,0,0:0:0:0:
160,96,534156,1,0,0:0:0:0:
352,96,534235,1,8,0:0:0:0:
352,96,534313,1,8,0:0:0:0:
352,96,534392,1,8,0:0:0:0:
352,96,534471,1,8,0:0:0:0:
160,288,534550,1,4,0:0:0:0:
160,96,534866,1,0,0:0:0:0:
160,96,535182,1,0,0:0:0:0:
160,96,535261,1,0,0:0:0:0:
160,96,535340,1,0,0:0:0:0:
160,96,535419,1,0,0:0:0:0:
352,96,535498,1,8,0:0:0:0:
160,96,535814,1,0,0:0:0:0:
160,96,536129,1,0,0:0:0:0:
160,96,536208,1,0,0:0:0:0:
160,96,536287,1,0,0:0:0:0:
160,96,536366,1,0,0:0:0:0:
160,96,536445,1,0,0:0:0:0:
160,96,536761,1,0,0:0:0:0:
160,96,537077,1,0,0:0:0:0:
352,96,537392,1,8,0:0:0:0:
160,96,537471,1,0,0:0:0:0:
160,96,537550,1,0,0:0:0:0:
160,96,537629,1,0,0:0:0:0:
160,96,537708,1,0,0:0:0:0:
160,96,537787,1,0,0:0:0:0:
160,96,537866,1,0,0:0:0:0:
160,96,537945,1,0,0:0:0:0:
160,96,538024,1,0,0:0:0:0:
160,96,538103,1,0,0:0:0:0:
160,96,538182,1,0,0:0:0:0:
160,96,538261,1,0,0:0:0:0:
160,96,538340,1,0,0:0:0:0:
160,96,538656,1,0,0:0:0:0:
160,96,538971,1,0,0:0:0:0:
160,96,539050,1,0,0:0:0:0:
160,96,539129,1,0,0:0:0:0:
160,96,539208,1,0,0:0:0:0:
352,96,539287,1,8,0:0:0:0:
160,96,539603,1,0,0:0:0:0:
352,96,539919,1,8,0:0:0:0:
160,96,539998,1,0,0:0:0:0:
160,96,540077,1,0,0:0:0:0:
160,96,540156,1,0,0:0:0:0:
160,96,540235,1,0,0:0:0:0:
160,96,540550,1,0,0:0:0:0:
160,96,540866,1,0,0:0:0:0:
352,96,541182,1,8,0:0:0:0:
160,96,541261,1,0,0:0:0:0:
160,96,541340,1,0,0:0:0:0:
160,96,541419,1,0,0:0:0:0:
160,96,541498,1,0,0:0:0:0:
160,96,541577,1,0,0:0:0:0:
160,96,541656,1,0,0:0:0:0:
160,96,541735,1,0,0:0:0:0:
352,96,541814,1,8,0:0:0:0:
352,96,541893,1,8,0:0:0:0:
160,96,541971,1,0,0:0:0:0:
160,96,542050,1,0,0:0:0:0:
160,96,542129,1,0,0:0:0:0:
160,96,542445,1,0,0:0:0:0:
160,96,542761,1,0,0:0:0:0:
160,96,542840,1,0,0:0:0:0:
160,96,542919,1,0,0:0:0:0:
160,96,542998,1,0,0:0:0:0:
352,96,543077,1,8,0:0:0:0:
160,96,543393,1,0,0:0:0:0:
160,96,543708,1,0,0:0:0:0:
160,96,543787,1,0,0:0:0:0:
160,96,543866,1,0,0:0:0:0:
160,96,543945,1,0,0:0:0:0:
352,96,544024,1,8,0:0:0:0:
160,96,544340,1,0,0:0:0:0:
160,96,544656,1,0,0:0:0:0:
352,96,544971,1,8,0:0:0:0:
160,96,545050,1,0,0:0:0:0:
160,96,545129,1,0,0:0:0:0:
160,96,545208,1,0,0:0:0:0:
160,96,545287,1,0,0:0:0:0:
160,96,545366,1,0,0:0:0:0:
160,96,545445,1,0,0:0:0:0:
160,96,545524,1,0,0:0:0:0:
160,96,545603,1,0,0:0:0:0:
160,96,545682,1,0,0:0:0:0:
160,96,545761,1,0,0:0:0:0:
160,96,545840,1,0,0:0:0:0:
160,96,545919,1,0,0:0:0:0:
160,96,546235,1,0,0:0:0:0:
160,96,546550,1,0,0:0:0:0:
160,96,546629,1,0,0:0:0:0:
160,96,546708,1,0,0:0:0:0:
160,96,546787,1,0,0:0:0:0:
352,96,546866,1,8,0:0:0:0:
160,96,547182,1,0,0:0:0:0:
352,96,547498,1,8,0:0:0:0:
352,96,547577,1,8,0:0:0:0:
160,96,547656,1,0,0:0:0:0:
160,96,547735,1,0,0:0:0:0:
160,96,547814,1,0,0:0:0:0:
160,96,548129,1,0,0:0:0:0:
160,96,548445,1,0,0:0:0:0:
352,96,548761,1,8,0:0:0:0:
352,96,548840,1,8,0:0:0:0:
160,96,548919,1,0,0:0:0:0:
160,96,548998,1,0,0:0:0:0:
352,96,549077,1,8,0:0:0:0:
160,96,549156,1,0,0:0:0:0:
160,96,549235,1,0,0:0:0:0:
160,96,549314,1,0,0:0:0:0:
352,96,549393,1,8,0:0:0:0:
352,96,549471,1,8,0:0:0:0:
352,96,549550,1,8,0:0:0:0:
352,96,549629,1,8,0:0:0:0:
160,288,549708,1,4,0:0:0:0:
160,288,549866,1,4,0:0:0:0:
160,288,550024,1,4,0:0:0:0:
160,288,550182,1,4,0:0:0:0:
160,288,550656,1,4,0:0:0:0:
160,288,550814,1,4,0:0:0:0:
160,288,550971,1,4,0:0:0:0:
160,288,551129,1,4,0:0:0:0:
160,288,551603,1,4,0:0:0:0:
160,288,551761,1,4,0:0:0:0:
160,288,551919,1,4,0:0:0:0:
160,288,552077,1,4,0:0:0:0:
160,288,552550,1,4,0:0:0:0:
160,288,552708,1,4,0:0:0:0:
160,288,552866,1,4,0:0:0:0:
160,288,553024,1,4,0:0:0:0:
352,288,553498,1,12,0:0:0:0:
256,192,553656,12,0,562971,0:0:0:0:
352,96,573707,5,8,0:0:0:0:
352,96,573746,1,8,0:0:0:0:
352,96,574180,1,8,0:0:0:0:
352,96,574654,1,8,0:0:0:0:
352,96,576233,1,8,0:0:0:0:
352,96,576273,1,8,0:0:0:0:
352,96,576707,1,8,0:0:0:0:
352,96,577180,1,8,0:0:0:0:
352,96,578759,1,8,0:0:0:0:
352,96,578799,1,8,0:0:0:0:
352,96,579233,1,8,0:0:0:0:
352,96,579707,1,8,0:0:0:0:
352,96,581286,1,8,0:0:0:0:
352,96,581325,1,8,0:0:0:0:
352,96,581759,1,8,0:0:0:0:
352,96,582233,1,8,0:0:0:0:
160,288,583812,1,4,0:0:0:0:
160,288,584286,1,4,0:0:0:0:
160,288,584759,1,4,0:0:0:0:
352,288,586338,1,12,0:0:0:0:
352,288,586812,1,12,0:0:0:0:
352,288,587286,1,12,0:0:0:0:
160,288,588865,1,4,0:0:0:0:
160,288,589338,1,4,0:0:0:0:
160,288,589812,1,4,0:0:0:0:
160,288,591391,1,4,0:0:0:0:
160,288,591865,1,4,0:0:0:0:
160,288,592338,1,4,0:0:0:0:
352,96,592654,1,8,0:0:0:0:
352,96,592694,1,8,0:0:0:0:
160,96,593128,1,0,0:0:0:0:
160,96,593286,1,0,0:0:0:0:
160,96,593602,1,0,0:0:0:0:
160,96,593759,1,0,0:0:0:0:
160,288,593917,1,4,0:0:0:0:
160,288,594391,1,4,0:0:0:0:
160,288,594865,1,4,0:0:0:0:
160,96,595180,1,0,0:0:0:0:
160,96,595338,1,0,0:0:0:0:
352,96,595496,1,8,0:0:0:0:
160,96,595812,1,0,0:0:0:0:
160,96,595970,1,0,0:0:0:0:
352,96,596128,1,8,0:0:0:0:
160,288,596444,1,4,0:0:0:0:
352,96,596759,1,8,0:0:0:0:
160,288,596917,1,4,0:0:0:0:
160,288,597391,1,4,0:0:0:0:
160,96,597707,1,0,0:0:0:0:
160,96,597865,1,0,0:0:0:0:
352,96,598023,1,8,0:0:0:0:
160,96,598338,1,0,0:0:0:0:
160,96,598496,1,0,0:0:0:0:
352,96,598654,1,8,0:0:0:0:
160,288,598970,1,4,0:0:0:0:
352,96,599286,1,8,0:0:0:0:
160,288,599444,1,4,0:0:0:0:
160,96,599602,1,0,0:0:0:0:
160,96,599759,1,0,0:0:0:0:
160,288,599917,1,4,0:0:0:0:
160,96,600233,1,0,0:0:0:0:
160,96,600312,1,0,0:0:0:0:
160,96,600391,1,0,0:0:0:0:
160,96,600470,1,0,0:0:0:0:
352,96,600549,1,8,0:0:0:0:
160,96,600865,1,0,0:0:0:0:
160,96,600944,1,0,0:0:0:0:
160,96,601023,1,0,0:0:0:0:
160,96,601102,1,0,0:0:0:0:
352,96,601180,1,8,0:0:0:0:
160,288,601496,1,4,0:0:0:0:
352,96,601654,1,8,0:0:0:0:
352,96,601733,1,8,0:0:0:0:
352,96,601812,1,8,0:0:0:0:
160,288,601970,1,4,0:0:0:0:
160,96,602128,1,0,0:0:0:0:
160,96,602207,1,0,0:0:0:0:
160,96,602286,1,0,0:0:0:0:
160,96,602365,1,0,0:0:0:0:
352,288,602444,1,12,0:0:0:0:
160,96,602602,1,0,0:0:0:0:
160,96,602680,1,0,0:0:0:0:
160,96,602759,1,0,0:0:0:0:
160,96,602838,1,0,0:0:0:0:
352,288,602917,1,12,0:0:0:0:
160,96,603075,1,0,0:0:0:0:
160,96,603154,1,0,0:0:0:0:
160,96,603233,1,0,0:0:0:0:
160,96,603312,1,0,0:0:0:0:
160,96,603391,1,0,0:0:0:0:
160,96,603549,1,0,0:0:0:0:
352,288,603707,1,12,0:0:0:0:
160,96,603865,1,0,0:0:0:0:
160,288,604023,1,4,0:0:0:0:
352,96,604338,1,8,0:0:0:0:
160,96,604496,1,0,0:0:0:0:
352,96,604654,1,8,0:0:0:0:
160,288,604970,1,4,0:0:0:0:
352,96,605286,1,8,0:0:0:0:
160,96,605444,1,0,0:0:0:0:
352,96,605602,1,8,0:0:0:0:
160,96,605759,1,0,0:0:0:0:
352,96,605917,1,8,0:0:0:0:
352,96,606233,1,8,0:0:0:0:
160,96,606391,1,0,0:0:0:0:
160,288,606549,1,4,0:0:0:0:
352,96,606865,1,8,0:0:0:0:
160,96,607023,1,0,0:0:0:0:
352,96,607180,1,8,0:0:0:0:
160,288,607496,1,4,0:0:0:0:
352,96,607812,1,8,0:0:0:0:
160,96,607970,1,0,0:0:0:0:
352,96,608128,1,8,0:0:0:0:
160,96,608286,1,0,0:0:0:0:
160,96,608365,1,0,0:0:0:0:
352,96,608444,1,8,0:0:0:0:
160,288,608759,1,4,0:0:0:0:
352,288,609075,1,12,0:0:0:0:
352,96,609391,1,8,0:0:0:0:
160,96,609549,1,0,0:0:0:0:
352,96,609707,1,8,0:0:0:0:
160,288,610023,1,4,0:0:0:0:
352,96,610338,1,8,0:0:0:0:
160,96,610496,1,0,0:0:0:0:
352,96,610654,1,8,0:0:0:0:
160,96,610812,1,0,0:0:0:0:
352,96,610970,1,8,0:0:0:0:
352,288,611286,1,12,0:0:0:0:
160,288,611602,1,4,0:0:0:0:
352,288,612075,1,12,0:0:0:0:
160,288,612549,1,4,0:0:0:0:
352,96,612786,1,8,0:0:0:0:
352,96,612865,1,8,0:0:0:0:
352,96,613023,1,8,0:0:0:0:
352,96,613180,1,8,0:0:0:0:
352,96,613338,1,8,0:0:0:0:
352,96,613496,1,8,0:0:0:0:
352,96,613654,1,8,0:0:0:0:
352,288,613812,1,12,0:0:0:0:
160,288,614128,1,4,0:0:0:0:
352,96,614444,1,8,0:0:0:0:
160,96,614602,1,0,0:0:0:0:
352,96,614759,1,8,0:0:0:0:
160,288,615075,1,4,0:0:0:0:
352,96,615391,1,8,0:0:0:0:
160,96,615549,1,0,0:0:0:0:
352,96,615707,1,8,0:0:0:0:
160,96,615865,1,0,0:0:0:0:
352,96,616023,1,8,0:0:0:0:
160,288,616338,1,4,0:0:0:0:
160,288,616654,1,4,0:0:0:0:
352,96,616970,1,8,0:0:0:0:
160,96,617128,1,0,0:0:0:0:
160,96,617207,1,0,0:0:0:0:
352,96,617286,1,8,0:0:0:0:
160,288,617602,1,4,0:0:0:0:
352,96,617917,1,8,0:0:0:0:
160,96,618075,1,0,0:0:0:0:
352,96,618233,1,8,0:0:0:0:
160,96,618391,1,0,0:0:0:0:
160,96,618470,1,0,0:0:0:0:
352,96,618549,1,8,0:0:0:0:
160,288,618865,1,4,0:0:0:0:
352,288,619180,1,12,0:0:0:0:
352,288,619654,1,12,0:0:0:0:
352,96,620128,1,8,0:0:0:0:
160,96,620286,1,0,0:0:0:0:
352,288,620444,1,12,0:0:0:0:
352,96,620680,1,8,0:0:0:0:
352,96,620759,1,8,0:0:0:0:
352,96,620917,1,8,0:0:0:0:
352,96,621075,1,8,0:0:0:0:
352,96,621233,1,8,0:0:0:0:
160,96,621391,1,0,0:0:0:0:
160,96,621707,1,0,0:0:0:0:
160,96,621944,1,0,0:0:0:0:
160,96,622180,1,0,0:0:0:0:
160,96,622417,1,0,0:0:0:0:
352,96,622575,1,8,0:0:0:0:
352,96,622654,1,8,0:0:0:0:
160,96,622812,1,0,0:0:0:0:
352,96,622970,1,8,0:0:0:0:
160,96,623128,1,0,0:0:0:0:
352,96,623286,1,8,0:0:0:0:
160,96,623444,1,0,0:0:0:0:
352,96,623602,1,8,0:0:0:0:
352,96,623680,1,8,0:0:0:0:
352,96,623759,1,8,0:0:0:0:
352,96,623838,1,8,0:0:0:0:
160,288,623917,1,4,0:0:0:0:
352,288,624075,1,12,0:0:0:0:
160,288,624233,1,4,0:0:0:0:
160,96,624549,1,0,0:0:0:0:
160,96,624707,1,0,0:0:0:0:
352,96,624865,1,8,0:0:0:0:
160,288,625023,1,4,0:0:0:0:
160,288,625180,1,4,0:0:0:0:
352,96,625496,1,8,0:0:0:0:
160,96,625654,1,0,0:0:0:0:
352,96,625812,1,8,0:0:0:0:
160,96,625970,1,0,0:0:0:0:
160,96,626049,1,0,0:0:0:0:
352,96,626128,1,8,0:0:0:0:
160,288,626444,1,4,0:0:0:0:
352,288,626759,1,12,0:0:0:0:
352,96,627075,1,8,0:0:0:0:
160,96,627233,1,0,0:0:0:0:
352,288,627391,1,12,0:0:0:0:
160,288,627707,1,4,0:0:0:0:
352,96,628023,1,8,0:0:0:0:
160,96,628180,1,0,0:0:0:0:
352,96,628338,1,8,0:0:0:0:
160,96,628496,1,0,0:0:0:0:
352,96,628654,1,8,0:0:0:0:
160,288,628970,1,4,0:0:0:0:
352,96,629286,1,8,0:0:0:0:
352,96,629365,1,8,0:0:0:0:
160,96,629444,1,0,0:0:0:0:
160,96,629523,1,0,0:0:0:0:
352,96,629602,1,8,0:0:0:0:
352,96,629680,1,8,0:0:0:0:
352,96,629759,1,8,0:0:0:0:
352,96,629838,1,8,0:0:0:0:
160,96,629917,1,0,0:0:0:0:
160,96,629996,1,0,0:0:0:0:
352,96,630075,1,8,0:0:0:0:
352,96,630154,1,8,0:0:0:0:
160,96,630233,1,0,0:0:0:0:
160,96,630312,1,0,0:0:0:0:
352,96,630391,1,8,0:0:0:0:
352,96,630470,1,8,0:0:0:0:
352,96,630549,1,8,0:0:0:0:
352,96,630628,1,8,0:0:0:0:
160,96,630707,1,0,0:0:0:0:
160,96,630786,1,0,0:0:0:0:
352,96,630865,1,8,0:0:0:0:
352,96,630944,1,8,0:0:0:0:
160,96,631023,1,0,0:0:0:0:
160,96,631102,1,0,0:0:0:0:
352,96,631180,1,8,0:0:0:0:
160,96,631259,1,0,0:0:0:0:
160,96,631338,1,0,0:0:0:0:
160,96,631417,1,0,0:0:0:0:
352,96,631496,1,8,0:0:0:0:
352,96,631575,1,8,0:0:0:0:
160,96,631654,1,0,0:0:0:0:
160,96,631733,1,0,0:0:0:0:
352,96,631812,1,8,0:0:0:0:
352,96,631891,1,8,0:0:0:0:
352,96,631970,1,8,0:0:0:0:
352,96,632049,1,8,0:0:0:0:
160,96,632128,1,0,0:0:0:0:
160,96,632207,1,0,0:0:0:0:
352,96,632286,1,8,0:0:0:0:
352,96,632365,1,8,0:0:0:0:
160,96,632444,1,0,0:0:0:0:
160,96,632523,1,0,0:0:0:0:
352,96,632602,1,8,0:0:0:0:
160,96,632680,1,0,0:0:0:0:
352,96,632759,1,8,0:0:0:0:
352,96,632838,1,8,0:0:0:0:
160,96,632917,1,0,0:0:0:0:
160,96,632996,1,0,0:0:0:0:
352,96,633075,1,8,0:0:0:0:
352,96,633154,1,8,0:0:0:0:
160,96,633233,1,0,0:0:0:0:
160,96,633312,1,0,0:0:0:0:
352,96,633391,1,8,0:0:0:0:
352,96,633470,1,8,0:0:0:0:
352,96,633549,1,8,0:0:0:0:
352,96,633628,1,8,0:0:0:0:
160,96,633707,1,0,0:0:0:0:
352,96,633786,1,8,0:0:0:0:
352,96,633865,1,8,0:0:0:0:
352,96,633944,1,8,0:0:0:0:
160,96,634023,1,0,0:0:0:0:
352,96,634102,1,8,0:0:0:0:
352,96,634180,1,8,0:0:0:0:
352,96,634259,1,8,0:0:0:0:
160,288,634338,1,4,0:0:0:0:
160,288,634812,1,4,0:0:0:0:
352,96,634970,1,8,0:0:0:0:
160,288,635128,1,4,0:0:0:0:
160,288,635286,1,4,0:0:0:0:
352,96,635602,1,8,0:0:0:0:
160,96,635759,1,0,0:0:0:0:
352,96,635917,1,8,0:0:0:0:
160,96,636075,1,0,0:0:0:0:
352,96,636233,1,8,0:0:0:0:
160,96,636444,1,0,0:0:0:0:
160,96,636496,1,0,0:0:0:0:
352,96,636549,1,8,0:0:0:0:
352,96,636602,1,8,0:0:0:0:
352,96,636654,1,8,0:0:0:0:
352,96,636759,1,8,0:0:0:0:
352,96,636865,1,8,0:0:0:0:
352,96,636917,1,8,0:0:0:0:
352,96,636970,1,8,0:0:0:0:
352,96,637075,1,8,0:0:0:0:
160,96,637180,1,0,0:0:0:0:
160,96,637233,1,0,0:0:0:0:
160,96,637286,1,0,0:0:0:0:
160,96,637391,1,0,0:0:0:0:
160,96,637496,1,0,0:0:0:0:
160,96,637602,1,0,0:0:0:0:
160,96,637707,1,0,0:0:0:0:
352,96,637812,1,8,0:0:0:0:
352,96,637917,1,8,0:0:0:0:
352,96,638023,1,8,0:0:0:0:
352,96,638128,1,8,0:0:0:0:
160,96,638233,1,0,0:0:0:0:
160,96,638338,1,0,0:0:0:0:
352,288,638444,1,12,0:0:0:0:
352,96,638654,1,8,0:0:0:0:
352,96,638759,1,8,0:0:0:0:
160,96,638865,1,0,0:0:0:0:
160,96,638970,1,0,0:0:0:0:
352,288,639075,1,12,0:0:0:0:
160,288,639391,1,4,0:0:0:0:
352,96,642075,1,8,0:0:0:0:
352,96,642233,1,8,0:0:0:0:
352,96,642391,1,8,0:0:0:0:
352,96,642549,1,8,0:0:0:0:
352,96,642707,1,8,0:0:0:0:
352,96,642865,1,8,0:0:0:0:
352,96,643023,1,8,0:0:0:0:
352,96,643180,1,8,0:0:0:0:
352,96,643338,1,8,0:0:0:0:
352,96,643496,1,8,0:0:0:0:
352,96,643654,1,8,0:0:0:0:
352,96,643812,1,8,0:0:0:0:
352,96,643970,1,8,0:0:0:0:
352,96,644128,1,8,0:0:0:0:
352,96,644286,1,8,0:0:0:0:
160,96,644444,1,0,0:0:0:0:
160,96,644759,1,0,0:0:0:0:
160,96,645075,1,0,0:0:0:0:
160,96,645154,1,0,0:0:0:0:
160,96,645233,1,0,0:0:0:0:
160,96,645312,1,0,0:0:0:0:
352,96,645391,1,8,0:0:0:0:
160,96,645707,1,0,0:0:0:0:
160,96,646022,1,0,0:0:0:0:
160,96,646101,1,0,0:0:0:0:
160,96,646180,1,0,0:0:0:0:
160,96,646259,1,0,0:0:0:0:
352,96,646338,1,8,0:0:0:0:
160,96,646654,1,0,0:0:0:0:
160,96,646970,1,0,0:0:0:0:
352,96,647286,1,8,0:0:0:0:
160,96,647365,1,0,0:0:0:0:
160,96,647444,1,0,0:0:0:0:
160,96,647522,1,0,0:0:0:0:
160,96,647601,1,0,0:0:0:0:
160,96,647680,1,0,0:0:0:0:
160,96,647759,1,0,0:0:0:0:
160,96,647838,1,0,0:0:0:0:
160,96,647917,1,0,0:0:0:0:
160,96,647996,1,0,0:0:0:0:
160,96,648075,1,0,0:0:0:0:
160,96,648154,1,0,0:0:0:0:
160,96,648233,1,0,0:0:0:0:
160,96,648549,1,0,0:0:0:0:
160,96,648865,1,0,0:0:0:0:
160,96,648944,1,0,0:0:0:0:
160,96,649022,1,0,0:0:0:0:
160,96,649101,1,0,0:0:0:0:
352,96,649180,1,8,0:0:0:0:
160,96,649496,1,0,0:0:0:0:
352,96,649812,1,8,0:0:0:0:
160,96,649891,1,0,0:0:0:0:
160,96,649970,1,0,0:0:0:0:
160,96,650049,1,0,0:0:0:0:
160,96,650128,1,0,0:0:0:0:
160,96,650444,1,0,0:0:0:0:
160,96,650759,1,0,0:0:0:0:
352,96,651075,1,8,0:0:0:0:
352,96,651154,1,8,0:0:0:0:
352,96,651233,1,8,0:0:0:0:
352,96,651312,1,8,0:0:0:0:
352,96,651391,1,8,0:0:0:0:
352,96,651470,1,8,0:0:0:0:
352,96,651549,1,8,0:0:0:0:
352,96,651628,1,8,0:0:0:0:
352,96,651707,1,8,0:0:0:0:
352,96,651786,1,8,0:0:0:0:
352,96,651865,1,8,0:0:0:0:
352,96,651944,1,8,0:0:0:0:
160,288,652022,1,4,0:0:0:0:
