osu file format v14

[General]
AudioFilename: Avenged Sevenfold - Save me.mp3
AudioLeadIn: 0
PreviewTime: 166893
Countdown: 0
SampleSet: Normal
StackLeniency: 0.7
Mode: 1
LetterboxInBreaks: 0
WidescreenStoryboard: 0

[Editor]
Bookmarks: 319814,329920,382972
DistanceSpacing: 0.8
BeatDivisor: 6
GridSize: 32
TimelineZoom: 2.4

[Metadata]
Title:Save Me
TitleUnicode:Save Me
Artist:Avenged Sevenfold
ArtistUnicode:Avenged Sevenfold
Creator:Grimbow
Version:Martyr
Source:
Tags:Nightmare A7x Metal Rock frukoyurdakul
BeatmapID:1094988
BeatmapSetID:515626

[Difficulty]
HPDrainRate:3.5
CircleSize:5
OverallDifficulty:6.5
ApproachRate:5
SliderMultiplier:1.4
SliderTickRate:1

[Events]
//Background and Video events
0,0,"walpap.jpg",0,0
//Break Periods
2,563803,572508
//Storyboard Layer 0 (Background)
//Storyboard Layer 1 (Fail)
//Storyboard Layer 2 (Pass)
//Storyboard Layer 3 (Foreground)
//Storyboard Sound Samples

[TimingPoints]
236,315.789473684211,3,1,0,30,1,0
14051,-98.0392156862745,4,1,0,40,0,0
14209,-96.1538461538461,4,1,0,50,0,0
14367,-94.3396226415094,4,1,0,60,0,0
14525,-92.5925925925926,4,1,0,70,0,0
14683,-90.9090909090909,4,1,0,70,0,0
14841,-89.2857142857143,4,1,0,70,0,0
14999,-87.719298245614,4,1,0,70,0,0
15157,-86.2068965517241,4,1,0,70,0,0
15314,-84.7457627118644,4,1,0,70,0,0
45630,-84.7457627118644,4,1,0,75,0,0
45867,-100,4,1,0,70,0,0
159393,-100,4,1,0,80,0,0
166972,-100,4,1,0,70,0,1
197288,-100,4,1,0,70,0,0
204472,-100,4,1,0,100,0,0
204630,-100,4,1,0,70,0,0
242762,-100,4,1,0,80,0,0
250341,-100,4,1,0,70,0,1
284446,315.789473684211,4,1,0,30,1,0
284446,-100,4,1,0,70,0,0
299920,-100,4,1,0,40,0,0
305920,-100,4,1,0,20,0,0
306078,-100,4,1,0,30,0,0
306236,-100,4,1,0,40,0,0
306393,-100,4,1,0,50,0,0
306551,-100,4,1,0,60,0,0
306709,-100,4,1,0,70,0,0
306867,-100,4,1,0,80,0,0
307025,-100,4,1,0,90,0,0
307183,-100,4,1,0,100,0,0
309709,-100,4,1,0,80,0,1
309867,-95.2380952380952,4,1,0,80,0,1
329999,-90.9090909090909,4,1,0,80,0,1
347446,-100,4,1,0,70,0,0
367814,315.789473684211,3,1,0,30,1,0
367972,-100,4,1,0,40,0,0
447392,-100,4,1,0,70,0,0
485287,-100,4,1,0,70,0,1
519392,-100,4,1,0,70,0,0
554445,-100,4,1,0,35,0,0
556340,-100,4,1,0,30,0,0
558235,-100,4,1,0,25,0,0
560129,-100,4,1,0,20,0,0
562024,-100,4,1,0,15,0,0
573708,-100,4,1,0,40,0,0
583814,-100,4,1,0,70,0,0

[HitObjects]
256,192,236,5,8,0:0:0:0:
256,192,867,1,0,0:0:0:0:
256,192,1025,1,0,0:0:0:0:
256,192,1183,1,8,0:0:0:0:
256,192,1814,1,0,0:0:0:0:
256,192,1972,1,0,0:0:0:0:
256,192,2130,1,8,0:0:0:0:
256,192,3078,1,0,0:0:0:0:
256,192,3236,1,0,0:0:0:0:
256,192,3393,1,0,0:0:0:0:
256,192,3551,1,8,0:0:0:0:
256,192,3709,1,0,0:0:0:0:
256,192,3867,1,0,0:0:0:0:
256,192,4025,1,8,0:0:0:0:
256,192,4657,1,0,0:0:0:0:
256,192,4814,1,0,0:0:0:0:
256,192,4972,1,8,0:0:0:0:
256,192,5604,1,0,0:0:0:0:
256,192,5762,1,0,0:0:0:0:
256,192,5920,1,8,0:0:0:0:
256,192,6867,1,0,0:0:0:0:
256,192,7025,1,0,0:0:0:0:
256,192,7183,1,0,0:0:0:0:
256,192,7341,1,8,0:0:0:0:
256,192,7499,1,0,0:0:0:0:
256,192,7657,1,0,0:0:0:0:
256,192,7814,1,8,0:0:0:0:
256,192,8446,1,0,0:0:0:0:
256,192,8604,1,0,0:0:0:0:
256,192,8762,1,8,0:0:0:0:
256,192,9393,1,0,0:0:0:0:
256,192,9551,1,0,0:0:0:0:
256,192,9709,1,8,0:0:0:0:
256,192,10657,1,0,0:0:0:0:
256,192,10814,1,0,0:0:0:0:
256,192,10972,1,0,0:0:0:0:
256,192,11130,1,8,0:0:0:0:
256,192,11288,1,0,0:0:0:0:
256,192,11446,1,0,0:0:0:0:
256,192,11604,1,8,0:0:0:0:
256,192,12236,1,0,0:0:0:0:
256,192,12393,1,0,0:0:0:0:
256,192,12551,1,8,0:0:0:0:
256,192,13183,1,0,0:0:0:0:
256,192,13341,1,0,0:0:0:0:
256,192,13499,1,8,0:0:0:0:
256,192,13972,1,0,0:0:0:0:
256,192,14130,1,0,0:0:0:0:
256,192,14288,1,0,0:0:0:0:
256,192,14446,1,8,0:0:0:0:
256,192,14604,1,8,0:0:0:0:
256,192,14762,1,8,0:0:0:0:
256,192,14920,1,8,0:0:0:0:
256,192,15078,1,8,0:0:0:0:
256,192,15236,1,8,0:0:0:0:
256,192,15393,1,4,0:0:0:0:
256,192,15709,1,8,0:0:0:0:
256,192,16025,1,8,0:0:0:0:
256,192,16104,1,0,0:0:0:0:
256,192,16183,1,0,0:0:0:0:
256,192,16262,1,0,0:0:0:0:
256,192,16341,1,8,0:0:0:0:
256,192,16657,1,8,0:0:0:0:
256,192,16972,1,8,0:0:0:0:
256,192,17051,1,0,0:0:0:0:
256,192,17130,1,0,0:0:0:0:
256,192,17209,1,0,0:0:0:0:
256,192,17288,1,0,0:0:0:0:
256,192,17604,1,8,0:0:0:0:
256,192,17920,1,8,0:0:0:0:
256,192,18236,1,8,0:0:0:0:
256,192,18314,1,0,0:0:0:0:
256,192,18393,1,0,0:0:0:0:
256,192,18472,1,0,0:0:0:0:
256,192,18551,1,0,0:0:0:0:
256,192,18630,1,0,0:0:0:0:
256,192,18709,1,0,0:0:0:0:
256,192,18788,1,0,0:0:0:0:
256,192,18867,1,0,0:0:0:0:
256,192,18946,1,0,0:0:0:0:
256,192,19025,1,0,0:0:0:0:
256,192,19104,1,0,0:0:0:0:
256,192,19183,1,8,0:0:0:0:
256,192,19499,1,8,0:0:0:0:
256,192,19814,1,0,0:0:0:0:
256,192,19893,1,0,0:0:0:0:
256,192,19972,1,0,0:0:0:0:
256,192,20051,1,0,0:0:0:0:
256,192,20130,1,8,0:0:0:0:
256,192,20446,1,8,0:0:0:0:
256,192,20762,1,8,0:0:0:0:
256,192,20841,1,0,0:0:0:0:
256,192,20920,1,0,0:0:0:0:
256,192,20999,1,0,0:0:0:0:
256,192,21078,1,0,0:0:0:0:
256,192,21393,1,8,0:0:0:0:
256,192,21709,1,8,0:0:0:0:
256,192,22025,1,8,0:0:0:0:
256,192,22104,1,0,0:0:0:0:
256,192,22183,1,0,0:0:0:0:
256,192,22262,1,0,0:0:0:0:
256,192,22341,1,0,0:0:0:0:
256,192,22420,1,0,0:0:0:0:
256,192,22499,1,0,0:0:0:0:
256,192,22578,1,0,0:0:0:0:
256,192,22657,1,0,0:0:0:0:
256,192,22736,1,0,0:0:0:0:
256,192,22814,1,0,0:0:0:0:
256,192,22893,1,0,0:0:0:0:
256,192,22972,1,0,0:0:0:0:
256,192,23288,1,8,0:0:0:0:
256,192,23604,1,0,0:0:0:0:
256,192,23683,1,0,0:0:0:0:
256,192,23762,1,0,0:0:0:0:
256,192,23841,1,0,0:0:0:0:
256,192,23920,1,8,0:0:0:0:
256,192,24236,1,8,0:0:0:0:
256,192,24551,1,8,0:0:0:0:
256,192,24630,1,0,0:0:0:0:
256,192,24709,1,0,0:0:0:0:
256,192,24788,1,0,0:0:0:0:
256,192,24867,1,0,0:0:0:0:
256,192,25183,1,8,0:0:0:0:
256,192,25499,1,8,0:0:0:0:
256,192,25814,1,8,0:0:0:0:
256,192,25893,1,0,0:0:0:0:
256,192,25972,1,0,0:0:0:0:
256,192,26051,1,0,0:0:0:0:
256,192,26130,1,0,0:0:0:0:
256,192,26209,1,0,0:0:0:0:
256,192,26288,1,0,0:0:0:0:
256,192,26367,1,0,0:0:0:0:
256,192,26446,1,0,0:0:0:0:
256,192,26525,1,0,0:0:0:0:
256,192,26604,1,0,0:0:0:0:
256,192,26683,1,0,0:0:0:0:
256,192,26762,1,8,0:0:0:0:
256,192,27078,1,8,0:0:0:0:
256,192,27393,1,0,0:0:0:0:
256,192,27472,1,0,0:0:0:0:
256,192,27551,1,0,0:0:0:0:
256,192,27630,1,0,0:0:0:0:
256,192,27709,1,8,0:0:0:0:
256,192,28025,1,8,0:0:0:0:
256,192,28341,1,8,0:0:0:0:
256,192,28420,1,0,0:0:0:0:
256,192,28499,1,0,0:0:0:0:
256,192,28578,1,0,0:0:0:0:
256,192,28657,1,0,0:0:0:0:
256,192,28972,1,8,0:0:0:0:
256,192,29288,1,8,0:0:0:0:
256,192,29604,1,8,0:0:0:0:
256,192,29683,1,0,0:0:0:0:
256,192,29762,1,0,0:0:0:0:
256,192,29841,1,0,0:0:0:0:
256,192,29920,1,0,0:0:0:0:
256,192,29999,1,0,0:0:0:0:
256,192,30078,1,0,0:0:0:0:
256,192,30157,1,0,0:0:0:0:
256,192,30236,1,8,0:0:0:0:
256,192,30314,1,8,0:0:0:0:
256,192,30393,1,8,0:0:0:0:
256,192,30472,1,8,0:0:0:0:
256,192,30551,1,0,0:0:0:0:
256,192,30867,1,8,0:0:0:0:
256,192,31183,1,0,0:0:0:0:
256,192,31262,1,0,0:0:0:0:
256,192,31341,1,0,0:0:0:0:
256,192,31420,1,0,0:0:0:0:
256,192,31499,1,8,0:0:0:0:
256,192,31814,1,0,0:0:0:0:
256,192,32130,1,8,0:0:0:0:
256,192,32209,1,0,0:0:0:0:
256,192,32288,1,0,0:0:0:0:
256,192,32367,1,0,0:0:0:0:
256,192,32446,1,0,0:0:0:0:
256,192,32762,1,8,0:0:0:0:
256,192,33078,1,0,0:0:0:0:
256,192,33393,1,8,0:0:0:0:
256,192,33472,1,0,0:0:0:0:
256,192,33551,1,0,0:0:0:0:
256,192,33630,1,0,0:0:0:0:
256,192,33709,1,0,0:0:0:0:
256,192,33788,1,0,0:0:0:0:
256,192,33867,1,0,0:0:0:0:
256,192,33946,1,0,0:0:0:0:
256,192,34025,1,8,0:0:0:0:
256,192,34104,1,0,0:0:0:0:
256,192,34183,1,0,0:0:0:0:
256,192,34262,1,0,0:0:0:0:
256,192,34341,1,0,0:0:0:0:
256,192,34657,1,8,0:0:0:0:
256,192,34972,1,0,0:0:0:0:
256,192,35051,1,0,0:0:0:0:
256,192,35130,1,0,0:0:0:0:
256,192,35209,1,0,0:0:0:0:
256,192,35288,1,8,0:0:0:0:
256,192,35604,1,0,0:0:0:0:
256,192,35920,1,8,0:0:0:0:
256,192,35999,1,0,0:0:0:0:
256,192,36078,1,0,0:0:0:0:
256,192,36157,1,0,0:0:0:0:
256,192,36236,1,0,0:0:0:0:
256,192,36551,1,8,0:0:0:0:
256,192,36867,1,8,0:0:0:0:
256,192,37025,1,0,0:0:0:0:
256,192,37183,1,8,0:0:0:0:
256,192,37262,1,0,0:0:0:0:
256,192,37341,1,0,0:0:0:0:
256,192,37420,1,0,0:0:0:0:
256,192,37499,1,8,0:0:0:0:
256,192,37578,1,8,0:0:0:0:
256,192,37657,1,0,0:0:0:0:
256,192,37736,1,0,0:0:0:0:
256,192,37814,1,8,0:0:0:0:
256,192,37893,1,8,0:0:0:0:
256,192,37972,1,0,0:0:0:0:
256,192,38051,1,0,0:0:0:0:
256,192,38130,1,8,0:0:0:0:
256,192,38446,1,8,0:0:0:0:
256,192,38762,1,0,0:0:0:0:
256,192,38841,1,0,0:0:0:0:
256,192,38920,1,0,0:0:0:0:
256,192,38999,1,0,0:0:0:0:
256,192,39078,1,8,0:0:0:0:
256,192,39393,1,8,0:0:0:0:
256,192,39709,1,0,0:0:0:0:
256,192,39788,1,0,0:0:0:0:
256,192,39867,1,0,0:0:0:0:
256,192,39946,1,0,0:0:0:0:
256,192,40025,1,0,0:0:0:0:
256,192,40341,1,8,0:0:0:0:
256,192,40657,1,0,0:0:0:0:
256,192,40972,1,8,0:0:0:0:
256,192,41051,1,0,0:0:0:0:
256,192,41130,1,0,0:0:0:0:
256,192,41209,1,0,0:0:0:0:
256,192,41288,1,0,0:0:0:0:
256,192,41367,1,0,0:0:0:0:
256,192,41446,1,0,0:0:0:0:
256,192,41525,1,0,0:0:0:0:
256,192,41604,1,0,0:0:0:0:
256,192,41683,1,0,0:0:0:0:
256,192,41762,1,0,0:0:0:0:
256,192,41841,1,0,0:0:0:0:
256,192,41920,1,0,0:0:0:0:
256,192,42236,1,8,0:0:0:0:
256,192,42551,1,0,0:0:0:0:
256,192,42630,1,0,0:0:0:0:
256,192,42709,1,0,0:0:0:0:
256,192,42788,1,0,0:0:0:0:
256,192,42867,1,8,0:0:0:0:
256,192,43183,1,8,0:0:0:0:
256,192,43499,1,8,0:0:0:0:
256,192,43657,1,0,0:0:0:0:
256,192,43736,1,0,0:0:0:0:
256,192,43814,1,8,0:0:0:0:
256,192,43893,1,8,0:0:0:0:
256,192,43972,1,0,0:0:0:0:
256,192,44051,1,0,0:0:0:0:
256,192,44130,1,8,0:0:0:0:
256,192,44209,1,0,0:0:0:0:
256,192,44288,1,0,0:0:0:0:
256,192,44367,1,0,0:0:0:0:
256,192,44446,1,8,0:0:0:0:
256,192,44525,1,8,0:0:0:0:
256,192,44604,1,0,0:0:0:0:
256,192,44683,1,0,0:0:0:0:
256,192,44762,1,8,0:0:0:0:
256,192,44841,1,8,0:0:0:0:
256,192,44920,1,0,0:0:0:0:
256,192,44999,1,0,0:0:0:0:
256,192,45078,1,8,0:0:0:0:
256,192,45236,1,8,0:0:0:0:
256,192,45314,1,8,0:0:0:0:
256,192,45393,1,8,0:0:0:0:
256,192,45472,1,8,0:0:0:0:
256,192,45551,1,8,0:0:0:0:
256,192,45630,1,8,0:0:0:0:
256,192,45709,1,4,0:0:0:0:
256,192,46025,1,8,0:0:0:0:
256,192,46183,1,8,0:0:0:0:
256,192,46341,1,0,0:0:0:0:
256,192,46420,1,0,0:0:0:0:
256,192,46499,1,0,0:0:0:0:
256,192,46578,1,0,0:0:0:0:
256,192,46657,1,8,0:0:0:0:
256,192,46814,1,8,0:0:0:0:
256,192,46972,1,8,0:0:0:0:
256,192,47130,1,8,0:0:0:0:
256,192,47288,1,8,0:0:0:0:
256,192,47367,1,0,0:0:0:0:
256,192,47446,1,0,0:0:0:0:
256,192,47525,1,0,0:0:0:0:
256,192,47604,1,0,0:0:0:0:
256,192,47762,1,8,0:0:0:0:
256,192,47920,1,8,0:0:0:0:
256,192,48078,1,8,0:0:0:0:
256,192,48236,1,8,0:0:0:0:
256,192,48393,1,8,0:0:0:0:
256,192,48551,1,8,0:0:0:0:
256,192,48630,1,0,0:0:0:0:
256,192,48709,1,0,0:0:0:0:
256,192,48788,1,0,0:0:0:0:
256,192,48867,1,8,0:0:0:0:
256,192,48946,1,8,0:0:0:0:
256,192,49025,1,0,0:0:0:0:
256,192,49104,1,0,0:0:0:0:
256,192,49183,1,8,0:0:0:0:
256,192,49262,1,0,0:0:0:0:
256,192,49341,1,0,0:0:0:0:
256,192,49420,1,0,0:0:0:0:
256,192,49499,1,8,0:0:0:0:
256,192,49657,1,8,0:0:0:0:
256,192,49814,1,8,0:0:0:0:
256,192,49972,1,8,0:0:0:0:
256,192,50130,1,0,0:0:0:0:
256,192,50209,1,0,0:0:0:0:
256,192,50288,1,0,0:0:0:0:
256,192,50367,1,0,0:0:0:0:
256,192,50446,1,8,0:0:0:0:
256,192,50604,1,8,0:0:0:0:
256,192,50762,1,8,0:0:0:0:
256,192,50920,1,8,0:0:0:0:
256,192,51078,1,8,0:0:0:0:
256,192,51157,1,0,0:0:0:0:
256,192,51236,1,0,0:0:0:0:
256,192,51314,1,0,0:0:0:0:
256,192,51393,1,0,0:0:0:0:
256,192,51551,1,8,0:0:0:0:
256,192,51709,1,8,0:0:0:0:
256,192,51867,1,8,0:0:0:0:
256,192,52025,1,8,0:0:0:0:
256,192,52183,1,8,0:0:0:0:
256,192,52341,1,8,0:0:0:0:
256,192,52420,1,0,0:0:0:0:
256,192,52499,1,0,0:0:0:0:
256,192,52578,1,0,0:0:0:0:
256,192,52657,1,8,0:0:0:0:
256,192,52736,1,8,0:0:0:0:
256,192,52814,1,0,0:0:0:0:
256,192,52893,1,0,0:0:0:0:
256,192,52972,1,8,0:0:0:0:
256,192,53051,1,0,0:0:0:0:
256,192,53130,1,0,0:0:0:0:
256,192,53209,1,0,0:0:0:0:
256,192,53288,1,8,0:0:0:0:
256,192,53446,1,0,0:0:0:0:
256,192,53604,1,8,0:0:0:0:
256,192,53762,1,8,0:0:0:0:
256,192,53920,1,0,0:0:0:0:
256,192,53999,1,0,0:0:0:0:
256,192,54078,1,0,0:0:0:0:
256,192,54157,1,0,0:0:0:0:
256,192,54236,1,8,0:0:0:0:
256,192,54393,1,0,0:0:0:0:
256,192,54551,1,8,0:0:0:0:
256,192,54709,1,8,0:0:0:0:
256,192,54867,1,0,0:0:0:0:
256,192,54946,1,0,0:0:0:0:
256,192,55025,1,0,0:0:0:0:
256,192,55104,1,0,0:0:0:0:
256,192,55183,1,8,0:0:0:0:
256,192,55341,1,0,0:0:0:0:
256,192,55499,1,0,0:0:0:0:
256,192,55657,1,8,0:0:0:0:
256,192,55814,1,0,0:0:0:0:
256,192,55972,1,8,0:0:0:0:
256,192,56130,1,8,0:0:0:0:
256,192,56209,1,0,0:0:0:0:
256,192,56288,1,0,0:0:0:0:
256,192,56367,1,0,0:0:0:0:
256,192,56446,1,8,0:0:0:0:
256,192,56525,1,8,0:0:0:0:
256,192,56604,1,0,0:0:0:0:
256,192,56683,1,0,0:0:0:0:
256,192,56762,1,8,0:0:0:0:
256,192,56841,1,8,0:0:0:0:
256,192,56920,1,8,0:0:0:0:
256,192,56999,1,0,0:0:0:0:
256,192,57078,1,8,0:0:0:0:
256,192,57236,1,0,0:0:0:0:
256,192,57393,1,8,0:0:0:0:
256,192,57551,1,8,0:0:0:0:
256,192,57709,1,0,0:0:0:0:
256,192,57788,1,0,0:0:0:0:
256,192,57867,1,0,0:0:0:0:
256,192,57946,1,0,0:0:0:0:
256,192,58025,1,8,0:0:0:0:
256,192,58183,1,0,0:0:0:0:
256,192,58341,1,8,0:0:0:0:
256,192,58499,1,8,0:0:0:0:
256,192,58657,1,0,0:0:0:0:
256,192,58736,1,0,0:0:0:0:
256,192,58814,1,0,0:0:0:0:
256,192,58893,1,0,0:0:0:0:
256,192,58972,1,8,0:0:0:0:
256,192,59130,1,0,0:0:0:0:
256,192,59288,1,0,0:0:0:0:
256,192,59446,1,0,0:0:0:0:
256,192,59604,1,8,0:0:0:0:
256,192,59762,1,0,0:0:0:0:
256,192,59920,1,8,0:0:0:0:
256,192,59999,1,0,0:0:0:0:
256,192,60078,1,0,0:0:0:0:
256,192,60157,1,0,0:0:0:0:
256,192,60236,1,8,0:0:0:0:
256,192,60314,1,8,0:0:0:0:
256,192,60393,1,0,0:0:0:0:
256,192,60472,1,0,0:0:0:0:
256,192,60551,1,8,0:0:0:0:
256,192,60867,1,4,0:0:0:0:
256,192,61183,1,8,0:0:0:0:
256,192,61499,1,0,0:0:0:0:
256,192,61578,1,0,0:0:0:0:
256,192,61657,1,0,0:0:0:0:
256,192,61736,1,0,0:0:0:0:
256,192,61814,1,8,0:0:0:0:
256,192,62130,1,0,0:0:0:0:
256,192,62446,1,8,0:0:0:0:
256,192,62525,1,0,0:0:0:0:
256,192,62604,1,0,0:0:0:0:
256,192,62683,1,0,0:0:0:0:
256,192,62762,1,0,0:0:0:0:
256,192,63078,1,8,0:0:0:0:
256,192,63393,1,0,0:0:0:0:
256,192,63709,1,8,0:0:0:0:
256,192,63788,1,0,0:0:0:0:
256,192,63867,1,0,0:0:0:0:
256,192,63946,1,0,0:0:0:0:
256,192,64025,1,8,0:0:0:0:
256,192,64104,1,8,0:0:0:0:
256,192,64183,1,0,0:0:0:0:
256,192,64262,1,0,0:0:0:0:
256,192,64341,1,8,0:0:0:0:
256,192,64420,1,0,0:0:0:0:
256,192,64499,1,0,0:0:0:0:
256,192,64578,1,0,0:0:0:0:
256,192,64657,1,0,0:0:0:0:
256,192,64972,1,8,0:0:0:0:
256,192,65288,1,0,0:0:0:0:
256,192,65367,1,0,0:0:0:0:
256,192,65446,1,0,0:0:0:0:
256,192,65525,1,0,0:0:0:0:
256,192,65604,1,8,0:0:0:0:
256,192,65920,1,0,0:0:0:0:
256,192,66236,1,8,0:0:0:0:
256,192,66314,1,0,0:0:0:0:
256,192,66393,1,0,0:0:0:0:
256,192,66472,1,0,0:0:0:0:
256,192,66551,1,0,0:0:0:0:
256,192,66867,1,8,0:0:0:0:
256,192,67183,1,0,0:0:0:0:
256,192,67341,1,0,0:0:0:0:
256,192,67420,1,0,0:0:0:0:
256,192,67499,1,8,0:0:0:0:
256,192,67578,1,0,0:0:0:0:
256,192,67657,1,0,0:0:0:0:
256,192,67736,1,0,0:0:0:0:
256,192,67814,1,8,0:0:0:0:
256,192,67893,1,8,0:0:0:0:
256,192,67972,1,0,0:0:0:0:
256,192,68051,1,0,0:0:0:0:
256,192,68130,1,8,0:0:0:0:
256,192,68209,1,8,0:0:0:0:
256,192,68288,1,8,0:0:0:0:
256,192,68367,1,8,0:0:0:0:
256,192,68446,1,4,0:0:0:0:
256,192,68604,1,0,0:0:0:0:
256,192,68762,1,8,0:0:0:0:
256,192,69078,1,8,0:0:0:0:
256,192,69393,1,8,0:0:0:0:
256,192,69551,1,0,0:0:0:0:
256,192,69709,1,8,0:0:0:0:
256,192,70025,1,8,0:0:0:0:
256,192,70341,1,0,0:0:0:0:
256,192,70499,1,0,0:0:0:0:
256,192,70657,1,8,0:0:0:0:
256,192,70972,1,8,0:0:0:0:
256,192,71288,1,8,0:0:0:0:
256,192,71446,1,0,0:0:0:0:
256,192,71604,1,0,0:0:0:0:
256,192,71762,1,0,0:0:0:0:
256,192,71920,1,0,0:0:0:0:
256,192,72078,1,0,0:0:0:0:
256,192,72236,1,8,0:0:0:0:
256,192,72393,1,0,0:0:0:0:
256,192,72551,1,8,0:0:0:0:
256,192,72867,1,8,0:0:0:0:
256,192,73183,1,8,0:0:0:0:
256,192,73341,1,0,0:0:0:0:
256,192,73499,1,8,0:0:0:0:
256,192,73814,1,8,0:0:0:0:
256,192,74130,1,0,0:0:0:0:
256,192,74288,1,0,0:0:0:0:
256,192,74446,1,8,0:0:0:0:
256,192,74762,1,8,0:0:0:0:
256,192,75078,1,0,0:0:0:0:
256,192,75157,1,0,0:0:0:0:
256,192,75236,1,0,0:0:0:0:
256,192,75314,1,0,0:0:0:0:
256,192,75393,1,8,0:0:0:0:
256,192,75472,1,8,0:0:0:0:
256,192,75551,1,8,0:0:0:0:
256,192,75630,1,8,0:0:0:0:
256,192,75709,1,4,0:0:0:0:
256,192,75867,1,4,0:0:0:0:
256,192,76025,1,12,0:0:0:0:
256,192,76341,1,8,0:0:0:0:
256,192,76657,1,8,0:0:0:0:
256,192,76972,1,8,0:0:0:0:
256,192,77130,1,0,0:0:0:0:
256,192,77288,1,8,0:0:0:0:
256,192,77604,1,8,0:0:0:0:
256,192,77920,1,0,0:0:0:0:
256,192,78078,1,0,0:0:0:0:
256,192,78236,1,8,0:0:0:0:
256,192,78551,1,8,0:0:0:0:
256,192,78867,1,8,0:0:0:0:
256,192,79025,1,0,0:0:0:0:
256,192,79183,1,0,0:0:0:0:
256,192,79341,1,0,0:0:0:0:
256,192,79499,1,0,0:0:0:0:
256,192,79657,1,0,0:0:0:0:
256,192,79814,1,8,0:0:0:0:
256,192,79972,1,0,0:0:0:0:
256,192,80130,1,8,0:0:0:0:
256,192,80446,1,8,0:0:0:0:
256,192,80762,1,8,0:0:0:0:
256,192,80920,1,0,0:0:0:0:
256,192,81078,1,8,0:0:0:0:
256,192,81393,1,8,0:0:0:0:
256,192,81551,1,0,0:0:0:0:
256,192,81630,1,0,0:0:0:0:
256,192,81709,1,8,0:0:0:0:
256,192,81788,1,8,0:0:0:0:
256,192,81867,1,0,0:0:0:0:
256,192,81946,1,0,0:0:0:0:
256,192,82025,1,8,0:0:0:0:
256,192,82104,1,8,0:0:0:0:
256,192,82183,1,8,0:0:0:0:
256,192,82262,1,0,0:0:0:0:
256,192,82341,1,8,0:0:0:0:
256,192,82420,1,0,0:0:0:0:
256,192,82499,1,0,0:0:0:0:
256,192,82578,1,0,0:0:0:0:
256,192,82657,1,8,0:0:0:0:
256,192,82736,1,8,0:0:0:0:
256,192,82814,1,0,0:0:0:0:
256,192,82893,1,0,0:0:0:0:
256,192,82972,1,8,0:0:0:0:
256,192,83051,1,8,0:0:0:0:
256,192,83130,1,0,0:0:0:0:
256,192,83209,1,0,0:0:0:0:
256,192,83288,1,8,0:0:0:0:
256,192,83367,1,0,0:0:0:0:
256,192,83446,1,0,0:0:0:0:
256,192,83525,1,0,0:0:0:0:
256,192,83604,1,12,0:0:0:0:
256,192,84078,1,0,0:0:0:0:
256,192,84393,1,0,0:0:0:0:
256,192,84551,1,8,0:0:0:0:
256,192,84867,1,0,0:0:0:0:
256,192,85025,1,0,0:0:0:0:
256,192,85341,1,8,0:0:0:0:
256,192,85499,1,0,0:0:0:0:
256,192,85814,1,0,0:0:0:0:
256,192,85972,1,0,0:0:0:0:
256,192,86288,1,0,0:0:0:0:
256,192,86446,1,8,0:0:0:0:
256,192,86762,1,0,0:0:0:0:
256,192,86841,1,0,0:0:0:0:
256,192,86920,1,0,0:0:0:0:
256,192,86999,1,0,0:0:0:0:
256,192,87078,1,8,0:0:0:0:
256,192,87236,1,8,0:0:0:0:
256,192,87393,1,4,0:0:0:0:
256,192,87867,1,0,0:0:0:0:
256,192,88183,1,0,0:0:0:0:
256,192,88341,1,8,0:0:0:0:
256,192,88657,1,0,0:0:0:0:
256,192,88972,1,0,0:0:0:0:
256,192,89288,1,4,0:0:0:0:
256,192,89762,1,0,0:0:0:0:
256,192,90078,1,0,0:0:0:0:
256,192,90236,1,8,0:0:0:0:
256,192,90551,1,0,0:0:0:0:
256,192,90630,1,0,0:0:0:0:
256,192,90709,1,0,0:0:0:0:
256,192,90788,1,0,0:0:0:0:
256,192,90867,1,8,0:0:0:0:
256,192,91025,1,8,0:0:0:0:
256,192,91183,1,4,0:0:0:0:
256,192,91657,1,0,0:0:0:0:
256,192,91814,1,0,0:0:0:0:
256,192,91972,1,0,0:0:0:0:
256,192,92130,1,8,0:0:0:0:
256,192,92604,1,0,0:0:0:0:
256,192,92920,1,8,0:0:0:0:
256,192,93078,1,0,0:0:0:0:
256,192,93551,1,0,0:0:0:0:
256,192,93867,1,0,0:0:0:0:
256,192,94025,1,8,0:0:0:0:
256,192,94341,1,0,0:0:0:0:
256,192,94420,1,0,0:0:0:0:
256,192,94499,1,0,0:0:0:0:
256,192,94578,1,0,0:0:0:0:
256,192,94657,1,8,0:0:0:0:
256,192,94814,1,8,0:0:0:0:
256,192,94972,1,4,0:0:0:0:
256,192,95446,1,0,0:0:0:0:
256,192,95762,1,0,0:0:0:0:
256,192,95920,1,8,0:0:0:0:
256,192,96236,1,8,0:0:0:0:
256,192,96393,1,0,0:0:0:0:
256,192,96709,1,8,0:0:0:0:
256,192,96867,1,0,0:0:0:0:
256,192,97183,1,0,0:0:0:0:
256,192,97341,1,0,0:0:0:0:
256,192,97657,1,0,0:0:0:0:
256,192,97814,1,8,0:0:0:0:
256,192,98288,1,8,0:0:0:0:
256,192,98446,1,8,0:0:0:0:
256,192,98604,1,8,0:0:0:0:
256,192,98762,1,12,0:0:0:0:
256,192,99236,1,0,0:0:0:0:
256,192,99393,1,0,0:0:0:0:
256,192,99551,1,0,0:0:0:0:
256,192,99709,1,8,0:0:0:0:
256,192,100183,1,0,0:0:0:0:
256,192,100341,1,0,0:0:0:0:
256,192,100499,1,0,0:0:0:0:
256,192,100657,1,8,0:0:0:0:
256,192,101130,1,0,0:0:0:0:
256,192,101288,1,0,0:0:0:0:
256,192,101446,1,0,0:0:0:0:
256,192,101604,1,8,0:0:0:0:
256,192,101762,1,0,0:0:0:0:
256,192,101920,1,0,0:0:0:0:
256,192,102078,1,0,0:0:0:0:
256,192,102236,1,12,0:0:0:0:
256,192,102551,1,12,0:0:0:0:
256,192,103025,1,0,0:0:0:0:
256,192,103183,1,0,0:0:0:0:
256,192,103341,1,0,0:0:0:0:
256,192,103499,1,8,0:0:0:0:
256,192,103972,1,0,0:0:0:0:
256,192,104130,1,0,0:0:0:0:
256,192,104288,1,0,0:0:0:0:
256,192,104446,1,8,0:0:0:0:
256,192,104762,1,8,0:0:0:0:
256,192,105078,1,8,0:0:0:0:
256,192,105236,1,0,0:0:0:0:
256,192,105314,1,0,0:0:0:0:
256,192,105393,1,8,0:0:0:0:
256,192,105472,1,8,0:0:0:0:
256,192,105551,1,0,0:0:0:0:
256,192,105630,1,0,0:0:0:0:
256,192,105709,1,8,0:0:0:0:
256,192,105788,1,8,0:0:0:0:
256,192,105867,1,8,0:0:0:0:
256,192,105946,1,8,0:0:0:0:
256,192,106025,1,4,0:0:0:0:
256,192,106183,1,4,0:0:0:0:
256,192,106341,1,12,0:0:0:0:
256,192,106814,1,0,0:0:0:0:
256,192,106972,1,0,0:0:0:0:
256,192,107130,1,0,0:0:0:0:
256,192,107288,1,8,0:0:0:0:
256,192,107762,1,0,0:0:0:0:
256,192,107920,1,0,0:0:0:0:
256,192,108078,1,0,0:0:0:0:
256,192,108236,1,8,0:0:0:0:
256,192,108709,1,0,0:0:0:0:
256,192,108867,1,0,0:0:0:0:
256,192,109025,1,0,0:0:0:0:
256,192,109183,1,8,0:0:0:0:
256,192,109341,1,0,0:0:0:0:
256,192,109499,1,0,0:0:0:0:
256,192,109657,1,0,0:0:0:0:
256,192,109814,1,12,0:0:0:0:
256,192,109972,1,0,0:0:0:0:
256,192,110130,1,12,0:0:0:0:
256,192,110604,1,0,0:0:0:0:
256,192,110762,1,0,0:0:0:0:
256,192,110920,1,0,0:0:0:0:
256,192,111078,1,8,0:0:0:0:
256,192,111551,1,0,0:0:0:0:
256,192,111709,1,8,0:0:0:0:
256,192,111867,1,0,0:0:0:0:
256,192,112025,1,8,0:0:0:0:
256,192,112183,1,0,0:0:0:0:
256,192,112262,1,0,0:0:0:0:
256,192,112341,1,8,0:0:0:0:
256,192,112499,1,0,0:0:0:0:
256,192,112578,1,0,0:0:0:0:
256,192,112657,1,8,0:0:0:0:
256,192,112736,1,0,0:0:0:0:
256,192,112814,1,0,0:0:0:0:
256,192,112893,1,0,0:0:0:0:
256,192,112972,1,8,0:0:0:0:
256,192,113051,1,0,0:0:0:0:
256,192,113130,1,8,0:0:0:0:
256,192,113209,1,8,0:0:0:0:
256,192,113288,1,0,0:0:0:0:
256,192,113367,1,0,0:0:0:0:
256,192,113446,1,0,0:0:0:0:
256,192,113525,1,0,0:0:0:0:
256,192,113604,1,8,0:0:0:0:
256,192,113920,1,12,0:0:0:0:
256,192,114551,1,0,0:0:0:0:
256,192,114630,1,0,0:0:0:0:
256,192,114709,1,0,0:0:0:0:
256,192,114788,1,0,0:0:0:0:
256,192,114867,1,8,0:0:0:0:
256,192,115499,1,0,0:0:0:0:
256,192,115578,1,0,0:0:0:0:
256,192,115657,1,0,0:0:0:0:
256,192,115736,1,0,0:0:0:0:
256,192,115814,1,0,0:0:0:0:
256,192,116762,1,8,0:0:0:0:
256,192,116841,1,0,0:0:0:0:
256,192,116920,1,0,0:0:0:0:
256,192,116999,1,0,0:0:0:0:
256,192,117078,1,0,0:0:0:0:
256,192,117157,1,0,0:0:0:0:
256,192,117236,1,0,0:0:0:0:
256,192,117314,1,0,0:0:0:0:
256,192,117393,1,0,0:0:0:0:
256,192,117472,1,0,0:0:0:0:
256,192,117551,1,0,0:0:0:0:
256,192,117630,1,0,0:0:0:0:
256,192,117709,1,0,0:0:0:0:
256,192,118341,1,0,0:0:0:0:
256,192,118420,1,0,0:0:0:0:
256,192,118499,1,0,0:0:0:0:
256,192,118578,1,0,0:0:0:0:
256,192,118657,1,8,0:0:0:0:
256,192,119288,1,0,0:0:0:0:
256,192,119367,1,0,0:0:0:0:
256,192,119446,1,0,0:0:0:0:
256,192,119525,1,0,0:0:0:0:
256,192,119604,1,8,0:0:0:0:
256,192,119683,1,0,0:0:0:0:
256,192,119762,1,0,0:0:0:0:
256,192,119841,1,0,0:0:0:0:
256,192,119920,1,8,0:0:0:0:
256,192,119999,1,0,0:0:0:0:
256,192,120078,1,0,0:0:0:0:
256,192,120157,1,0,0:0:0:0:
256,192,120236,1,8,0:0:0:0:
256,192,120314,1,0,0:0:0:0:
256,192,120393,1,0,0:0:0:0:
256,192,120472,1,0,0:0:0:0:
256,192,120551,1,8,0:0:0:0:
256,192,120630,1,0,0:0:0:0:
256,192,120709,1,0,0:0:0:0:
256,192,120788,1,0,0:0:0:0:
256,192,120867,1,8,0:0:0:0:
256,192,120946,1,0,0:0:0:0:
256,192,121025,1,0,0:0:0:0:
256,192,121104,1,0,0:0:0:0:
256,192,121183,1,8,0:0:0:0:
256,192,121499,1,4,0:0:0:0:
256,192,121814,1,8,0:0:0:0:
256,192,121972,1,0,0:0:0:0:
256,192,122288,1,0,0:0:0:0:
256,192,122367,1,0,0:0:0:0:
256,192,122446,1,8,0:0:0:0:
256,192,122762,1,0,0:0:0:0:
256,192,122841,1,0,0:0:0:0:
256,192,122920,1,0,0:0:0:0:
256,192,122999,1,0,0:0:0:0:
256,192,123078,1,8,0:0:0:0:
256,192,123393,1,0,0:0:0:0:
256,192,123709,1,8,0:0:0:0:
256,192,123867,1,0,0:0:0:0:
256,192,124183,1,0,0:0:0:0:
256,192,124262,1,0,0:0:0:0:
256,192,124341,1,8,0:0:0:0:
256,192,124657,1,0,0:0:0:0:
256,192,124736,1,0,0:0:0:0:
256,192,124814,1,0,0:0:0:0:
256,192,124893,1,0,0:0:0:0:
256,192,124972,1,8,0:0:0:0:
256,192,125288,1,0,0:0:0:0:
256,192,125604,1,8,0:0:0:0:
256,192,125762,1,0,0:0:0:0:
256,192,126078,1,0,0:0:0:0:
256,192,126157,1,0,0:0:0:0:
256,192,126236,1,8,0:0:0:0:
256,192,126551,1,0,0:0:0:0:
256,192,126630,1,0,0:0:0:0:
256,192,126709,1,0,0:0:0:0:
256,192,126788,1,0,0:0:0:0:
256,192,126867,1,8,0:0:0:0:
256,192,127183,1,0,0:0:0:0:
256,192,127499,1,8,0:0:0:0:
256,192,127657,1,0,0:0:0:0:
256,192,127972,1,0,0:0:0:0:
256,192,128051,1,0,0:0:0:0:
256,192,128130,1,8,0:0:0:0:
256,192,128446,1,0,0:0:0:0:
256,192,128525,1,0,0:0:0:0:
256,192,128604,1,0,0:0:0:0:
256,192,128683,1,0,0:0:0:0:
256,192,128762,1,8,0:0:0:0:
256,192,129078,1,4,0:0:0:0:
256,192,129393,1,8,0:0:0:0:
256,192,129551,1,0,0:0:0:0:
256,192,129867,1,0,0:0:0:0:
256,192,129946,1,0,0:0:0:0:
256,192,130025,1,8,0:0:0:0:
256,192,130341,1,0,0:0:0:0:
256,192,130420,1,0,0:0:0:0:
256,192,130499,1,0,0:0:0:0:
256,192,130578,1,0,0:0:0:0:
256,192,130657,1,8,0:0:0:0:
256,192,130972,1,0,0:0:0:0:
256,192,131288,1,8,0:0:0:0:
256,192,131446,1,0,0:0:0:0:
256,192,131762,1,0,0:0:0:0:
256,192,131841,1,0,0:0:0:0:
256,192,131920,1,8,0:0:0:0:
256,192,132236,1,0,0:0:0:0:
256,192,132314,1,0,0:0:0:0:
256,192,132393,1,0,0:0:0:0:
256,192,132472,1,0,0:0:0:0:
256,192,132551,1,8,0:0:0:0:
256,192,132867,1,0,0:0:0:0:
256,192,133183,1,8,0:0:0:0:
256,192,133341,1,0,0:0:0:0:
256,192,133657,1,0,0:0:0:0:
256,192,133736,1,0,0:0:0:0:
256,192,133814,1,8,0:0:0:0:
256,192,134130,1,0,0:0:0:0:
256,192,134209,1,0,0:0:0:0:
256,192,134288,1,0,0:0:0:0:
256,192,134367,1,0,0:0:0:0:
256,192,134446,1,8,0:0:0:0:
256,192,134762,1,0,0:0:0:0:
256,192,135078,1,8,0:0:0:0:
256,192,135236,1,0,0:0:0:0:
256,192,135551,1,0,0:0:0:0:
256,192,135630,1,0,0:0:0:0:
256,192,135709,1,8,0:0:0:0:
256,192,136025,1,0,0:0:0:0:
256,192,136104,1,0,0:0:0:0:
256,192,136183,1,0,0:0:0:0:
256,192,136262,1,0,0:0:0:0:
256,192,136341,1,8,0:0:0:0:
256,192,136420,1,8,0:0:0:0:
256,192,136499,1,0,0:0:0:0:
256,192,136578,1,0,0:0:0:0:
256,192,136657,1,8,0:0:0:0:
256,192,136972,1,8,0:0:0:0:
256,192,137130,1,0,0:0:0:0:
256,192,137446,1,0,0:0:0:0:
256,192,137525,1,0,0:0:0:0:
256,192,137604,1,8,0:0:0:0:
256,192,137920,1,0,0:0:0:0:
256,192,137999,1,0,0:0:0:0:
256,192,138078,1,0,0:0:0:0:
256,192,138157,1,0,0:0:0:0:
256,192,138236,1,8,0:0:0:0:
256,192,138551,1,0,0:0:0:0:
256,192,138867,1,8,0:0:0:0:
256,192,139025,1,0,0:0:0:0:
256,192,139341,1,0,0:0:0:0:
256,192,139420,1,0,0:0:0:0:
256,192,139499,1,8,0:0:0:0:
256,192,139814,1,0,0:0:0:0:
256,192,139893,1,0,0:0:0:0:
256,192,139972,1,0,0:0:0:0:
256,192,140051,1,0,0:0:0:0:
256,192,140130,1,8,0:0:0:0:
256,192,140209,1,0,0:0:0:0:
256,192,140288,1,0,0:0:0:0:
256,192,140367,1,0,0:0:0:0:
256,192,140446,1,0,0:0:0:0:
256,192,140762,1,8,0:0:0:0:
256,192,140920,1,0,0:0:0:0:
256,192,141236,1,0,0:0:0:0:
256,192,141314,1,0,0:0:0:0:
256,192,141393,1,8,0:0:0:0:
256,192,141709,1,0,0:0:0:0:
256,192,141788,1,0,0:0:0:0:
256,192,141867,1,0,0:0:0:0:
256,192,141946,1,0,0:0:0:0:
256,192,142025,1,8,0:0:0:0:
256,192,142341,1,0,0:0:0:0:
256,192,142657,1,8,0:0:0:0:
256,192,142814,1,0,0:0:0:0:
256,192,143130,1,0,0:0:0:0:
256,192,143209,1,0,0:0:0:0:
256,192,143288,1,8,0:0:0:0:
256,192,143604,1,0,0:0:0:0:
256,192,143683,1,0,0:0:0:0:
256,192,143762,1,0,0:0:0:0:
256,192,143841,1,0,0:0:0:0:
256,192,143920,1,8,0:0:0:0:
256,192,143999,1,0,0:0:0:0:
256,192,144078,1,0,0:0:0:0:
256,192,144157,1,0,0:0:0:0:
256,192,144236,1,0,0:0:0:0:
256,192,144551,1,8,0:0:0:0:
256,192,144709,1,0,0:0:0:0:
256,192,145025,1,0,0:0:0:0:
256,192,145104,1,0,0:0:0:0:
256,192,145183,1,8,0:0:0:0:
256,192,145499,1,0,0:0:0:0:
256,192,145578,1,0,0:0:0:0:
256,192,145657,1,0,0:0:0:0:
256,192,145736,1,0,0:0:0:0:
256,192,145814,1,8,0:0:0:0:
256,192,146130,1,0,0:0:0:0:
256,192,146446,1,8,0:0:0:0:
256,192,146604,1,0,0:0:0:0:
256,192,146920,1,0,0:0:0:0:
256,192,146999,1,0,0:0:0:0:
256,192,147078,1,8,0:0:0:0:
256,192,147393,1,0,0:0:0:0:
256,192,147472,1,0,0:0:0:0:
256,192,147551,1,0,0:0:0:0:
256,192,147630,1,0,0:0:0:0:
256,192,147709,1,8,0:0:0:0:
256,192,147788,1,0,0:0:0:0:
256,192,147867,1,0,0:0:0:0:
256,192,147946,1,0,0:0:0:0:
256,192,148025,1,0,0:0:0:0:
256,192,148341,1,8,0:0:0:0:
256,192,148499,1,0,0:0:0:0:
256,192,148814,1,0,0:0:0:0:
256,192,148893,1,0,0:0:0:0:
256,192,148972,1,8,0:0:0:0:
256,192,149288,1,0,0:0:0:0:
256,192,149367,1,0,0:0:0:0:
256,192,149446,1,0,0:0:0:0:
256,192,149525,1,0,0:0:0:0:
256,192,149604,1,8,0:0:0:0:
256,192,149920,1,0,0:0:0:0:
256,192,150236,1,8,0:0:0:0:
256,192,150393,1,0,0:0:0:0:
256,192,150709,1,0,0:0:0:0:
256,192,150867,1,4,0:0:0:0:
256,192,151025,1,4,0:0:0:0:
256,192,151183,1,4,0:0:0:0:
256,192,151341,1,4,0:0:0:0:
256,192,151499,1,4,0:0:0:0:
256,192,151657,1,4,0:0:0:0:
256,192,151814,1,12,0:0:0:0:
256,192,152130,1,8,0:0:0:0:
256,192,152288,1,0,0:0:0:0:
256,192,152446,1,0,0:0:0:0:
256,192,152604,1,0,0:0:0:0:
256,192,152762,1,8,0:0:0:0:
256,192,153078,1,0,0:0:0:0:
256,192,153236,1,0,0:0:0:0:
256,192,153393,1,0,0:0:0:0:
256,192,153551,1,0,0:0:0:0:
256,192,153709,1,8,0:0:0:0:
256,192,154025,1,8,0:0:0:0:
256,192,154183,1,0,0:0:0:0:
256,192,154341,1,0,0:0:0:0:
256,192,154499,1,0,0:0:0:0:
256,192,154657,1,8,0:0:0:0:
256,192,154972,1,8,0:0:0:0:
256,192,155130,1,0,0:0:0:0:
256,192,155288,1,8,0:0:0:0:
256,192,155604,1,4,0:0:0:0:
256,192,155920,1,0,0:0:0:0:
256,192,156078,1,0,0:0:0:0:
256,192,156236,1,0,0:0:0:0:
256,192,156393,1,0,0:0:0:0:
256,192,156551,1,8,0:0:0:0:
256,192,156867,1,8,0:0:0:0:
256,192,157025,1,0,0:0:0:0:
256,192,157183,1,0,0:0:0:0:
256,192,157341,1,0,0:0:0:0:
256,192,157499,1,8,0:0:0:0:
256,192,157814,1,0,0:0:0:0:
256,192,157972,1,0,0:0:0:0:
256,192,158130,1,0,0:0:0:0:
256,192,158288,1,0,0:0:0:0:
256,192,158446,1,8,0:0:0:0:
256,192,158604,1,0,0:0:0:0:
256,192,158762,1,0,0:0:0:0:
256,192,158920,1,0,0:0:0:0:
256,192,159078,1,0,0:0:0:0:
256,192,159236,1,0,0:0:0:0:
256,192,159393,1,8,0:0:0:0:
256,192,159472,1,0,0:0:0:0:
256,192,159551,1,0,0:0:0:0:
256,192,159630,1,0,0:0:0:0:
256,192,159709,1,8,0:0:0:0:
256,192,159788,1,8,0:0:0:0:
256,192,159867,1,0,0:0:0:0:
256,192,159946,1,0,0:0:0:0:
256,192,160025,1,8,0:0:0:0:
256,192,160104,1,0,0:0:0:0:
256,192,160183,1,0,0:0:0:0:
256,192,160262,1,0,0:0:0:0:
256,192,160341,1,8,0:0:0:0:
256,192,160420,1,0,0:0:0:0:
256,192,160499,1,0,0:0:0:0:
256,192,160578,1,0,0:0:0:0:
256,192,160657,1,8,0:0:0:0:
256,192,160736,1,8,0:0:0:0:
256,192,160814,1,0,0:0:0:0:
256,192,160893,1,0,0:0:0:0:
256,192,160972,1,8,0:0:0:0:
256,192,161130,1,0,0:0:0:0:
256,192,161288,1,8,0:0:0:0:
256,192,161367,1,0,0:0:0:0:
256,192,161446,1,0,0:0:0:0:
256,192,161525,1,0,0:0:0:0:
256,192,161604,1,8,0:0:0:0:
256,192,161683,1,8,0:0:0:0:
256,192,161762,1,0,0:0:0:0:
256,192,161841,1,0,0:0:0:0:
256,192,161920,1,8,0:0:0:0:
256,192,161999,1,0,0:0:0:0:
256,192,162078,1,0,0:0:0:0:
256,192,162157,1,0,0:0:0:0:
256,192,162236,1,8,0:0:0:0:
256,192,162314,1,8,0:0:0:0:
256,192,162393,1,0,0:0:0:0:
256,192,162472,1,0,0:0:0:0:
256,192,162551,1,8,0:0:0:0:
256,192,162630,1,8,0:0:0:0:
256,192,162709,1,0,0:0:0:0:
256,192,162788,1,0,0:0:0:0:
256,192,162867,1,8,0:0:0:0:
256,192,162946,1,8,0:0:0:0:
256,192,163025,1,0,0:0:0:0:
256,192,163104,1,0,0:0:0:0:
256,192,163183,1,8,0:0:0:0:
256,192,163341,1,0,0:0:0:0:
256,192,163499,1,8,0:0:0:0:
256,192,163578,1,8,0:0:0:0:
256,192,163657,1,0,0:0:0:0:
256,192,163736,1,0,0:0:0:0:
256,192,163814,1,8,0:0:0:0:
256,192,163893,1,0,0:0:0:0:
256,192,163972,1,0,0:0:0:0:
256,192,164051,1,0,0:0:0:0:
256,192,164130,1,8,0:0:0:0:
256,192,164209,1,8,0:0:0:0:
256,192,164288,1,0,0:0:0:0:
256,192,164367,1,0,0:0:0:0:
256,192,164446,1,8,0:0:0:0:
256,192,164525,1,8,0:0:0:0:
256,192,164604,1,0,0:0:0:0:
256,192,164683,1,0,0:0:0:0:
256,192,164762,1,8,0:0:0:0:
256,192,164841,1,0,0:0:0:0:
256,192,164920,1,0,0:0:0:0:
256,192,164999,1,0,0:0:0:0:
256,192,165078,1,8,0:0:0:0:
256,192,165236,1,8,0:0:0:0:
256,192,165393,1,8,0:0:0:0:
256,192,165551,1,8,0:0:0:0:
256,192,166025,1,8,0:0:0:0:
256,192,166183,1,8,0:0:0:0:
256,192,166341,1,8,0:0:0:0:
256,192,166499,1,8,0:0:0:0:
256,192,166972,1,4,0:0:0:0:
256,192,167446,1,0,0:0:0:0:
256,192,167604,1,0,0:0:0:0:
256,192,167762,1,0,0:0:0:0:
256,192,167920,1,8,0:0:0:0:
256,192,168393,1,0,0:0:0:0:
256,192,168551,1,0,0:0:0:0:
256,192,168709,1,8,0:0:0:0:
256,192,168867,1,0,0:0:0:0:
256,192,169341,1,0,0:0:0:0:
256,192,169499,1,0,0:0:0:0:
256,192,169657,1,0,0:0:0:0:
256,192,169814,1,8,0:0:0:0:
256,192,169972,1,0,0:0:0:0:
256,192,170130,1,0,0:0:0:0:
256,192,170288,1,0,0:0:0:0:
256,192,170446,1,8,0:0:0:0:
256,192,170762,1,0,0:0:0:0:
256,192,171236,1,0,0:0:0:0:
256,192,171393,1,0,0:0:0:0:
256,192,171551,1,0,0:0:0:0:
256,192,171709,1,8,0:0:0:0:
256,192,172183,1,0,0:0:0:0:
256,192,172341,1,0,0:0:0:0:
256,192,172499,1,0,0:0:0:0:
256,192,172657,1,0,0:0:0:0:
256,192,173130,1,0,0:0:0:0:
256,192,173288,1,0,0:0:0:0:
256,192,173446,1,0,0:0:0:0:
256,192,173604,1,8,0:0:0:0:
256,192,173762,1,0,0:0:0:0:
256,192,173841,1,8,0:0:0:0:
256,192,173920,1,8,0:0:0:0:
256,192,173999,1,0,0:0:0:0:
256,192,174078,1,0,0:0:0:0:
256,192,174157,1,0,0:0:0:0:
256,192,174236,1,8,0:0:0:0:
256,192,174393,1,8,0:0:0:0:
256,192,174472,1,8,0:0:0:0:
256,192,174551,1,0,0:0:0:0:
256,192,175025,1,0,0:0:0:0:
256,192,175183,1,0,0:0:0:0:
256,192,175341,1,0,0:0:0:0:
256,192,175499,1,8,0:0:0:0:
256,192,175972,1,0,0:0:0:0:
256,192,176130,1,0,0:0:0:0:
256,192,176288,1,8,0:0:0:0:
256,192,176446,1,0,0:0:0:0:
256,192,176920,1,0,0:0:0:0:
256,192,177078,1,0,0:0:0:0:
256,192,177236,1,0,0:0:0:0:
256,192,177393,1,8,0:0:0:0:
256,192,177551,1,0,0:0:0:0:
256,192,177709,1,0,0:0:0:0:
256,192,177867,1,0,0:0:0:0:
256,192,178025,1,8,0:0:0:0:
256,192,178341,1,0,0:0:0:0:
256,192,178814,1,0,0:0:0:0:
256,192,178972,1,0,0:0:0:0:
256,192,179130,1,0,0:0:0:0:
256,192,179288,1,8,0:0:0:0:
256,192,179762,1,0,0:0:0:0:
256,192,179920,1,0,0:0:0:0:
256,192,180078,1,8,0:0:0:0:
256,192,180236,1,0,0:0:0:0:
256,192,180709,1,0,0:0:0:0:
256,192,181025,1,0,0:0:0:0:
256,192,181104,1,0,0:0:0:0:
256,192,181183,1,8,0:0:0:0:
256,192,181341,1,8,0:0:0:0:
256,192,181499,1,8,0:0:0:0:
256,192,181657,1,8,0:0:0:0:
256,192,181814,1,4,0:0:0:0:
256,192,181972,1,12,0:0:0:0:
256,192,182130,1,12,0:0:0:0:
256,192,182604,1,0,0:0:0:0:
256,192,182762,1,0,0:0:0:0:
256,192,182920,1,0,0:0:0:0:
256,192,183078,1,8,0:0:0:0:
256,192,183551,1,0,0:0:0:0:
256,192,183709,1,0,0:0:0:0:
256,192,183867,1,8,0:0:0:0:
256,192,184025,1,0,0:0:0:0:
256,192,184499,1,0,0:0:0:0:
256,192,184657,1,0,0:0:0:0:
256,192,184814,1,0,0:0:0:0:
256,192,184972,1,8,0:0:0:0:
256,192,185130,1,0,0:0:0:0:
256,192,185288,1,0,0:0:0:0:
256,192,185446,1,0,0:0:0:0:
256,192,185604,1,8,0:0:0:0:
256,192,185920,1,0,0:0:0:0:
256,192,186393,1,0,0:0:0:0:
256,192,186551,1,0,0:0:0:0:
256,192,186709,1,0,0:0:0:0:
256,192,186867,1,8,0:0:0:0:
256,192,187341,1,0,0:0:0:0:
256,192,187499,1,0,0:0:0:0:
256,192,187657,1,0,0:0:0:0:
256,192,187814,1,0,0:0:0:0:
256,192,188288,1,0,0:0:0:0:
256,192,188604,1,0,0:0:0:0:
256,192,188683,1,0,0:0:0:0:
256,192,188762,1,8,0:0:0:0:
256,192,188920,1,8,0:0:0:0:
256,192,188999,1,0,0:0:0:0:
256,192,189078,1,0,0:0:0:0:
256,192,189236,1,0,0:0:0:0:
256,192,189314,1,0,0:0:0:0:
256,192,189393,1,8,0:0:0:0:
256,192,189472,1,8,0:0:0:0:
256,192,189551,1,8,0:0:0:0:
256,192,189630,1,8,0:0:0:0:
256,192,189709,1,0,0:0:0:0:
256,192,190183,1,0,0:0:0:0:
256,192,190341,1,0,0:0:0:0:
256,192,190499,1,0,0:0:0:0:
256,192,190657,1,8,0:0:0:0:
256,192,191130,1,0,0:0:0:0:
256,192,191288,1,0,0:0:0:0:
256,192,191446,1,0,0:0:0:0:
256,192,191604,1,0,0:0:0:0:
256,192,192078,1,0,0:0:0:0:
256,192,192236,1,0,0:0:0:0:
256,192,192393,1,0,0:0:0:0:
256,192,192551,1,8,0:0:0:0:
256,192,192709,1,0,0:0:0:0:
256,192,192867,1,8,0:0:0:0:
256,192,193025,1,0,0:0:0:0:
256,192,193183,1,8,0:0:0:0:
256,192,193341,1,0,0:0:0:0:
256,192,193499,1,4,0:0:0:0:
256,192,193972,1,0,0:0:0:0:
256,192,194130,1,0,0:0:0:0:
256,192,194288,1,0,0:0:0:0:
256,192,194446,1,8,0:0:0:0:
256,192,194920,1,0,0:0:0:0:
256,192,195078,1,0,0:0:0:0:
256,192,195236,1,0,0:0:0:0:
256,192,195393,1,0,0:0:0:0:
256,192,195867,1,0,0:0:0:0:
256,192,196183,1,0,0:0:0:0:
256,192,196341,1,12,0:0:0:0:
256,192,196499,1,12,0:0:0:0:
256,192,196657,1,12,0:0:0:0:
256,192,196814,1,12,0:0:0:0:
256,192,196972,1,12,0:0:0:0:
256,192,197130,1,12,0:0:0:0:
256,192,197288,1,4,0:0:0:0:
256,192,197446,1,0,0:0:0:0:
256,192,198236,1,8,0:0:0:0:
256,192,198393,1,0,0:0:0:0:
256,192,199183,1,0,0:0:0:0:
256,192,199341,1,0,0:0:0:0:
256,192,200130,1,8,0:0:0:0:
256,192,200209,1,0,0:0:0:0:
256,192,200288,1,0,0:0:0:0:
256,192,200367,1,0,0:0:0:0:
256,192,200446,1,8,0:0:0:0:
256,192,200525,1,0,0:0:0:0:
256,192,200604,1,0,0:0:0:0:
256,192,200683,1,0,0:0:0:0:
256,192,200762,1,8,0:0:0:0:
256,192,200841,1,8,0:0:0:0:
256,192,200920,1,0,0:0:0:0:
256,192,200999,1,0,0:0:0:0:
256,192,201078,1,8,0:0:0:0:
256,192,201236,1,8,0:0:0:0:
256,192,202025,1,8,0:0:0:0:
256,192,202183,1,0,0:0:0:0:
256,192,202972,1,4,0:0:0:0:
256,192,203130,1,4,0:0:0:0:
256,192,204551,1,8,0:0:0:0:
256,192,204867,1,4,0:0:0:0:
256,192,205183,1,8,0:0:0:0:
256,192,205341,1,0,0:0:0:0:
256,192,205657,1,0,0:0:0:0:
256,192,205736,1,0,0:0:0:0:
256,192,205814,1,8,0:0:0:0:
256,192,206130,1,0,0:0:0:0:
256,192,206209,1,0,0:0:0:0:
256,192,206288,1,0,0:0:0:0:
256,192,206367,1,0,0:0:0:0:
256,192,206446,1,8,0:0:0:0:
256,192,206762,1,0,0:0:0:0:
256,192,207078,1,8,0:0:0:0:
256,192,207236,1,0,0:0:0:0:
256,192,207551,1,0,0:0:0:0:
256,192,207630,1,0,0:0:0:0:
256,192,207709,1,8,0:0:0:0:
256,192,208025,1,0,0:0:0:0:
256,192,208104,1,0,0:0:0:0:
256,192,208183,1,0,0:0:0:0:
256,192,208262,1,0,0:0:0:0:
256,192,208341,1,8,0:0:0:0:
256,192,208657,1,0,0:0:0:0:
256,192,208972,1,8,0:0:0:0:
256,192,209130,1,0,0:0:0:0:
256,192,209446,1,0,0:0:0:0:
256,192,209525,1,0,0:0:0:0:
256,192,209604,1,8,0:0:0:0:
256,192,209920,1,0,0:0:0:0:
256,192,209999,1,0,0:0:0:0:
256,192,210078,1,0,0:0:0:0:
256,192,210157,1,0,0:0:0:0:
256,192,210236,1,8,0:0:0:0:
256,192,210551,1,0,0:0:0:0:
256,192,210867,1,8,0:0:0:0:
256,192,211025,1,0,0:0:0:0:
256,192,211341,1,0,0:0:0:0:
256,192,211420,1,0,0:0:0:0:
256,192,211499,1,8,0:0:0:0:
256,192,211814,1,0,0:0:0:0:
256,192,211893,1,0,0:0:0:0:
256,192,211972,1,0,0:0:0:0:
256,192,212051,1,0,0:0:0:0:
256,192,212130,1,8,0:0:0:0:
256,192,212446,1,4,0:0:0:0:
256,192,212762,1,8,0:0:0:0:
256,192,212920,1,0,0:0:0:0:
256,192,213236,1,0,0:0:0:0:
256,192,213314,1,0,0:0:0:0:
256,192,213393,1,8,0:0:0:0:
256,192,213709,1,0,0:0:0:0:
256,192,213788,1,0,0:0:0:0:
256,192,213867,1,0,0:0:0:0:
256,192,213946,1,0,0:0:0:0:
256,192,214025,1,8,0:0:0:0:
256,192,214341,1,0,0:0:0:0:
256,192,214657,1,8,0:0:0:0:
256,192,214814,1,0,0:0:0:0:
256,192,215130,1,0,0:0:0:0:
256,192,215209,1,0,0:0:0:0:
256,192,215288,1,8,0:0:0:0:
256,192,215604,1,0,0:0:0:0:
256,192,215683,1,0,0:0:0:0:
256,192,215762,1,0,0:0:0:0:
256,192,215841,1,0,0:0:0:0:
256,192,215920,1,8,0:0:0:0:
256,192,216236,1,0,0:0:0:0:
256,192,216551,1,8,0:0:0:0:
256,192,216709,1,0,0:0:0:0:
256,192,217025,1,0,0:0:0:0:
256,192,217104,1,0,0:0:0:0:
256,192,217183,1,8,0:0:0:0:
256,192,217499,1,0,0:0:0:0:
256,192,217578,1,0,0:0:0:0:
256,192,217657,1,0,0:0:0:0:
256,192,217736,1,0,0:0:0:0:
256,192,217814,1,8,0:0:0:0:
256,192,218130,1,0,0:0:0:0:
256,192,218446,1,8,0:0:0:0:
256,192,218604,1,0,0:0:0:0:
256,192,218920,1,0,0:0:0:0:
256,192,218999,1,0,0:0:0:0:
256,192,219078,1,8,0:0:0:0:
256,192,219393,1,0,0:0:0:0:
256,192,219472,1,0,0:0:0:0:
256,192,219551,1,0,0:0:0:0:
256,192,219630,1,0,0:0:0:0:
256,192,219709,1,8,0:0:0:0:
256,192,219788,1,8,0:0:0:0:
256,192,219867,1,0,0:0:0:0:
256,192,219946,1,0,0:0:0:0:
256,192,220025,1,8,0:0:0:0:
256,192,220341,1,8,0:0:0:0:
256,192,220499,1,0,0:0:0:0:
256,192,220814,1,0,0:0:0:0:
256,192,220893,1,0,0:0:0:0:
256,192,220972,1,8,0:0:0:0:
256,192,221288,1,0,0:0:0:0:
256,192,221367,1,0,0:0:0:0:
256,192,221446,1,0,0:0:0:0:
256,192,221525,1,0,0:0:0:0:
256,192,221604,1,8,0:0:0:0:
256,192,221920,1,0,0:0:0:0:
256,192,222236,1,8,0:0:0:0:
256,192,222393,1,0,0:0:0:0:
256,192,222709,1,0,0:0:0:0:
256,192,222788,1,0,0:0:0:0:
256,192,222867,1,8,0:0:0:0:
256,192,223183,1,0,0:0:0:0:
256,192,223262,1,0,0:0:0:0:
256,192,223341,1,0,0:0:0:0:
256,192,223420,1,0,0:0:0:0:
256,192,223499,1,8,0:0:0:0:
256,192,223578,1,0,0:0:0:0:
256,192,223657,1,0,0:0:0:0:
256,192,223736,1,0,0:0:0:0:
256,192,223814,1,0,0:0:0:0:
256,192,224130,1,8,0:0:0:0:
256,192,224288,1,0,0:0:0:0:
256,192,224604,1,0,0:0:0:0:
256,192,224683,1,0,0:0:0:0:
256,192,224762,1,8,0:0:0:0:
256,192,225078,1,0,0:0:0:0:
256,192,225157,1,0,0:0:0:0:
256,192,225236,1,0,0:0:0:0:
256,192,225314,1,0,0:0:0:0:
256,192,225393,1,8,0:0:0:0:
256,192,225709,1,0,0:0:0:0:
256,192,226025,1,8,0:0:0:0:
256,192,226183,1,0,0:0:0:0:
256,192,226499,1,0,0:0:0:0:
256,192,226578,1,0,0:0:0:0:
256,192,226657,1,8,0:0:0:0:
256,192,226972,1,0,0:0:0:0:
256,192,227051,1,0,0:0:0:0:
256,192,227130,1,0,0:0:0:0:
256,192,227209,1,0,0:0:0:0:
256,192,227288,1,8,0:0:0:0:
256,192,227367,1,0,0:0:0:0:
256,192,227446,1,0,0:0:0:0:
256,192,227525,1,0,0:0:0:0:
256,192,227604,1,0,0:0:0:0:
256,192,227920,1,8,0:0:0:0:
256,192,228078,1,0,0:0:0:0:
256,192,228393,1,0,0:0:0:0:
256,192,228472,1,0,0:0:0:0:
256,192,228551,1,8,0:0:0:0:
256,192,228867,1,0,0:0:0:0:
256,192,228946,1,0,0:0:0:0:
256,192,229025,1,0,0:0:0:0:
256,192,229104,1,0,0:0:0:0:
256,192,229183,1,8,0:0:0:0:
256,192,229499,1,0,0:0:0:0:
256,192,229814,1,8,0:0:0:0:
256,192,229972,1,0,0:0:0:0:
256,192,230288,1,0,0:0:0:0:
256,192,230367,1,0,0:0:0:0:
256,192,230446,1,8,0:0:0:0:
256,192,230762,1,0,0:0:0:0:
256,192,230841,1,0,0:0:0:0:
256,192,230920,1,0,0:0:0:0:
256,192,230999,1,0,0:0:0:0:
256,192,231078,1,8,0:0:0:0:
256,192,231157,1,0,0:0:0:0:
256,192,231236,1,0,0:0:0:0:
256,192,231314,1,0,0:0:0:0:
256,192,231393,1,0,0:0:0:0:
256,192,231709,1,8,0:0:0:0:
256,192,231867,1,0,0:0:0:0:
256,192,232183,1,0,0:0:0:0:
256,192,232262,1,0,0:0:0:0:
256,192,232341,1,8,0:0:0:0:
256,192,232657,1,0,0:0:0:0:
256,192,232736,1,0,0:0:0:0:
256,192,232814,1,0,0:0:0:0:
256,192,232893,1,0,0:0:0:0:
256,192,232972,1,8,0:0:0:0:
256,192,233288,1,0,0:0:0:0:
256,192,233604,1,8,0:0:0:0:
256,192,233762,1,0,0:0:0:0:
256,192,234078,1,0,0:0:0:0:
256,192,234236,1,4,0:0:0:0:
256,192,234393,1,4,0:0:0:0:
256,192,234551,1,4,0:0:0:0:
256,192,234709,1,4,0:0:0:0:
256,192,234867,1,4,0:0:0:0:
256,192,235025,1,4,0:0:0:0:
256,192,235183,1,12,0:0:0:0:
256,192,235499,1,8,0:0:0:0:
256,192,235657,1,0,0:0:0:0:
256,192,235814,1,0,0:0:0:0:
256,192,235972,1,0,0:0:0:0:
256,192,236130,1,8,0:0:0:0:
256,192,236446,1,0,0:0:0:0:
256,192,236604,1,0,0:0:0:0:
256,192,236762,1,0,0:0:0:0:
256,192,236920,1,0,0:0:0:0:
256,192,237078,1,8,0:0:0:0:
256,192,237393,1,8,0:0:0:0:
256,192,237551,1,0,0:0:0:0:
256,192,237709,1,0,0:0:0:0:
256,192,237867,1,0,0:0:0:0:
256,192,238025,1,12,0:0:0:0:
256,192,238341,1,8,0:0:0:0:
256,192,238499,1,0,0:0:0:0:
256,192,238657,1,8,0:0:0:0:
256,192,238972,1,4,0:0:0:0:
256,192,239288,1,0,0:0:0:0:
256,192,239446,1,0,0:0:0:0:
256,192,239604,1,0,0:0:0:0:
256,192,239762,1,0,0:0:0:0:
256,192,239920,1,8,0:0:0:0:
256,192,240236,1,8,0:0:0:0:
256,192,240393,1,0,0:0:0:0:
256,192,240551,1,0,0:0:0:0:
256,192,240709,1,0,0:0:0:0:
256,192,240867,1,8,0:0:0:0:
256,192,241183,1,0,0:0:0:0:
256,192,241341,1,0,0:0:0:0:
256,192,241499,1,0,0:0:0:0:
256,192,241657,1,0,0:0:0:0:
256,192,241814,1,8,0:0:0:0:
256,192,241893,1,0,0:0:0:0:
256,192,241972,1,0,0:0:0:0:
256,192,242051,1,0,0:0:0:0:
256,192,242130,1,8,0:0:0:0:
256,192,242209,1,8,0:0:0:0:
256,192,242288,1,0,0:0:0:0:
256,192,242367,1,0,0:0:0:0:
256,192,242446,1,8,0:0:0:0:
256,192,242525,1,8,0:0:0:0:
256,192,242604,1,8,0:0:0:0:
256,192,242683,1,8,0:0:0:0:
256,192,242762,1,0,0:0:0:0:
256,192,242920,1,0,0:0:0:0:
256,192,242999,1,0,0:0:0:0:
256,192,243078,1,8,0:0:0:0:
256,192,243157,1,8,0:0:0:0:
256,192,243236,1,8,0:0:0:0:
256,192,243314,1,0,0:0:0:0:
256,192,243393,1,8,0:0:0:0:
256,192,243472,1,8,0:0:0:0:
256,192,243551,1,0,0:0:0:0:
256,192,243630,1,0,0:0:0:0:
256,192,243709,1,8,0:0:0:0:
256,192,243788,1,0,0:0:0:0:
256,192,243867,1,0,0:0:0:0:
256,192,243946,1,0,0:0:0:0:
256,192,244025,1,8,0:0:0:0:
256,192,244104,1,8,0:0:0:0:
256,192,244183,1,8,0:0:0:0:
256,192,244262,1,0,0:0:0:0:
256,192,244341,1,8,0:0:0:0:
256,192,244420,1,8,0:0:0:0:
256,192,244499,1,8,0:0:0:0:
256,192,244578,1,8,0:0:0:0:
256,192,244657,1,0,0:0:0:0:
256,192,244814,1,0,0:0:0:0:
256,192,244972,1,8,0:0:0:0:
256,192,245051,1,8,0:0:0:0:
256,192,245130,1,0,0:0:0:0:
256,192,245209,1,0,0:0:0:0:
256,192,245288,1,8,0:0:0:0:
256,192,245367,1,8,0:0:0:0:
256,192,245446,1,8,0:0:0:0:
256,192,245525,1,0,0:0:0:0:
256,192,245604,1,8,0:0:0:0:
256,192,245683,1,8,0:0:0:0:
256,192,245762,1,0,0:0:0:0:
256,192,245841,1,0,0:0:0:0:
256,192,245920,1,8,0:0:0:0:
256,192,245999,1,8,0:0:0:0:
256,192,246078,1,8,0:0:0:0:
256,192,246157,1,0,0:0:0:0:
256,192,246236,1,8,0:0:0:0:
256,192,246314,1,8,0:0:0:0:
256,192,246393,1,0,0:0:0:0:
256,192,246472,1,0,0:0:0:0:
256,192,246551,1,8,0:0:0:0:
256,192,246709,1,0,0:0:0:0:
256,192,246867,1,8,0:0:0:0:
256,192,246946,1,8,0:0:0:0:
256,192,247025,1,8,0:0:0:0:
256,192,247104,1,0,0:0:0:0:
256,192,247183,1,8,0:0:0:0:
256,192,247262,1,8,0:0:0:0:
256,192,247341,1,0,0:0:0:0:
256,192,247420,1,0,0:0:0:0:
256,192,247499,1,8,0:0:0:0:
256,192,247578,1,8,0:0:0:0:
256,192,247657,1,0,0:0:0:0:
256,192,247736,1,0,0:0:0:0:
256,192,247814,1,8,0:0:0:0:
256,192,247893,1,8,0:0:0:0:
256,192,247972,1,8,0:0:0:0:
256,192,248051,1,0,0:0:0:0:
256,192,248130,1,8,0:0:0:0:
256,192,248209,1,8,0:0:0:0:
256,192,248288,1,0,0:0:0:0:
256,192,248367,1,0,0:0:0:0:
256,192,248446,1,8,0:0:0:0:
256,192,248604,1,8,0:0:0:0:
256,192,248762,1,8,0:0:0:0:
256,192,248920,1,8,0:0:0:0:
256,192,249393,1,8,0:0:0:0:
256,192,249551,1,8,0:0:0:0:
256,192,249709,1,8,0:0:0:0:
256,192,249867,1,8,0:0:0:0:
256,192,250341,1,4,0:0:0:0:
256,192,250814,1,0,0:0:0:0:
256,192,250972,1,0,0:0:0:0:
256,192,251130,1,0,0:0:0:0:
256,192,251288,1,8,0:0:0:0:
256,192,251762,1,0,0:0:0:0:
256,192,251920,1,0,0:0:0:0:
256,192,252078,1,8,0:0:0:0:
256,192,252236,1,0,0:0:0:0:
256,192,252709,1,0,0:0:0:0:
256,192,252867,1,0,0:0:0:0:
256,192,253025,1,0,0:0:0:0:
256,192,253183,1,8,0:0:0:0:
256,192,253341,1,0,0:0:0:0:
256,192,253499,1,0,0:0:0:0:
256,192,253657,1,8,0:0:0:0:
256,192,253814,1,8,0:0:0:0:
256,192,254130,1,0,0:0:0:0:
256,192,254604,1,0,0:0:0:0:
256,192,254762,1,0,0:0:0:0:
256,192,254920,1,0,0:0:0:0:
256,192,255078,1,8,0:0:0:0:
256,192,255551,1,0,0:0:0:0:
256,192,255709,1,0,0:0:0:0:
256,192,255867,1,8,0:0:0:0:
256,192,256025,1,0,0:0:0:0:
256,192,256499,1,0,0:0:0:0:
256,192,256657,1,0,0:0:0:0:
256,192,256814,1,0,0:0:0:0:
256,192,256893,1,0,0:0:0:0:
256,192,256972,1,8,0:0:0:0:
256,192,257051,1,0,0:0:0:0:
256,192,257130,1,0,0:0:0:0:
256,192,257209,1,0,0:0:0:0:
256,192,257288,1,8,0:0:0:0:
256,192,257367,1,0,0:0:0:0:
256,192,257446,1,8,0:0:0:0:
256,192,257525,1,8,0:0:0:0:
256,192,257604,1,8,0:0:0:0:
256,192,257762,1,8,0:0:0:0:
256,192,257841,1,8,0:0:0:0:
256,192,257920,1,0,0:0:0:0:
256,192,258393,1,0,0:0:0:0:
256,192,258551,1,0,0:0:0:0:
256,192,258709,1,0,0:0:0:0:
256,192,258867,1,8,0:0:0:0:
256,192,259341,1,0,0:0:0:0:
256,192,259499,1,0,0:0:0:0:
256,192,259657,1,8,0:0:0:0:
256,192,259814,1,0,0:0:0:0:
256,192,260288,1,0,0:0:0:0:
256,192,260446,1,0,0:0:0:0:
256,192,260604,1,0,0:0:0:0:
256,192,260762,1,8,0:0:0:0:
256,192,260920,1,0,0:0:0:0:
256,192,261078,1,8,0:0:0:0:
256,192,261236,1,0,0:0:0:0:
256,192,261393,1,8,0:0:0:0:
256,192,261709,1,4,0:0:0:0:
256,192,262183,1,0,0:0:0:0:
256,192,262341,1,0,0:0:0:0:
256,192,262499,1,0,0:0:0:0:
256,192,262657,1,8,0:0:0:0:
256,192,263130,1,0,0:0:0:0:
256,192,263288,1,0,0:0:0:0:
256,192,263446,1,0,0:0:0:0:
256,192,263604,1,8,0:0:0:0:
256,192,263762,1,0,0:0:0:0:
256,192,263841,1,0,0:0:0:0:
256,192,263920,1,8,0:0:0:0:
256,192,263999,1,8,0:0:0:0:
256,192,264078,1,8,0:0:0:0:
256,192,264157,1,8,0:0:0:0:
256,192,264236,1,0,0:0:0:0:
256,192,264314,1,0,0:0:0:0:
256,192,264393,1,0,0:0:0:0:
256,192,264472,1,0,0:0:0:0:
256,192,264551,1,8,0:0:0:0:
256,192,264630,1,8,0:0:0:0:
256,192,264709,1,0,0:0:0:0:
256,192,264788,1,0,0:0:0:0:
256,192,264867,1,8,0:0:0:0:
256,192,264946,1,0,0:0:0:0:
256,192,265025,1,0,0:0:0:0:
256,192,265104,1,0,0:0:0:0:
256,192,265183,1,8,0:0:0:0:
256,192,265341,1,0,0:0:0:0:
256,192,265499,1,12,0:0:0:0:
256,192,265972,1,0,0:0:0:0:
256,192,266130,1,0,0:0:0:0:
256,192,266288,1,0,0:0:0:0:
256,192,266446,1,8,0:0:0:0:
256,192,266920,1,0,0:0:0:0:
256,192,267078,1,0,0:0:0:0:
256,192,267236,1,8,0:0:0:0:
256,192,267393,1,0,0:0:0:0:
256,192,267867,1,0,0:0:0:0:
256,192,268025,1,0,0:0:0:0:
256,192,268183,1,0,0:0:0:0:
256,192,268341,1,8,0:0:0:0:
256,192,268499,1,0,0:0:0:0:
256,192,268657,1,0,0:0:0:0:
256,192,268814,1,0,0:0:0:0:
256,192,268972,1,8,0:0:0:0:
256,192,269288,1,0,0:0:0:0:
256,192,269762,1,0,0:0:0:0:
256,192,269920,1,0,0:0:0:0:
256,192,270078,1,0,0:0:0:0:
256,192,270236,1,8,0:0:0:0:
256,192,270709,1,0,0:0:0:0:
256,192,270867,1,0,0:0:0:0:
256,192,271025,1,0,0:0:0:0:
256,192,271183,1,0,0:0:0:0:
256,192,271657,1,0,0:0:0:0:
256,192,271972,1,0,0:0:0:0:
256,192,272051,1,0,0:0:0:0:
256,192,272130,1,8,0:0:0:0:
256,192,272288,1,8,0:0:0:0:
256,192,272367,1,0,0:0:0:0:
256,192,272446,1,0,0:0:0:0:
256,192,272604,1,0,0:0:0:0:
256,192,272683,1,0,0:0:0:0:
256,192,272762,1,8,0:0:0:0:
256,192,272841,1,8,0:0:0:0:
256,192,272920,1,8,0:0:0:0:
256,192,272999,1,8,0:0:0:0:
256,192,273078,1,0,0:0:0:0:
256,192,273551,1,0,0:0:0:0:
256,192,273709,1,0,0:0:0:0:
256,192,273867,1,0,0:0:0:0:
256,192,274025,1,8,0:0:0:0:
256,192,274499,1,0,0:0:0:0:
256,192,274657,1,0,0:0:0:0:
256,192,274814,1,0,0:0:0:0:
256,192,274972,1,0,0:0:0:0:
256,192,275446,1,0,0:0:0:0:
256,192,275604,1,0,0:0:0:0:
256,192,275762,1,0,0:0:0:0:
256,192,275920,1,8,0:0:0:0:
256,192,276078,1,0,0:0:0:0:
256,192,276236,1,0,0:0:0:0:
256,192,276314,1,0,0:0:0:0:
256,192,276393,1,0,0:0:0:0:
256,192,276472,1,0,0:0:0:0:
256,192,276551,1,8,0:0:0:0:
256,192,276709,1,0,0:0:0:0:
256,192,276867,1,12,0:0:0:0:
256,192,277341,1,0,0:0:0:0:
256,192,277499,1,0,0:0:0:0:
256,192,277657,1,0,0:0:0:0:
256,192,277814,1,8,0:0:0:0:
256,192,278288,1,0,0:0:0:0:
256,192,278446,1,0,0:0:0:0:
256,192,278604,1,0,0:0:0:0:
256,192,278762,1,8,0:0:0:0:
256,192,278841,1,0,0:0:0:0:
256,192,278920,1,0,0:0:0:0:
256,192,278999,1,0,0:0:0:0:
256,192,279078,1,8,0:0:0:0:
256,192,279157,1,8,0:0:0:0:
256,192,279236,1,0,0:0:0:0:
256,192,279314,1,0,0:0:0:0:
256,192,279393,1,8,0:0:0:0:
256,192,279472,1,0,0:0:0:0:
256,192,279551,1,0,0:0:0:0:
256,192,279630,1,0,0:0:0:0:
256,192,279709,1,8,0:0:0:0:
256,192,279788,1,8,0:0:0:0:
256,192,279867,1,0,0:0:0:0:
256,192,279946,1,0,0:0:0:0:
256,192,280025,1,8,0:0:0:0:
256,192,280104,1,0,0:0:0:0:
256,192,280183,1,0,0:0:0:0:
256,192,280262,1,0,0:0:0:0:
256,192,280341,1,8,0:0:0:0:
256,192,280499,1,0,0:0:0:0:
256,192,280657,1,12,0:0:0:0:
256,192,281130,1,0,0:0:0:0:
256,192,281288,1,0,0:0:0:0:
256,192,281446,1,0,0:0:0:0:
256,192,281604,1,8,0:0:0:0:
256,192,282078,1,0,0:0:0:0:
256,192,282236,1,0,0:0:0:0:
256,192,282393,1,0,0:0:0:0:
256,192,282551,1,12,0:0:0:0:
256,192,282867,1,8,0:0:0:0:
256,192,283025,1,8,0:0:0:0:
256,192,283183,1,8,0:0:0:0:
256,192,283341,1,8,0:0:0:0:
256,192,283499,1,8,0:0:0:0:
256,192,283657,1,8,0:0:0:0:
256,192,283814,1,8,0:0:0:0:
256,192,283972,1,8,0:0:0:0:
256,192,284130,1,8,0:0:0:0:
256,192,284446,1,12,0:0:0:0:
256,192,284761,1,0,0:0:0:0:
256,192,285077,1,8,0:0:0:0:
256,192,285235,1,0,0:0:0:0:
256,192,285551,1,0,0:0:0:0:
256,192,285709,1,0,0:0:0:0:
256,192,286024,1,0,0:0:0:0:
256,192,286340,1,8,0:0:0:0:
256,192,286498,1,0,0:0:0:0:
256,192,286972,1,0,0:0:0:0:
256,192,287288,1,0,0:0:0:0:
256,192,287603,1,8,0:0:0:0:
256,192,287761,1,0,0:0:0:0:
256,192,288235,1,0,0:0:0:0:
256,192,288551,1,0,0:0:0:0:
256,192,288867,1,8,0:0:0:0:
256,192,289024,1,8,0:0:0:0:
256,192,289182,1,8,0:0:0:0:
256,192,289340,1,8,0:0:0:0:
256,192,289498,1,4,0:0:0:0:
256,192,289814,1,0,0:0:0:0:
256,192,290130,1,8,0:0:0:0:
256,192,290288,1,0,0:0:0:0:
256,192,290761,1,0,0:0:0:0:
256,192,291077,1,0,0:0:0:0:
256,192,291393,1,8,0:0:0:0:
256,192,291551,1,0,0:0:0:0:
256,192,292024,1,0,0:0:0:0:
256,192,292340,1,0,0:0:0:0:
256,192,292656,1,8,0:0:0:0:
256,192,292814,1,0,0:0:0:0:
256,192,293288,1,0,0:0:0:0:
256,192,293603,1,0,0:0:0:0:
256,192,293761,1,0,0:0:0:0:
256,192,293919,1,8,0:0:0:0:
256,192,294077,1,0,0:0:0:0:
256,192,294551,1,4,0:0:0:0:
256,192,294867,1,0,0:0:0:0:
256,192,295182,1,8,0:0:0:0:
256,192,295340,1,0,0:0:0:0:
256,192,295814,1,0,0:0:0:0:
256,192,296130,1,0,0:0:0:0:
256,192,296446,1,8,0:0:0:0:
256,192,296603,1,0,0:0:0:0:
256,192,297077,1,0,0:0:0:0:
256,192,297393,1,0,0:0:0:0:
256,192,297709,1,8,0:0:0:0:
256,192,297867,1,0,0:0:0:0:
256,192,298340,1,12,0:0:0:0:
256,192,298498,1,0,0:0:0:0:
256,192,298577,1,0,0:0:0:0:
248,191,298656,1,0,0:0:0:0:
256,192,298814,1,8,0:0:0:0:
256,192,298972,1,8,0:0:0:0:
256,192,299130,1,0,0:0:0:0:
256,192,299288,1,0,0:0:0:0:
256,192,299446,1,0,0:0:0:0:
256,192,299603,1,12,0:0:0:0:
256,192,304024,1,8,0:0:0:0:
256,192,304077,1,8,0:0:0:0:
256,192,304288,1,0,0:0:0:0:
256,192,304340,1,0,0:0:0:0:
256,192,304656,1,12,0:0:0:0:
256,192,305919,1,0,0:0:0:0:
256,192,306077,1,0,0:0:0:0:
256,192,306235,1,0,0:0:0:0:
256,192,306393,1,0,0:0:0:0:
256,192,306551,1,0,0:0:0:0:
256,192,306709,1,0,0:0:0:0:
256,192,306867,1,0,0:0:0:0:
256,192,307024,1,0,0:0:0:0:
256,192,307182,1,8,0:0:0:0:
256,192,307261,1,0,0:0:0:0:
256,192,307340,1,0,0:0:0:0:
256,192,307419,1,0,0:0:0:0:
256,192,307498,1,8,0:0:0:0:
256,192,307577,1,0,0:0:0:0:
256,192,307656,1,8,0:0:0:0:
256,192,307735,1,8,0:0:0:0:
256,192,307814,1,0,0:0:0:0:
256,192,307893,1,0,0:0:0:0:
256,192,307972,1,8,0:0:0:0:
256,192,308051,1,0,0:0:0:0:
256,192,308130,1,0,0:0:0:0:
256,192,308209,1,0,0:0:0:0:
256,192,308288,1,8,0:0:0:0:
256,192,308446,1,8,0:0:0:0:
256,192,308524,1,0,0:0:0:0:
256,192,308603,1,0,0:0:0:0:
256,192,308682,1,0,0:0:0:0:
256,192,308761,1,8,0:0:0:0:
256,192,308840,1,0,0:0:0:0:
256,192,308919,1,0,0:0:0:0:
256,192,308998,1,0,0:0:0:0:
256,192,309077,1,8,0:0:0:0:
256,192,309235,1,8,0:0:0:0:
256,192,309314,1,8,0:0:0:0:
256,192,309393,1,8,0:0:0:0:
256,192,309472,1,8,0:0:0:0:
256,192,309551,1,8,0:0:0:0:
256,192,309630,1,8,0:0:0:0:
256,192,309709,1,4,0:0:0:0:
256,192,309867,1,8,0:0:0:0:
256,192,310024,1,0,0:0:0:0:
256,192,310103,1,0,0:0:0:0:
256,192,310182,1,8,0:0:0:0:
256,192,310340,1,0,0:0:0:0:
256,192,310498,1,8,0:0:0:0:
256,192,310577,1,0,0:0:0:0:
256,192,310656,1,0,0:0:0:0:
256,192,310735,1,0,0:0:0:0:
256,192,310814,1,8,0:0:0:0:
256,192,310972,1,0,0:0:0:0:
256,192,311130,1,8,0:0:0:0:
256,192,311288,1,0,0:0:0:0:
256,192,311367,1,0,0:0:0:0:
256,192,311446,1,8,0:0:0:0:
256,192,311603,1,0,0:0:0:0:
256,192,311761,1,8,0:0:0:0:
256,192,311840,1,8,0:0:0:0:
256,192,311919,1,0,0:0:0:0:
256,192,311998,1,0,0:0:0:0:
256,192,312077,1,8,0:0:0:0:
256,192,312156,1,8,0:0:0:0:
256,192,312235,1,0,0:0:0:0:
256,192,312393,1,8,0:0:0:0:
256,192,312551,1,0,0:0:0:0:
256,192,312630,1,0,0:0:0:0:
256,192,312709,1,8,0:0:0:0:
256,192,312867,1,0,0:0:0:0:
256,192,313024,1,8,0:0:0:0:
256,192,313103,1,0,0:0:0:0:
256,192,313182,1,0,0:0:0:0:
256,192,313261,1,0,0:0:0:0:
256,192,313340,1,8,0:0:0:0:
256,192,313419,1,8,0:0:0:0:
256,192,313498,1,0,0:0:0:0:
256,192,313656,1,8,0:0:0:0:
256,192,313814,1,0,0:0:0:0:
256,192,313893,1,0,0:0:0:0:
256,192,313972,1,8,0:0:0:0:
256,192,314130,1,0,0:0:0:0:
256,192,314288,1,8,0:0:0:0:
256,192,314367,1,8,0:0:0:0:
256,192,314446,1,0,0:0:0:0:
256,192,314524,1,8,0:0:0:0:
256,192,314603,1,8,0:0:0:0:
256,192,314761,1,4,0:0:0:0:
256,192,314919,1,8,0:0:0:0:
256,192,315077,1,0,0:0:0:0:
256,192,315156,1,0,0:0:0:0:
256,192,315235,1,8,0:0:0:0:
256,192,315393,1,0,0:0:0:0:
256,192,315551,1,8,0:0:0:0:
256,192,315630,1,0,0:0:0:0:
256,192,315709,1,0,0:0:0:0:
256,192,315788,1,0,0:0:0:0:
256,192,315867,1,8,0:0:0:0:
256,192,315946,1,8,0:0:0:0:
256,192,316024,1,0,0:0:0:0:
256,192,316182,1,8,0:0:0:0:
256,192,316340,1,0,0:0:0:0:
256,192,316419,1,0,0:0:0:0:
256,192,316498,1,8,0:0:0:0:
256,192,316656,1,0,0:0:0:0:
256,192,316814,1,8,0:0:0:0:
256,192,316893,1,8,0:0:0:0:
256,192,316972,1,0,0:0:0:0:
256,192,317051,1,8,0:0:0:0:
256,192,317130,1,8,0:0:0:0:
256,192,317209,1,8,0:0:0:0:
256,192,317288,1,0,0:0:0:0:
256,192,317446,1,8,0:0:0:0:
256,192,317603,1,0,0:0:0:0:
256,192,317682,1,0,0:0:0:0:
256,192,317761,1,8,0:0:0:0:
256,192,317919,1,0,0:0:0:0:
256,192,318077,1,8,0:0:0:0:
256,192,318156,1,0,0:0:0:0:
256,192,318235,1,0,0:0:0:0:
256,192,318314,1,8,0:0:0:0:
256,192,318393,1,8,0:0:0:0:
256,192,318472,1,8,0:0:0:0:
256,192,318551,1,0,0:0:0:0:
256,192,318709,1,8,0:0:0:0:
256,192,318867,1,0,0:0:0:0:
256,192,318946,1,0,0:0:0:0:
256,192,319024,1,8,0:0:0:0:
256,192,319182,1,0,0:0:0:0:
256,192,319340,1,8,0:0:0:0:
256,192,319419,1,0,0:0:0:0:
256,192,319498,1,0,0:0:0:0:
256,192,319577,1,0,0:0:0:0:
256,192,319656,1,8,0:0:0:0:
256,192,319814,1,4,0:0:0:0:
256,192,319972,1,8,0:0:0:0:
256,192,320130,1,0,0:0:0:0:
256,192,320209,1,0,0:0:0:0:
256,192,320288,1,8,0:0:0:0:
256,192,320446,1,8,0:0:0:0:
256,192,320524,1,0,0:0:0:0:
256,192,320603,1,0,0:0:0:0:
256,192,320682,1,0,0:0:0:0:
256,192,320761,1,0,0:0:0:0:
256,192,320840,1,0,0:0:0:0:
256,192,320919,1,8,0:0:0:0:
256,192,320998,1,8,0:0:0:0:
256,192,321077,1,0,0:0:0:0:
256,192,321235,1,8,0:0:0:0:
256,192,321393,1,0,0:0:0:0:
256,192,321472,1,0,0:0:0:0:
256,192,321551,1,8,0:0:0:0:
256,192,321709,1,8,0:0:0:0:
256,192,321788,1,0,0:0:0:0:
256,192,321867,1,0,0:0:0:0:
256,192,321946,1,0,0:0:0:0:
256,192,322024,1,0,0:0:0:0:
256,192,322103,1,8,0:0:0:0:
256,192,322182,1,8,0:0:0:0:
256,192,322261,1,8,0:0:0:0:
256,192,322340,1,0,0:0:0:0:
256,192,322498,1,8,0:0:0:0:
256,192,322656,1,0,0:0:0:0:
256,192,322735,1,0,0:0:0:0:
256,192,322814,1,8,0:0:0:0:
256,192,322972,1,0,0:0:0:0:
256,192,323051,1,0,0:0:0:0:
256,192,323130,1,8,0:0:0:0:
256,192,323209,1,8,0:0:0:0:
256,192,323288,1,0,0:0:0:0:
256,192,323367,1,0,0:0:0:0:
256,192,323446,1,8,0:0:0:0:
256,192,323498,1,8,0:0:0:0:
256,192,323551,1,8,0:0:0:0:
256,192,323603,1,0,0:0:0:0:
256,192,323682,1,0,0:0:0:0:
256,192,323761,1,8,0:0:0:0:
256,192,323840,1,0,0:0:0:0:
256,192,323919,1,0,0:0:0:0:
256,192,323998,1,0,0:0:0:0:
256,192,324077,1,8,0:0:0:0:
256,192,324130,1,0,0:0:0:0:
256,192,324182,1,0,0:0:0:0:
256,192,324235,1,8,0:0:0:0:
256,192,324314,1,8,0:0:0:0:
256,192,324393,1,8,0:0:0:0:
256,192,324472,1,0,0:0:0:0:
256,192,324551,1,0,0:0:0:0:
256,192,324630,1,0,0:0:0:0:
256,192,324709,1,8,0:0:0:0:
256,192,324788,1,0,0:0:0:0:
256,192,324867,1,8,0:0:0:0:
256,192,325024,1,8,0:0:0:0:
256,192,325182,1,0,0:0:0:0:
256,192,325261,1,0,0:0:0:0:
256,192,325340,1,8,0:0:0:0:
256,192,325498,1,8,0:0:0:0:
256,192,325577,1,8,0:0:0:0:
256,192,325656,1,0,0:0:0:0:
256,192,325735,1,0,0:0:0:0:
256,192,325814,1,8,0:0:0:0:
256,192,325893,1,0,0:0:0:0:
256,192,325972,1,0,0:0:0:0:
256,192,326051,1,0,0:0:0:0:
256,192,326130,1,8,0:0:0:0:
256,192,326288,1,8,0:0:0:0:
256,192,326446,1,0,0:0:0:0:
256,192,326524,1,0,0:0:0:0:
256,192,326603,1,8,0:0:0:0:
256,192,326761,1,8,0:0:0:0:
256,192,326840,1,0,0:0:0:0:
256,192,326919,1,0,0:0:0:0:
256,192,326998,1,0,0:0:0:0:
256,192,327077,1,8,0:0:0:0:
256,192,327156,1,0,0:0:0:0:
256,192,327235,1,8,0:0:0:0:
256,192,327393,1,4,0:0:0:0:
256,192,327551,1,8,0:0:0:0:
256,192,327709,1,0,0:0:0:0:
256,192,327788,1,0,0:0:0:0:
256,192,327867,1,8,0:0:0:0:
256,192,328024,1,0,0:0:0:0:
256,192,328103,1,0,0:0:0:0:
256,192,328182,1,8,0:0:0:0:
256,192,328261,1,0,0:0:0:0:
256,192,328340,1,8,0:0:0:0:
256,192,328419,1,8,0:0:0:0:
256,192,328498,1,8,0:0:0:0:
256,192,328577,1,0,0:0:0:0:
256,192,328656,1,8,0:0:0:0:
256,192,328735,1,8,0:0:0:0:
256,192,328814,1,0,0:0:0:0:
256,192,328893,1,8,0:0:0:0:
256,192,328972,1,8,0:0:0:0:
256,192,329051,1,0,0:0:0:0:
256,192,329130,1,0,0:0:0:0:
256,192,329209,1,0,0:0:0:0:
256,192,329288,1,8,0:0:0:0:
256,192,329340,1,8,0:0:0:0:
256,192,329393,1,8,0:0:0:0:
256,192,329446,1,0,0:0:0:0:
256,192,329524,1,0,0:0:0:0:
256,192,329603,1,8,0:0:0:0:
256,192,329682,1,8,0:0:0:0:
256,192,329761,1,0,0:0:0:0:
256,192,329840,1,0,0:0:0:0:
256,192,329919,1,8,0:0:0:0:
256,192,330077,1,8,0:0:0:0:
256,192,330156,1,8,0:0:0:0:
256,192,330235,1,0,0:0:0:0:
256,192,330314,1,0,0:0:0:0:
256,192,330393,1,8,0:0:0:0:
256,192,330551,1,0,0:0:0:0:
256,192,330630,1,0,0:0:0:0:
256,192,330709,1,8,0:0:0:0:
256,192,330788,1,0,0:0:0:0:
256,192,330867,1,0,0:0:0:0:
256,192,330946,1,0,0:0:0:0:
256,192,331024,1,8,0:0:0:0:
256,192,331182,1,0,0:0:0:0:
256,192,331261,1,0,0:0:0:0:
256,192,331340,1,8,0:0:0:0:
256,192,331419,1,0,0:0:0:0:
256,192,331498,1,0,0:0:0:0:
256,192,331577,1,0,0:0:0:0:
256,192,331656,1,8,0:0:0:0:
256,192,331735,1,8,0:0:0:0:
256,192,331814,1,8,0:0:0:0:
256,192,331893,1,0,0:0:0:0:
256,192,331972,1,8,0:0:0:0:
256,192,332051,1,0,0:0:0:0:
256,192,332130,1,0,0:0:0:0:
256,192,332209,1,0,0:0:0:0:
256,192,332288,1,8,0:0:0:0:
256,192,332367,1,8,0:0:0:0:
256,192,332446,1,0,0:0:0:0:
256,192,332603,1,8,0:0:0:0:
256,192,332682,1,0,0:0:0:0:
256,192,332761,1,0,0:0:0:0:
256,192,332840,1,0,0:0:0:0:
256,192,332919,1,8,0:0:0:0:
256,192,332998,1,8,0:0:0:0:
256,192,333077,1,8,0:0:0:0:
256,192,333156,1,0,0:0:0:0:
256,192,333235,1,8,0:0:0:0:
256,192,333314,1,0,0:0:0:0:
256,192,333393,1,0,0:0:0:0:
256,192,333472,1,0,0:0:0:0:
256,192,333551,1,8,0:0:0:0:
256,192,333630,1,0,0:0:0:0:
256,192,333709,1,8,0:0:0:0:
256,192,333788,1,8,0:0:0:0:
256,192,333867,1,8,0:0:0:0:
256,192,333946,1,0,0:0:0:0:
256,192,334024,1,8,0:0:0:0:
256,192,334103,1,0,0:0:0:0:
256,192,334182,1,8,0:0:0:0:
256,192,334261,1,0,0:0:0:0:
256,192,334340,1,8,0:0:0:0:
256,192,334419,1,8,0:0:0:0:
256,192,334498,1,8,0:0:0:0:
256,192,334577,1,0,0:0:0:0:
256,192,334656,1,8,0:0:0:0:
256,192,334735,1,8,0:0:0:0:
256,192,334814,1,0,0:0:0:0:
256,192,334893,1,0,0:0:0:0:
256,192,334972,1,8,0:0:0:0:
256,192,335051,1,0,0:0:0:0:
256,192,335130,1,0,0:0:0:0:
256,192,335209,1,0,0:0:0:0:
256,192,335288,1,0,0:0:0:0:
256,192,335367,1,0,0:0:0:0:
256,192,335446,1,8,0:0:0:0:
256,192,335524,1,0,0:0:0:0:
256,192,335603,1,8,0:0:0:0:
256,192,335682,1,8,0:0:0:0:
256,192,335761,1,0,0:0:0:0:
256,192,335840,1,0,0:0:0:0:
256,192,335919,1,8,0:0:0:0:
256,192,335998,1,8,0:0:0:0:
256,192,336077,1,8,0:0:0:0:
256,192,336156,1,0,0:0:0:0:
256,192,336235,1,0,0:0:0:0:
256,192,336314,1,0,0:0:0:0:
256,192,336393,1,8,0:0:0:0:
256,192,336472,1,8,0:0:0:0:
256,192,336551,1,0,0:0:0:0:
256,192,336630,1,0,0:0:0:0:
256,192,336709,1,0,0:0:0:0:
256,192,336788,1,0,0:0:0:0:
256,192,336867,1,8,0:0:0:0:
256,192,336946,1,0,0:0:0:0:
256,192,337024,1,0,0:0:0:0:
256,192,337103,1,0,0:0:0:0:
256,192,337182,1,8,0:0:0:0:
256,192,337261,1,8,0:0:0:0:
256,192,337340,1,0,0:0:0:0:
256,192,337419,1,0,0:0:0:0:
256,192,337498,1,8,0:0:0:0:
256,192,337656,1,8,0:0:0:0:
256,192,337814,1,8,0:0:0:0:
256,192,337972,1,0,0:0:0:0:
256,192,338130,1,8,0:0:0:0:
256,192,338288,1,8,0:0:0:0:
256,192,338367,1,0,0:0:0:0:
256,192,338446,1,8,0:0:0:0:
256,192,338524,1,0,0:0:0:0:
256,192,338603,1,0,0:0:0:0:
256,192,338682,1,0,0:0:0:0:
256,192,338761,1,8,0:0:0:0:
256,192,338919,1,8,0:0:0:0:
256,192,339077,1,0,0:0:0:0:
256,192,339235,1,8,0:0:0:0:
256,192,339393,1,8,0:0:0:0:
256,192,339551,1,8,0:0:0:0:
256,192,339709,1,0,0:0:0:0:
256,192,339867,1,8,0:0:0:0:
256,192,340024,1,0,0:0:0:0:
256,192,340103,1,0,0:0:0:0:
256,192,340182,1,8,0:0:0:0:
256,192,340261,1,8,0:0:0:0:
256,192,340340,1,0,0:0:0:0:
256,192,340419,1,0,0:0:0:0:
256,192,340498,1,8,0:0:0:0:
256,192,340577,1,8,0:0:0:0:
256,192,340656,1,8,0:0:0:0:
256,192,340735,1,8,0:0:0:0:
256,192,340814,1,0,0:0:0:0:
256,192,340893,1,0,0:0:0:0:
256,192,340972,1,8,0:0:0:0:
256,192,341051,1,0,0:0:0:0:
256,192,341130,1,0,0:0:0:0:
256,192,341209,1,0,0:0:0:0:
256,192,341288,1,0,0:0:0:0:
256,192,341367,1,0,0:0:0:0:
256,192,341446,1,8,0:0:0:0:
256,192,341603,1,0,0:0:0:0:
256,192,341761,1,8,0:0:0:0:
256,192,341919,1,0,0:0:0:0:
256,192,342077,1,8,0:0:0:0:
256,192,342235,1,8,0:0:0:0:
256,192,342393,1,8,0:0:0:0:
256,192,342551,1,8,0:0:0:0:
256,192,342630,1,0,0:0:0:0:
256,192,342709,1,0,0:0:0:0:
256,192,342788,1,0,0:0:0:0:
256,192,342867,1,8,0:0:0:0:
256,192,342946,1,0,0:0:0:0:
256,192,343024,1,8,0:0:0:0:
256,192,343103,1,0,0:0:0:0:
256,192,343182,1,8,0:0:0:0:
256,192,343261,1,8,0:0:0:0:
256,192,343340,1,0,0:0:0:0:
256,192,343419,1,0,0:0:0:0:
256,192,343498,1,0,0:0:0:0:
256,192,343577,1,0,0:0:0:0:
256,192,343656,1,0,0:0:0:0:
256,192,343735,1,0,0:0:0:0:
256,192,343814,1,8,0:0:0:0:
256,192,343972,1,8,0:0:0:0:
256,192,344130,1,8,0:0:0:0:
256,192,344288,1,0,0:0:0:0:
256,192,344446,1,8,0:0:0:0:
256,192,344603,1,8,0:0:0:0:
256,192,344761,1,0,0:0:0:0:
256,192,344919,1,8,0:0:0:0:
256,192,345077,1,8,0:0:0:0:
256,192,345156,1,0,0:0:0:0:
256,192,345235,1,8,0:0:0:0:
256,192,345314,1,8,0:0:0:0:
256,192,345393,1,0,0:0:0:0:
256,192,345472,1,8,0:0:0:0:
256,192,345551,1,8,0:0:0:0:
256,192,345630,1,0,0:0:0:0:
256,192,345709,1,8,0:0:0:0:
256,192,345788,1,8,0:0:0:0:
256,192,345867,1,0,0:0:0:0:
256,192,345946,1,8,0:0:0:0:
256,192,346024,1,8,0:0:0:0:
256,192,346103,1,0,0:0:0:0:
256,192,346182,1,8,0:0:0:0:
256,192,346261,1,0,0:0:0:0:
256,192,346340,1,8,0:0:0:0:
256,192,346498,1,8,0:0:0:0:
256,192,346656,1,8,0:0:0:0:
256,192,346814,1,0,0:0:0:0:
256,192,346972,1,8,0:0:0:0:
256,192,347130,1,8,0:0:0:0:
256,192,347288,1,8,0:0:0:0:
256,192,347446,1,4,0:0:0:0:
256,192,347603,1,8,0:0:0:0:
256,192,347761,1,0,0:0:0:0:
256,192,347919,1,0,0:0:0:0:
256,192,348077,1,8,0:0:0:0:
256,192,348235,1,8,0:0:0:0:
256,192,348393,1,8,0:0:0:0:
256,192,348551,1,0,0:0:0:0:
256,192,348709,1,8,0:0:0:0:
256,192,348867,1,0,0:0:0:0:
256,192,349024,1,8,0:0:0:0:
256,192,349182,1,8,0:0:0:0:
256,192,349340,1,8,0:0:0:0:
256,192,349498,1,8,0:0:0:0:
256,192,349656,1,8,0:0:0:0:
256,192,349814,1,0,0:0:0:0:
256,192,349972,1,0,0:0:0:0:
256,192,350130,1,8,0:0:0:0:
256,192,350288,1,0,0:0:0:0:
256,192,350446,1,0,0:0:0:0:
256,192,350603,1,8,0:0:0:0:
256,192,350761,1,8,0:0:0:0:
256,192,350919,1,8,0:0:0:0:
256,192,351077,1,8,0:0:0:0:
256,192,351235,1,0,0:0:0:0:
256,192,351393,1,0,0:0:0:0:
256,192,351551,1,8,0:0:0:0:
256,192,351709,1,8,0:0:0:0:
256,192,351867,1,0,0:0:0:0:
256,192,352024,1,8,0:0:0:0:
256,192,352182,1,8,0:0:0:0:
256,192,352340,1,8,0:0:0:0:
256,192,352498,1,0,0:0:0:0:
256,192,352656,1,8,0:0:0:0:
256,192,352814,1,8,0:0:0:0:
256,192,352972,1,8,0:0:0:0:
256,192,353130,1,0,0:0:0:0:
256,192,353288,1,0,0:0:0:0:
256,192,353446,1,0,0:0:0:0:
256,192,353603,1,8,0:0:0:0:
256,192,353761,1,0,0:0:0:0:
256,192,353919,1,8,0:0:0:0:
256,192,354077,1,8,0:0:0:0:
256,192,354235,1,8,0:0:0:0:
256,192,354393,1,0,0:0:0:0:
256,192,354551,1,0,0:0:0:0:
256,192,354709,1,0,0:0:0:0:
256,192,354867,1,8,0:0:0:0:
256,192,355024,1,8,0:0:0:0:
256,192,355182,1,8,0:0:0:0:
256,192,355340,1,8,0:0:0:0:
256,192,355498,1,8,0:0:0:0:
256,192,355656,1,0,0:0:0:0:
256,192,355814,1,0,0:0:0:0:
256,192,355972,1,0,0:0:0:0:
256,192,356130,1,8,0:0:0:0:
256,192,356288,1,0,0:0:0:0:
256,192,356446,1,0,0:0:0:0:
256,192,356603,1,8,0:0:0:0:
256,192,356761,1,8,0:0:0:0:
256,192,356919,1,0,0:0:0:0:
256,192,357077,1,8,0:0:0:0:
256,192,357235,1,8,0:0:0:0:
256,192,357393,1,4,0:0:0:0:
256,192,357551,1,12,0:0:0:0:
256,192,357867,1,0,0:0:0:0:
256,192,358024,1,8,0:0:0:0:
256,192,358182,1,0,0:0:0:0:
256,192,358340,1,8,0:0:0:0:
256,192,358498,1,8,0:0:0:0:
256,192,358656,1,0,0:0:0:0:
256,192,358814,1,8,0:0:0:0:
256,192,358972,1,8,0:0:0:0:
256,192,359130,1,0,0:0:0:0:
256,192,359288,1,8,0:0:0:0:
256,192,359446,1,8,0:0:0:0:
256,192,359603,1,8,0:0:0:0:
256,192,359761,1,8,0:0:0:0:
256,192,359919,1,0,0:0:0:0:
256,192,360077,1,0,0:0:0:0:
256,192,360235,1,8,0:0:0:0:
256,192,360393,1,0,0:0:0:0:
256,192,360551,1,0,0:0:0:0:
256,192,360709,1,8,0:0:0:0:
256,192,360867,1,8,0:0:0:0:
256,192,361024,1,0,0:0:0:0:
256,192,361182,1,8,0:0:0:0:
256,192,361340,1,8,0:0:0:0:
256,192,361498,1,0,0:0:0:0:
256,192,361656,1,8,0:0:0:0:
256,192,361814,1,8,0:0:0:0:
256,192,361972,1,8,0:0:0:0:
256,192,362130,1,8,0:0:0:0:
256,192,362288,1,8,0:0:0:0:
256,192,362446,1,8,0:0:0:0:
256,192,362603,1,0,0:0:0:0:
256,192,362761,1,8,0:0:0:0:
256,192,362919,1,8,0:0:0:0:
256,192,363077,1,8,0:0:0:0:
256,192,363235,1,0,0:0:0:0:
256,192,363393,1,0,0:0:0:0:
256,192,363551,1,0,0:0:0:0:
256,192,363709,1,8,0:0:0:0:
256,192,363867,1,8,0:0:0:0:
256,192,364024,1,8,0:0:0:0:
256,192,364182,1,0,0:0:0:0:
256,192,364340,1,0,0:0:0:0:
256,192,364498,1,0,0:0:0:0:
256,192,364656,1,0,0:0:0:0:
256,192,364761,1,0,0:0:0:0:
256,192,364867,1,8,0:0:0:0:
256,192,364972,1,8,0:0:0:0:
256,192,365077,1,8,0:0:0:0:
256,192,365182,1,0,0:0:0:0:
256,192,365288,1,0,0:0:0:0:
256,192,365446,1,8,0:0:0:0:
256,192,365603,1,8,0:0:0:0:
256,192,365761,1,4,0:0:0:0:
256,192,365919,1,8,0:0:0:0:
256,192,366077,1,8,0:0:0:0:
256,192,366235,1,4,0:0:0:0:
256,192,366393,1,8,0:0:0:0:
256,192,366551,1,8,0:0:0:0:
256,192,366709,1,4,0:0:0:0:
256,192,366867,1,8,0:0:0:0:
256,192,367024,1,8,0:0:0:0:
256,192,367182,1,8,0:0:0:0:
256,192,367340,1,0,0:0:0:0:
256,192,367498,1,0,0:0:0:0:
256,192,367656,1,12,0:0:0:0:
256,192,367814,1,12,0:0:0:0:
256,192,368129,1,8,0:0:0:0:
256,192,368287,1,8,0:0:0:0:
256,192,368445,1,0,0:0:0:0:
256,192,368603,1,8,0:0:0:0:
256,192,368919,1,0,0:0:0:0:
256,192,369077,1,8,0:0:0:0:
256,192,369235,1,8,0:0:0:0:
256,192,369392,1,0,0:0:0:0:
256,192,369550,1,8,0:0:0:0:
256,192,369866,1,0,0:0:0:0:
256,192,370024,1,8,0:0:0:0:
256,192,370182,1,8,0:0:0:0:
256,192,370340,1,0,0:0:0:0:
256,192,370498,1,8,0:0:0:0:
256,192,370814,1,0,0:0:0:0:
256,192,370971,1,8,0:0:0:0:
256,192,371287,1,8,0:0:0:0:
256,192,371445,1,8,0:0:0:0:
256,192,371761,1,0,0:0:0:0:
256,192,371919,1,8,0:0:0:0:
256,192,372077,1,0,0:0:0:0:
256,192,372235,1,8,0:0:0:0:
256,192,372392,1,8,0:0:0:0:
256,192,372708,1,0,0:0:0:0:
256,192,372866,1,8,0:0:0:0:
256,192,373024,1,0,0:0:0:0:
256,192,373182,1,8,0:0:0:0:
256,192,373340,1,8,0:0:0:0:
256,192,373656,1,0,0:0:0:0:
256,192,373814,1,8,0:0:0:0:
256,192,373971,1,0,0:0:0:0:
256,192,374129,1,8,0:0:0:0:
256,192,374287,1,8,0:0:0:0:
256,192,374603,1,0,0:0:0:0:
256,192,374761,1,8,0:0:0:0:
256,192,375077,1,8,0:0:0:0:
256,192,375235,1,0,0:0:0:0:
256,192,375550,1,0,0:0:0:0:
256,192,375708,1,8,0:0:0:0:
256,192,375866,1,8,0:0:0:0:
256,192,376024,1,8,0:0:0:0:
256,192,376182,1,0,0:0:0:0:
256,192,376498,1,0,0:0:0:0:
256,192,376656,1,8,0:0:0:0:
256,192,376814,1,8,0:0:0:0:
256,192,376971,1,8,0:0:0:0:
256,192,377129,1,0,0:0:0:0:
256,192,377445,1,0,0:0:0:0:
256,192,377603,1,8,0:0:0:0:
256,192,377761,1,8,0:0:0:0:
256,192,377919,1,8,0:0:0:0:
256,192,378077,1,0,0:0:0:0:
256,192,378392,1,0,0:0:0:0:
256,192,378550,1,8,0:0:0:0:
256,192,378866,1,8,0:0:0:0:
256,192,379024,1,8,0:0:0:0:
256,192,379340,1,0,0:0:0:0:
256,192,379498,1,8,0:0:0:0:
256,192,379656,1,8,0:0:0:0:
256,192,379814,1,8,0:0:0:0:
256,192,379971,1,8,0:0:0:0:
256,192,380287,1,0,0:0:0:0:
256,192,380445,1,8,0:0:0:0:
256,192,380603,1,8,0:0:0:0:
256,192,380761,1,8,0:0:0:0:
256,192,380919,1,8,0:0:0:0:
256,192,381235,1,0,0:0:0:0:
256,192,381392,1,8,0:0:0:0:
256,192,381550,1,8,0:0:0:0:
256,192,381708,1,8,0:0:0:0:
256,192,381866,1,8,0:0:0:0:
256,192,382182,1,0,0:0:0:0:
256,192,382340,1,8,0:0:0:0:
256,192,382656,1,8,0:0:0:0:
256,192,382814,1,0,0:0:0:0:
256,192,382971,1,8,0:0:0:0:
256,192,383024,1,8,0:0:0:0:
256,192,383287,1,8,0:0:0:0:
256,192,383445,1,8,0:0:0:0:
256,192,383603,1,8,0:0:0:0:
256,192,383761,1,8,0:0:0:0:
256,192,383919,1,8,0:0:0:0:
256,192,384235,1,8,0:0:0:0:
256,192,384392,1,8,0:0:0:0:
256,192,384866,1,8,0:0:0:0:
256,192,384919,1,8,0:0:0:0:
256,192,385340,1,8,0:0:0:0:
256,192,385498,1,8,0:0:0:0:
256,192,385656,1,8,0:0:0:0:
256,192,385814,1,8,0:0:0:0:
256,192,385866,1,8,0:0:0:0:
256,192,386129,1,8,0:0:0:0:
256,192,386287,1,8,0:0:0:0:
256,192,386445,1,8,0:0:0:0:
256,192,386603,1,8,0:0:0:0:
256,192,386761,1,8,0:0:0:0:
256,192,386814,1,8,0:0:0:0:
256,192,387235,1,8,0:0:0:0:
256,192,387550,1,8,0:0:0:0:
256,192,387708,1,8,0:0:0:0:
256,192,388182,1,8,0:0:0:0:
256,192,388340,1,8,0:0:0:0:
256,192,388656,1,8,0:0:0:0:
256,192,388708,1,8,0:0:0:0:
256,192,389129,1,8,0:0:0:0:
256,192,389445,1,8,0:0:0:0:
256,192,389603,1,8,0:0:0:0:
256,192,389761,1,8,0:0:0:0:
256,192,389919,1,8,0:0:0:0:
256,192,390235,1,8,0:0:0:0:
256,192,390314,1,8,0:0:0:0:
256,192,390392,1,8,0:0:0:0:
256,192,390550,1,8,0:0:0:0:
256,192,390866,1,8,0:0:0:0:
256,192,391024,1,8,0:0:0:0:
256,192,391182,1,8,0:0:0:0:
256,192,391340,1,8,0:0:0:0:
256,192,391498,1,8,0:0:0:0:
256,192,391814,1,8,0:0:0:0:
256,192,391971,1,8,0:0:0:0:
256,192,392129,1,8,0:0:0:0:
256,192,392287,1,8,0:0:0:0:
256,192,392445,1,8,0:0:0:0:
256,192,392498,1,8,0:0:0:0:
256,192,392761,1,8,0:0:0:0:
256,192,392919,1,8,0:0:0:0:
256,192,393077,1,8,0:0:0:0:
256,192,393392,1,8,0:0:0:0:
256,192,393445,1,8,0:0:0:0:
256,192,393708,1,8,0:0:0:0:
256,192,393866,1,8,0:0:0:0:
256,192,394024,1,8,0:0:0:0:
256,192,394182,1,8,0:0:0:0:
256,192,394340,1,8,0:0:0:0:
256,192,394656,1,8,0:0:0:0:
256,192,394814,1,8,0:0:0:0:
256,192,394971,1,8,0:0:0:0:
256,192,395129,1,8,0:0:0:0:
256,192,395287,1,8,0:0:0:0:
256,192,395603,1,8,0:0:0:0:
256,192,395761,1,8,0:0:0:0:
256,192,395919,1,8,0:0:0:0:
256,192,396235,1,8,0:0:0:0:
256,192,396314,1,8,0:0:0:0:
256,192,396392,1,8,0:0:0:0:
256,192,396550,1,8,0:0:0:0:
256,192,396629,1,8,0:0:0:0:
256,192,396708,1,8,0:0:0:0:
256,192,396787,1,8,0:0:0:0:
256,192,396866,1,8,0:0:0:0:
256,192,396945,1,8,0:0:0:0:
256,192,397024,1,8,0:0:0:0:
256,192,397182,1,8,0:0:0:0:
256,192,397340,1,8,0:0:0:0:
256,192,397419,1,8,0:0:0:0:
256,192,397498,1,8,0:0:0:0:
256,192,397656,1,8,0:0:0:0:
256,192,397735,1,8,0:0:0:0:
256,192,397814,1,8,0:0:0:0:
256,192,397971,1,8,0:0:0:0:
256,192,398129,1,4,0:0:0:0:
256,192,398603,1,0,0:0:0:0:
256,192,398919,1,0,0:0:0:0:
256,192,399077,1,8,0:0:0:0:
256,192,399392,1,8,0:0:0:0:
256,192,399471,1,8,0:0:0:0:
256,192,399550,1,8,0:0:0:0:
256,192,399708,1,8,0:0:0:0:
256,192,399787,1,8,0:0:0:0:
256,192,399866,1,8,0:0:0:0:
256,192,400024,1,0,0:0:0:0:
256,192,400498,1,8,0:0:0:0:
256,192,400814,1,0,0:0:0:0:
256,192,400971,1,8,0:0:0:0:
256,192,401287,1,8,0:0:0:0:
256,192,401366,1,8,0:0:0:0:
256,192,401445,1,8,0:0:0:0:
256,192,401603,1,12,0:0:0:0:
256,192,401919,1,4,0:0:0:0:
256,192,402235,1,8,0:0:0:0:
256,192,402392,1,8,0:0:0:0:
256,192,402550,1,8,0:0:0:0:
256,192,402708,1,0,0:0:0:0:
256,192,402866,1,8,0:0:0:0:
256,192,403182,1,8,0:0:0:0:
256,192,403261,1,8,0:0:0:0:
256,192,403340,1,8,0:0:0:0:
256,192,403498,1,8,0:0:0:0:
256,192,403656,1,8,0:0:0:0:
256,192,403814,1,0,0:0:0:0:
256,192,403971,1,8,0:0:0:0:
256,192,404129,1,8,0:0:0:0:
256,192,404287,1,0,0:0:0:0:
256,192,404603,1,0,0:0:0:0:
256,192,404761,1,8,0:0:0:0:
256,192,404919,1,8,0:0:0:0:
256,192,404998,1,8,0:0:0:0:
256,192,405077,1,8,0:0:0:0:
256,192,405235,1,8,0:0:0:0:
256,192,405392,1,12,0:0:0:0:
256,192,405550,1,12,0:0:0:0:
256,192,405708,1,4,0:0:0:0:
256,192,406182,1,0,0:0:0:0:
256,192,406498,1,0,0:0:0:0:
256,192,406656,1,12,0:0:0:0:
256,192,406971,1,8,0:0:0:0:
256,192,407050,1,8,0:0:0:0:
256,192,407129,1,8,0:0:0:0:
256,192,407287,1,8,0:0:0:0:
256,192,407366,1,8,0:0:0:0:
256,192,407445,1,8,0:0:0:0:
256,192,407603,1,0,0:0:0:0:
256,192,407761,1,8,0:0:0:0:
256,192,407919,1,8,0:0:0:0:
256,192,408077,1,8,0:0:0:0:
256,192,408392,1,0,0:0:0:0:
256,192,408550,1,8,0:0:0:0:
256,192,408866,1,12,0:0:0:0:
256,192,409182,1,12,0:0:0:0:
256,192,409498,1,4,0:0:0:0:
256,192,409814,1,8,0:0:0:0:
256,192,409971,1,0,0:0:0:0:
256,192,410287,1,0,0:0:0:0:
256,192,410445,1,8,0:0:0:0:
256,192,410761,1,8,0:0:0:0:
256,192,410840,1,8,0:0:0:0:
256,192,410919,1,8,0:0:0:0:
256,192,411077,1,8,0:0:0:0:
256,192,411235,1,8,0:0:0:0:
256,192,411392,1,4,0:0:0:0:
256,192,411708,1,8,0:0:0:0:
256,192,411866,1,8,0:0:0:0:
256,192,412024,1,12,0:0:0:0:
256,192,412182,1,0,0:0:0:0:
256,192,412340,1,8,0:0:0:0:
256,192,412498,1,0,0:0:0:0:
256,192,412577,1,0,0:0:0:0:
256,192,412656,1,8,0:0:0:0:
256,192,412814,1,8,0:0:0:0:
256,192,412971,1,12,0:0:0:0:
256,192,413287,1,4,0:0:0:0:
256,192,413761,1,0,0:0:0:0:
256,192,414077,1,0,0:0:0:0:
256,192,414235,1,8,0:0:0:0:
256,192,414550,1,8,0:0:0:0:
256,192,414866,1,0,0:0:0:0:
256,192,415182,1,0,0:0:0:0:
256,192,415498,1,8,0:0:0:0:
256,192,415814,1,8,0:0:0:0:
256,192,416129,1,8,0:0:0:0:
256,192,416182,1,8,0:0:0:0:
256,192,416235,1,0,0:0:0:0:
256,192,416340,1,0,0:0:0:0:
256,192,416445,1,8,0:0:0:0:
256,192,416498,1,8,0:0:0:0:
256,192,416550,1,0,0:0:0:0:
256,192,416656,1,8,0:0:0:0:
256,192,416761,1,0,0:0:0:0:
256,192,416866,1,0,0:0:0:0:
256,192,417077,1,12,0:0:0:0:
256,192,417392,1,8,0:0:0:0:
256,192,417550,1,0,0:0:0:0:
256,192,417708,1,8,0:0:0:0:
256,192,417866,1,0,0:0:0:0:
256,192,418024,1,8,0:0:0:0:
256,192,418340,1,8,0:0:0:0:
256,192,418419,1,8,0:0:0:0:
256,192,418498,1,8,0:0:0:0:
256,192,418656,1,8,0:0:0:0:
256,192,418814,1,8,0:0:0:0:
256,192,418892,1,8,0:0:0:0:
256,192,418971,1,0,0:0:0:0:
256,192,419287,1,8,0:0:0:0:
256,192,419445,1,8,0:0:0:0:
256,192,419603,1,8,0:0:0:0:
256,192,419761,1,0,0:0:0:0:
256,192,419919,1,8,0:0:0:0:
256,192,420235,1,8,0:0:0:0:
256,192,420392,1,12,0:0:0:0:
256,192,420550,1,8,0:0:0:0:
256,192,420866,1,0,0:0:0:0:
256,192,421182,1,8,0:0:0:0:
256,192,421340,1,8,0:0:0:0:
256,192,421498,1,8,0:0:0:0:
256,192,421656,1,0,0:0:0:0:
256,192,421814,1,8,0:0:0:0:
256,192,422129,1,8,0:0:0:0:
256,192,422208,1,8,0:0:0:0:
256,192,422287,1,8,0:0:0:0:
256,192,422445,1,8,0:0:0:0:
256,192,422524,1,8,0:0:0:0:
256,192,422603,1,8,0:0:0:0:
256,192,422682,1,8,0:0:0:0:
256,192,422761,1,0,0:0:0:0:
256,192,422919,1,8,0:0:0:0:
256,192,423077,1,8,0:0:0:0:
256,192,423235,1,8,0:0:0:0:
256,192,423392,1,8,0:0:0:0:
256,192,423550,1,0,0:0:0:0:
256,192,423708,1,8,0:0:0:0:
256,192,424024,1,8,0:0:0:0:
256,192,424182,1,12,0:0:0:0:
256,192,424340,1,8,0:0:0:0:
256,192,424498,1,8,0:0:0:0:
256,192,424656,1,0,0:0:0:0:
256,192,424814,1,8,0:0:0:0:
256,192,424971,1,8,0:0:0:0:
256,192,425129,1,8,0:0:0:0:
256,192,425287,1,8,0:0:0:0:
256,192,425445,1,0,0:0:0:0:
256,192,425603,1,8,0:0:0:0:
256,192,425919,1,8,0:0:0:0:
256,192,425998,1,8,0:0:0:0:
256,192,426077,1,8,0:0:0:0:
256,192,426235,1,8,0:0:0:0:
256,192,426314,1,8,0:0:0:0:
256,192,426392,1,8,0:0:0:0:
256,192,426550,1,0,0:0:0:0:
256,192,426866,1,8,0:0:0:0:
256,192,427024,1,8,0:0:0:0:
256,192,427182,1,8,0:0:0:0:
256,192,427340,1,0,0:0:0:0:
256,192,427498,1,8,0:0:0:0:
256,192,427814,1,8,0:0:0:0:
256,192,427971,1,12,0:0:0:0:
256,192,428129,1,8,0:0:0:0:
256,192,428287,1,8,0:0:0:0:
256,192,428445,1,0,0:0:0:0:
256,192,428761,1,8,0:0:0:0:
256,192,428919,1,8,0:0:0:0:
256,192,429077,1,8,0:0:0:0:
256,192,429235,1,0,0:0:0:0:
256,192,429392,1,8,0:0:0:0:
256,192,429708,1,8,0:0:0:0:
256,192,429787,1,8,0:0:0:0:
256,192,429866,1,8,0:0:0:0:
256,192,430024,1,8,0:0:0:0:
256,192,430103,1,8,0:0:0:0:
256,192,430182,1,8,0:0:0:0:
256,192,430340,1,0,0:0:0:0:
256,192,430498,1,8,0:0:0:0:
256,192,430814,1,8,0:0:0:0:
256,192,430971,1,8,0:0:0:0:
256,192,431129,1,0,0:0:0:0:
256,192,431287,1,8,0:0:0:0:
256,192,431445,1,4,0:0:0:0:
256,192,431761,1,4,0:0:0:0:
256,192,432077,1,4,0:0:0:0:
256,192,432235,1,12,0:0:0:0:
256,192,432550,1,8,0:0:0:0:
256,192,432708,1,0,0:0:0:0:
256,192,432866,1,8,0:0:0:0:
256,192,433024,1,0,0:0:0:0:
256,192,433182,1,8,0:0:0:0:
256,192,433498,1,8,0:0:0:0:
256,192,433577,1,8,0:0:0:0:
256,192,433656,1,8,0:0:0:0:
256,192,433814,1,8,0:0:0:0:
256,192,433892,1,8,0:0:0:0:
256,192,433971,1,8,0:0:0:0:
256,192,434129,1,0,0:0:0:0:
256,192,434445,1,8,0:0:0:0:
256,192,434603,1,8,0:0:0:0:
256,192,434761,1,8,0:0:0:0:
256,192,434919,1,0,0:0:0:0:
256,192,435077,1,8,0:0:0:0:
256,192,435392,1,8,0:0:0:0:
256,192,435708,1,8,0:0:0:0:
256,192,435787,1,8,0:0:0:0:
256,192,435866,1,8,0:0:0:0:
256,192,436024,1,0,0:0:0:0:
256,192,436340,1,8,0:0:0:0:
256,192,436498,1,8,0:0:0:0:
256,192,436656,1,8,0:0:0:0:
256,192,436814,1,0,0:0:0:0:
256,192,436971,1,8,0:0:0:0:
256,192,437287,1,8,0:0:0:0:
256,192,437366,1,8,0:0:0:0:
256,192,437445,1,8,0:0:0:0:
256,192,437603,1,8,0:0:0:0:
256,192,437682,1,8,0:0:0:0:
256,192,437761,1,8,0:0:0:0:
256,192,437919,1,0,0:0:0:0:
256,192,438235,1,8,0:0:0:0:
256,192,438550,1,8,0:0:0:0:
256,192,438708,1,0,0:0:0:0:
256,192,438866,1,8,0:0:0:0:
256,192,439024,1,8,0:0:0:0:
256,192,439103,1,8,0:0:0:0:
256,192,439182,1,8,0:0:0:0:
256,192,439261,1,8,0:0:0:0:
256,192,439340,1,8,0:0:0:0:
256,192,439419,1,8,0:0:0:0:
256,192,439498,1,0,0:0:0:0:
256,192,439814,1,4,0:0:0:0:
256,192,440129,1,8,0:0:0:0:
256,192,440287,1,0,0:0:0:0:
256,192,440445,1,8,0:0:0:0:
256,192,440603,1,0,0:0:0:0:
256,192,440761,1,8,0:0:0:0:
256,192,441077,1,8,0:0:0:0:
256,192,441156,1,8,0:0:0:0:
256,192,441235,1,8,0:0:0:0:
256,192,441392,1,8,0:0:0:0:
256,192,441550,1,8,0:0:0:0:
256,192,441708,1,0,0:0:0:0:
256,192,442024,1,8,0:0:0:0:
256,192,442182,1,8,0:0:0:0:
256,192,442340,1,8,0:0:0:0:
256,192,442498,1,0,0:0:0:0:
256,192,442656,1,8,0:0:0:0:
256,192,442971,1,0,0:0:0:0:
256,192,443287,1,4,0:0:0:0:
256,192,443603,1,12,0:0:0:0:
256,192,443919,1,8,0:0:0:0:
256,192,444077,1,0,0:0:0:0:
256,192,444235,1,8,0:0:0:0:
256,192,444392,1,0,0:0:0:0:
256,192,444550,1,8,0:0:0:0:
256,192,444866,1,0,0:0:0:0:
256,192,445182,1,0,0:0:0:0:
256,192,445498,1,4,0:0:0:0:
256,192,445656,1,0,0:0:0:0:
256,192,445735,1,0,0:0:0:0:
256,192,445814,1,8,0:0:0:0:
256,192,445892,1,8,0:0:0:0:
256,192,445971,1,0,0:0:0:0:
256,192,446050,1,0,0:0:0:0:
256,192,446129,1,8,0:0:0:0:
256,192,446208,1,8,0:0:0:0:
256,192,446287,1,8,0:0:0:0:
256,192,446366,1,0,0:0:0:0:
256,192,446445,1,8,0:0:0:0:
256,192,446524,1,8,0:0:0:0:
256,192,446603,1,0,0:0:0:0:
256,192,446682,1,0,0:0:0:0:
256,192,446761,1,8,0:0:0:0:
256,192,446840,1,8,0:0:0:0:
256,192,446919,1,8,0:0:0:0:
256,192,446998,1,0,0:0:0:0:
256,192,447077,1,8,0:0:0:0:
256,192,447156,1,8,0:0:0:0:
256,192,447235,1,0,0:0:0:0:
256,192,447314,1,0,0:0:0:0:
256,192,447392,1,8,0:0:0:0:
256,192,447550,1,0,0:0:0:0:
256,192,447708,1,8,0:0:0:0:
256,192,447866,1,8,0:0:0:0:
256,192,448024,1,0,0:0:0:0:
256,192,448103,1,0,0:0:0:0:
256,192,448182,1,0,0:0:0:0:
256,192,448261,1,0,0:0:0:0:
256,192,448340,1,8,0:0:0:0:
256,192,448498,1,0,0:0:0:0:
256,192,448656,1,8,0:0:0:0:
256,192,448814,1,8,0:0:0:0:
256,192,448971,1,0,0:0:0:0:
256,192,449050,1,0,0:0:0:0:
256,192,449129,1,0,0:0:0:0:
256,192,449208,1,0,0:0:0:0:
256,192,449287,1,8,0:0:0:0:
256,192,449445,1,0,0:0:0:0:
256,192,449603,1,0,0:0:0:0:
256,192,449761,1,0,0:0:0:0:
256,192,449919,1,8,0:0:0:0:
256,192,450077,1,8,0:0:0:0:
256,192,450235,1,8,0:0:0:0:
256,192,450314,1,0,0:0:0:0:
256,192,450392,1,0,0:0:0:0:
256,192,450471,1,0,0:0:0:0:
256,192,450550,1,0,0:0:0:0:
256,192,450629,1,0,0:0:0:0:
256,192,450708,1,0,0:0:0:0:
256,192,450787,1,0,0:0:0:0:
256,192,450866,1,0,0:0:0:0:
256,192,450945,1,0,0:0:0:0:
256,192,451024,1,0,0:0:0:0:
256,192,451103,1,0,0:0:0:0:
256,192,451182,1,8,0:0:0:0:
256,192,451340,1,0,0:0:0:0:
256,192,451498,1,8,0:0:0:0:
256,192,451656,1,8,0:0:0:0:
256,192,451814,1,0,0:0:0:0:
256,192,451892,1,0,0:0:0:0:
256,192,451971,1,0,0:0:0:0:
256,192,452050,1,0,0:0:0:0:
256,192,452129,1,8,0:0:0:0:
256,192,452287,1,0,0:0:0:0:
256,192,452445,1,8,0:0:0:0:
256,192,452603,1,8,0:0:0:0:
256,192,452761,1,0,0:0:0:0:
256,192,452840,1,0,0:0:0:0:
256,192,452919,1,0,0:0:0:0:
256,192,452998,1,0,0:0:0:0:
256,192,453077,1,8,0:0:0:0:
256,192,453235,8,8,454814,0:0:0:0:
256,192,454971,5,12,0:0:0:0:
256,192,455445,1,0,0:0:0:0:
256,192,455761,1,0,0:0:0:0:
256,192,455919,1,8,0:0:0:0:
256,192,456392,1,0,0:0:0:0:
256,192,456471,1,0,0:0:0:0:
256,192,456550,1,0,0:0:0:0:
256,192,456866,1,4,0:0:0:0:
256,192,457340,1,0,0:0:0:0:
256,192,457656,1,0,0:0:0:0:
256,192,457814,1,8,0:0:0:0:
256,192,458129,1,0,0:0:0:0:
256,192,458208,1,0,0:0:0:0:
256,192,458287,1,0,0:0:0:0:
256,192,458366,1,0,0:0:0:0:
256,192,458445,1,8,0:0:0:0:
256,192,458761,1,4,0:0:0:0:
256,192,459077,1,8,0:0:0:0:
256,192,459235,1,0,0:0:0:0:
256,192,459550,1,0,0:0:0:0:
256,192,459708,1,8,0:0:0:0:
256,192,460182,1,0,0:0:0:0:
256,192,460261,1,0,0:0:0:0:
256,192,460340,1,0,0:0:0:0:
256,192,460656,1,4,0:0:0:0:
256,192,461129,1,0,0:0:0:0:
256,192,461445,1,0,0:0:0:0:
256,192,461603,1,8,0:0:0:0:
256,192,461919,1,0,0:0:0:0:
256,192,461998,1,0,0:0:0:0:
256,192,462077,1,0,0:0:0:0:
256,192,462156,1,0,0:0:0:0:
256,192,462235,1,8,0:0:0:0:
256,192,462550,1,4,0:0:0:0:
256,192,462866,1,8,0:0:0:0:
256,192,463024,1,0,0:0:0:0:
256,192,463182,1,8,0:0:0:0:
256,192,463340,1,0,0:0:0:0:
256,192,463419,1,0,0:0:0:0:
256,192,463498,1,8,0:0:0:0:
256,192,463971,1,0,0:0:0:0:
256,192,464050,1,0,0:0:0:0:
256,192,464129,1,8,0:0:0:0:
256,192,464445,1,0,0:0:0:0:
256,192,464919,1,0,0:0:0:0:
256,192,465235,1,0,0:0:0:0:
256,192,465314,1,0,0:0:0:0:
256,192,465392,1,8,0:0:0:0:
256,192,465550,1,0,0:0:0:0:
256,192,465708,1,8,0:0:0:0:
256,192,465866,1,0,0:0:0:0:
256,192,466024,1,8,0:0:0:0:
256,192,466182,1,0,0:0:0:0:
256,192,466340,1,4,0:0:0:0:
256,192,466814,1,0,0:0:0:0:
256,192,467129,1,0,0:0:0:0:
256,192,467208,1,0,0:0:0:0:
256,192,467287,1,8,0:0:0:0:
256,192,467919,1,4,0:0:0:0:
256,192,468235,1,12,0:0:0:0:
256,192,468445,1,0,0:0:0:0:
256,192,468550,1,8,0:0:0:0:
256,192,468656,1,8,0:0:0:0:
256,192,468761,1,8,0:0:0:0:
256,192,468866,1,8,0:0:0:0:
256,192,468971,1,8,0:0:0:0:
256,192,469077,1,0,0:0:0:0:
256,192,469182,1,0,0:0:0:0:
256,192,469287,1,0,0:0:0:0:
256,192,469392,1,0,0:0:0:0:
256,192,469498,1,8,0:0:0:0:
256,192,469603,1,0,0:0:0:0:
256,192,469708,1,8,0:0:0:0:
256,192,469814,1,0,0:0:0:0:
256,192,469919,1,0,0:0:0:0:
256,192,470024,1,0,0:0:0:0:
256,192,470129,1,12,0:0:0:0:
256,192,470445,1,8,0:0:0:0:
256,192,470603,1,0,0:0:0:0:
256,192,470919,1,0,0:0:0:0:
256,192,471077,1,8,0:0:0:0:
256,192,471392,1,0,0:0:0:0:
256,192,471471,1,0,0:0:0:0:
256,192,471550,1,0,0:0:0:0:
256,192,471629,1,0,0:0:0:0:
256,192,471708,1,8,0:0:0:0:
256,192,472024,1,4,0:0:0:0:
256,192,472340,1,8,0:0:0:0:
256,192,472498,1,0,0:0:0:0:
256,192,472814,1,0,0:0:0:0:
256,192,472971,1,8,0:0:0:0:
256,192,473287,1,0,0:0:0:0:
256,192,473366,1,0,0:0:0:0:
256,192,473445,1,0,0:0:0:0:
256,192,473524,1,0,0:0:0:0:
256,192,473603,1,8,0:0:0:0:
256,192,473919,1,4,0:0:0:0:
256,192,474235,1,8,0:0:0:0:
256,192,474392,1,0,0:0:0:0:
256,192,474708,1,0,0:0:0:0:
256,192,474866,1,8,0:0:0:0:
256,192,475182,1,0,0:0:0:0:
256,192,475340,1,0,0:0:0:0:
256,192,475498,1,8,0:0:0:0:
256,192,475814,1,0,0:0:0:0:
256,192,475892,1,0,0:0:0:0:
256,192,475971,1,0,0:0:0:0:
256,192,476050,1,0,0:0:0:0:
256,192,476129,1,8,0:0:0:0:
256,192,476445,1,0,0:0:0:0:
256,192,476524,1,0,0:0:0:0:
256,192,476603,1,0,0:0:0:0:
256,192,476682,1,0,0:0:0:0:
256,192,476761,1,8,0:0:0:0:
256,192,476840,1,0,0:0:0:0:
256,192,476919,1,0,0:0:0:0:
256,192,476998,1,0,0:0:0:0:
256,192,477077,1,8,0:0:0:0:
256,192,477156,1,0,0:0:0:0:
256,192,477235,1,0,0:0:0:0:
256,192,477314,1,0,0:0:0:0:
256,192,477392,1,8,0:0:0:0:
256,192,477471,1,8,0:0:0:0:
256,192,477550,1,0,0:0:0:0:
256,192,477708,1,12,0:0:0:0:
256,192,478024,1,8,0:0:0:0:
256,192,478182,1,0,0:0:0:0:
256,192,478498,1,0,0:0:0:0:
256,192,478656,1,8,0:0:0:0:
256,192,478971,1,0,0:0:0:0:
256,192,479050,1,0,0:0:0:0:
256,192,479129,1,0,0:0:0:0:
256,192,479208,1,0,0:0:0:0:
256,192,479287,1,8,0:0:0:0:
256,192,479603,1,4,0:0:0:0:
256,192,479919,1,8,0:0:0:0:
256,192,480077,1,4,0:0:0:0:
256,192,480392,1,0,0:0:0:0:
256,192,480550,1,8,0:0:0:0:
256,192,480866,1,0,0:0:0:0:
256,192,480945,1,0,0:0:0:0:
256,192,481024,1,0,0:0:0:0:
256,192,481103,1,0,0:0:0:0:
256,192,481182,1,8,0:0:0:0:
256,192,481498,1,4,0:0:0:0:
256,192,481814,1,8,0:0:0:0:
256,192,481971,1,4,0:0:0:0:
256,192,482287,1,0,0:0:0:0:
256,192,482445,1,8,0:0:0:0:
256,192,482919,1,0,0:0:0:0:
256,192,483077,1,8,0:0:0:0:
256,192,483235,1,0,0:0:0:0:
256,192,483314,1,0,0:0:0:0:
256,192,483392,1,8,0:0:0:0:
256,192,483471,1,0,0:0:0:0:
256,192,483550,1,0,0:0:0:0:
256,192,483629,1,0,0:0:0:0:
256,192,483708,1,8,0:0:0:0:
256,192,483787,1,0,0:0:0:0:
256,192,483866,1,8,0:0:0:0:
256,192,483945,1,0,0:0:0:0:
256,192,484024,1,0,0:0:0:0:
256,192,484103,1,0,0:0:0:0:
256,192,484182,1,8,0:0:0:0:
256,192,484261,1,8,0:0:0:0:
256,192,484340,1,0,0:0:0:0:
256,192,484419,1,0,0:0:0:0:
256,192,484498,1,8,0:0:0:0:
256,192,484656,1,8,0:0:0:0:
256,192,484735,1,8,0:0:0:0:
256,192,484814,1,8,0:0:0:0:
256,192,484892,1,8,0:0:0:0:
256,192,484971,1,0,0:0:0:0:
256,192,485129,1,0,0:0:0:0:
256,192,485287,1,12,0:0:0:0:
256,192,485761,1,0,0:0:0:0:
256,192,485919,1,0,0:0:0:0:
256,192,486077,1,0,0:0:0:0:
256,192,486235,1,8,0:0:0:0:
256,192,486708,1,0,0:0:0:0:
256,192,486787,1,0,0:0:0:0:
256,192,486866,1,0,0:0:0:0:
256,192,487182,1,0,0:0:0:0:
256,192,487656,1,0,0:0:0:0:
256,192,487814,1,0,0:0:0:0:
256,192,487971,1,0,0:0:0:0:
256,192,488129,1,8,0:0:0:0:
256,192,488445,1,0,0:0:0:0:
256,192,488524,1,0,0:0:0:0:
256,192,488603,1,0,0:0:0:0:
256,192,488682,1,0,0:0:0:0:
256,192,488761,1,8,0:0:0:0:
256,192,488840,1,8,0:0:0:0:
256,192,488919,1,8,0:0:0:0:
256,192,489077,1,4,0:0:0:0:
256,192,489550,1,0,0:0:0:0:
256,192,489708,1,0,0:0:0:0:
256,192,489866,1,0,0:0:0:0:
256,192,490024,1,8,0:0:0:0:
256,192,490498,1,0,0:0:0:0:
256,192,490656,1,0,0:0:0:0:
256,192,490814,1,8,0:0:0:0:
256,192,490971,1,0,0:0:0:0:
256,192,491445,1,0,0:0:0:0:
256,192,491761,1,0,0:0:0:0:
256,192,491919,1,8,0:0:0:0:
256,192,492077,1,8,0:0:0:0:
256,192,492235,1,8,0:0:0:0:
256,192,492392,1,8,0:0:0:0:
256,192,492550,1,8,0:0:0:0:
256,192,492708,1,8,0:0:0:0:
256,192,492866,1,4,0:0:0:0:
256,192,493340,1,0,0:0:0:0:
256,192,493498,1,0,0:0:0:0:
256,192,493656,1,0,0:0:0:0:
256,192,493735,1,0,0:0:0:0:
256,192,493814,1,8,0:0:0:0:
256,192,494287,1,0,0:0:0:0:
256,192,494366,1,0,0:0:0:0:
256,192,494445,1,0,0:0:0:0:
256,192,494603,1,8,0:0:0:0:
256,192,494761,1,0,0:0:0:0:
256,192,495235,1,0,0:0:0:0:
256,192,495550,1,0,0:0:0:0:
256,192,495708,1,8,0:0:0:0:
256,192,495866,1,0,0:0:0:0:
256,192,496024,1,8,0:0:0:0:
256,192,496182,1,0,0:0:0:0:
256,192,496261,1,0,0:0:0:0:
256,192,496340,1,8,0:0:0:0:
256,192,496656,1,4,0:0:0:0:
256,192,497129,1,0,0:0:0:0:
256,192,497287,1,0,0:0:0:0:
256,192,497445,1,0,0:0:0:0:
256,192,497603,1,8,0:0:0:0:
256,192,498077,1,0,0:0:0:0:
256,192,498156,1,0,0:0:0:0:
256,192,498235,1,8,0:0:0:0:
256,192,498392,1,0,0:0:0:0:
256,192,498550,1,8,0:0:0:0:
256,192,498787,1,0,0:0:0:0:
256,192,499024,1,0,0:0:0:0:
256,192,499182,1,0,0:0:0:0:
256,192,499419,1,8,0:0:0:0:
256,192,499498,1,8,0:0:0:0:
256,192,499656,1,8,0:0:0:0:
256,192,499814,1,0,0:0:0:0:
256,192,499971,1,8,0:0:0:0:
256,192,500129,1,0,0:0:0:0:
256,192,500287,1,0,0:0:0:0:
256,192,500445,1,4,0:0:0:0:
256,192,500919,1,0,0:0:0:0:
256,192,501077,1,0,0:0:0:0:
256,192,501235,1,0,0:0:0:0:
256,192,501392,1,8,0:0:0:0:
256,192,501866,1,0,0:0:0:0:
256,192,501945,1,0,0:0:0:0:
256,192,502024,1,0,0:0:0:0:
256,192,502182,1,8,0:0:0:0:
256,192,502340,1,0,0:0:0:0:
256,192,502814,1,0,0:0:0:0:
256,192,503129,1,0,0:0:0:0:
256,192,503287,1,8,0:0:0:0:
256,192,503603,1,0,0:0:0:0:
256,192,503682,1,0,0:0:0:0:
256,192,503761,1,0,0:0:0:0:
256,192,503840,1,0,0:0:0:0:
256,192,503919,1,8,0:0:0:0:
256,192,504235,1,4,0:0:0:0:
256,192,504708,1,0,0:0:0:0:
256,192,504866,1,0,0:0:0:0:
256,192,505024,1,0,0:0:0:0:
256,192,505182,1,8,0:0:0:0:
256,192,505656,1,0,0:0:0:0:
256,192,505735,1,0,0:0:0:0:
256,192,505814,1,8,0:0:0:0:
256,192,505971,1,0,0:0:0:0:
256,192,506129,1,0,0:0:0:0:
256,192,506445,1,8,0:0:0:0:
256,192,506498,1,8,0:0:0:0:
256,192,506550,1,0,0:0:0:0:
256,192,506656,1,0,0:0:0:0:
256,192,506761,1,8,0:0:0:0:
256,192,506814,1,8,0:0:0:0:
256,192,506866,1,0,0:0:0:0:
256,192,506971,1,0,0:0:0:0:
256,192,507077,1,0,0:0:0:0:
256,192,507129,1,0,0:0:0:0:
256,192,507182,1,0,0:0:0:0:
256,192,507287,1,0,0:0:0:0:
256,192,507392,1,0,0:0:0:0:
256,192,507498,1,0,0:0:0:0:
256,192,507603,1,0,0:0:0:0:
256,192,507708,1,4,0:0:0:0:
256,192,507866,1,4,0:0:0:0:
256,192,508024,1,12,0:0:0:0:
256,192,508498,1,0,0:0:0:0:
256,192,508656,1,0,0:0:0:0:
256,192,508814,1,0,0:0:0:0:
256,192,508971,1,8,0:0:0:0:
256,192,509445,1,0,0:0:0:0:
256,192,509524,1,0,0:0:0:0:
256,192,509603,1,0,0:0:0:0:
256,192,509919,1,0,0:0:0:0:
256,192,510392,1,0,0:0:0:0:
256,192,510550,1,0,0:0:0:0:
256,192,510708,1,0,0:0:0:0:
256,192,510866,1,8,0:0:0:0:
256,192,511182,1,0,0:0:0:0:
256,192,511261,1,0,0:0:0:0:
256,192,511340,1,0,0:0:0:0:
256,192,511419,1,0,0:0:0:0:
256,192,511498,1,8,0:0:0:0:
256,192,511656,1,0,0:0:0:0:
256,192,511814,1,8,0:0:0:0:
256,192,512287,1,0,0:0:0:0:
256,192,512445,1,0,0:0:0:0:
256,192,512603,1,0,0:0:0:0:
256,192,512761,1,8,0:0:0:0:
256,192,513235,1,0,0:0:0:0:
256,192,513314,1,0,0:0:0:0:
256,192,513392,1,0,0:0:0:0:
256,192,513550,1,0,0:0:0:0:
256,192,513708,1,8,0:0:0:0:
256,192,513787,1,0,0:0:0:0:
256,192,513866,1,0,0:0:0:0:
256,192,513945,1,0,0:0:0:0:
256,192,514024,1,8,0:0:0:0:
256,192,514103,1,8,0:0:0:0:
256,192,514182,1,0,0:0:0:0:
256,192,514261,1,0,0:0:0:0:
256,192,514340,1,8,0:0:0:0:
256,192,514419,1,0,0:0:0:0:
256,192,514498,1,0,0:0:0:0:
256,192,514577,1,0,0:0:0:0:
256,192,514656,1,8,0:0:0:0:
256,192,514735,1,8,0:0:0:0:
256,192,514814,1,0,0:0:0:0:
256,192,514892,1,0,0:0:0:0:
256,192,514971,1,8,0:0:0:0:
256,192,515050,1,0,0:0:0:0:
256,192,515129,1,0,0:0:0:0:
256,192,515208,1,0,0:0:0:0:
256,192,515287,1,8,0:0:0:0:
256,192,515445,1,0,0:0:0:0:
256,192,515603,1,12,0:0:0:0:
256,192,516077,1,0,0:0:0:0:
256,192,516235,1,0,0:0:0:0:
256,192,516392,1,0,0:0:0:0:
256,192,516550,1,8,0:0:0:0:
256,192,517024,1,0,0:0:0:0:
256,192,517182,1,8,0:0:0:0:
256,192,517340,1,0,0:0:0:0:
256,192,517498,1,8,0:0:0:0:
256,192,517656,1,8,0:0:0:0:
256,192,517814,1,8,0:0:0:0:
256,192,517971,1,8,0:0:0:0:
256,192,518129,1,8,0:0:0:0:
256,192,518287,1,8,0:0:0:0:
256,192,518445,1,0,0:0:0:0:
256,192,518603,1,0,0:0:0:0:
256,192,518761,1,8,0:0:0:0:
256,192,518919,1,8,0:0:0:0:
256,192,519077,1,4,0:0:0:0:
256,192,519235,1,4,0:0:0:0:
256,192,519392,1,12,0:0:0:0:
256,192,520024,1,0,0:0:0:0:
256,192,520103,1,0,0:0:0:0:
256,192,520182,1,0,0:0:0:0:
256,192,520261,1,0,0:0:0:0:
256,192,520340,1,8,0:0:0:0:
256,192,520656,1,8,0:0:0:0:
256,192,520971,1,0,0:0:0:0:
256,192,521050,1,0,0:0:0:0:
256,192,521129,1,0,0:0:0:0:
256,192,521208,1,0,0:0:0:0:
256,192,521287,1,0,0:0:0:0:
256,192,521603,1,8,0:0:0:0:
256,192,521919,1,8,0:0:0:0:
256,192,522235,1,8,0:0:0:0:
256,192,522314,1,0,0:0:0:0:
256,192,522392,1,0,0:0:0:0:
256,192,522471,1,0,0:0:0:0:
256,192,522550,1,0,0:0:0:0:
256,192,522629,1,0,0:0:0:0:
256,192,522708,1,0,0:0:0:0:
256,192,522787,1,0,0:0:0:0:
256,192,522866,1,0,0:0:0:0:
256,192,522945,1,0,0:0:0:0:
256,192,523024,1,0,0:0:0:0:
256,192,523103,1,0,0:0:0:0:
256,192,523182,1,0,0:0:0:0:
256,192,523498,1,8,0:0:0:0:
256,192,523814,1,0,0:0:0:0:
256,192,523892,1,0,0:0:0:0:
256,192,523971,1,0,0:0:0:0:
256,192,524050,1,0,0:0:0:0:
256,192,524129,1,8,0:0:0:0:
256,192,524445,1,8,0:0:0:0:
256,192,524761,1,0,0:0:0:0:
256,192,524840,1,0,0:0:0:0:
256,192,524919,1,0,0:0:0:0:
256,192,524998,1,0,0:0:0:0:
256,192,525077,1,0,0:0:0:0:
256,192,525392,1,8,0:0:0:0:
256,192,525708,1,8,0:0:0:0:
256,192,526024,1,8,0:0:0:0:
256,192,526103,1,0,0:0:0:0:
256,192,526182,1,0,0:0:0:0:
256,192,526261,1,0,0:0:0:0:
256,192,526340,1,0,0:0:0:0:
256,192,526419,1,0,0:0:0:0:
256,192,526498,1,0,0:0:0:0:
256,192,526577,1,0,0:0:0:0:
256,192,526656,1,0,0:0:0:0:
256,192,526735,1,0,0:0:0:0:
256,192,526814,1,0,0:0:0:0:
256,192,526892,1,0,0:0:0:0:
256,192,526971,1,0,0:0:0:0:
256,192,527287,1,8,0:0:0:0:
256,192,527603,1,0,0:0:0:0:
256,192,527682,1,0,0:0:0:0:
256,192,527761,1,0,0:0:0:0:
256,192,527840,1,0,0:0:0:0:
256,192,527919,1,8,0:0:0:0:
256,192,528235,1,8,0:0:0:0:
256,192,528550,1,0,0:0:0:0:
256,192,528629,1,0,0:0:0:0:
256,192,528708,1,0,0:0:0:0:
256,192,528787,1,0,0:0:0:0:
256,192,528866,1,0,0:0:0:0:
256,192,529182,1,8,0:0:0:0:
256,192,529498,1,8,0:0:0:0:
256,192,529814,1,8,0:0:0:0:
256,192,529892,1,0,0:0:0:0:
256,192,529971,1,0,0:0:0:0:
256,192,530050,1,0,0:0:0:0:
256,192,530129,1,0,0:0:0:0:
256,192,530208,1,0,0:0:0:0:
256,192,530287,1,0,0:0:0:0:
256,192,530366,1,0,0:0:0:0:
256,192,530445,1,0,0:0:0:0:
256,192,530524,1,0,0:0:0:0:
256,192,530603,1,0,0:0:0:0:
256,192,530682,1,0,0:0:0:0:
256,192,530761,1,0,0:0:0:0:
256,192,531077,1,8,0:0:0:0:
256,192,531392,1,0,0:0:0:0:
256,192,531471,1,0,0:0:0:0:
256,192,531550,1,0,0:0:0:0:
256,192,531629,1,0,0:0:0:0:
256,192,531708,1,8,0:0:0:0:
256,192,532024,1,8,0:0:0:0:
256,192,532340,1,0,0:0:0:0:
256,192,532419,1,0,0:0:0:0:
256,192,532498,1,0,0:0:0:0:
256,192,532577,1,0,0:0:0:0:
256,192,532656,1,0,0:0:0:0:
256,192,532971,1,8,0:0:0:0:
256,192,533287,1,8,0:0:0:0:
256,192,533603,1,8,0:0:0:0:
256,192,533682,1,0,0:0:0:0:
256,192,533761,1,0,0:0:0:0:
256,192,533840,1,0,0:0:0:0:
256,192,533919,1,0,0:0:0:0:
256,192,533998,1,0,0:0:0:0:
256,192,534077,1,0,0:0:0:0:
256,192,534156,1,0,0:0:0:0:
256,192,534235,1,0,0:0:0:0:
256,192,534314,1,0,0:0:0:0:
256,192,534392,1,0,0:0:0:0:
256,192,534471,1,0,0:0:0:0:
256,192,534550,1,0,0:0:0:0:
256,192,534866,1,8,0:0:0:0:
256,192,535182,1,0,0:0:0:0:
256,192,535261,1,0,0:0:0:0:
256,192,535340,1,0,0:0:0:0:
256,192,535419,1,0,0:0:0:0:
256,192,535498,1,8,0:0:0:0:
256,192,535814,1,8,0:0:0:0:
256,192,536129,1,0,0:0:0:0:
256,192,536208,1,0,0:0:0:0:
256,192,536287,1,0,0:0:0:0:
256,192,536366,1,0,0:0:0:0:
256,192,536445,1,0,0:0:0:0:
256,192,536761,1,8,0:0:0:0:
256,192,537077,1,8,0:0:0:0:
256,192,537392,1,8,0:0:0:0:
256,192,537471,1,0,0:0:0:0:
256,192,537550,1,0,0:0:0:0:
256,192,537629,1,0,0:0:0:0:
256,192,537708,1,0,0:0:0:0:
256,192,537787,1,0,0:0:0:0:
256,192,537866,1,0,0:0:0:0:
256,192,537945,1,0,0:0:0:0:
256,192,538024,1,0,0:0:0:0:
256,192,538103,1,0,0:0:0:0:
256,192,538182,1,0,0:0:0:0:
256,192,538261,1,0,0:0:0:0:
256,192,538340,1,0,0:0:0:0:
256,192,538656,1,8,0:0:0:0:
256,192,538971,1,0,0:0:0:0:
256,192,539050,1,0,0:0:0:0:
256,192,539129,1,0,0:0:0:0:
256,192,539208,1,0,0:0:0:0:
256,192,539287,1,8,0:0:0:0:
256,192,539603,1,8,0:0:0:0:
256,192,539919,1,0,0:0:0:0:
256,192,539998,1,0,0:0:0:0:
256,192,540077,1,0,0:0:0:0:
256,192,540156,1,0,0:0:0:0:
256,192,540235,1,0,0:0:0:0:
256,192,540550,1,8,0:0:0:0:
256,192,540866,1,8,0:0:0:0:
256,192,541182,1,8,0:0:0:0:
256,192,541261,1,0,0:0:0:0:
256,192,541340,1,0,0:0:0:0:
256,192,541419,1,0,0:0:0:0:
256,192,541498,1,0,0:0:0:0:
256,192,541577,1,0,0:0:0:0:
256,192,541656,1,0,0:0:0:0:
256,192,541735,1,0,0:0:0:0:
256,192,541814,1,0,0:0:0:0:
256,192,541892,1,0,0:0:0:0:
256,192,541971,1,0,0:0:0:0:
256,192,542050,1,0,0:0:0:0:
256,192,542129,1,0,0:0:0:0:
256,192,542445,1,8,0:0:0:0:
256,192,542761,1,0,0:0:0:0:
256,192,542840,1,0,0:0:0:0:
256,192,542919,1,0,0:0:0:0:
256,192,542998,1,0,0:0:0:0:
256,192,543077,1,8,0:0:0:0:
256,192,543392,1,8,0:0:0:0:
256,192,543708,1,0,0:0:0:0:
256,192,543787,1,0,0:0:0:0:
256,192,543866,1,0,0:0:0:0:
256,192,543945,1,0,0:0:0:0:
256,192,544024,1,0,0:0:0:0:
256,192,544340,1,8,0:0:0:0:
256,192,544656,1,8,0:0:0:0:
256,192,544971,1,8,0:0:0:0:
256,192,545050,1,0,0:0:0:0:
256,192,545129,1,0,0:0:0:0:
256,192,545208,1,0,0:0:0:0:
256,192,545287,1,0,0:0:0:0:
256,192,545366,1,0,0:0:0:0:
256,192,545445,1,0,0:0:0:0:
256,192,545524,1,0,0:0:0:0:
256,192,545603,1,0,0:0:0:0:
256,192,545682,1,0,0:0:0:0:
256,192,545761,1,0,0:0:0:0:
256,192,545840,1,0,0:0:0:0:
256,192,545919,1,0,0:0:0:0:
256,192,546235,1,8,0:0:0:0:
256,192,546550,1,0,0:0:0:0:
256,192,546629,1,0,0:0:0:0:
256,192,546708,1,0,0:0:0:0:
256,192,546787,1,0,0:0:0:0:
256,192,546866,1,8,0:0:0:0:
256,192,547182,1,8,0:0:0:0:
256,192,547498,1,0,0:0:0:0:
256,192,547577,1,0,0:0:0:0:
256,192,547656,1,0,0:0:0:0:
256,192,547735,1,0,0:0:0:0:
256,192,547814,1,0,0:0:0:0:
256,192,548129,1,8,0:0:0:0:
256,192,548445,1,8,0:0:0:0:
256,192,548761,1,8,0:0:0:0:
256,192,548840,1,0,0:0:0:0:
256,192,548919,1,0,0:0:0:0:
256,192,548998,1,0,0:0:0:0:
256,192,549077,1,0,0:0:0:0:
256,192,549156,1,0,0:0:0:0:
256,192,549235,1,0,0:0:0:0:
256,192,549314,1,0,0:0:0:0:
256,192,549392,1,0,0:0:0:0:
256,192,549471,1,0,0:0:0:0:
256,192,549550,1,0,0:0:0:0:
256,192,549629,1,0,0:0:0:0:
256,192,549708,1,8,0:0:0:0:
256,192,549866,1,8,0:0:0:0:
256,192,550024,1,8,0:0:0:0:
256,192,550182,1,8,0:0:0:0:
256,192,550656,1,8,0:0:0:0:
256,192,550814,1,8,0:0:0:0:
256,192,550971,1,8,0:0:0:0:
256,192,551129,1,8,0:0:0:0:
256,192,551603,1,8,0:0:0:0:
256,192,551761,1,8,0:0:0:0:
256,192,551919,1,8,0:0:0:0:
256,192,552077,1,8,0:0:0:0:
256,192,552550,1,8,0:0:0:0:
256,192,552708,1,8,0:0:0:0:
256,192,552866,1,8,0:0:0:0:
256,192,553024,1,8,0:0:0:0:
256,192,553498,1,4,0:0:0:0:
256,192,553656,12,4,563603,0:0:0:0:
256,192,573708,5,8,0:0:0:0:
256,192,573761,1,8,0:0:0:0:
256,192,574182,1,8,0:0:0:0:
256,192,574656,1,8,0:0:0:0:
256,192,576235,1,8,0:0:0:0:
256,192,576708,1,8,0:0:0:0:
256,192,577182,1,8,0:0:0:0:
256,192,578761,1,8,0:0:0:0:
256,192,579235,1,8,0:0:0:0:
256,192,579708,1,8,0:0:0:0:
256,192,581287,1,8,0:0:0:0:
256,192,581761,1,8,0:0:0:0:
256,192,582235,1,8,0:0:0:0:
256,192,583814,1,4,0:0:0:0:
256,192,584287,1,4,0:0:0:0:
256,192,584761,1,4,0:0:0:0:
256,192,586340,1,4,0:0:0:0:
256,192,586814,1,4,0:0:0:0:
256,192,587287,1,4,0:0:0:0:
256,192,588866,1,4,0:0:0:0:
256,192,589340,1,4,0:0:0:0:
256,192,589814,1,4,0:0:0:0:
256,192,591392,1,4,0:0:0:0:
256,192,591866,1,4,0:0:0:0:
256,192,592340,1,4,0:0:0:0:
256,192,592656,1,8,0:0:0:0:
256,192,592708,1,0,0:0:0:0:
256,192,593129,1,0,0:0:0:0:
256,192,593287,1,0,0:0:0:0:
256,192,593603,1,0,0:0:0:0:
256,192,593761,1,0,0:0:0:0:
256,192,593919,1,4,0:0:0:0:
256,192,594392,1,4,0:0:0:0:
256,192,594866,1,4,0:0:0:0:
256,192,595498,1,8,0:0:0:0:
256,192,595814,1,8,0:0:0:0:
256,192,595971,1,8,0:0:0:0:
256,192,596129,1,8,0:0:0:0:
256,192,596445,1,4,0:0:0:0:
256,192,596761,1,8,0:0:0:0:
256,192,596919,1,4,0:0:0:0:
256,192,597392,1,4,0:0:0:0:
256,192,597708,1,8,0:0:0:0:
256,192,597866,1,8,0:0:0:0:
256,192,598024,1,8,0:0:0:0:
256,192,598340,1,8,0:0:0:0:
256,192,598498,1,8,0:0:0:0:
256,192,598656,1,8,0:0:0:0:
256,192,598971,1,4,0:0:0:0:
256,192,599287,1,8,0:0:0:0:
256,192,599445,1,4,0:0:0:0:
256,192,599919,1,4,0:0:0:0:
256,192,600235,1,8,0:0:0:0:
256,192,600314,1,8,0:0:0:0:
256,192,600392,1,8,0:0:0:0:
256,192,600471,1,8,0:0:0:0:
256,192,600550,1,8,0:0:0:0:
256,192,600866,1,8,0:0:0:0:
256,192,600945,1,8,0:0:0:0:
256,192,601024,1,8,0:0:0:0:
256,192,601103,1,8,0:0:0:0:
256,192,601182,1,8,0:0:0:0:
256,192,601498,1,4,0:0:0:0:
256,192,601656,1,8,0:0:0:0:
256,192,601735,1,8,0:0:0:0:
256,192,601814,1,8,0:0:0:0:
256,192,601971,1,4,0:0:0:0:
256,192,602129,1,0,0:0:0:0:
256,192,602208,1,0,0:0:0:0:
256,192,602287,1,0,0:0:0:0:
256,192,602445,1,4,0:0:0:0:
256,192,602603,1,8,0:0:0:0:
256,192,602682,1,8,0:0:0:0:
256,192,602761,1,8,0:0:0:0:
256,192,602919,1,4,0:0:0:0:
256,192,603077,1,0,0:0:0:0:
256,192,603156,1,0,0:0:0:0:
256,192,603235,1,0,0:0:0:0:
256,192,603314,1,0,0:0:0:0:
256,192,603392,1,8,0:0:0:0:
256,192,603550,1,0,0:0:0:0:
256,192,603708,1,4,0:0:0:0:
256,192,603866,1,0,0:0:0:0:
256,192,604024,1,12,0:0:0:0:
256,192,604340,1,8,0:0:0:0:
256,192,604419,1,0,0:0:0:0:
256,192,604498,1,0,0:0:0:0:
256,192,604656,1,8,0:0:0:0:
256,192,604971,1,12,0:0:0:0:
256,192,605287,1,8,0:0:0:0:
256,192,605445,1,0,0:0:0:0:
256,192,605761,1,0,0:0:0:0:
256,192,605919,1,8,0:0:0:0:
256,192,606235,1,0,0:0:0:0:
256,192,606392,1,0,0:0:0:0:
256,192,606550,1,4,0:0:0:0:
256,192,606866,1,8,0:0:0:0:
256,192,607024,1,0,0:0:0:0:
256,192,607182,1,8,0:0:0:0:
256,192,607498,1,4,0:0:0:0:
256,192,607814,1,8,0:0:0:0:
256,192,607971,1,0,0:0:0:0:
256,192,608129,1,8,0:0:0:0:
256,192,608287,1,0,0:0:0:0:
256,192,608366,1,0,0:0:0:0:
256,192,608445,1,8,0:0:0:0:
256,192,608761,1,4,0:0:0:0:
256,192,609077,1,4,0:0:0:0:
256,192,609392,1,8,0:0:0:0:
256,192,609550,1,0,0:0:0:0:
256,192,609708,1,8,0:0:0:0:
256,192,610024,1,4,0:0:0:0:
256,192,610340,1,8,0:0:0:0:
256,192,610498,1,0,0:0:0:0:
256,192,610814,1,0,0:0:0:0:
256,192,610971,1,8,0:0:0:0:
256,192,611287,1,4,0:0:0:0:
256,192,611603,1,12,0:0:0:0:
256,192,612077,1,4,0:0:0:0:
256,192,612550,1,4,0:0:0:0:
256,192,612787,1,8,0:0:0:0:
256,192,612866,1,8,0:0:0:0:
256,192,613024,1,8,0:0:0:0:
256,192,613182,1,8,0:0:0:0:
256,192,613340,1,8,0:0:0:0:
256,192,613498,1,8,0:0:0:0:
256,192,613656,1,8,0:0:0:0:
256,192,613814,1,4,0:0:0:0:
256,192,614129,1,4,0:0:0:0:
256,192,614445,1,8,0:0:0:0:
256,192,614603,1,0,0:0:0:0:
256,192,614761,1,8,0:0:0:0:
256,192,615077,1,4,0:0:0:0:
256,192,615392,1,8,0:0:0:0:
256,192,615550,1,0,0:0:0:0:
256,192,615708,1,8,0:0:0:0:
256,192,615866,1,0,0:0:0:0:
256,192,616024,1,8,0:0:0:0:
256,192,616340,1,4,0:0:0:0:
256,192,616656,1,12,0:0:0:0:
256,192,616971,1,8,0:0:0:0:
256,192,617129,1,0,0:0:0:0:
256,192,617208,1,0,0:0:0:0:
256,192,617287,1,8,0:0:0:0:
256,192,617603,1,4,0:0:0:0:
256,192,617919,1,8,0:0:0:0:
256,192,618077,1,0,0:0:0:0:
256,192,618392,1,0,0:0:0:0:
256,192,618471,1,0,0:0:0:0:
256,192,618550,1,8,0:0:0:0:
256,192,618866,1,4,0:0:0:0:
256,192,619182,1,12,0:0:0:0:
256,192,619656,1,4,0:0:0:0:
256,192,620129,1,4,0:0:0:0:
256,192,620287,1,0,0:0:0:0:
256,192,620445,1,12,0:0:0:0:
256,192,620603,1,0,0:0:0:0:
256,192,620682,1,0,0:0:0:0:
256,192,620761,1,8,0:0:0:0:
256,192,620840,1,8,0:0:0:0:
256,192,620919,1,8,0:0:0:0:
256,192,621077,1,8,0:0:0:0:
256,192,621235,1,8,0:0:0:0:
256,192,621392,1,4,0:0:0:0:
256,192,621708,1,4,0:0:0:0:
256,192,621945,1,4,0:0:0:0:
256,192,622182,1,4,0:0:0:0:
256,192,622419,1,4,0:0:0:0:
256,192,622577,1,8,0:0:0:0:
256,192,622656,1,8,0:0:0:0:
256,192,622814,1,4,0:0:0:0:
256,192,622971,1,8,0:0:0:0:
256,192,623129,1,4,0:0:0:0:
256,192,623287,1,8,0:0:0:0:
256,192,623445,1,4,0:0:0:0:
256,192,623603,1,8,0:0:0:0:
256,192,623682,1,8,0:0:0:0:
256,192,623761,1,8,0:0:0:0:
256,192,623840,1,8,0:0:0:0:
256,192,623919,1,0,0:0:0:0:
256,192,624077,1,0,0:0:0:0:
256,192,624235,1,4,0:0:0:0:
256,192,624708,1,0,0:0:0:0:
256,192,624866,1,8,0:0:0:0:
256,192,625024,1,0,0:0:0:0:
256,192,625182,1,4,0:0:0:0:
256,192,625498,1,8,0:0:0:0:
256,192,625656,1,0,0:0:0:0:
256,192,625814,1,8,0:0:0:0:
256,192,625971,1,0,0:0:0:0:
256,192,626050,1,0,0:0:0:0:
256,192,626129,1,8,0:0:0:0:
256,192,626445,1,4,0:0:0:0:
256,192,626761,1,12,0:0:0:0:
256,192,627077,1,8,0:0:0:0:
256,192,627235,1,0,0:0:0:0:
256,192,627392,1,8,0:0:0:0:
256,192,627708,1,4,0:0:0:0:
256,192,628024,1,8,0:0:0:0:
256,192,628182,1,0,0:0:0:0:
256,192,628340,1,8,0:0:0:0:
256,192,628498,1,0,0:0:0:0:
256,192,628656,1,8,0:0:0:0:
256,192,628971,1,4,0:0:0:0:
256,192,629287,1,8,0:0:0:0:
256,192,629445,1,0,0:0:0:0:
256,192,629524,1,0,0:0:0:0:
256,192,629603,1,8,0:0:0:0:
256,192,629682,1,8,0:0:0:0:
256,192,629761,1,8,0:0:0:0:
256,192,629840,1,0,0:0:0:0:
256,192,629919,1,0,0:0:0:0:
256,192,629998,1,0,0:0:0:0:
256,192,630077,1,8,0:0:0:0:
256,192,630156,1,8,0:0:0:0:
256,192,630235,1,0,0:0:0:0:
256,192,630314,1,0,0:0:0:0:
256,192,630392,1,8,0:0:0:0:
256,192,630471,1,0,0:0:0:0:
256,192,630550,1,8,0:0:0:0:
256,192,630629,1,8,0:0:0:0:
256,192,630708,1,0,0:0:0:0:
256,192,630787,1,0,0:0:0:0:
256,192,630866,1,8,0:0:0:0:
256,192,630945,1,8,0:0:0:0:
256,192,631024,1,0,0:0:0:0:
256,192,631103,1,0,0:0:0:0:
256,192,631182,1,8,0:0:0:0:
256,192,631261,1,0,0:0:0:0:
256,192,631340,1,0,0:0:0:0:
256,192,631419,1,0,0:0:0:0:
256,192,631498,1,8,0:0:0:0:
256,192,631577,1,8,0:0:0:0:
256,192,631656,1,0,0:0:0:0:
256,192,631735,1,0,0:0:0:0:
256,192,631814,1,8,0:0:0:0:
256,192,631971,1,8,0:0:0:0:
256,192,632050,1,8,0:0:0:0:
256,192,632129,1,0,0:0:0:0:
256,192,632208,1,0,0:0:0:0:
256,192,632287,1,8,0:0:0:0:
256,192,632366,1,8,0:0:0:0:
256,192,632445,1,0,0:0:0:0:
256,192,632524,1,0,0:0:0:0:
256,192,632603,1,8,0:0:0:0:
256,192,632761,1,8,0:0:0:0:
256,192,632840,1,8,0:0:0:0:
256,192,632919,1,0,0:0:0:0:
256,192,632998,1,0,0:0:0:0:
256,192,633077,1,8,0:0:0:0:
256,192,633156,1,0,0:0:0:0:
256,192,633235,1,0,0:0:0:0:
256,192,633314,1,0,0:0:0:0:
256,192,633392,1,8,0:0:0:0:
256,192,633629,1,0,0:0:0:0:
256,192,633708,1,8,0:0:0:0:
256,192,633787,1,0,0:0:0:0:
256,192,633866,1,0,0:0:0:0:
256,192,633945,1,8,0:0:0:0:
256,192,634024,1,0,0:0:0:0:
256,192,634103,1,0,0:0:0:0:
256,192,634182,1,0,0:0:0:0:
256,192,634261,1,0,0:0:0:0:
256,192,634340,1,8,0:0:0:0:
256,192,634814,1,0,0:0:0:0:
256,192,634971,1,8,0:0:0:0:
256,192,635129,1,0,0:0:0:0:
256,192,635287,1,0,0:0:0:0:
256,192,635761,1,0,0:0:0:0:
256,192,636077,1,0,0:0:0:0:
256,192,636235,1,8,0:0:0:0:
256,192,636445,1,0,0:0:0:0:
256,192,636498,1,0,0:0:0:0:
256,192,636550,1,8,0:0:0:0:
256,192,636603,1,8,0:0:0:0:
256,192,636656,1,0,0:0:0:0:
256,192,636761,1,0,0:0:0:0:
256,192,636866,1,8,0:0:0:0:
256,192,636919,1,8,0:0:0:0:
256,192,636971,1,0,0:0:0:0:
256,192,637077,1,0,0:0:0:0:
256,192,637182,1,0,0:0:0:0:
256,192,637235,1,0,0:0:0:0:
256,192,637287,1,0,0:0:0:0:
256,192,637392,1,0,0:0:0:0:
256,192,637498,1,0,0:0:0:0:
256,192,637603,1,0,0:0:0:0:
256,192,637708,1,0,0:0:0:0:
256,192,637814,1,8,0:0:0:0:
256,192,637919,1,8,0:0:0:0:
256,192,638024,1,8,0:0:0:0:
256,192,638129,1,8,0:0:0:0:
256,192,638235,1,0,0:0:0:0:
256,192,638340,1,0,0:0:0:0:
256,192,638445,1,12,0:0:0:0:
256,192,638656,1,8,0:0:0:0:
256,192,638761,1,8,0:0:0:0:
256,192,638866,1,0,0:0:0:0:
256,192,638971,1,0,0:0:0:0:
256,192,639077,1,12,0:0:0:0:
256,192,639392,1,4,0:0:0:0:
256,192,642235,1,0,0:0:0:0:
256,192,642392,1,8,0:0:0:0:
256,192,642550,1,8,0:0:0:0:
256,192,642708,1,8,0:0:0:0:
256,192,642866,1,0,0:0:0:0:
256,192,643024,1,8,0:0:0:0:
256,192,643182,1,8,0:0:0:0:
256,192,643340,1,0,0:0:0:0:
256,192,643498,1,0,0:0:0:0:
256,192,643656,1,8,0:0:0:0:
256,192,643814,1,8,0:0:0:0:
256,192,643971,1,8,0:0:0:0:
256,192,644129,1,8,0:0:0:0:
256,192,644287,1,8,0:0:0:0:
256,192,644445,1,4,0:0:0:0:
256,192,644761,1,8,0:0:0:0:
256,192,645077,1,0,0:0:0:0:
256,192,645156,1,0,0:0:0:0:
256,192,645235,1,0,0:0:0:0:
256,192,645314,1,0,0:0:0:0:
256,192,645392,1,8,0:0:0:0:
256,192,645708,1,8,0:0:0:0:
256,192,646024,1,0,0:0:0:0:
256,192,646103,1,0,0:0:0:0:
256,192,646182,1,0,0:0:0:0:
256,192,646261,1,0,0:0:0:0:
256,192,646340,1,0,0:0:0:0:
256,192,646656,1,8,0:0:0:0:
256,192,646971,1,8,0:0:0:0:
256,192,647287,1,8,0:0:0:0:
256,192,647366,1,0,0:0:0:0:
256,192,647445,1,0,0:0:0:0:
256,192,647524,1,0,0:0:0:0:
256,192,647603,1,0,0:0:0:0:
256,192,647682,1,0,0:0:0:0:
256,192,647761,1,0,0:0:0:0:
256,192,647840,1,0,0:0:0:0:
256,192,647919,1,0,0:0:0:0:
256,192,647998,1,0,0:0:0:0:
256,192,648077,1,0,0:0:0:0:
256,192,648156,1,0,0:0:0:0:
256,192,648235,1,0,0:0:0:0:
256,192,648550,1,8,0:0:0:0:
256,192,648866,1,0,0:0:0:0:
256,192,648945,1,0,0:0:0:0:
256,192,649024,1,0,0:0:0:0:
256,192,649103,1,0,0:0:0:0:
256,192,649182,1,8,0:0:0:0:
256,192,649498,1,8,0:0:0:0:
256,192,649814,1,0,0:0:0:0:
256,192,649892,1,0,0:0:0:0:
256,192,649971,1,0,0:0:0:0:
256,192,650050,1,0,0:0:0:0:
256,192,650129,1,0,0:0:0:0:
256,192,650445,1,8,0:0:0:0:
256,192,650761,1,8,0:0:0:0:
256,192,651077,1,8,0:0:0:0:
256,192,651156,1,8,0:0:0:0:
256,192,651235,1,8,0:0:0:0:
256,192,651314,1,8,0:0:0:0:
256,192,651392,1,8,0:0:0:0:
256,192,651471,1,8,0:0:0:0:
256,192,651550,1,8,0:0:0:0:
256,192,651629,1,8,0:0:0:0:
256,192,651708,1,8,0:0:0:0:
256,192,651787,1,8,0:0:0:0:
256,192,651866,1,8,0:0:0:0:
256,192,651945,1,8,0:0:0:0:
256,192,652024,1,8,0:0:0:0:
