osu file format v14

[General]
AudioFilename: audio.mp3
AudioLeadIn: 0
PreviewTime: 250283
Countdown: 0
SampleSet: Soft
StackLeniency: 0.6
Mode: 0
LetterboxInBreaks: 1
EpilepsyWarning: 1
WidescreenStoryboard: 1

[Editor]
Bookmarks: 15335,45651,68388,113862,121441,151756,166914,197230,204809,235125,250283,284388,309651,337440,347545,367756,398071,417019,447334,454913,470071,485229,519334,553440,583756,603967,644388,651966
DistanceSpacing: 1
BeatDivisor: 4
GridSize: 8
TimelineZoom: 1.9

[Metadata]
Title:Save Me
TitleUnicode:Save Me
Artist:Avenged Sevenfold
ArtistUnicode:Avenged Sevenfold
Creator:Drummer
Version:Tragedy
Source:
Tags:nightmare marathon a7x heavy metal
BeatmapID:1256809
BeatmapSetID:594170

[Difficulty]
HPDrainRate:5.5
CircleSize:4
OverallDifficulty:8.8
ApproachRate:9.5
SliderMultiplier:1.6
SliderTickRate:1

[Events]
//Background and Video events
0,0,"bg.jpg",0,0
//Break Periods
2,368703,381473
//Storyboard Layer 0 (Background)
//Storyboard Layer 1 (Fail)
//Storyboard Layer 2 (Pass)
//Storyboard Layer 3 (Foreground)
//Storyboard Sound Samples

[TimingPoints]
178,315.789473684211,6,2,1,30,1,0
178,-142.857142857143,6,2,1,30,0,0
13441,-166.666666666667,6,2,1,30,0,0
13835,-166.666666666667,6,2,1,5,0,0
13914,-166.666666666667,6,1,2,20,0,0
14072,-166.666666666667,6,1,2,30,0,0
14230,-166.666666666667,6,1,1,40,0,0
14388,-166.666666666667,6,1,1,50,0,0
14704,-166.666666666667,6,1,1,60,0,0
15020,-166.666666666667,6,1,1,70,0,0
15335,-100,6,2,1,60,0,0
30493,-90.9090909090909,6,2,1,60,0,0
37441,-90.9090909090909,6,1,2,60,0,0
37599,-90.9090909090909,6,1,1,60,0,0
37756,-90.9090909090909,6,1,2,60,0,0
37914,-90.9090909090909,6,1,1,60,0,0
38072,-100,6,2,1,60,0,0
44388,-100,6,1,2,60,0,0
44546,-100,6,1,1,60,0,0
44704,-100,6,1,2,60,0,0
44862,-100,6,1,1,60,0,0
45651,-76.9230769230769,6,2,1,60,0,1
45967,-100,6,2,1,60,0,0
60493,-66.6666666666667,6,2,1,60,0,0
60730,-66.6666666666667,6,2,1,10,0,0
60809,-90.9090909090909,6,2,1,60,0,0
68388,-100,6,2,1,60,0,0
82441,-100,6,1,2,60,0,0
82520,-100,6,1,1,60,0,0
82599,-100,6,1,2,60,0,0
82756,-100,6,1,1,60,0,0
82914,-100,6,1,2,60,0,0
83072,-100,6,1,1,60,0,0
83230,-100,6,1,2,60,0,0
83388,-100,6,1,1,60,0,0
83546,-83.3333333333333,6,2,1,60,0,0
84178,-100,6,2,1,60,0,0
84493,-83.3333333333333,6,2,1,60,0,0
85125,-100,6,2,1,60,0,0
98704,-100,6,1,2,60,0,0
99020,-100,6,2,1,60,0,0
102493,-100,6,1,2,60,0,0
102809,-100,6,2,1,60,0,0
112204,-100,6,1,2,60,0,0
112441,-100,6,2,1,60,0,0
112599,-100,6,1,2,60,0,0
112914,-100,6,2,1,60,0,0
112993,-100,6,1,2,60,0,0
113388,-100,6,2,1,60,0,0
121441,-90.9090909090909,6,2,1,60,0,0
125151,-90.9090909090909,6,2,1,10,0,0
125230,-90.9090909090909,6,2,1,60,0,0
128941,-90.9090909090909,6,2,1,10,0,0
129020,-90.9090909090909,6,2,1,60,0,0
132730,-90.9090909090909,6,2,1,10,0,0
132809,-90.9090909090909,6,2,1,60,0,0
151756,-100,6,2,1,60,0,0
153651,-90.9090909090909,6,2,1,60,0,0
154283,-100,6,2,1,60,0,0
154599,-83.3333333333333,6,2,1,60,0,0
155230,-90.9090909090909,6,2,1,60,0,0
155467,-90.9090909090909,6,2,1,10,0,0
155546,-100,6,2,1,60,0,0
157441,-90.9090909090909,6,2,1,60,0,0
158072,-100,6,2,1,60,0,0
159020,-100,6,1,2,60,0,0
159178,-100,6,2,1,60,0,0
159335,-100,6,1,1,60,0,1
165020,-90.9090909090909,6,1,1,60,0,0
166914,-90.9090909090909,6,2,1,60,0,1
170625,-90.9090909090909,6,2,1,10,0,1
170704,-90.9090909090909,6,2,1,60,0,1
173546,-90.9090909090909,6,2,1,60,0,0
173862,-90.9090909090909,6,2,2,60,0,0
174020,-90.9090909090909,6,2,1,60,0,0
174493,-90.9090909090909,6,2,1,60,0,1
178204,-90.9090909090909,6,2,1,10,0,1
178283,-90.9090909090909,6,2,1,60,0,1
181125,-90.9090909090909,6,2,1,60,0,0
182072,-90.9090909090909,6,2,1,60,0,1
185783,-90.9090909090909,6,2,1,10,0,1
185862,-90.9090909090909,6,2,1,60,0,1
188704,-90.9090909090909,6,2,1,60,0,0
189020,-90.9090909090909,6,2,2,60,0,0
189178,-90.9090909090909,6,2,1,60,0,0
189651,-90.9090909090909,6,2,1,60,0,1
196283,-90.9090909090909,6,2,1,60,0,0
197230,-100,6,2,1,60,0,0
202914,-100,6,2,2,60,0,0
204493,-100,6,2,1,60,0,0
204809,-90.9090909090909,6,2,1,60,0,0
208520,-90.9090909090909,6,2,1,10,0,0
208599,-90.9090909090909,6,2,1,60,0,0
212309,-90.9090909090909,6,2,1,10,0,0
212388,-90.9090909090909,6,2,1,60,0,0
216099,-90.9090909090909,6,2,1,10,0,0
216178,-90.9090909090909,6,2,1,60,0,0
235125,-100,6,2,1,60,0,0
237020,-90.9090909090909,6,2,1,60,0,0
237651,-100,6,2,1,60,0,0
237967,-83.3333333333333,6,2,1,60,0,0
238599,-90.9090909090909,6,2,1,60,0,0
238835,-90.9090909090909,6,2,1,10,0,0
238914,-100,6,2,1,60,0,0
240809,-90.9090909090909,6,2,1,60,0,0
241441,-100,6,2,1,60,0,0
242072,-100,6,2,2,60,0,0
242230,-100,6,2,1,60,0,0
242704,-100,6,2,1,60,0,1
248388,-90.9090909090909,6,2,1,60,0,0
250283,-90.9090909090909,6,2,1,60,0,1
253993,-90.9090909090909,6,2,1,10,0,1
254072,-90.9090909090909,6,2,1,60,0,1
256914,-90.9090909090909,6,2,1,60,0,0
257862,-90.9090909090909,6,2,1,60,0,1
263546,-90.9090909090909,6,2,1,60,0,0
264335,-90.9090909090909,6,2,2,60,0,0
264651,-90.9090909090909,6,2,1,60,0,0
264809,-90.9090909090909,6,2,2,60,0,0
264967,-90.9090909090909,6,2,1,60,0,0
265441,-90.9090909090909,6,2,1,60,0,1
269151,-90.9090909090909,6,2,1,10,0,1
269230,-90.9090909090909,6,2,1,60,0,1
272072,-90.9090909090909,6,2,1,60,0,0
273020,-90.9090909090909,6,2,1,60,0,1
278704,-90.9090909090909,6,2,1,60,0,0
279651,-90.9090909090909,6,2,2,60,0,0
279809,-90.9090909090909,6,2,1,60,0,0
279967,-90.9090909090909,6,2,2,60,0,0
280125,-90.9090909090909,6,2,1,60,0,0
280599,-90.9090909090909,6,2,1,60,0,1
282493,-100,6,2,1,60,0,0
283441,-100,6,2,2,60,0,0
283756,-100,6,2,1,60,0,0
284388,315.789473684211,4,2,1,60,1,0
284466,-100,4,2,1,40,0,0
287861,-100,4,2,1,20,0,0
288177,-100,4,2,1,60,0,0
298440,-100,4,2,2,60,0,0
298756,-100,4,2,1,60,0,0
299072,-100,4,2,2,60,0,0
299388,-100,4,2,1,60,0,0
299545,-166.666666666667,4,2,1,60,0,0
299585,-166.666666666667,4,2,2,40,0,0
303966,-166.666666666667,4,2,1,60,0,0
304124,-166.666666666667,4,2,2,60,0,0
304282,-166.666666666667,4,2,1,60,0,0
304440,-166.666666666667,4,2,2,60,0,0
304598,-142.857142857143,4,2,1,60,0,0
304638,-142.857142857143,4,2,2,40,0,0
305861,-142.857142857143,4,2,1,20,0,0
306177,-142.857142857143,4,2,1,30,0,0
306493,-142.857142857143,4,2,1,40,0,0
306651,-142.857142857143,4,2,1,50,0,0
306809,-142.857142857143,4,2,1,60,0,0
306966,-142.857142857143,4,2,1,70,0,0
307124,-90.9090909090909,4,2,1,70,0,0
307203,-90.9090909090909,4,2,1,70,0,0
309651,-83.3333333333333,4,2,1,60,0,0
329388,-83.3333333333333,4,2,1,10,0,0
329466,-83.3333333333333,4,2,1,60,0,0
329624,-83.3333333333333,4,2,1,10,0,0
329703,-83.3333333333333,4,2,1,60,0,0
329861,-76.9230769230769,4,2,1,60,0,1
336177,-76.9230769230769,4,2,1,60,0,0
336809,-66.6666666666667,4,2,1,60,0,0
337045,-66.6666666666667,4,2,1,5,0,0
337124,-66.6666666666667,4,2,1,60,0,0
337361,-66.6666666666667,4,2,1,5,0,0
337440,-83.3333333333333,4,2,1,60,0,0
347388,-100,4,2,1,60,0,0
348019,-100,4,2,1,30,0,0
348177,-100,4,2,1,60,0,0
364598,-90.9090909090909,4,2,1,60,0,0
364914,-100,4,2,1,60,0,0
367756,315.789473684211,6,1,1,60,1,0
382913,-142.857142857143,6,2,1,30,0,0
384650,-142.857142857143,6,2,1,10,0,0
384808,-142.857142857143,6,2,1,30,0,0
388440,-142.857142857143,6,2,1,10,0,0
388598,-142.857142857143,6,2,1,30,0,0
396019,-142.857142857143,6,2,1,10,0,0
396177,-142.857142857143,6,2,1,30,0,0
397124,-125,6,2,1,30,0,0
398071,-111.111111111111,6,2,4,50,0,0
408966,-111.111111111111,6,2,4,20,0,0
409124,-111.111111111111,6,2,4,50,0,0
412519,-111.111111111111,6,2,4,10,0,0
412598,-111.111111111111,6,2,2,30,0,0
412913,-111.111111111111,6,2,4,50,0,0
413150,-111.111111111111,6,2,4,5,0,0
413229,-111.111111111111,6,2,4,50,0,0
415124,-125,6,2,4,50,0,0
416071,-125,6,2,1,40,0,0
416387,-125,6,2,2,40,0,0
417019,-111.111111111111,6,2,4,50,0,0
432177,-111.111111111111,6,2,4,50,0,1
439440,-111.111111111111,6,2,4,50,0,0
439677,-111.111111111111,6,2,4,10,0,0
439756,-111.111111111111,6,2,4,50,0,1
443545,-100,6,2,1,50,0,0
445756,-166.666666666667,6,2,1,30,0,0
445834,-166.666666666667,6,2,1,20,0,0
446071,-142.857142857143,6,2,2,40,0,0
446150,-142.857142857143,6,2,2,20,0,0
446387,-125,6,2,1,40,0,0
446466,-125,6,2,1,30,0,0
446545,-125,6,2,2,40,0,0
446703,-125,6,2,2,50,0,0
446861,-125,6,2,2,40,0,0
447177,-125,6,2,1,40,0,0
447334,-100,6,2,1,60,0,0
453019,-142.857142857143,6,2,1,60,0,0
453058,-142.857142857143,6,2,1,30,0,0
454598,-142.857142857143,6,2,1,40,0,0
454913,-100,6,2,1,60,0,1
455229,-100,6,2,1,60,0,0
456729,-100,6,2,1,10,0,0
456808,-100,6,2,1,60,0,0
458624,-100,6,2,1,10,0,0
458703,-100,6,2,1,60,0,0
460519,-100,6,2,1,10,0,0
460598,-100,6,2,1,60,0,0
464308,-100,6,2,1,10,0,0
464387,-100,6,2,1,60,0,0
468098,-100,6,2,1,10,0,0
468177,-111.111111111111,6,2,1,60,0,0
468413,-111.111111111111,6,2,1,40,0,0
468808,-111.111111111111,6,2,2,40,0,0
469440,-111.111111111111,6,2,1,50,0,0
469545,-111.111111111111,6,2,2,50,0,0
469650,-111.111111111111,6,2,1,50,0,0
469756,-111.111111111111,6,2,2,50,0,0
469966,-111.111111111111,6,2,1,50,0,0
470071,-83.3333333333333,6,2,1,60,0,1
470387,-90.9090909090909,6,2,1,60,0,1
471887,-90.9090909090909,6,2,1,10,0,1
471966,-90.9090909090909,6,2,1,60,0,1
473782,-90.9090909090909,6,2,1,10,0,1
473861,-90.9090909090909,6,2,1,60,0,1
475756,-90.9090909090909,6,2,1,60,0,0
477650,-83.3333333333333,6,2,1,60,0,1
477966,-90.9090909090909,6,2,1,60,0,1
479466,-90.9090909090909,6,2,1,10,0,1
479545,-90.9090909090909,6,2,1,60,0,1
481361,-90.9090909090909,6,2,1,10,0,1
481440,-90.9090909090909,6,2,1,60,0,1
483256,-90.9090909090909,6,2,2,60,0,1
483334,-90.9090909090909,6,2,1,60,0,0
483413,-90.9090909090909,6,2,2,60,0,0
483492,-90.9090909090909,6,2,1,60,0,0
485229,-90.9090909090909,6,2,1,60,0,1
491861,-90.9090909090909,6,2,1,60,0,0
492808,-90.9090909090909,6,2,1,60,0,1
498492,-90.9090909090909,6,2,2,60,0,0
498650,-90.9090909090909,6,2,1,5,0,0
498729,-90.9090909090909,6,2,2,60,0,0
498887,-90.9090909090909,6,2,1,5,0,0
498966,-90.9090909090909,6,2,1,60,0,0
500387,-90.9090909090909,6,2,1,60,0,1
506071,-90.9090909090909,6,2,1,60,0,0
506703,-90.9090909090909,6,2,2,60,0,0
507334,-90.9090909090909,6,2,1,60,0,0
507966,-90.9090909090909,6,2,1,60,0,1
511677,-90.9090909090909,6,2,1,10,0,1
511756,-90.9090909090909,6,2,1,60,0,1
514598,-90.9090909090909,6,2,1,60,0,0
515545,-90.9090909090909,6,2,1,60,0,1
517440,-90.9090909090909,6,2,1,60,0,0
518703,-90.9090909090909,6,2,2,60,0,0
519019,-90.9090909090909,6,2,1,60,0,0
519334,-100,6,2,1,60,0,1
519650,-100,6,2,1,60,0,0
534492,-100,6,2,1,60,0,1
534808,-100,6,2,1,60,0,0
549650,-90.9090909090909,6,2,1,60,0,0
553441,315.789473684211,4,2,1,60,1,0
553519,-200,4,2,1,50,0,0
555967,-200,4,2,1,40,0,0
557230,-200,4,2,1,30,0,0
559756,-200,4,2,1,20,0,0
561019,-200,4,2,1,10,0,0
562283,-200,4,2,1,5,0,0
562914,-200,4,2,2,30,0,0
583125,-166.666666666667,4,2,2,40,0,0
583756,-125,4,1,1,50,0,0
584072,-125,4,2,1,5,0,0
584230,-125,4,1,1,50,0,0
584546,-125,4,2,1,5,0,0
584704,-200,4,1,1,50,0,0
585335,-200,4,1,1,40,0,0
585651,-142.857142857143,4,1,2,50,0,0
586283,-125,4,1,1,50,0,0
586598,-125,4,2,1,5,0,0
586756,-125,4,1,1,50,0,0
587072,-125,4,2,1,5,0,0
587230,-200,4,1,1,50,0,0
587862,-200,4,1,1,20,0,0
588493,-200,4,1,2,40,0,0
588809,-125,4,1,1,50,0,0
589125,-125,4,2,1,5,0,0
589283,-125,4,1,1,50,0,0
589598,-125,4,2,1,5,0,0
589756,-200,4,1,1,50,0,0
591335,-125,4,1,1,50,0,0
591651,-125,4,2,1,5,0,0
591809,-125,4,1,1,50,0,0
592125,-125,4,2,1,5,0,0
592283,-142.857142857143,4,1,1,50,0,0
592441,-142.857142857143,4,1,1,10,0,0
592598,-142.857142857143,4,1,1,50,0,0
592914,-142.857142857143,4,1,1,40,0,0
593230,-142.857142857143,4,1,2,40,0,0
593862,-125,4,1,1,50,0,0
594177,-125,4,2,1,5,0,0
594335,-125,4,1,1,50,0,0
594651,-125,4,2,1,5,0,0
594809,-142.857142857143,4,1,1,50,0,0
595046,-142.857142857143,4,2,1,5,0,0
595125,-142.857142857143,4,1,4,40,0,0
595677,-142.857142857143,4,2,1,5,0,0
595756,-142.857142857143,4,1,4,40,0,0
596309,-142.857142857143,4,2,1,5,0,0
596388,-125,4,1,1,50,0,0
596862,-125,4,1,1,50,0,0
597177,-125,4,2,1,10,0,0
597335,-125,4,1,1,50,0,0
597572,-125,4,2,1,5,0,0
597651,-125,4,1,4,40,0,0
598204,-125,4,2,1,5,0,0
598283,-125,4,1,4,40,0,0
598835,-125,4,2,1,5,0,0
598914,-125,4,1,1,50,0,0
599388,-125,4,1,1,50,0,0
599704,-125,4,1,1,10,0,0
599862,-142.857142857143,4,1,1,50,0,0
600019,-142.857142857143,4,1,1,10,0,0
600177,-142.857142857143,4,1,4,40,0,0
600730,-142.857142857143,4,2,1,5,0,0
600809,-142.857142857143,4,1,4,40,0,0
601362,-142.857142857143,4,2,1,5,0,0
601441,-125,4,1,1,50,0,0
602072,-125,4,1,2,50,0,0
602388,-125,4,1,1,50,0,0
603019,-125,4,1,2,50,0,0
603651,-125,4,1,1,50,0,0
603967,-100,4,2,1,60,0,0
611546,-125,4,2,1,50,0,0
611862,-125,4,2,1,10,0,0
612019,-125,4,2,1,50,0,0
612335,-125,4,2,1,10,0,0
612493,-125,4,2,1,50,0,0
612651,-125,4,2,1,40,0,0
612730,-125,4,2,1,50,0,0
612809,-111.111111111111,4,2,1,60,0,0
613598,-111.111111111111,4,2,2,60,0,0
613756,-111.111111111111,4,2,1,60,0,0
613993,-111.111111111111,4,2,1,5,0,0
614072,-100,4,2,1,60,0,0
617388,-100,4,2,1,30,0,0
617546,-100,4,2,1,60,0,0
618651,-100,4,2,1,30,0,0
618809,-100,4,2,1,60,0,0
619046,-100,4,2,1,5,0,0
619125,-111.111111111111,4,2,1,50,0,0
621019,-111.111111111111,4,2,2,50,0,0
621335,-111.111111111111,4,2,1,50,0,0
621572,-111.111111111111,4,2,1,10,0,0
621651,-111.111111111111,4,2,2,50,0,0
621809,-111.111111111111,4,2,1,5,0,0
621888,-111.111111111111,4,2,2,50,0,0
622046,-111.111111111111,4,2,1,5,0,0
622125,-111.111111111111,4,2,2,50,0,0
622283,-111.111111111111,4,2,1,5,0,0
622362,-111.111111111111,4,2,1,50,0,0
622598,-111.111111111111,4,2,1,60,0,0
623072,-111.111111111111,4,2,2,60,0,0
623230,-111.111111111111,4,2,1,60,0,0
624177,-90.909090909091,4,2,1,60,0,0
626625,-90.909090909091,4,2,1,10,0,0
626704,-90.909090909091,4,2,1,60,0,0
628756,-90.909090909091,4,2,1,40,0,0
628914,-90.909090909091,4,2,1,60,0,0
629072,-90.909090909091,4,2,1,40,0,0
629230,-90.909090909091,4,2,1,70,0,1
630809,-90.909090909091,4,2,2,70,0,1
630967,-90.909090909091,4,2,1,70,0,1
631125,-90.909090909091,4,2,2,70,0,1
631283,-90.909090909091,4,2,1,70,0,1
632230,-90.909090909091,4,2,2,70,0,1
632388,-90.909090909091,4,2,1,70,0,1
633019,-90.909090909091,4,2,2,70,0,1
633177,-90.909090909091,4,2,1,70,0,1
633493,-90.909090909091,4,2,1,50,0,1
633651,-90.909090909091,4,2,1,70,0,1
634283,-90.909090909091,4,2,1,60,0,0
636809,-90.909090909091,4,2,2,60,0,0
637441,-90.909090909091,4,2,1,60,0,0
638177,-90.909090909091,4,2,2,60,0,0
638388,-90.909090909091,4,2,1,60,0,0
638809,-90.909090909091,4,2,2,60,0,0
639019,-90.909090909091,4,2,1,60,0,0
639230,-90.909090909091,4,2,1,10,0,0
639335,-166.666666666667,4,2,1,60,0,0
639414,-166.666666666667,4,2,1,40,0,0
641704,-166.666666666667,4,2,1,5,0,0
641862,-166.666666666667,4,2,1,20,0,0
642335,-166.666666666667,4,2,1,30,0,0
642651,-166.666666666667,4,2,1,40,0,0
642967,-166.666666666667,4,2,1,50,0,0
643441,-166.666666666667,4,2,1,60,0,0
643914,-166.666666666667,4,2,1,70,0,0
644388,315.789473684211,6,2,1,60,1,0
644388,-90.9090909090909,6,2,1,60,0,0
651651,-90.9090909090909,6,2,1,70,0,0

[Colours]
Combo1 : 64,128,128
Combo2 : 0,85,170
Combo3 : 128,64,64
Combo4 : 192,192,192

[HitObjects]
135,135,178,6,0,L|257:140,1,111.999996582031,2|0,0:0|0:0,0:0:0:0:
349,122,651,1,2,0:0:0:0:
340,135,809,2,0,P|333:166|332:205,1,55.9999982910157,0|0,0:0|0:0,0:0:0:0:
353,284,1125,2,0,L|231:289,1,111.999996582031,2|0,0:0|0:0,0:0:0:0:
137,288,1599,1,2,0:0:0:0:
130,273,1756,2,0,P|128:239|130:201,1,55.9999982910157,0|0,0:0|0:0,0:0:0:0:
150,108,2072,6,0,P|95:107|39:113,1,111.999996582031,2|0,0:0|0:0,0:0:0:0:
206,178,2546,2,0,P|236:182|275:179,2,55.9999982910157,2|0|0,0:0|0:0|0:0,0:0:0:0:
125,90,3020,6,0,L|134:19,1,55.9999982910157,2|0,0:0|0:0,0:0:0:0:
224,72,3335,2,0,L|233:1,1,55.9999982910157,2|0,0:0|0:0,0:0:0:0:
328,44,3651,1,2,0:0:0:0:
354,119,3809,1,0,0:0:0:0:
372,196,3967,6,0,L|262:181,1,111.999996582031,2|0,0:0|0:0,0:0:0:0:
169,173,4441,1,2,0:0:0:0:
162,193,4599,2,0,P|160:226|164:269,1,55.9999982910157,0|0,0:0|0:0,0:0:0:0:
257,292,4914,2,0,L|261:177,1,111.999996582031,2|0,0:0|0:0,0:0:0:0:
245,72,5388,1,2,0:0:0:0:
228,82,5546,2,0,P|195:84|152:80,1,55.9999982910157,0|0,0:0|0:0,0:0:0:0:
83,131,5862,6,0,B|68:178|93:193|75:254,1,111.999996582031,2|0,0:0|0:0,0:0:0:0:
57,342,6335,2,0,P|32:346|1:341,2,55.9999982910157,2|0|0,0:0|0:0|0:0,0:0:0:0:
174,288,6809,6,0,L|180:226,1,55.9999982910157,2|0,0:0|0:0,0:0:0:0:
78,186,7125,2,0,L|84:124,1,55.9999982910157,2|0,0:0|0:0,0:0:0:0:
151,60,7441,1,2,0:0:0:0:
174,134,7599,1,0,0:0:0:0:
198,208,7756,6,0,L|330:204,1,111.999996582031,2|0,0:0|0:0,0:0:0:0:
406,100,8230,1,2,0:0:0:0:
401,115,8388,2,0,P|396:142|394:170,1,55.9999982910157,0|0,0:0|0:0,0:0:0:0:
493,261,8704,2,0,L|361:257,1,111.999996582031,2|0,0:0|0:0,0:0:0:0:
276,228,9178,1,2,0:0:0:0:
280,244,9335,2,0,P|283:270|280:311,1,55.9999982910157,0|0,0:0|0:0,0:0:0:0:
195,171,9651,6,0,P|239:138|295:132,1,111.999996582031,2|0,0:0|0:0,0:0:0:0:
432,157,10125,2,0,P|458:160|491:152,2,55.9999982910157,2|0|0,0:0|0:0|0:0,0:0:0:0:
255,110,10599,6,0,L|250:55,1,55.9999982910157,2|0,0:0|0:0,0:0:0:0:
351,17,10914,2,0,L|345:72,1,55.9999982910157,2|0,0:0|0:0,0:0:0:0:
200,198,11230,1,2,0:0:0:0:
163,128,11388,1,0,0:0:0:0:
123,60,11546,6,0,L|117:175,1,111.999996582031,2|0,0:0|0:0,0:0:0:0:
136,280,12020,1,2,0:0:0:0:
159,286,12178,2,0,P|183:289|226:285,1,55.9999982910157,0|0,0:0|0:0,0:0:0:0:
311,191,12493,2,0,L|191:198,1,111.999996582031,2|0,0:0|0:0,0:0:0:0:
92,210,12967,1,2,0:0:0:0:
100,190,13125,2,0,P|104:165|99:123,1,55.9999982910157,0|0,0:0|0:0,0:0:0:0:
143,33,13441,6,0,B|166:25|192:40|192:40|202:32|202:32|229:50|266:40,1,119.999996337891,2|0,0:0|2:0,0:0:0:0:
334,40,13914,5,2,3:3:0:0:
331,59,14072,1,2,3:3:0:0:
328,78,14230,1,8,3:0:0:0:
260,144,14388,5,8,3:0:0:0:
266,177,14546,1,8,3:0:0:0:
271,210,14704,1,8,3:0:0:0:
343,280,14862,5,8,3:0:0:0:
336,319,15020,1,8,3:0:0:0:
330,357,15178,1,8,3:0:0:0:
265,130,15335,6,0,B|326:127|326:127|365:144|365:144|423:140,1,160,4|2,3:3|0:1,0:0:0:0:
104,104,15967,1,2,3:1:0:0:
91,131,16045,1,0,3:0:0:0:
84,160,16124,1,0,3:0:0:0:
84,190,16203,1,0,3:0:0:0:
90,220,16283,2,0,L|175:225,1,80,10|0,0:1|0:0,0:0:0:0:
285,98,16599,2,0,L|200:103,1,80,2|0,0:1|0:0,0:0:0:0:
229,293,16914,1,2,3:1:0:0:
246,268,16992,1,0,3:0:0:0:
255,240,17071,1,0,3:0:0:0:
256,210,17150,1,0,3:0:0:0:
248,181,17230,6,0,P|234:135|246:26,1,160,2|2,3:1|0:1,0:0:0:0:
330,19,17704,1,0,0:0:0:0:
248,181,17862,2,0,P|211:189|157:185,1,80,2|0,0:1|0:0,0:0:0:0:
16,81,18178,5,10,0:1:0:0:
41,73,18256,1,0,3:0:0:0:
67,67,18335,1,0,3:0:0:0:
93,64,18414,1,0,3:0:0:0:
120,64,18493,1,2,3:1:0:0:
146,69,18572,1,0,3:0:0:0:
172,77,18651,1,0,3:0:0:0:
197,84,18730,1,0,3:0:0:0:
224,89,18809,1,2,3:1:0:0:
250,90,18888,1,0,3:0:0:0:
277,88,18967,1,0,3:0:0:0:
303,83,19046,1,0,3:0:0:0:
329,77,19125,6,0,B|322:104|322:104|332:127|332:127|314:160|332:240,1,160,2|2,3:1|0:1,0:1:0:0:
407,97,19599,1,0,0:0:0:0:
242,6,19756,1,2,3:1:0:0:
229,33,19834,1,0,3:0:0:0:
223,62,19913,1,0,3:0:0:0:
223,92,19992,1,0,3:0:0:0:
229,121,20072,2,0,P|231:157|226:212,1,80,10|0,0:1|0:0,0:0:0:0:
91,302,20388,2,0,P|89:266|94:211,1,80,2|0,0:1|0:1,0:1:0:0:
289,272,20704,1,2,3:1:0:0:
263,288,20782,1,0,3:0:0:0:
234,295,20861,1,0,3:0:0:0:
205,294,20940,1,0,3:0:0:0:
177,283,21020,6,0,B|103:257|87:308|19:280,1,160,2|2,3:1|0:1,0:1:0:0:
59,207,21493,1,0,0:0:0:0:
228,207,21651,2,0,P|234:172|230:126,1,80,2|0,0:1|0:1,0:1:0:0:
94,35,21967,5,10,0:1:0:0:
120,46,22046,1,0,3:0:0:0:
149,46,22125,1,0,3:0:0:0:
176,39,22204,1,0,3:0:0:0:
202,28,22283,1,2,3:1:0:0:
230,25,22362,1,0,3:0:0:0:
258,28,22441,1,0,3:0:0:0:
285,37,22520,1,0,3:0:0:0:
307,53,22599,1,2,3:1:0:0:
338,49,22678,1,0,3:0:0:0:
369,46,22756,1,0,3:0:0:0:
400,43,22835,1,0,3:0:0:0:
431,40,22914,6,0,B|414:67|430:96|430:96|417:110|417:110|435:138|421:205,1,160,2|2,3:1|0:1,0:1:0:0:
336,151,23388,1,0,0:0:0:0:
350,314,23546,1,2,3:1:0:0:
322,325,23624,1,0,3:0:0:0:
292,330,23703,1,0,3:0:0:0:
262,330,23782,1,0,3:0:0:0:
233,324,23862,2,0,L|240:233,1,80,10|0,0:1|0:0,0:0:0:0:
329,71,24178,2,0,L|335:150,1,80,2|0,0:1|0:1,0:1:0:0:
121,204,24493,1,2,3:1:0:0:
128,175,24571,1,0,3:0:0:0:
135,145,24650,1,0,3:0:0:0:
143,116,24729,1,0,3:0:0:0:
150,87,24809,6,0,B|158:52|143:22|143:22|172:62|241:63,1,160,2|2,3:1|0:1,0:1:0:0:
353,48,25283,2,0,P|398:43|435:48,2,80,0|2|0,0:0|0:1|0:0,0:0:0:0:
220,161,25756,5,10,3:1:0:0:
246,178,25835,1,0,3:0:0:0:
276,186,25914,1,0,3:0:0:0:
307,187,25993,1,0,3:0:0:0:
338,180,26072,1,2,3:1:0:0:
364,161,26151,1,0,3:0:0:0:
391,178,26230,5,0,3:0:0:0:
404,206,26309,1,0,3:0:0:0:
405,237,26388,1,2,3:1:0:0:
397,268,26467,1,0,3:0:0:0:
377,293,26546,1,0,3:0:0:0:
348,307,26625,1,0,3:0:0:0:
316,309,26704,6,0,B|289:307|267:324|267:324|232:306|232:306|193:313|165:297,1,160,2|2,3:1|0:1,0:1:0:0:
92,185,27178,1,0,0:0:0:0:
159,71,27335,1,2,3:1:0:0:
188,64,27413,1,0,3:0:0:0:
218,62,27492,1,0,3:0:0:0:
247,67,27571,1,0,3:0:0:0:
275,77,27651,2,0,P|323:88|438:78,1,160,10|2,0:1|0:1,0:1:0:0:
324,2,28125,1,0,0:0:0:0:
286,174,28283,1,2,3:1:0:0:
282,203,28361,1,0,3:0:0:0:
280,233,28440,1,0,3:0:0:0:
282,263,28519,1,0,3:0:0:0:
285,293,28599,6,0,B|358:323|374:267|442:295,1,160,2|2,3:1|0:1,0:1:0:0:
402,379,29072,1,0,0:0:0:0:
202,338,29230,2,0,P|194:296|204:239,1,80,2|0,0:1|0:0,0:0:0:0:
257,93,29546,5,10,0:1:0:0:
234,70,29625,1,0,3:0:0:0:
204,56,29704,1,0,3:0:0:0:
172,53,29783,1,0,3:0:0:0:
139,76,29862,1,2,3:1:0:0:
111,91,29941,1,0,3:0:0:0:
79,96,30020,1,0,3:0:0:0:
47,92,30099,1,0,3:0:0:0:
14,68,30178,5,8,0:1:0:0:
17,107,30256,1,8,0:1:0:0:
21,146,30335,1,8,0:1:0:0:
25,185,30414,1,8,0:1:0:0:
29,224,30493,6,0,B|74:240|74:240|107:227|107:227|146:249|209:229,1,176.000005371094,4|10,3:0|0:1,0:0:0:0:
359,181,30967,1,0,0:0:0:0:
156,141,31125,1,2,3:1:0:0:
148,108,31203,1,0,3:0:0:0:
145,76,31282,1,0,3:0:0:0:
148,43,31361,1,0,3:0:0:0:
157,11,31441,2,0,P|192:12|249:20,1,88.000002685547,10|0,0:1|0:0,0:0:0:0:
368,209,31756,2,0,P|333:208|276:200,1,88.000002685547,2|0,0:1|0:2,0:2:0:0:
437,51,32072,1,10,0:1:0:0:
452,80,32150,1,0,3:0:0:0:
461,111,32229,1,0,3:0:0:0:
462,144,32308,1,0,3:0:0:0:
456,177,32388,6,0,B|438:230|458:311|458:311|441:290|412:283,1,176.000005371094,2|10,3:1|0:1,0:1:0:0:
235,315,32862,1,0,0:0:0:0:
336,373,33020,2,0,P|343:340|333:262,1,88.000002685547,2|0,0:1|0:0,0:0:0:0:
242,128,33335,5,10,0:1:0:0:
254,97,33413,1,0,3:0:0:0:
279,77,33492,1,0,3:0:0:0:
311,72,33571,1,0,3:0:0:0:
342,83,33650,1,2,3:1:0:0:
363,108,33729,1,0,3:0:0:0:
369,140,33808,1,0,3:0:0:0:
358,171,33887,1,0,3:0:0:0:
334,192,33966,1,10,0:1:0:0:
297,175,34046,1,0,3:0:0:0:
258,165,34125,1,0,3:0:0:0:
219,172,34204,1,0,3:0:0:0:
185,192,34283,6,0,B|205:212|228:212|228:212|183:258|213:344,1,176.000005371094,2|10,3:1|0:1,0:0:0:0:
303,285,34756,1,0,0:0:0:0:
107,243,34914,1,2,3:1:0:0:
95,212,34992,1,0,3:0:0:0:
95,179,35071,1,0,3:0:0:0:
104,147,35150,1,0,3:0:0:0:
123,121,35230,2,0,P|136:90|135:28,1,88.000002685547,10|0,0:1|0:0,0:0:0:0:
8,176,35546,2,0,P|6:219|21:261,1,88.000002685547,2|0,0:1|0:0,0:0:0:0:
185,192,35862,1,10,0:1:0:0:
213,175,35940,1,0,3:0:0:0:
245,167,36019,1,0,3:0:0:0:
278,169,36098,1,0,3:0:0:0:
309,180,36178,6,0,B|311:110|298:52|298:52|312:80|345:93,1,176.000005371094,2|10,3:1|0:1,0:0:0:0:
376,5,36651,1,0,0:0:0:0:
216,0,36809,2,0,P|212:37|218:94,1,88.000002685547,2|0,0:1|3:0,0:0:0:0:
244,264,37125,5,8,0:1:0:0:
215,280,37204,2,0,L|152:276,2,44.0000013427735,8|0|0,0:1|3:0|3:0,0:0:0:0:
394,210,37441,1,8,2:3:0:0:
408,238,37520,2,0,L|404:296,2,44.0000013427735,8|0|0,2:3|3:0|3:0,0:0:0:0:
329,85,37756,1,2,2:3:0:0:
291,70,37835,1,2,2:3:0:0:
251,67,37914,1,0,3:0:0:0:
211,68,37993,1,0,3:0:0:0:
173,79,38072,6,0,B|170:107|181:130|181:130|174:147|174:147|187:184|176:236,1,160,4|2,3:0|0:1,0:0:0:0:
96,124,38546,1,0,0:0:0:0:
269,62,38704,1,2,3:1:0:0:
278,90,38782,1,0,3:0:0:0:
283,119,38861,1,0,3:0:0:0:
282,149,38940,1,0,3:0:0:0:
276,179,39020,2,0,P|306:180|358:175,1,80,10|0,0:1|0:0,0:0:0:0:
451,37,39335,2,0,P|421:36|369:41,1,80,2|0,0:1|0:0,0:0:0:0:
197,120,39651,1,2,3:1:0:0:
188,148,39729,1,0,3:0:0:0:
185,178,39808,1,0,3:0:0:0:
188,208,39887,1,0,3:0:0:0:
195,237,39967,6,0,P|202:278|195:336,2,80,2|0|2,3:1|0:1|0:1,0:1:0:0:
92,140,40441,1,0,0:0:0:0:
31,277,40599,2,0,P|70:285|116:279,1,80,2|0,0:1|0:0,0:0:0:0:
300,231,40914,5,10,0:1:0:0:
308,200,40993,1,0,3:0:0:0:
308,167,41072,1,0,3:0:0:0:
302,135,41151,1,0,3:0:0:0:
283,109,41230,1,2,3:1:0:0:
272,87,41309,1,0,3:0:0:0:
268,63,41388,1,0,3:0:0:0:
271,39,41467,1,0,3:0:0:0:
280,15,41546,1,2,3:1:0:0:
312,30,41625,1,0,3:0:0:0:
347,37,41704,1,0,3:0:0:0:
383,36,41783,1,0,3:0:0:0:
417,24,41862,6,0,B|419:57|399:78|399:78|384:130|409:185,1,160,2|2,3:1|0:1,0:1:0:0:
488,121,42335,1,0,0:0:0:0:
308,167,42493,1,2,3:1:0:0:
278,172,42571,1,0,3:0:0:0:
248,175,42650,1,0,3:0:0:0:
218,174,42729,1,0,3:0:0:0:
189,169,42809,2,0,P|185:138|185:77,1,80,10|0,0:1|0:0,0:0:0:0:
350,238,43125,2,0,P|354:269|354:330,1,80,2|0,0:1|0:1,0:1:0:0:
204,286,43441,1,2,0:1:0:0:
309,138,43599,1,0,3:0:0:0:
313,120,43678,1,0,3:0:0:0:
317,104,43756,6,0,L|312:50,2,40,8|8|0,0:1|0:1|3:0,0:0:0:0:
212,73,43993,1,0,3:0:0:0:
203,59,44072,6,0,L|198:5,2,40,8|8|0,0:3|0:3|3:0,0:0:0:0:
161,162,44309,1,0,3:0:0:0:
147,171,44388,6,0,L|93:176,2,40,8|8|0,2:3|2:3|3:0,0:0:0:0:
250,205,44625,1,0,3:0:0:0:
259,226,44704,6,0,L|255:276,3,40,2|2|0|0,2:3|2:3|3:0|3:0,2:0:0:0:
174,334,45020,5,8,2:1:0:0:
135,304,45099,1,8,2:1:0:0:
118,258,45178,1,8,2:1:0:0:
119,210,45256,1,8,2:1:0:0:
147,171,45335,5,8,2:1:0:0:
175,132,45414,1,8,2:1:0:0:
187,85,45493,1,8,2:1:0:0:
178,37,45572,1,8,2:1:0:0:
99,52,45651,6,0,B|138:84|186:65|186:65|210:75|210:75|244:57|302:68,1,207.999990478516,4|0,3:0|2:0,0:0:0:0:
415,153,46125,1,0,2:0:0:0:
270,265,46283,1,0,3:1:0:0:
259,237,46361,1,0,3:0:0:0:
253,207,46440,1,0,3:0:0:0:
254,177,46519,1,0,3:0:0:0:
261,148,46598,5,8,3:1:0:0:
352,310,46756,1,0,2:0:0:0:
161,241,46914,2,0,P|156:207|164:147,1,80,0|0,2:0|2:0,0:0:0:0:
252,32,47230,1,0,3:1:0:0:
263,60,47308,1,0,3:0:0:0:
268,89,47387,1,0,3:0:0:0:
267,119,47466,1,0,3:0:0:0:
261,148,47545,5,0,3:0:0:0:
153,6,47704,1,0,2:0:0:0:
355,70,47862,2,0,L|350:153,1,80,0|0,2:0|2:0,2:0:0:0:
263,316,48178,2,0,L|258:236,1,80,0|0,2:0|2:0,2:0:0:0:
228,80,48493,5,8,3:1:0:0:
196,62,48572,1,0,3:0:0:0:
160,58,48651,1,0,3:0:0:0:
124,60,48730,1,0,3:0:0:0:
90,73,48809,5,0,3:1:0:0:
110,102,48888,1,0,3:0:0:0:
120,136,48967,1,0,3:0:0:0:
116,171,49046,1,0,3:0:0:0:
100,203,49125,1,0,3:1:0:0:
80,233,49204,1,0,3:0:0:0:
65,266,49283,1,0,3:0:0:0:
67,301,49362,1,0,3:0:0:0:
77,335,49441,6,0,P|106:339|171:333,1,80,0|0,3:0|2:0,0:0:0:0:
258,236,49756,1,0,2:0:0:0:
154,306,49914,1,0,2:0:0:0:
338,296,50072,1,0,3:1:0:0:
350,268,50150,1,0,3:0:0:0:
354,239,50229,1,0,3:0:0:0:
351,209,50308,1,0,3:0:0:0:
339,182,50387,5,8,3:1:0:0:
252,322,50546,1,0,2:0:0:0:
443,283,50704,2,0,P|450:238|442:191,1,80,0|0,2:0|2:0,2:0:0:0:
325,86,51020,1,0,3:1:0:0:
297,98,51098,1,0,3:0:0:0:
268,102,51177,1,0,3:0:0:0:
238,99,51256,1,0,3:0:0:0:
211,87,51335,5,0,3:0:0:0:
388,26,51493,1,0,2:0:0:0:
328,205,51651,2,0,L|241:209,1,80,0|0,2:0|2:0,2:0:0:0:
131,83,51967,2,0,L|218:87,1,80,0|0,2:0|2:0,2:0:0:0:
421,119,52283,5,8,3:1:0:0:
445,145,52362,1,0,3:0:0:0:
456,179,52441,1,0,3:0:0:0:
457,214,52520,1,0,3:0:0:0:
444,247,52599,1,0,3:1:0:0:
410,234,52678,1,0,3:0:0:0:
374,230,52756,1,0,3:0:0:0:
339,240,52835,1,0,3:0:0:0:
313,265,52914,5,0,3:1:0:0:
277,247,52993,1,0,3:0:0:0:
241,229,53072,1,0,3:0:0:0:
205,211,53151,1,0,3:0:0:0:
168,193,53230,6,0,L|174:288,1,80,2|0,3:0|2:0,0:0:0:0:
296,118,53546,2,0,L|301:38,1,80,2|0,2:3|2:0,2:0:0:0:
96,125,53862,1,0,3:1:0:0:
83,152,53940,1,0,3:0:0:0:
77,181,54019,1,0,3:0:0:0:
76,211,54098,1,0,3:0:0:0:
81,240,54178,6,0,P|83:277|77:328,1,80,8|0,3:1|2:0,0:0:0:0:
41,78,54493,2,0,P|78:76|129:82,1,80,2|0,2:3|2:0,2:0:0:0:
306,148,54809,1,0,3:1:0:0:
316,176,54887,1,0,3:0:0:0:
321,205,54966,1,0,3:0:0:0:
319,235,55045,1,0,3:0:0:0:
312,264,55124,5,2,3:3:0:0:
207,109,55283,1,0,2:0:0:0:
410,195,55441,2,0,P|412:242|404:281,1,80,2|0,2:3|2:0,2:0:0:0:
207,207,55756,1,2,2:3:0:0:
388,110,55914,1,0,2:0:0:0:
315,294,56072,5,8,3:1:0:0:
295,263,56151,1,0,3:0:0:0:
285,228,56230,1,0,3:0:0:0:
284,191,56309,1,0,3:0:0:0:
293,156,56388,1,0,3:1:0:0:
308,123,56467,1,0,3:0:0:0:
309,87,56546,1,0,3:0:0:0:
299,52,56625,1,0,3:0:0:0:
285,18,56704,5,0,3:1:0:0:
253,42,56783,1,0,3:0:0:0:
215,54,56862,1,0,3:0:0:0:
175,55,56941,1,0,3:0:0:0:
138,38,57020,6,0,P|133:56|129:128,1,80,2|0,3:3|2:0,0:0:0:0:
193,324,57335,2,0,P|197:305|202:234,1,80,2|0,2:3|2:0,2:0:0:0:
9,186,57651,1,0,3:1:0:0:
35,200,57729,1,0,3:0:0:0:
64,207,57808,1,0,3:0:0:0:
94,206,57887,1,0,3:0:0:0:
123,198,57967,6,0,L|109:284,1,80,8|0,3:1|2:0,0:0:0:0:
284,191,58283,2,0,L|271:111,1,80,2|0,2:3|2:0,2:0:0:0:
80,0,58599,1,0,3:1:0:0:
70,28,58677,1,0,3:0:0:0:
66,57,58756,1,0,3:0:0:0:
67,87,58835,1,0,3:0:0:0:
74,116,58914,5,2,3:3:0:0:
238,29,59072,1,0,2:0:0:0:
202,218,59230,2,0,P|196:178|203:124,1,80,2|0,2:3|2:0,2:0:0:0:
335,31,59546,1,2,2:3:0:0:
151,56,59704,1,0,2:0:0:0:
367,121,59862,5,8,3:1:0:0:
384,161,59941,1,0,3:0:0:0:
388,204,60020,1,0,3:0:0:0:
381,247,60099,1,0,3:0:0:0:
362,287,60178,2,0,P|340:292|308:290,1,40,0|0,3:1|3:0,3:0:0:0:
226,123,60335,2,0,P|248:118|280:120,1,40,0|0,3:0|3:0,3:0:0:0:
478,200,60493,6,0,B|382:232|398:176|294:200,1,180.000006866455,10|0,0:1|0:0,0:0:0:0:
210,246,60809,6,0,P|199:203|210:146,1,88.000002685547,4|0,3:0|0:0,0:0:0:0:
313,48,61125,1,10,0:1:0:0:
132,122,61283,1,0,0:0:0:0:
301,198,61441,1,2,3:1:0:0:
311,229,61519,1,0,3:0:0:0:
312,262,61598,1,0,3:0:0:0:
305,294,61677,1,0,3:0:0:0:
289,323,61756,5,10,3:1:0:0:
226,123,61914,1,0,0:0:0:0:
398,227,62072,2,0,P|363:231|305:228,1,88.000002685547,2|0,0:1|0:2,0:2:0:0:
120,208,62388,1,10,3:1:0:0:
133,177,62466,1,0,3:0:0:0:
139,145,62545,1,0,3:0:0:0:
136,112,62624,1,0,3:0:0:0:
125,81,62703,5,2,3:1:0:0:
36,246,62862,1,0,0:0:0:0:
229,154,63020,2,0,L|217:54,1,88.000002685547,10|0,0:1|0:0,0:0:0:0:
34,139,63335,1,2,0:1:0:0:
210,246,63493,1,0,0:0:0:0:
138,48,63651,5,10,3:1:0:0:
123,89,63730,1,0,3:0:0:0:
117,132,63809,1,0,3:0:0:0:
122,175,63888,1,0,3:0:0:0:
131,217,63967,2,0,P|132:238|126:275,1,44.0000013427735,2|0,3:1|3:0,3:0:0:0:
113,375,64125,2,0,P|134:376|171:370,1,44.0000013427735,0|0,3:0|3:0,3:0:0:0:
290,292,64283,1,10,3:1:0:0:
332,280,64362,1,0,3:0:0:0:
375,276,64441,1,0,3:0:0:0:
418,279,64520,1,0,3:0:0:0:
459,292,64599,6,0,P|464:252|456:193,1,88.000002685547,2|0,3:1|0:0,0:0:0:0:
256,137,64914,1,10,0:1:0:0:
356,304,65072,1,0,0:0:0:0:
399,119,65230,1,2,3:1:0:0:
369,105,65308,1,0,3:0:0:0:
336,97,65387,1,0,3:0:0:0:
304,97,65466,1,0,3:0:0:0:
271,103,65545,5,10,3:1:0:0:
459,204,65704,1,0,0:0:0:0:
346,13,65862,2,0,P|318:11|246:19,1,88.000002685547,2|0,0:1|0:0,0:0:0:0:
123,89,66178,1,10,3:1:0:0:
134,119,66256,1,0,3:0:0:0:
138,152,66335,1,0,3:0:0:0:
135,185,66414,1,0,3:0:0:0:
124,216,66493,5,2,3:1:0:0:
36,42,66651,1,0,0:0:0:0:
239,114,66809,2,0,L|231:208,1,88.000002685547,10|0,0:1|0:0,0:0:0:0:
36,155,67125,1,2,0:1:0:0:
113,328,67283,1,0,3:0:0:0:
120,348,67362,1,0,3:0:0:0:
128,368,67441,6,8,L|134:315,1,44.0000013427735,8|8,0:1|0:1,0:1:0:0:
161,150,67599,2,0,L|108:156,1,44.0000013427735,0|0,3:0|3:0,3:0:0:0:
0,280,67756,2,8,L|43:284,1,44.0000013427735,8|8,0:3|0:3,0:3:0:0:
215,329,67914,2,0,L|221:276,1,44.0000013427735,0|0,3:0|3:0,3:0:0:0:
239,114,68072,1,8,0:1:0:0:
269,100,68150,1,8,0:1:0:0:
301,94,68229,1,8,0:1:0:0:
334,94,68308,1,8,0:1:0:0:
366,101,68387,5,4,3:0:0:0:
181,177,68546,1,0,3:0:0:0:
272,20,68704,2,0,L|268:104,1,80,2|0,0:2|2:0,0:0:0:0:
84,196,69020,2,0,L|80:116,1,80,2|0,0:2|2:0,0:0:0:0:
162,24,69335,5,8,3:1:0:0:
196,205,69493,1,0,3:0:0:0:
39,107,69651,2,0,P|74:99|129:105,1,80,2|0,0:2|2:0,0:0:0:0:
281,184,69967,1,2,0:2:0:0:
84,196,70125,1,0,0:0:0:0:
308,199,70283,5,0,3:0:0:0:
117,101,70441,1,0,3:0:0:0:
189,284,70599,2,0,L|197:186,1,80,2|0,0:2|2:0,0:0:0:0:
251,48,70914,2,0,L|349:56,1,80,2|0,0:2|0:0,0:0:0:0:
450,154,71230,5,8,3:1:0:0:
326,173,71388,1,0,3:0:0:0:
453,242,71546,1,2,3:2:0:0:
329,261,71704,1,0,3:0:0:0:
456,330,71862,1,2,3:2:0:0:
332,349,72020,1,0,3:0:0:0:
483,231,72178,5,2,3:1:0:0:
296,154,72335,1,0,3:0:0:0:
427,353,72493,2,0,L|416:268,1,80,2|0,0:2|2:0,0:0:0:0:
248,228,72809,2,0,L|237:313,1,80,2|0,0:2|2:0,0:0:0:0:
328,134,73125,5,8,3:1:0:0:
165,199,73283,1,0,3:0:0:0:
328,340,73441,2,0,P|331:299|325:238,1,80,2|0,0:2|2:0,0:0:0:0:
209,121,73756,1,2,0:2:0:0:
153,288,73914,1,0,0:0:0:0:
328,228,74072,6,0,L|233:228,1,80,0|0,3:0|3:0,3:0:0:0:
48,126,74388,2,0,L|144:117,1,80,2|0,0:2|2:0,0:0:0:0:
335,54,74704,2,0,L|326:150,1,80,2|0,0:2|2:0,0:0:0:0:
247,293,75020,5,0,3:0:0:0:
240,274,75098,1,0,3:0:0:0:
235,254,75177,1,0,3:0:0:0:
233,234,75256,1,0,3:0:0:0:
234,214,75335,5,8,0:1:0:0:
203,239,75414,1,8,0:1:0:0:
165,252,75493,1,8,0:1:0:0:
125,249,75572,1,8,0:1:0:0:
90,228,75651,5,4,3:0:0:0:
296,147,75809,1,4,3:1:0:0:
271,380,75967,6,0,P|264:348|268:284,1,80,4|0,3:0|3:0,3:0:0:0:
296,113,76283,1,2,0:2:0:0:
339,238,76441,1,0,0:0:0:0:
209,123,76599,1,2,0:2:0:0:
372,60,76756,1,0,0:0:0:0:
234,214,76914,6,0,L|153:208,1,80,8|0,3:1|3:0,3:0:0:0:
100,114,77230,1,2,0:2:0:0:
261,193,77388,1,0,0:0:0:0:
67,193,77546,1,2,0:2:0:0:
153,40,77704,1,0,0:0:0:0:
156,239,77862,6,0,P|174:274|224:297,1,80,0|0,3:0|3:0,3:0:0:0:
349,226,78178,1,2,0:2:0:0:
154,208,78335,1,0,0:0:0:0:
296,113,78493,1,2,0:2:0:0:
300,305,78651,1,0,0:0:0:0:
288,91,78809,5,8,3:1:0:0:
434,212,78967,1,0,3:0:0:0:
234,214,79125,1,2,3:2:0:0:
454,186,79283,1,0,3:0:0:0:
315,8,79441,1,2,3:2:0:0:
307,269,79599,1,0,3:0:0:0:
393,97,79756,6,0,P|354:97|314:105,1,80,2|0,3:1|3:0,3:0:0:0:
234,214,80072,1,2,0:2:0:0:
434,212,80230,1,0,0:0:0:0:
288,91,80388,1,2,0:2:0:0:
300,305,80546,1,0,0:0:0:0:
454,186,80704,6,0,L|365:188,1,80,8|0,3:1|3:0,3:0:0:0:
208,228,81020,1,2,0:2:0:0:
395,298,81178,1,0,0:0:0:0:
298,121,81335,1,2,0:0:0:0:
277,328,81493,1,0,3:0:0:0:
254,335,81572,1,0,3:0:0:0:
230,342,81651,6,0,L|190:335,3,40,8|8|0|0,0:1|0:1|3:0|3:0,0:0:0:0:
93,348,81967,1,8,0:3:0:0:
91,328,82046,1,8,0:3:0:0:
89,308,82125,2,0,L|94:268,1,40,8|0,0:3|3:0,0:0:0:0:
139,190,82283,1,0,3:0:0:0:
145,176,82362,1,0,3:0:0:0:
149,161,82441,2,0,L|144:121,1,40,8|0,2:3|2:0,2:0:0:0:
96,29,82599,5,8,2:3:0:0:
127,23,82678,1,8,2:3:0:0:
158,23,82756,1,0,3:0:0:0:
189,29,82835,1,0,3:0:0:0:
223,58,82914,5,2,2:3:0:0:
253,66,82993,1,2,2:3:0:0:
284,70,83072,1,0,3:0:0:0:
315,66,83151,1,0,3:0:0:0:
356,49,83230,5,2,2:3:0:0:
351,84,83309,1,2,2:3:0:0:
346,119,83388,1,0,3:0:0:0:
341,154,83467,1,0,3:0:0:0:
336,189,83546,6,0,B|354:205|391:212|391:212|309:206|254:249,1,191.999994140625,4|2,3:0|0:1,0:0:0:0:
204,315,84020,1,0,3:0:0:0:
392,369,84178,2,0,P|403:333|395:267,1,80,2|0,0:1|3:0,0:0:0:0:
250,141,84493,6,0,B|216:151|196:180|196:180|233:120|191:55,1,191.999994140625,10|2,0:1|0:1,0:0:0:0:
108,122,84967,1,0,3:0:0:0:
269,224,85125,2,0,L|360:226,1,80,2|8,0:1|0:1,0:0:0:0:
498,200,85441,6,0,P|459:216|344:195,1,160,2|2,3:1|0:1,0:0:0:0:
237,110,85914,1,0,3:0:0:0:
418,46,86072,2,0,P|424:79|420:131,1,80,2|0,0:1|3:0,0:0:0:0:
355,311,86388,2,0,L|179:316,1,160,10|2,0:1|3:1,0:0:0:0:
164,313,86783,1,0,3:0:0:0:
174,291,86862,1,0,3:0:0:0:
179,267,86941,1,0,3:0:0:0:
177,243,87020,1,8,0:1:0:0:
78,107,87178,1,8,0:1:0:0:
296,45,87335,6,0,P|235:87|152:43,1,160,4|2,3:0|0:1,0:0:0:0:
224,6,87809,1,0,3:0:0:0:
277,162,87967,2,0,P|247:169|192:165,1,80,2|0,0:1|3:0,0:0:0:0:
0,121,88283,6,0,L|91:105,1,80,10|0,0:1|0:0,0:1:0:0:
177,243,88599,2,0,L|98:229,1,80,2|0,3:1|0:0,0:0:0:0:
161,57,88914,2,0,L|174:135,1,80,2|0,3:1|0:0,0:0:0:0:
145,332,89230,6,0,B|178:346|212:334|212:334|226:341|226:341|254:326|302:333,1,160,2|2,3:1|0:1,0:0:0:0:
383,373,89704,1,0,3:0:0:0:
281,241,89862,2,0,P|275:209|277:156,1,80,2|0,0:1|3:0,0:0:0:0:
313,16,90178,2,0,L|230:23,1,80,10|0,0:1|0:0,0:0:0:0:
73,74,90493,1,2,3:1:0:0:
83,100,90572,1,0,3:0:0:0:
87,127,90651,1,0,3:0:0:0:
88,154,90730,1,0,3:0:0:0:
85,181,90809,2,0,L|75:227,3,40,8|8|2|0,0:1|0:1|0:3|0:0,0:0:0:0:
32,286,91125,6,0,P|92:260|186:272,1,160,4|2,3:0|0:1,0:0:0:0:
250,344,91599,1,0,3:0:0:0:
276,161,91756,2,0,P|284:194|280:250,1,80,2|0,0:1|3:0,0:0:0:0:
230,80,92072,2,0,B|311:52|311:102|395:74,1,160,10|2,0:1|0:1,0:0:0:0:
346,1,92546,1,0,3:0:0:0:
200,71,92704,2,0,P|192:104|196:160,1,80,2|8,0:1|0:1,0:0:0:0:
277,270,93020,6,0,L|110:261,1,160,2|2,3:1|0:1,0:0:0:0:
193,149,93493,1,0,3:0:0:0:
211,312,93651,2,0,L|128:308,1,80,2|0,0:1|3:0,0:0:0:0:
23,176,93967,2,0,L|106:172,1,80,10|0,0:1|0:0,0:1:0:0:
309,166,94283,1,2,3:1:0:0:
293,140,94361,1,0,3:0:0:0:
284,111,94440,1,0,3:0:0:0:
282,82,94519,1,0,3:0:0:0:
287,52,94599,2,0,L|333:62,1,40,8|0,0:1|0:0,0:0:0:0:
422,194,94756,2,0,L|376:204,1,40,8|0,0:1|0:0,0:0:0:0:
193,149,94914,6,0,B|182:168|186:194|186:194|211:244|192:315,1,160,4|2,3:0|0:1,0:0:0:0:
88,255,95388,1,0,3:0:0:0:
273,176,95546,2,0,P|285:225|285:270,1,80,2|0,0:1|3:0,0:0:0:0:
205,117,95862,2,0,P|278:85|355:135,1,160,10|2,0:1|0:1,0:1:0:0:
405,279,96335,1,0,3:0:0:0:
467,124,96493,2,0,P|472:85|470:27,1,80,2|8,0:1|0:1,0:1:0:0:
370,22,96809,5,2,3:1:0:0:
407,187,96967,1,0,0:0:0:0:
484,18,97125,1,2,0:1:0:0:
347,125,97283,2,0,B|312:135|312:135|283:125|283:125|236:145|175:125,1,160,0|0,3:0|3:0,3:0:0:0:
116,37,97756,2,0,P|151:83|134:184,1,160,10|2,0:1|0:1,0:1:0:0:
39,121,98230,5,8,0:1:0:0:
229,48,98388,1,8,0:1:0:0:
203,244,98546,1,8,0:1:0:0:
116,37,98704,6,0,L|285:32,1,160,12|2,2:1|2:1,0:0:0:0:
358,92,99178,1,0,3:0:0:0:
172,142,99335,2,0,L|176:225,1,80,2|0,3:1|3:0,3:0:0:0:
283,291,99651,6,0,B|306:221|264:198|284:124,1,160,10|2,0:1|0:1,0:0:0:0:
363,61,100125,1,0,3:0:0:0:
375,248,100283,2,0,P|415:256|475:248,1,80,2|0,3:1|3:0,3:0:0:0:
258,114,100599,6,0,L|98:118,1,160,10|2,0:1|0:1,0:1:0:0:
25,200,101072,1,0,3:0:0:0:
176,246,101230,1,2,3:1:0:0:
98,118,101388,1,0,3:0:0:0:
79,285,101546,5,10,0:1:0:0:
114,91,101704,1,0,3:0:0:0:
205,263,101862,1,2,3:1:0:0:
25,200,102020,1,0,3:0:0:0:
234,144,102178,2,0,L|313:148,1,80,10|0,0:1|3:0,0:0:0:0:
411,355,102493,6,0,P|339:328|333:236,1,160,12|2,2:1|0:1,0:0:0:0:
402,275,102967,1,0,3:0:0:0:
252,336,103125,2,0,P|240:296|242:257,1,80,2|0,3:1|3:0,3:0:0:0:
234,144,103441,6,0,L|398:142,1,160,10|2,0:1|0:1,0:0:0:0:
496,196,103914,1,0,3:0:0:0:
397,341,104072,2,0,L|389:261,1,80,2|0,3:1|3:0,3:0:0:0:
393,142,104388,6,0,P|313:136|233:143,1,160,10|2,0:1|0:1,0:1:0:0:
110,243,104862,2,0,P|117:201|112:154,1,80,0|2,0:0|0:1,0:0:0:0:
25,26,105178,2,0,P|50:33|86:34,1,40,0|0,3:0|3:0,3:0:0:0:
207,21,105335,5,8,0:1:0:0:
216,19,105413,1,8,0:1:0:0:
226,17,105492,1,0,3:0:0:0:
236,15,105571,1,0,3:0:0:0:
247,14,105651,2,0,L|241:54,1,40,8|0,0:1|0:0,0:0:0:0:
217,161,105809,1,8,0:1:0:0:
217,161,105888,1,8,0:1:0:0:
217,161,105967,1,4,3:0:0:0:
137,57,106125,1,4,3:1:0:0:
335,79,106283,6,0,B|349:102|343:134|343:134|322:169|337:238,1,160,4|2,3:0|0:1,0:0:0:0:
424,164,106756,2,0,P|433:118|426:79,2,80,0|2|0,3:0|0:1|3:0,0:0:0:0:
314,322,107230,6,0,B|294:275|310:232|310:232|303:200|303:200|309:164,1,160,10|2,0:1|0:1,0:1:0:0:
406,273,107704,1,0,3:0:0:0:
225,227,107862,2,0,L|130:231,1,80,2|0,3:1|3:0,3:0:0:0:
20,267,108178,6,0,P|53:228|59:122,1,160,10|2,0:1|0:1,0:1:0:0:
12,34,108651,1,0,3:0:0:0:
151,102,108809,1,2,3:1:0:0:
31,190,108967,1,0,3:0:0:0:
99,24,109125,5,10,0:1:0:0:
145,230,109283,1,0,3:0:0:0:
185,24,109441,1,2,3:1:0:0:
51,165,109599,1,0,3:0:0:0:
243,119,109756,2,0,P|280:114|341:120,1,80,10|0,0:1|3:1,0:1:0:0:
506,165,110072,6,0,B|451:184|393:176|393:176|418:185|435:210,1,160,12|2,0:1|0:1,0:1:0:0:
356,266,110546,1,0,3:0:0:0:
332,85,110704,2,0,L|412:90,1,80,2|0,3:1|3:0,3:0:0:0:
247,200,111020,6,0,B|224:202|202:189|202:189|168:211|88:197,1,160,8|2,0:1|0:1,0:1:0:0:
211,49,111493,2,0,P|236:78|246:117,2,80,0|2|0,3:0|0:1|3:0,0:0:0:0:
173,278,111967,5,12,0:1:0:0:
354,265,112124,1,0,3:0:0:0:
355,234,112203,1,2,3:0:0:0:
347,206,112283,2,0,P|334:178|314:157,1,40,2|8,2:3|2:3,2:3:0:0:
252,31,112441,5,0,3:0:0:0:
265,26,112520,1,0,3:0:0:0:
278,21,112599,2,0,L|331:27,1,40,2|8,2:3|2:3,2:3:0:0:
492,102,112756,2,8,L|474:148,1,40,8|8,2:3|2:3,2:3:0:0:
355,234,112914,5,0,3:0:0:0:
321,246,112993,1,8,2:3:0:0:
285,246,113072,1,2,2:3:0:0:
250,238,113151,1,2,2:3:0:0:
218,221,113230,1,2,2:3:0:0:
185,206,113309,1,8,2:3:0:0:
149,199,113388,1,0,3:0:0:0:
113,204,113467,1,0,3:0:0:0:
80,219,113546,5,8,2:1:0:0:
452,271,113862,6,0,B|467:239|456:207|456:207|463:191|463:191|445:160|453:113,1,160,4|2,3:0|2:1,0:0:0:0:
403,348,114493,1,2,3:1:0:0:
375,353,114572,1,0,3:0:0:0:
347,354,114651,1,0,3:0:0:0:
319,352,114730,1,0,3:0:0:0:
291,346,114809,2,0,B|268:270|303:260|289:188,1,160,10|2,3:1|2:1,0:0:0:0:
59,218,115441,1,2,3:1:0:0:
87,226,115519,1,0,3:0:0:0:
117,231,115598,1,0,3:0:0:0:
147,230,115677,1,0,3:0:0:0:
176,225,115756,6,0,B|184:156|184:156|175:121|175:121|181:63,1,160,2|2,3:1|2:1,0:0:0:0:
395,114,116388,1,2,2:1:0:0:
285,318,116704,5,10,3:1:0:0:
266,286,116783,1,0,3:0:0:0:
258,250,116862,1,0,3:0:0:0:
260,214,116941,1,0,3:0:0:0:
271,180,117020,1,2,3:1:0:0:
287,148,117099,1,0,3:0:0:0:
296,113,117178,1,0,3:0:0:0:
296,77,117256,1,0,3:0:0:0:
283,43,117335,5,2,3:1:0:0:
245,55,117414,1,0,3:0:0:0:
205,60,117493,1,0,3:0:0:0:
164,59,117572,1,0,3:0:0:0:
125,49,117651,6,0,P|136:91|129:211,1,160,2|2,3:1|2:1,0:0:0:0:
285,318,118283,1,2,3:1:0:0:
269,292,118361,1,0,3:0:0:0:
261,263,118440,1,0,3:0:0:0:
261,233,118519,1,0,3:0:0:0:
267,204,118599,2,0,B|287:211|299:234|299:234|283:172|301:104,1,160,10|2,3:1|2:1,0:0:0:0:
151,15,119230,1,2,3:1:0:0:
158,44,119308,1,0,3:0:0:0:
161,73,119387,1,0,3:0:0:0:
160,103,119466,1,0,3:0:0:0:
154,133,119546,5,2,3:2:0:0:
190,97,119624,1,0,3:0:0:0:
238,81,119703,1,0,3:0:0:0:
288,86,119782,1,0,3:0:0:0:
330,113,119861,1,2,3:2:0:0:
357,156,119940,1,0,3:0:0:0:
363,206,120019,1,0,3:0:0:0:
346,254,120098,1,0,3:0:0:0:
311,290,120177,1,2,3:2:0:0:
263,307,120256,1,0,3:0:0:0:
213,301,120335,1,0,3:0:0:0:
170,274,120414,1,0,3:0:0:0:
150,226,120493,5,2,3:2:0:0:
203,232,120571,1,0,3:0:0:0:
253,211,120650,1,0,3:0:0:0:
286,167,120729,1,0,3:0:0:0:
292,113,120808,1,2,3:2:0:0:
271,64,120887,1,0,3:0:0:0:
227,31,120966,1,0,3:0:0:0:
173,25,121045,1,0,3:0:0:0:
123,47,121124,5,8,0:1:0:0:
150,226,121441,6,0,B|187:219|214:237|214:237|228:230|228:230|266:260|323:244,1,176.000005371094,4|10,3:0|0:1,0:0:0:0:
448,190,121914,2,0,P|438:152|443:99,1,88.000002685547,0|2,3:0|0:1,0:0:0:0:
510,283,122230,1,0,3:0:0:0:
510,283,122309,1,0,3:0:0:0:
510,283,122388,2,0,P|477:297|404:289,1,88.000002685547,10|0,0:1|0:0,0:0:0:0:
277,204,122704,1,2,3:1:0:0:
287,172,122782,1,0,3:0:0:0:
291,140,122861,1,0,3:0:0:0:
289,107,122940,1,0,3:0:0:0:
279,75,123020,2,0,P|241:69|179:73,1,88.000002685547,10|0,0:1|0:0,0:0:0:0:
23,98,123335,6,0,L|202:104,1,176.000005371094,2|10,3:1|0:1,0:0:0:0:
377,137,123809,2,0,L|369:224,1,88.000002685547,0|2,3:0|0:1,0:0:0:0:
298,375,124125,1,0,3:0:0:0:
298,375,124204,1,0,3:0:0:0:
298,375,124283,2,0,L|290:288,1,88.000002685547,10|0,0:1|0:0,0:0:0:0:
204,134,124599,1,2,3:1:0:0:
202,166,124677,1,0,3:0:0:0:
200,199,124756,1,0,3:0:0:0:
198,232,124835,1,0,3:0:0:0:
196,265,124914,2,0,P|157:278|59:264,1,132.00000402832,10|0,0:1|0:0,0:0:0:0:
57,191,125230,6,0,P|92:256|69:354,1,176.000005371094,2|10,3:1|0:1,0:0:0:0:
21,109,125704,2,0,P|69:105|120:128,1,88.000002685547,0|2,3:0|0:1,0:0:0:0:
227,252,126020,1,0,3:0:0:0:
227,252,126099,1,0,3:0:0:0:
227,252,126178,2,0,P|275:256|326:233,1,88.000002685547,10|0,0:1|0:0,0:0:0:0:
272,44,126493,1,2,3:1:0:0:
255,72,126571,1,0,3:0:0:0:
247,104,126650,1,0,3:0:0:0:
247,137,126729,1,0,3:0:0:0:
255,169,126809,2,0,P|207:165|156:188,1,88.000002685547,10|0,0:1|0:0,0:0:0:0:
394,303,127125,6,0,B|400:237|400:237|385:183|385:183|389:129,1,176.000005371094,2|10,3:1|0:1,0:0:0:0:
477,80,127599,2,0,B|486:117|486:117|479:175,1,88.000002685547,0|2,3:0|0:1,0:0:0:0:
313,248,127914,1,0,3:0:0:0:
313,248,127993,1,0,3:0:0:0:
313,248,128072,2,0,B|276:257|276:257|218:250,1,88.000002685547,10|0,0:1|0:0,0:0:0:0:
38,177,128388,1,2,3:1:0:0:
70,173,128466,1,0,3:0:0:0:
103,172,128545,1,0,3:0:0:0:
136,174,128624,1,0,3:0:0:0:
169,178,128704,2,0,B|166:194|148:208|148:208|133:249|153:317,1,132.00000402832,10|0,0:1|0:0,0:0:0:0:
219,340,129020,6,0,P|160:320|36:340,1,176.000005371094,2|10,3:1|0:1,0:0:0:0:
306,380,129493,2,0,P|308:339|296:280,1,88.000002685547,0|2,3:0|0:1,0:0:0:0:
169,178,129809,1,0,3:0:0:0:
169,178,129888,1,0,3:0:0:0:
169,178,129967,2,0,P|163:138|170:78,1,88.000002685547,10|0,0:1|0:0,0:0:0:0:
374,116,130283,1,2,3:1:0:0:
345,131,130361,1,0,3:0:0:0:
313,140,130440,1,0,3:0:0:0:
280,140,130519,1,0,3:0:0:0:
248,132,130599,2,0,P|256:179|248:231,1,88.000002685547,10|0,0:1|0:0,0:0:0:0:
0,173,130914,6,0,B|34:160|68:160|68:160|116:182|184:177,1,176.000005371094,2|10,3:1|0:1,0:0:0:0:
287,50,131388,2,0,L|188:55,1,88.000002685547,0|2,3:0|0:1,0:0:0:0:
25,79,131704,1,0,3:0:0:0:
25,79,131783,1,0,3:0:0:0:
25,79,131862,2,0,L|124:84,1,88.000002685547,10|0,0:1|0:0,0:0:0:0:
330,126,132178,1,2,3:1:0:0:
331,158,132256,1,0,3:0:0:0:
333,191,132335,1,0,3:0:0:0:
335,224,132414,1,0,3:0:0:0:
336,257,132493,2,0,B|345:268|365:279|365:279|315:265|259:283,1,132.00000402832,10|0,0:1|0:0,0:0:0:0:
209,360,132809,6,0,P|240:325|214:205,1,176.000005371094,2|10,3:1|0:1,0:1:0:0:
79,286,133283,2,0,P|125:291|170:277,1,88.000002685547,0|2,3:1|0:1,0:1:0:0:
302,173,133599,1,0,3:0:0:0:
302,173,133678,1,0,3:0:0:0:
302,173,133756,2,0,P|294:126|299:75,1,88.000002685547,10|0,0:1|0:1,0:1:0:0:
443,7,134072,1,2,3:1:0:0:
453,38,134150,1,0,3:0:0:0:
458,70,134229,1,0,3:0:0:0:
458,103,134308,1,0,3:0:0:0:
451,135,134388,2,0,P|443:174|447:232,1,88.000002685547,10|0,0:1|0:1,0:1:0:0:
486,372,134704,6,0,L|293:363,1,176.000005371094,2|10,3:1|0:1,0:0:0:0:
164,279,135178,2,0,L|265:274,1,88.000002685547,0|2,3:0|0:1,0:0:0:0:
330,173,135493,1,0,3:0:0:0:
330,173,135572,1,0,3:0:0:0:
330,173,135651,2,0,L|229:168,1,88.000002685547,10|0,0:1|0:0,0:0:0:0:
74,103,135967,5,2,3:1:0:0:
103,83,136046,1,0,3:0:0:0:
136,72,136125,1,0,3:0:0:0:
171,71,136204,1,0,3:0:0:0:
205,80,136283,1,10,3:1:0:0:
239,87,136362,1,0,3:0:0:0:
274,85,136441,1,0,3:0:0:0:
307,74,136520,1,0,3:0:0:0:
334,51,136599,6,0,B|306:127|359:151|332:235,1,176.000005371094,4|10,3:0|0:1,0:0:0:0:
250,361,137072,2,0,P|245:321|253:267,1,88.000002685547,0|2,3:1|0:1,0:1:0:0:
423,150,137388,1,0,3:0:0:0:
423,150,137467,1,0,3:0:0:0:
423,150,137546,2,0,P|428:190|420:244,1,88.000002685547,10|0,0:1|0:1,0:1:0:0:
210,181,137862,1,2,3:1:0:0:
242,175,137940,1,0,3:0:0:0:
275,173,138019,1,0,3:0:0:0:
308,176,138098,1,0,3:0:0:0:
340,183,138178,2,0,P|335:143|343:89,1,88.000002685547,10|0,0:1|0:1,0:1:0:0:
418,5,138493,6,0,B|373:19|373:19|336:9|336:9|295:30|231:25,1,176.000005371094,2|10,3:1|0:1,0:1:0:0:
83,3,138967,2,0,B|76:39|76:39|86:104,1,88.000002685547,0|2,3:1|0:1,0:1:0:0:
204,268,139283,1,0,3:0:0:0:
204,268,139362,1,0,3:0:0:0:
204,268,139441,2,0,B|211:232|211:232|201:167,1,88.000002685547,10|0,0:1|0:1,0:1:0:0:
51,297,139756,5,2,3:1:0:0:
80,311,139834,1,0,3:0:0:0:
112,317,139913,1,0,3:0:0:0:
145,314,139992,1,0,3:0:0:0:
177,306,140071,1,10,3:1:0:0:
209,299,140150,1,0,3:0:0:0:
242,296,140229,1,0,3:0:0:0:
275,300,140308,1,0,3:0:0:0:
306,311,140388,6,0,P|286:244|313:125,1,176.000005371094,2|10,3:1|0:1,0:1:0:0:
465,185,140862,2,0,P|422:200|370:196,1,88.000002685547,0|2,3:1|0:1,0:1:0:0:
200,151,141178,1,0,3:0:0:0:
200,151,141256,1,0,3:0:0:0:
200,151,141335,2,0,P|214:108|212:50,1,88.000002685547,10|0,0:1|0:1,0:1:0:0:
56,108,141651,1,2,3:1:0:0:
50,140,141729,1,0,3:0:0:0:
48,173,141808,1,0,3:0:0:0:
51,206,141887,1,0,3:0:0:0:
58,238,141967,2,0,P|92:230|157:234,1,88.000002685547,10|0,0:1|0:1,0:1:0:0:
306,311,142283,6,0,B|291:240|291:240|311:131,1,176.000005371094,2|10,3:1|0:1,0:1:0:0:
396,0,142756,2,0,L|401:91,1,88.000002685547,0|2,3:1|0:1,0:1:0:0:
418,281,143072,1,0,3:0:0:0:
418,281,143151,1,0,3:0:0:0:
418,281,143230,2,0,L|327:285,1,88.000002685547,10|0,0:1|0:1,0:1:0:0:
145,231,143546,5,2,3:1:0:0:
132,198,143625,1,0,3:0:0:0:
129,162,143704,1,0,3:0:0:0:
137,127,143783,1,0,3:0:0:0:
158,98,143862,1,10,3:1:0:0:
195,111,143941,1,0,3:0:0:0:
234,115,144020,1,0,3:0:0:0:
273,110,144099,1,0,3:0:0:0:
305,87,144178,6,0,P|384:69|483:87,1,176.000005371094,2|10,3:1|0:1,0:1:0:0:
312,189,144651,2,0,P|277:197|217:196,1,88.000002685547,0|2,3:1|0:1,0:1:0:0:
46,141,144967,1,0,3:0:0:0:
46,141,145046,1,0,3:0:0:0:
46,141,145125,2,0,P|54:176|53:236,1,88.000002685547,10|0,0:1|0:1,0:1:0:0:
40,376,145441,1,2,3:1:0:0:
72,379,145519,1,0,3:0:0:0:
105,379,145598,1,0,3:0:0:0:
138,376,145677,1,0,3:0:0:0:
171,371,145756,2,0,P|203:368|270:368,1,88.000002685547,10|0,0:1|0:1,0:1:0:0:
413,375,146072,6,0,B|404:325|404:325|412:295|412:295|394:252|408:182,1,176.000005371094,2|10,3:1|0:1,0:1:0:0:
428,78,146546,2,0,L|336:81,1,88.000002685547,0|2,3:1|0:1,0:1:0:0:
137,127,146862,1,0,3:0:0:0:
137,127,146941,1,0,3:0:0:0:
137,127,147020,2,0,L|229:130,1,88.000002685547,10|0,0:1|0:1,0:1:0:0:
73,36,147335,5,2,3:1:0:0:
52,61,147413,1,0,3:0:0:0:
39,91,147492,1,0,3:0:0:0:
34,124,147571,1,0,3:0:0:0:
39,156,147650,1,10,3:1:0:0:
48,191,147730,1,0,3:0:0:0:
51,226,147809,1,0,3:0:0:0:
44,260,147888,1,0,3:0:0:0:
33,293,147967,6,0,B|118:266|135:324|226:294,1,176.000005371094,2|10,3:1|0:1,0:1:0:0:
382,251,148441,2,0,P|338:245|275:247,1,88.000002685547,0|2,3:1|0:1,0:1:0:0:
479,313,148756,1,0,3:0:0:0:
479,313,148835,1,0,3:0:0:0:
479,313,148914,2,0,P|491:261|486:216,1,88.000002685547,10|0,0:1|0:1,0:1:0:0:
428,78,149230,1,2,3:1:0:0:
396,88,149308,1,0,3:0:0:0:
363,92,149387,1,0,3:0:0:0:
331,88,149466,1,0,3:0:0:0:
299,78,149546,2,0,P|255:57|192:62,1,88.000002685547,10|0,0:1|0:1,0:1:0:0:
59,158,149862,6,0,L|249:152,1,176.000005371094,2|10,3:1|0:1,0:1:0:0:
138,35,150335,2,0,L|132:124,1,88.000002685547,0|2,3:0|0:1,0:0:0:0:
182,287,150651,1,0,3:0:0:0:
182,287,150730,1,0,3:0:0:0:
182,287,150809,5,12,3:1:0:0:
305,107,150967,1,8,3:1:0:0:
85,187,151125,1,8,3:1:0:0:
288,287,151283,1,8,3:1:0:0:
207,76,151441,1,8,3:1:0:0:
91,276,151599,1,8,3:1:0:0:
337,194,151756,6,0,B|346:163|338:137|338:137|344:118|344:118|327:79|342:28,1,160,4|2,3:0|0:2,0:0:0:0:
430,73,152230,1,0,3:0:0:0:
258,165,152388,2,0,P|227:168|169:162,1,80,2|0,3:2|3:0,3:0:0:0:
31,82,152704,6,0,B|32:145|55:199|55:199|56:199|53:167|68:142,1,160,8|2,0:1|0:2,0:0:0:0:
127,91,153178,1,0,3:0:0:0:
156,274,153335,2,0,L|167:179,1,80,2|0,3:2|3:0,3:0:0:0:
204,45,153651,6,0,B|242:57|242:57|277:48|277:48|321:69|403:54,1,176.000005371094,4|2,3:2|0:2,0:0:0:0:
449,20,154125,1,0,3:0:0:0:
272,130,154283,2,0,P|266:161|272:223,1,80,2|0,3:2|3:0,3:0:0:0:
413,317,154599,6,0,B|375:329|375:329|340:320|340:320|296:341|205:325,1,191.999994140625,8|2,0:1|0:2,0:0:0:0:
156,274,155072,1,0,3:0:0:0:
363,238,155230,2,0,B|366:208|356:181|356:181|364:167|364:167|351:144|358:94,1,132.00000402832,10|0,0:1|0:0,0:0:0:0:
422,48,155546,6,0,P|380:87|264:72,1,160,4|2,3:0|0:2,3:0:0:0:
334,1,156020,1,0,3:0:0:0:
449,145,156178,2,0,P|455:183|447:247,1,80,2|0,3:2|3:0,3:0:0:0:
373,355,156493,6,0,L|365:184,1,160,8|2,0:1|0:2,0:0:0:0:
449,145,156967,1,0,3:0:0:0:
338,270,157125,2,0,L|247:261,1,80,2|0,3:2|3:0,3:0:0:0:
134,187,157441,6,0,B|175:175|175:175|207:189|207:189|251:159|304:187,1,176.000005371094,4|2,3:2|0:2,0:0:0:0:
166,271,157914,1,0,3:0:0:0:
123,99,158072,2,0,P|158:92|222:96,1,80,2|0,3:2|3:0,3:0:0:0:
51,149,158388,5,12,0:1:0:0:
164,9,158546,1,0,3:0:0:0:
213,180,158704,2,0,P|178:187|114:183,1,80,0|0,3:0|3:0,3:0:0:0:
20,68,159020,2,0,P|55:61|119:65,1,80,8|0,2:3|0:0,0:0:0:0:
295,97,159335,5,4,3:0:0:0:
297,120,159414,1,0,3:0:0:0:
299,143,159493,1,0,3:0:0:0:
301,166,159572,1,0,3:0:0:0:
304,189,159652,5,10,3:1:0:0:
265,180,159729,1,0,3:0:0:0:
226,190,159808,1,0,3:0:0:0:
197,217,159887,1,0,3:0:0:0:
183,254,159967,1,10,3:1:0:0:
188,293,160045,1,0,3:0:0:0:
210,326,160124,1,0,3:0:0:0:
244,345,160203,1,0,3:0:0:0:
284,347,160283,1,10,3:1:0:0:
320,330,160362,1,0,3:0:0:0:
357,315,160440,1,0,3:0:0:0:
397,315,160519,1,0,3:0:0:0:
434,328,160600,5,10,3:1:0:0:
414,287,160678,1,0,3:0:0:0:
412,245,160756,1,0,3:0:0:0:
428,204,160835,1,0,3:0:0:0:
455,170,160915,5,10,3:1:0:0:
425,138,160992,1,0,3:0:0:0:
385,121,161071,1,0,3:0:0:0:
341,122,161150,1,0,3:0:0:0:
302,141,161231,5,10,3:1:0:0:
278,145,161309,1,0,3:0:0:0:
254,148,161388,1,0,3:0:0:0:
231,146,161467,1,0,3:0:0:0:
207,142,161547,5,10,3:1:0:0:
218,180,161624,1,0,3:0:0:0:
210,218,161703,1,0,3:0:0:0:
186,250,161782,1,0,3:0:0:0:
150,266,161862,1,10,3:1:0:0:
110,264,161940,1,0,3:0:0:0:
76,244,162019,1,0,3:0:0:0:
55,211,162098,1,0,3:0:0:0:
51,171,162178,1,10,3:1:0:0:
62,130,162256,1,0,3:0:0:0:
82,95,162334,1,0,3:0:0:0:
87,56,162413,1,0,3:0:0:0:
77,18,162493,5,10,3:1:0:0:
114,40,162571,1,0,3:0:0:0:
157,50,162650,1,0,3:0:0:0:
200,44,162729,1,0,3:0:0:0:
239,25,162809,5,10,3:1:0:0:
219,64,162887,1,0,3:0:0:0:
214,107,162966,1,0,3:0:0:0:
224,150,163045,1,0,3:0:0:0:
247,187,163125,5,4,3:0:0:0:
273,177,163204,1,0,3:0:0:0:
300,173,163283,1,0,3:0:0:0:
327,175,163362,1,0,3:0:0:0:
354,182,163441,5,10,3:1:0:0:
330,149,163519,1,0,3:0:0:0:
325,110,163598,1,0,3:0:0:0:
339,73,163677,1,0,3:0:0:0:
370,48,163756,1,10,3:1:0:0:
408,39,163835,1,0,3:0:0:0:
446,51,163914,1,0,3:0:0:0:
474,79,163993,1,0,3:0:0:0:
485,117,164072,1,10,3:1:0:0:
477,155,164151,1,0,3:0:0:0:
467,194,164229,1,0,3:0:0:0:
468,234,164308,1,0,3:0:0:0:
479,272,164388,5,10,3:1:0:0:
441,252,164466,1,0,3:0:0:0:
397,249,164545,1,0,3:0:0:0:
356,265,164624,1,0,3:0:0:0:
326,296,164704,5,10,3:1:0:0:
282,277,164782,1,0,3:0:0:0:
252,240,164861,1,0,3:0:0:0:
241,194,164940,1,0,3:0:0:0:
251,147,165020,6,8,L|163:155,1,88.000002685547,8|8,3:1|3:1,3:0:0:0:
19,297,165335,1,8,3:1:0:0:
87,56,165493,1,8,3:1:0:0:
0,218,165967,6,8,P|51:224|109:215,1,88.000002685547,8|8,3:1|3:1,3:1:0:0:
219,64,166283,1,8,3:1:0:0:
174,318,166441,1,8,3:1:0:0:
466,206,166914,6,0,B|398:177|368:227|290:206,1,176.000005371094,4|2,3:0|0:1,0:0:0:0:
330,113,167388,1,0,3:0:0:0:
422,288,167546,2,0,P|379:301|326:301,1,88.000002685547,2|0,3:1|3:0,3:0:0:0:
164,234,167862,2,0,P|191:191|178:69,1,176.000005371094,10|2,0:1|0:1,0:1:0:0:
104,145,168335,1,0,3:0:0:0:
288,217,168493,2,0,P|301:174|301:121,1,88.000002685547,2|8,3:1|0:1,0:1:0:0:
269,11,168809,6,0,L|276:187,1,176.000005371094,2|2,3:1|0:1,0:0:0:0:
342,304,169283,1,0,3:0:0:0:
474,205,169441,2,0,L|370:216,1,88.000002685547,2|0,3:1|3:0,3:0:0:0:
196,240,169756,1,10,0:1:0:0:
355,320,169914,1,0,3:0:0:0:
302,131,170072,2,0,L|198:142,1,88.000002685547,2|0,3:1|3:0,3:0:0:0:
386,214,170388,2,0,B|406:158|406:158|389:79,1,132.00000402832,10|0,0:1|0:1,0:1:0:0:
449,32,170704,6,0,P|385:53|269:30,1,176.000005371094,4|2,3:0|0:1,0:0:0:0:
153,60,171178,1,0,3:0:0:0:
280,154,171335,2,0,P|285:200|276:247,1,88.000002685547,2|0,3:1|3:0,3:0:0:0:
56,238,171651,2,0,P|116:183|209:202,1,176.000005371094,10|2,0:1|0:1,0:1:0:0:
144,276,172125,1,0,3:0:0:0:
7,159,172283,2,0,P|4:118|15:64,1,88.000002685547,2|0,3:1|3:0,0:0:0:0:
286,132,172599,6,0,L|111:145,1,176.000005371094,2|2,3:1|0:1,0:0:0:0:
159,56,173072,1,0,3:0:0:0:
381,103,173230,2,0,L|367:201,1,88.000002685547,2|0,3:1|3:0,3:0:0:0:
308,316,173546,5,8,0:1:0:0:
189,208,173704,1,0,3:0:0:0:
186,186,173783,1,0,3:0:0:0:
189,163,173862,5,8,0:3:0:0:
219,145,173941,1,8,0:3:0:0:
243,120,174020,1,0,3:0:0:0:
258,88,174099,1,0,3:0:0:0:
262,53,174178,2,0,P|258:29|243:1,3,44.0000013427735,8|8|2|0,0:1|0:1|0:3|0:0,0:0:0:0:
183,57,174493,6,0,P|141:65|88:52,1,88.000002685547,4|0,3:0|0:0,0:0:0:0:
338,2,174809,2,0,P|348:45|340:102,1,88.000002685547,2|0,0:1|3:1,0:1:0:0:
290,206,175125,1,2,3:1:0:0:
249,11,175283,1,0,3:0:0:0:
452,108,175441,6,0,L|356:114,1,88.000002685547,10|0,0:1|0:1,0:1:0:0:
183,57,175756,1,2,0:1:0:0:
338,2,175914,1,0,3:0:0:0:
290,206,176072,1,2,3:1:0:0:
159,78,176230,1,8,0:1:0:0:
376,145,176388,6,0,P|393:186|391:234,1,88.000002685547,2|0,3:1|0:0,0:0:0:0:
143,162,176704,2,0,P|142:118|159:77,1,88.000002685547,2|0,0:1|3:0,0:0:0:0:
270,179,177020,1,2,3:1:0:0:
62,203,177178,1,0,3:0:0:0:
373,200,177335,6,0,P|366:243|329:280,1,88.000002685547,10|0,0:1|3:0,0:0:0:0:
135,247,177651,1,2,3:1:0:0:
192,84,177809,1,0,3:0:0:0:
290,206,177967,2,0,B|288:178|272:158|272:158|301:126|293:67,1,132.00000402832,10|0,0:1|0:0,0:0:0:0:
248,20,178283,6,0,P|294:64|411:63,1,176.000005371094,4|2,3:0|0:1,0:0:0:0:
484,13,178756,1,0,3:0:0:0:
376,167,178914,2,0,P|371:205|383:275,1,88.000002685547,2|0,3:1|3:0,3:0:0:0:
420,94,179230,2,0,B|352:65|322:115|244:94,1,176.000005371094,10|2,0:1|0:1,0:1:0:0:
284,8,179704,1,0,3:0:0:0:
376,167,179862,2,0,P|381:205|369:275,1,88.000002685547,2|8,3:1|0:1,0:0:0:0:
121,215,180178,6,0,B|179:223|179:223|239:201|239:201|300:207,1,176.000005371094,2|2,3:1|0:1,0:0:0:0:
252,378,180651,2,0,L|248:283,1,88.000002685547,0|2,3:1|0:1,0:1:0:0:
247,94,180967,1,0,3:0:0:0:
247,94,181046,1,0,3:0:0:0:
247,94,181125,5,8,3:1:0:0:
352,274,181283,1,8,3:1:0:0:
138,185,181441,1,8,3:1:0:0:
369,136,181599,1,8,3:1:0:0:
248,290,181756,5,4,3:1:0:0:
227,60,181914,1,0,3:0:0:0:
464,167,182072,6,0,B|431:185|394:169|394:169|378:176|378:176|335:157|291:172,1,176.000005371094,4|2,3:0|0:1,0:0:0:0:
330,255,182546,1,0,3:0:0:0:
426,90,182704,2,0,P|385:84|326:85,1,88.000002685547,2|0,3:1|3:0,3:0:0:0:
156,104,183020,2,0,P|174:168|131:273,1,176.000005371094,10|2,0:1|0:1,0:1:0:0:
71,175,183493,1,0,3:0:0:0:
243,254,183651,2,0,P|277:261|336:252,1,88.000002685547,2|8,3:1|0:1,3:0:0:0:
464,167,183967,6,0,B|404:153|404:153|289:172,1,176.000005371094,2|2,3:1|0:1,0:1:0:0:
421,253,184441,1,0,3:0:0:0:
339,50,184599,2,0,L|333:139,1,88.000002685547,2|0,3:1|3:0,3:0:0:0:
373,321,184914,1,10,0:1:0:0:
450,141,185072,1,0,3:0:0:0:
251,148,185230,2,0,L|257:237,1,88.000002685547,2|0,3:1|3:0,3:0:0:0:
305,65,185546,2,0,B|259:51|259:51|168:69,1,132.00000402832,10|0,0:1|0:1,0:1:0:0:
156,163,185862,6,0,P|168:114|71:25,1,176.000005371094,4|2,3:0|0:1,0:0:0:0:
59,129,186335,1,0,3:0:0:0:
251,148,186493,2,0,P|254:103|239:52,1,88.000002685547,2|0,3:1|3:0,3:0:0:0:
68,219,186809,2,0,P|129:264|228:239,1,176.000005371094,10|2,0:1|0:1,0:1:0:0:
336,171,187283,1,0,3:0:0:0:
161,76,187441,2,0,P|153:121|157:169,1,88.000002685547,2|0,3:1|3:0,3:0:0:0:
334,249,187756,6,0,B|349:207|349:207|336:172|336:172|356:135|345:69,1,176.000005371094,2|2,3:1|0:1,0:1:0:0:
142,62,188230,2,0,L|148:149,1,88.000002685547,0|2,3:1|0:1,0:1:0:0:
277,324,188546,1,0,3:0:0:0:
277,324,188625,1,0,3:0:0:0:
277,324,188704,5,12,0:1:0:0:
434,137,188862,1,0,3:0:0:0:
434,137,188941,1,0,3:0:0:0:
434,137,189020,1,2,0:3:0:0:
151,194,189178,1,0,3:0:0:0:
151,194,189256,1,0,3:0:0:0:
151,194,189335,2,0,L|148:133,3,44.0000013427735,8|8|2|0,0:1|0:1|0:3|0:0,0:0:0:0:
133,70,189651,6,0,P|177:65|222:74,1,88.000002685547,4|0,3:0|0:0,0:0:0:0:
436,168,189967,2,0,P|392:173|347:164,1,88.000002685547,2|0,0:1|3:1,0:1:0:0:
331,31,190283,1,2,3:1:0:0:
509,128,190441,1,0,3:0:0:0:
332,233,190599,6,0,L|326:135,1,88.000002685547,10|0,0:1|0:0,0:1:0:0:
362,33,190914,1,2,0:1:0:0:
237,156,191072,1,0,3:0:0:0:
436,168,191230,1,2,3:1:0:0:
219,73,191388,1,8,0:1:0:0:
332,233,191546,6,0,P|338:264|335:331,1,88.000002685547,2|0,3:1|0:0,0:0:0:0:
154,221,191862,2,0,P|148:190|151:123,1,88.000002685547,2|0,0:1|3:0,0:0:0:0:
235,44,192178,1,2,3:1:0:0:
236,245,192335,1,0,3:0:0:0:
70,125,192493,5,8,0:1:0:0:
322,151,192651,1,0,3:0:0:0:
73,222,192809,1,8,0:1:0:0:
325,248,192967,1,0,3:0:0:0:
204,51,193125,1,8,0:1:0:0:
179,303,193283,1,0,3:0:0:0:
322,151,193441,6,0,P|283:146|225:146,1,88.000002685547,4|0,3:0|0:0,0:0:0:0:
37,213,193756,2,0,P|76:208|134:208,1,88.000002685547,2|0,0:1|3:0,0:0:0:0:
325,248,194072,1,2,3:1:0:0:
152,326,194230,1,0,3:0:0:0:
216,135,194388,6,0,L|224:226,1,88.000002685547,10|0,0:1|0:0,0:0:0:0:
228,371,194704,1,2,0:1:0:0:
124,207,194862,1,0,3:0:0:0:
325,248,195020,2,0,L|317:335,1,88.000002685547,2|0,3:1|3:0,3:0:0:0:
241,115,195335,6,0,P|302:100|423:120,1,176.000005371094,2|2,3:1|0:1,0:0:0:0:
223,222,195809,2,0,L|212:30,1,176.000005371094,0|0,3:0|3:0,0:0:0:0:
321,213,196283,5,8,3:0:0:0:
127,115,196441,1,8,3:0:0:0:
354,69,196599,1,8,3:0:0:0:
99,125,196756,1,8,3:0:0:0:
352,201,196914,1,8,3:0:0:0:
97,257,197072,1,8,3:0:0:0:
249,146,197230,5,4,3:0:0:0:
278,291,197388,1,0,3:0:0:0:
115,230,197546,2,0,L|202:216,1,80,2|0,0:1|2:0,0:0:0:0:
380,170,197862,2,0,L|367:248,1,80,2|0,0:1|2:0,0:0:0:0:
255,315,198178,5,10,3:1:0:0:
282,140,198335,1,0,3:1:0:0:
445,248,198493,2,0,P|417:253|365:248,1,80,2|0,0:1|2:0,0:0:0:0:
208,108,198809,2,0,P|236:103|288:108,1,80,2|0,0:1|2:0,0:0:0:0:
462,174,199125,5,2,3:1:0:0:
276,235,199283,1,0,3:0:0:0:
375,75,199441,2,0,L|368:158,1,80,2|0,0:1|2:0,0:0:0:0:
263,342,199756,2,0,L|256:262,1,80,2|0,0:1|2:0,0:0:0:0:
231,69,200072,5,10,3:1:0:0:
194,52,200151,1,0,3:0:0:0:
154,48,200230,1,0,3:0:0:0:
114,54,200309,1,0,3:0:0:0:
78,71,200388,1,2,3:1:0:0:
103,101,200467,1,0,3:0:0:0:
116,138,200546,1,0,3:0:0:0:
116,178,200625,1,0,3:0:0:0:
101,215,200704,1,2,3:1:0:0:
80,249,200783,1,0,3:0:0:0:
71,288,200862,1,0,3:0:0:0:
69,328,200941,1,0,3:0:0:0:
78,365,201020,5,2,3:1:0:0:
145,211,201178,1,0,3:0:0:0:
277,314,201335,2,0,P|281:278|272:221,1,80,2|0,0:1|2:0,0:0:0:0:
194,52,201651,2,0,P|189:91|194:131,1,80,2|0,0:1|2:0,0:0:0:0:
263,342,201967,5,10,3:1:0:0:
376,194,202125,1,0,3:0:0:0:
195,229,202283,2,0,L|277:234,1,80,2|0,0:1|2:0,0:0:0:0:
483,155,202599,2,0,L|401:160,1,80,2|0,0:1|2:0,0:0:0:0:
116,178,202914,5,4,3:0:0:0:
437,256,203072,1,4,3:0:0:0:
256,320,204493,5,8,0:1:0:0:
244,82,204809,6,0,B|211:104|173:84|173:84|162:91|162:91|125:71|73:87,1,176.000005371094,4|10,3:0|0:1,0:0:0:0:
317,157,205283,2,0,P|348:93|309:0,1,176.000005371094,0|0,3:0|3:0,3:0:0:0:
226,187,205756,2,0,P|247:226|292:250,1,88.000002685547,10|0,0:1|0:1,0:1:0:0:
470,200,206072,1,2,3:1:0:0:
459,168,206150,1,0,3:0:0:0:
455,135,206229,1,0,3:0:0:0:
457,103,206308,1,0,3:0:0:0:
465,71,206388,2,0,P|429:80|368:78,1,88.000002685547,10|0,0:1|0:0,0:0:0:0:
211,42,206704,6,0,L|203:218,1,176.000005371094,2|10,3:1|0:1,0:0:0:0:
349,86,207178,2,0,B|311:78|294:43|294:43|294:101|239:121,1,176.000005371094,0|0,3:0|3:0,3:0:0:0:
123,34,207651,2,0,L|219:42,1,88.000002685547,10|0,0:1|0:1,0:1:0:0:
325,166,207967,1,2,3:1:0:0:
315,197,208045,1,0,3:0:0:0:
313,230,208124,1,0,3:0:0:0:
316,263,208203,1,0,3:0:0:0:
326,294,208283,2,0,P|281:269|204:275,1,132.00000402832,10|0,0:1|0:1,0:1:0:0:
147,336,208599,6,0,P|177:290|152:167,1,176.000005371094,2|10,3:1|0:1,0:1:0:0:
2,218,209072,2,0,P|37:230|99:223,1,88.000002685547,0|2,3:1|0:1,0:1:0:0:
238,121,209388,1,0,3:0:0:0:
238,121,209467,1,0,3:0:0:0:
238,121,209546,2,0,P|226:86|233:24,1,88.000002685547,10|0,0:1|0:1,0:1:0:0:
432,61,209862,1,2,3:1:0:0:
430,93,209940,1,0,3:0:0:0:
428,126,210019,1,0,3:0:0:0:
426,159,210098,1,0,3:0:0:0:
425,192,210178,2,0,P|393:184|336:186,1,88.000002685547,10|0,0:1|0:1,0:1:0:0:
259,314,210493,6,0,B|256:278|274:260|274:260|226:216|249:145,1,176.000005371094,2|10,3:1|0:1,0:1:0:0:
340,7,210967,2,0,L|348:107,1,88.000002685547,0|2,3:1|0:1,0:1:0:0:
380,270,211283,1,0,3:0:0:0:
380,270,211362,1,0,3:0:0:0:
380,270,211441,2,0,L|293:267,1,88.000002685547,10|0,0:1|0:1,0:1:0:0:
115,159,211756,1,2,3:1:0:0:
147,157,211834,1,0,3:0:0:0:
180,155,211913,1,0,3:0:0:0:
213,153,211992,1,0,3:0:0:0:
246,151,212072,2,0,B|237:127|214:114|214:114|245:81|230:29,1,132.00000402832,10|0,0:1|0:1,0:1:0:0:
153,60,212388,6,0,B|233:92|249:28|324:58,1,176.000005371094,2|10,3:1|0:1,0:1:0:0:
346,237,212862,2,0,P|334:195|338:140,1,88.000002685547,0|2,3:1|0:1,0:1:0:0:
416,8,213178,1,0,3:0:0:0:
416,8,213256,1,0,3:0:0:0:
416,8,213335,2,0,P|428:50|418:105,1,88.000002685547,10|0,0:1|0:1,0:1:0:0:
347,268,213651,1,2,3:1:0:0:
316,255,213729,1,0,3:0:0:0:
284,249,213808,1,0,3:0:0:0:
251,251,213887,1,0,3:0:0:0:
219,260,213967,2,0,P|177:272|122:268,1,88.000002685547,10|0,0:1|0:1,0:1:0:0:
97,163,214283,6,0,L|107:341,1,176.000005371094,2|10,3:1|0:1,0:1:0:0:
25,122,214756,2,0,L|112:129,1,88.000002685547,0|2,3:1|0:1,0:1:0:0:
286,157,215072,1,0,3:0:0:0:
286,157,215151,1,0,3:0:0:0:
286,157,215230,2,0,L|275:62,1,88.000002685547,10|0,0:1|0:1,0:1:0:0:
216,232,215546,1,2,3:1:0:0:
244,248,215624,1,0,3:0:0:0:
276,255,215703,1,0,3:0:0:0:
309,253,215782,1,0,3:0:0:0:
340,241,215862,2,0,P|389:222|471:237,1,132.00000402832,10|0,0:1|0:1,0:1:0:0:
504,305,216178,6,0,P|460:252|470:133,1,176.000005371094,2|10,3:1|0:1,0:1:0:0:
373,10,216651,2,0,P|386:47|374:107,1,88.000002685547,0|2,3:1|0:1,0:1:0:0:
209,61,216967,1,0,3:0:0:0:
209,61,217046,1,0,3:0:0:0:
209,61,217125,2,0,P|238:53|304:62,1,88.000002685547,10|0,0:1|0:1,0:1:0:0:
312,271,217441,1,2,3:1:0:0:
299,240,217519,1,0,3:0:0:0:
294,208,217598,1,0,3:0:0:0:
296,175,217677,1,0,3:0:0:0:
305,143,217756,2,0,P|276:151|210:142,1,88.000002685547,10|0,0:1|0:1,0:1:0:0:
52,117,218072,6,0,L|227:111,1,176.000005371094,2|10,3:1|0:1,0:1:0:0:
405,114,218546,2,0,L|396:206,1,88.000002685547,0|2,3:1|0:1,0:1:0:0:
364,374,218862,1,0,3:0:0:0:
364,374,218941,1,0,3:0:0:0:
364,374,219020,2,0,L|456:365,1,88.000002685547,10|0,0:1|0:1,0:1:0:0:
312,271,219335,5,2,3:1:0:0:
279,257,219414,1,0,3:0:0:0:
244,250,219493,1,0,3:0:0:0:
208,250,219572,1,0,3:0:0:0:
173,258,219651,2,0,P|154:267|131:274,1,44.0000013427735,10|0,3:1|0:0,0:0:0:0:
36,265,219809,1,0,3:0:0:0:
27,247,219888,1,0,3:0:0:0:
24,229,219967,6,0,B|56:149|-8:133|24:53,1,176.000005371094,4|10,3:0|0:1,0:0:0:0:
196,82,220441,2,0,P|154:96|97:95,1,88.000002685547,0|2,3:1|0:1,0:1:0:0:
283,18,220756,1,0,3:0:0:0:
283,18,220835,1,0,3:0:0:0:
283,18,220914,2,0,P|297:60|296:117,1,88.000002685547,10|0,0:1|0:1,0:1:0:0:
235,292,221230,1,2,3:1:0:0:
224,260,221308,1,0,3:0:0:0:
220,228,221387,1,0,3:0:0:0:
223,195,221466,1,0,3:0:0:0:
234,164,221546,2,0,P|277:190|335:185,1,88.000002685547,10|0,0:1|0:1,0:1:0:0:
470,108,221862,6,0,B|419:90|419:90|297:103,1,176.000005371094,2|10,3:1|0:1,0:1:0:0:
128,135,222335,2,0,B|109:96|109:96|118:39,1,88.000002685547,0|2,3:1|0:1,0:1:0:0:
220,228,222651,1,0,3:0:0:0:
220,228,222730,1,0,3:0:0:0:
220,228,222809,2,0,B|226:272|226:272|207:311,1,88.000002685547,10|0,0:1|0:1,0:1:0:0:
28,360,223125,5,2,3:1:0:0:
14,327,223204,1,0,3:0:0:0:
9,292,223283,1,0,3:0:0:0:
10,256,223362,1,0,3:0:0:0:
18,221,223441,1,10,3:1:0:0:
31,188,223520,1,0,3:0:0:0:
37,153,223599,1,0,3:0:0:0:
36,117,223678,1,0,3:0:0:0:
28,83,223756,6,0,P|89:103|209:80,1,176.000005371094,2|10,3:1|0:1,0:1:0:0:
312,18,224230,2,0,P|298:52|299:109,1,88.000002685547,0|2,3:1|0:1,0:1:0:0:
374,266,224546,1,0,3:0:0:0:
374,266,224625,1,0,3:0:0:0:
374,266,224704,2,0,P|388:232|387:175,1,88.000002685547,10|0,0:1|0:1,0:1:0:0:
237,166,225020,1,2,3:1:0:0:
239,198,225098,1,0,3:0:0:0:
241,231,225177,1,0,3:0:0:0:
243,264,225256,1,0,3:0:0:0:
245,297,225335,2,0,P|211:311|154:310,1,88.000002685547,10|0,0:1|0:1,0:1:0:0:
149,148,225651,6,0,L|335:156,1,176.000005371094,2|10,3:1|0:1,0:1:0:0:
503,190,226125,2,0,L|412:194,1,88.000002685547,0|2,3:1|0:1,0:1:0:0:
283,68,226441,1,0,3:0:0:0:
283,68,226520,1,0,3:0:0:0:
283,68,226599,2,0,L|374:72,1,88.000002685547,10|0,0:1|0:1,0:1:0:0:
369,278,226914,5,2,3:1:0:0:
340,255,226993,1,0,3:0:0:0:
325,224,227072,1,0,3:0:0:0:
320,190,227151,1,0,3:0:0:0:
324,155,227230,1,10,3:1:0:0:
292,171,227309,1,0,3:0:0:0:
257,176,227388,1,0,3:0:0:0:
221,173,227467,1,0,3:0:0:0:
188,159,227546,6,0,B|174:153|161:127|161:127|173:192|151:263,1,176.000005371094,2|10,3:1|0:1,0:1:0:0:
113,56,228020,2,0,P|160:45|204:54,1,88.000002685547,0|2,3:1|0:1,0:1:0:0:
363,143,228335,1,0,3:0:0:0:
363,143,228414,1,0,3:0:0:0:
363,143,228493,2,0,P|316:154|272:145,1,88.000002685547,10|0,0:1|0:1,0:1:0:0:
441,84,228809,1,2,3:1:0:0:
456,115,228887,1,0,3:0:0:0:
461,149,228966,1,0,3:0:0:0:
452,183,229045,1,0,3:0:0:0:
432,212,229125,2,0,P|389:235|345:239,1,88.000002685547,10|0,0:1|0:1,0:1:0:0:
249,131,229441,6,0,B|258:176|258:176|244:203|244:203|265:246|256:305,1,176.000005371094,2|10,3:1|0:1,0:1:0:0:
158,155,229914,2,0,L|165:54,1,88.000002685547,0|2,3:1|0:1,0:1:0:0:
333,31,230230,1,0,3:0:0:0:
333,31,230309,1,0,3:0:0:0:
333,31,230388,2,0,L|339:118,1,88.000002685547,10|0,0:1|0:1,0:1:0:0:
251,301,230704,5,2,3:1:0:0:
236,269,230783,1,0,3:0:0:0:
229,234,230862,1,0,3:0:0:0:
229,198,230941,1,0,3:0:0:0:
234,163,231020,1,10,3:1:0:0:
249,131,231099,1,0,3:0:0:0:
256,96,231178,1,0,3:0:0:0:
258,61,231256,1,0,3:0:0:0:
250,26,231335,6,0,P|166:49|75:26,1,176.000005371094,2|10,3:1|0:1,0:1:0:0:
342,28,231809,2,0,P|349:72|339:127,1,88.000002685547,0|2,3:1|0:1,0:1:0:0:
273,275,232125,1,0,3:0:0:0:
273,275,232204,1,0,3:0:0:0:
273,275,232283,2,0,P|317:268|372:278,1,88.000002685547,10|0,0:1|0:1,0:1:0:0:
159,329,232599,1,2,3:1:0:0:
144,299,232677,1,0,3:0:0:0:
136,267,232756,1,0,3:0:0:0:
133,234,232835,1,0,3:0:0:0:
137,201,232914,2,0,P|144:157|134:102,1,88.000002685547,10|0,0:1|0:1,0:1:0:0:
91,17,233230,6,0,B|125:4|159:10|159:10|198:43|263:35,1,176.000005371094,2|10,3:1|0:1,0:1:0:0:
434,39,233704,2,0,L|427:139,1,88.000002685547,0|2,3:1|0:1,0:1:0:0:
380,296,234020,1,0,3:0:0:0:
380,296,234099,1,0,3:0:0:0:
380,296,234178,5,12,3:1:0:0:
218,134,234335,1,8,3:1:0:0:
443,148,234493,1,8,3:1:0:0:
301,330,234651,1,8,3:1:0:0:
314,95,234809,1,8,3:1:0:0:
501,231,234967,1,8,3:1:0:0:
238,259,235125,6,0,B|226:227|237:205|237:205|230:188|230:188|250:153|232:101,1,160,4|2,3:0|0:2,0:0:0:0:
134,141,235599,1,0,3:0:0:0:
314,233,235756,2,0,P|345:235|408:228,1,80,2|0,3:2|3:0,3:0:0:0:
496,121,236072,6,0,B|437:116|391:140|391:140|415:117|421:82,1,160,8|2,0:1|0:2,0:0:0:0:
332,71,236546,1,0,3:0:0:0:
399,219,236704,2,0,L|391:140,1,80,2|0,3:2|3:0,3:0:0:0:
257,24,237020,6,0,B|241:45|242:69|242:69|183:41|110:58,1,176.000005371094,4|2,3:2|0:2,0:0:0:0:
38,102,237493,1,0,3:0:0:0:
162,228,237651,2,0,P|169:191|163:126,1,80,2|0,3:2|3:0,3:0:0:0:
143,317,237967,6,0,B|176:328|202:315|202:315|219:331|219:331|261:287|329:306,1,191.999994140625,8|2,0:1|0:2,0:0:0:0:
290,384,238441,1,0,3:0:0:0:
68,246,238599,2,0,B|54:218|61:186|61:186|76:156|60:104,1,132.00000402832,10|0,0:1|0:0,0:0:0:0:
5,52,238914,6,0,P|50:94|146:88,1,160,4|2,3:0|0:2,0:0:0:0:
91,5,239388,1,0,3:0:0:0:
236,135,239546,2,0,P|241:101|236:53,1,80,2|0,3:2|3:0,3:0:0:0:
162,228,239862,6,0,L|321:219,1,160,8|2,0:1|0:2,0:0:0:0:
328,128,240335,1,0,3:0:0:0:
402,298,240493,2,0,L|410:212,1,80,2|0,3:2|3:0,3:0:0:0:
359,43,240809,6,0,B|317:33|317:33|290:44|290:44|239:25|182:41,1,176.000005371094,4|2,3:2|0:2,0:0:0:0:
123,119,241283,1,0,3:0:0:0:
314,140,241441,2,0,P|322:173|320:228,1,80,2|0,3:2|3:0,3:0:0:0:
290,328,241756,5,12,0:1:0:0:
189,186,241914,1,0,3:0:0:0:
189,186,241993,1,0,3:0:0:0:
189,186,242072,2,0,L|211:137,3,40,2|2|0|0,0:3|0:3|3:0|3:0,0:0:0:0:
254,80,242388,1,8,0:1:0:0:
252,68,242467,1,8,0:1:0:0:
250,56,242546,1,8,0:1:0:0:
248,44,242625,1,8,0:1:0:0:
246,32,242704,5,4,3:0:0:0:
269,38,242783,1,0,3:0:0:0:
292,41,242862,1,0,3:0:0:0:
315,40,242941,1,0,3:0:0:0:
338,35,243021,5,10,3:1:0:0:
375,23,243098,1,0,3:0:0:0:
414,29,243177,1,0,3:0:0:0:
446,53,243256,1,0,3:0:0:0:
464,88,243336,1,10,3:1:0:0:
464,128,243414,1,0,3:0:0:0:
446,163,243493,1,0,3:0:0:0:
414,186,243572,1,0,3:0:0:0:
375,193,243652,1,10,3:1:0:0:
337,180,243730,1,0,3:0:0:0:
300,167,243808,1,0,3:0:0:0:
260,165,243887,1,0,3:0:0:0:
221,174,243968,5,10,3:1:0:0:
250,207,244045,1,0,3:0:0:0:
264,248,244124,1,0,3:0:0:0:
261,292,244203,1,0,3:0:0:0:
242,331,244284,5,10,3:1:0:0:
282,346,244361,1,0,3:0:0:0:
326,345,244440,1,0,3:0:0:0:
366,328,244519,1,0,3:0:0:0:
396,296,244600,5,10,3:1:0:0:
383,276,244678,1,0,3:0:0:0:
373,254,244756,1,0,3:0:0:0:
369,230,244835,1,0,3:0:0:0:
372,206,244915,5,10,3:1:0:0:
410,216,244992,1,0,3:0:0:0:
448,208,245071,1,0,3:0:0:0:
479,182,245150,1,0,3:0:0:0:
495,146,245230,1,10,3:1:0:0:
492,107,245308,1,0,3:0:0:0:
472,73,245387,1,0,3:0:0:0:
438,52,245466,1,0,3:0:0:0:
398,49,245545,1,10,3:1:0:0:
362,64,245624,1,0,3:0:0:0:
328,86,245703,1,0,3:0:0:0:
290,94,245782,1,0,3:0:0:0:
250,89,245862,5,10,3:1:0:0:
276,124,245940,1,0,3:0:0:0:
283,167,246019,1,0,3:0:0:0:
269,208,246098,1,0,3:0:0:0:
236,237,246178,5,10,3:1:0:0:
278,229,246256,1,0,3:0:0:0:
320,242,246335,1,0,3:0:0:0:
350,274,246414,1,0,3:0:0:0:
361,316,246493,5,4,3:0:0:0:
337,313,246572,1,0,3:0:0:0:
314,314,246651,1,0,3:0:0:0:
291,320,246730,1,0,3:0:0:0:
270,329,246809,5,10,3:1:0:0:
240,355,246887,1,0,3:0:0:0:
202,368,246966,1,0,3:0:0:0:
163,365,247045,1,0,3:0:0:0:
125,349,247124,1,10,3:1:0:0:
96,320,247203,1,0,3:0:0:0:
80,283,247282,1,0,3:0:0:0:
77,243,247361,1,0,3:0:0:0:
88,204,247440,1,10,3:1:0:0:
114,173,247519,1,0,3:0:0:0:
128,135,247598,1,0,3:0:0:0:
125,95,247677,1,0,3:0:0:0:
108,58,247756,5,10,3:1:0:0:
147,74,247834,1,0,3:0:0:0:
190,75,247913,1,0,3:0:0:0:
230,58,247992,1,0,3:0:0:0:
261,27,248072,5,10,3:1:0:0:
302,49,248150,1,0,3:0:0:0:
330,88,248229,1,0,3:0:0:0:
338,135,248308,1,0,3:0:0:0:
325,181,248388,6,8,L|225:183,1,88.000002685547,8|8,3:1|3:1,3:1:0:0:
89,39,248704,1,8,3:1:0:0:
167,273,248862,1,8,3:1:0:0:
5,179,249335,6,8,P|48:190|111:187,1,88.000002685547,8|8,3:1|3:1,3:1:0:0:
269,114,249651,1,8,3:1:0:0:
163,365,249809,1,8,3:1:0:0:
184,69,250283,6,0,B|154:146|215:164|175:248,1,176.000005371094,4|2,3:0|0:1,0:0:0:0:
269,114,250756,1,0,3:0:0:0:
92,191,250914,2,0,P|86:230|94:287,1,88.000002685547,2|0,3:1|3:0,3:0:0:0:
184,69,251230,2,0,P|101:43|17:64,1,176.000005371094,10|2,0:1|0:1,0:1:0:0:
92,191,251704,1,0,3:0:0:0:
269,114,251862,2,0,P|279:77|269:27,1,88.000002685547,2|8,3:1|0:1,0:1:0:0:
219,215,252178,6,0,L|398:208,1,176.000005371094,2|2,3:1|0:1,0:1:0:0:
369,121,252651,1,0,3:0:0:0:
179,145,252809,2,0,L|189:234,1,88.000002685547,2|0,3:1|3:0,3:0:0:0:
246,304,253125,1,10,0:1:0:0:
269,114,253283,1,0,3:0:0:0:
101,240,253441,2,0,L|190:232,1,88.000002685547,2|0,3:1|3:0,3:0:0:0:
369,121,253756,2,0,B|386:169|386:169|370:260,1,132.00000402832,10|0,0:1|0:1,0:1:0:0:
330,316,254072,6,0,P|406:277|499:303,1,176.000005371094,4|2,3:0|0:1,0:0:0:0:
417,374,254546,1,0,3:0:0:0:
249,273,254704,2,0,P|242:232|247:178,1,88.000002685547,2|0,3:1|3:0,3:0:0:0:
419,69,255020,2,0,P|356:119|268:88,1,176.000005371094,10|2,0:1|0:1,0:1:0:0:
335,22,255493,1,0,3:0:0:0:
481,136,255651,2,0,P|488:177|483:231,1,88.000002685547,2|8,3:1|0:1,3:0:0:0:
209,151,255967,6,0,L|390:141,1,176.000005371094,2|2,3:1|0:1,0:1:0:0:
114,249,256441,2,0,L|122:152,1,88.000002685547,0|2,3:1|0:1,0:1:0:0:
227,32,256756,1,0,3:0:0:0:
227,32,256835,1,0,3:0:0:0:
227,32,256914,6,0,P|231:59|234:119,1,88.000002685547,8|0,0:1|0:0,0:0:0:0:
193,351,257230,1,0,3:0:0:0:
189,333,257309,1,0,3:0:0:0:
194,316,257388,1,0,3:0:0:0:
201,300,257467,1,0,3:0:0:0:
213,286,257546,5,8,0:1:0:0:
234,313,257625,1,8,0:1:0:0:
263,332,257704,1,8,0:1:0:0:
296,342,257783,1,8,0:1:0:0:
330,346,257862,6,0,P|374:339|418:317,1,88.000002685547,4|0,3:0|0:0,0:0:0:0:
384,141,258178,2,0,P|339:142|293:159,1,88.000002685547,2|0,0:1|3:0,0:0:0:0:
356,226,258493,1,2,3:1:0:0:
419,69,258651,1,0,3:0:0:0:
215,114,258809,6,0,L|224:205,1,88.000002685547,10|0,0:1|0:1,0:1:0:0:
378,246,259125,1,2,0:1:0:0:
234,91,259283,1,0,3:0:0:0:
240,298,259441,1,2,3:1:0:0:
384,141,259599,1,8,0:1:0:0:
144,167,259756,6,0,P|177:189|233:201,1,88.000002685547,2|0,3:1|0:0,0:0:0:0:
410,122,260072,2,0,P|377:100|321:88,1,88.000002685547,2|0,0:1|3:1,0:1:0:0:
136,84,260388,1,2,3:1:0:0:
304,164,260546,1,0,3:0:0:0:
195,15,260704,5,8,0:1:0:0:
185,234,260862,1,0,3:0:0:0:
330,88,261020,1,8,0:1:0:0:
112,174,261178,1,0,3:0:0:0:
282,9,261335,5,8,0:1:0:0:
279,265,261493,1,0,3:0:0:0:
136,84,261651,6,0,P|205:116|300:97,1,176.000005371094,4|2,3:0|0:1,0:0:0:0:
368,13,262125,1,0,3:0:0:0:
322,187,262283,2,0,P|314:226|320:284,1,88.000002685547,2|0,3:1|3:0,3:0:0:0:
475,87,262599,2,0,L|289:97,1,176.000005371094,10|2,0:1|0:1,0:1:0:0:
107,87,263072,2,0,P|115:126|109:184,1,88.000002685547,0|2,3:1|0:1,0:1:0:0:
33,238,263388,1,0,3:0:0:0:
37,40,263546,5,12,0:1:0:0:
213,146,263704,1,0,3:0:0:0:
208,172,263783,1,0,3:0:0:0:
204,198,263862,2,0,L|197:241,1,44.0000013427735,8|0,0:3|3:0,0:0:0:0:
98,352,264020,2,8,L|91:308,1,44.0000013427735,8|8,0:3|0:3,0:3:0:0:
55,160,264178,1,0,3:0:0:0:
59,151,264256,1,0,3:0:0:0:
64,140,264335,2,8,P|85:137|110:130,1,44.0000013427735,8|8,0:3|0:3,0:3:0:0:
175,48,264493,5,8,0:3:0:0:
207,36,264572,1,2,0:3:0:0:
241,30,264651,1,0,3:0:0:0:
275,35,264730,1,0,3:0:0:0:
308,45,264809,2,0,P|330:54|363:55,1,44.0000013427735,2|0,0:3|0:0,0:0:0:0:
453,55,264967,1,0,3:0:0:0:
453,55,265046,1,0,3:0:0:0:
453,55,265125,2,0,L|448:146,1,88.000002685547,12|0,0:1|3:1,0:1:0:0:
443,331,265441,6,0,B|408:345|380:329|380:329|370:340|370:340|326:309|267:330,1,176.000005371094,4|2,3:0|0:1,0:0:0:0:
198,377,265914,1,0,3:0:0:0:
356,245,266072,2,0,P|366:205|360:151,1,88.000002685547,2|0,3:1|3:0,3:0:0:0:
146,64,266388,2,0,P|198:105|306:84,1,176.000005371094,10|2,0:1|0:1,0:1:0:0:
233,5,266862,1,0,3:0:0:0:
105,143,267020,2,0,P|101:186|111:229,1,88.000002685547,2|8,3:1|0:1,0:1:0:0:
248,304,267335,6,0,L|62:319,1,176.000005371094,2|2,3:1|0:1,0:1:0:0:
23,237,267809,1,0,3:0:0:0:
207,134,267967,2,0,L|199:231,1,88.000002685547,2|0,3:1|3:0,3:0:0:0:
75,122,268283,5,10,0:1:0:0:
276,80,268441,1,0,3:0:0:0:
199,221,268599,1,2,3:1:0:0:
90,36,268756,1,0,3:0:0:0:
303,61,268914,2,0,B|318:110|318:110|302:201,1,132.00000402832,10|0,0:1|0:1,0:1:0:0:
276,274,269230,6,0,P|324:214|419:212,1,176.000005371094,4|2,3:0|0:1,0:1:0:0:
374,308,269704,1,0,3:0:0:0:
199,221,269862,2,0,P|194:182|202:131,1,88.000002685547,2|0,3:1|3:0,3:0:0:0:
436,171,270178,2,0,P|369:215|274:166,1,176.000005371094,10|2,0:1|0:1,0:1:0:0:
357,118,270651,1,0,3:0:0:0:
270,301,270809,2,0,P|228:312|172:304,1,88.000002685547,2|0,3:1|3:0,3:0:0:0:
13,280,271125,6,0,L|197:272,1,176.000005371094,2|2,3:1|0:1,0:1:0:0:
364,247,271599,2,0,L|360:339,1,88.000002685547,0|2,3:1|0:1,0:1:0:0:
277,163,271914,1,0,3:0:0:0:
277,163,271993,1,0,3:0:0:0:
277,163,272072,5,8,0:1:0:0:
455,238,272230,1,0,3:0:0:0:
270,301,272388,1,8,0:1:0:0:
357,118,272546,1,0,3:0:0:0:
188,272,272704,1,8,0:1:0:0:
449,323,272862,1,0,3:0:0:0:
277,163,273020,6,0,P|269:122|285:61,1,88.000002685547,4|0,3:0|0:0,0:0:0:0:
454,152,273335,2,0,P|462:194|454:237,1,88.000002685547,2|0,0:1|3:1,0:1:0:0:
360,334,273651,1,2,3:1:0:0:
363,149,273809,1,0,3:0:0:0:
370,365,273967,6,0,L|279:376,1,88.000002685547,10|0,0:1|0:1,0:1:0:0:
188,272,274283,1,2,0:1:0:0:
364,247,274441,1,0,3:0:0:0:
161,253,274599,1,2,3:1:0:0:
360,334,274756,1,8,0:1:0:0:
277,163,274914,6,0,P|269:204|278:262,1,88.000002685547,2|0,3:1|0:0,0:0:0:0:
454,152,275230,2,0,P|459:108|451:65,1,88.000002685547,2|0,0:1|3:1,0:1:0:0:
277,77,275546,1,2,3:1:0:0:
447,183,275704,1,0,3:0:0:0:
355,35,275862,6,0,L|259:39,1,88.000002685547,10|0,0:1|0:0,0:0:0:0:
78,63,276178,1,0,3:0:0:0:
95,90,276256,1,0,3:0:0:0:
105,122,276335,1,0,3:0:0:0:
105,155,276414,1,0,3:0:0:0:
96,186,276493,2,8,P|88:206|81:243,1,44.0000013427735,8|8,0:1|0:1,0:1:0:0:
90,363,276651,1,8,0:1:0:0:
90,363,276730,1,8,0:1:0:0:
90,363,276809,6,0,P|130:369|190:359,1,88.000002685547,4|0,3:0|0:0,0:0:0:0:
360,250,277125,2,0,P|319:243|260:254,1,88.000002685547,2|0,0:1|3:0,0:0:0:0:
316,351,277441,1,2,3:1:0:0:
414,184,277599,1,0,3:0:0:0:
231,178,277756,6,0,L|242:281,1,88.000002685547,10|0,0:1|0:1,0:1:0:0:
307,102,278072,1,2,0:1:0:0:
131,189,278230,1,0,3:0:0:0:
334,227,278388,1,2,0:1:0:0:
252,31,278546,1,0,3:0:0:0:
240,265,278704,5,12,0:1:0:0:
400,145,278862,1,0,3:0:0:0:
394,114,278941,1,0,3:0:0:0:
388,83,279020,2,0,L|378:30,3,44.0000013427735,8|8|0|0,0:3|0:3|3:0|3:0,0:0:0:0:
307,102,279335,1,8,0:1:0:0:
277,115,279413,1,8,0:1:0:0:
244,119,279492,1,0,3:0:0:0:
212,112,279571,1,0,3:0:0:0:
184,95,279650,5,8,0:3:0:0:
153,100,279730,1,8,0:3:0:0:
122,105,279809,2,0,L|103:156,1,44.0000013427735,0|0,3:0|3:0,3:0:0:0:
110,277,279967,1,2,0:3:0:0:
140,271,280046,1,2,0:3:0:0:
170,264,280125,2,0,L|224:253,1,44.0000013427735,0|0,3:0|3:0,3:0:0:0:
326,192,280283,5,12,0:1:0:0:
92,182,280441,1,0,3:0:0:0:
228,333,280599,6,0,P|253:237|195:175,1,176.000005371094,4|2,3:0|0:1,0:0:0:0:
170,264,281072,1,0,3:0:0:0:
341,308,281230,2,0,P|347:264|334:207,1,88.000002685547,2|0,3:1|3:0,3:0:0:0:
248,88,281546,2,0,P|305:128|415:95,1,176.000005371094,10|2,0:1|0:1,0:1:0:0:
333,26,282020,1,0,3:0:0:0:
147,44,282178,2,0,P|141:88|154:145,1,88.000002685547,2|0,3:1|3:0,3:0:0:0:
228,333,282493,5,12,0:1:0:0:
247,202,282809,5,8,3:0:0:0:
241,218,282967,1,8,3:0:0:0:
236,234,283125,1,8,3:0:0:0:
231,251,283283,1,8,3:0:0:0:
339,221,283441,2,8,L|330:120,1,80,8|8,3:0|3:0,3:0:0:0:
242,59,283756,1,0,3:0:0:0:
206,213,283914,1,0,3:0:0:0:
396,88,284072,5,8,0:1:0:0:
68,164,284388,5,4,3:0:0:0:
256,192,284466,12,2,287861,0:1:0:0:
332,70,288177,6,0,L|161:82,1,160,2|2,3:1|3:1,3:0:0:0:
350,39,288809,5,8,0:1:0:0:
319,263,288966,1,8,0:1:0:0:
368,13,289124,1,8,0:1:0:0:
337,237,289281,1,8,0:1:0:0:
420,86,289440,6,0,L|339:92,1,80,4|0,3:0|2:0,0:0:0:0:
257,160,289756,1,0,3:0:0:0:
337,237,289914,1,0,2:0:0:0:
225,326,290072,2,0,L|231:239,1,80,10|0,0:1|3:0,0:0:0:0:
248,63,290388,1,0,2:0:0:0:
248,63,290545,1,0,2:0:0:0:
251,247,290703,6,0,B|199:235|166:270|166:270|183:238|175:202,1,160,2|0,3:1|3:0,3:0:0:0:
88,225,291177,1,0,2:0:0:0:
225,326,291335,2,0,P|267:329|305:311,1,80,10|0,0:1|3:0,0:0:0:0:
343,150,291651,1,0,2:0:0:0:
251,247,291809,1,0,2:0:0:0:
432,206,291966,6,0,L|424:126,1,80,2|0,3:1|2:0,0:0:0:0:
353,48,292282,1,0,3:0:0:0:
343,150,292440,1,0,2:0:0:0:
335,15,292598,2,0,L|255:26,1,80,10|0,0:1|3:1,0:0:0:0:
75,75,292914,1,0,2:0:0:0:
75,75,293072,1,0,2:0:0:0:
244,208,293230,6,0,L|234:48,1,160,2|0,3:1|3:0,3:0:0:0:
145,149,293703,1,0,3:0:0:0:
343,150,293861,2,0,P|354:181|352:235,1,80,10|0,0:1|3:1,0:1:0:0:
288,287,294177,1,0,2:0:0:0:
328,120,294335,1,0,2:0:0:0:
381,331,294493,6,0,B|326:311|266:323|266:323|287:307|289:271,1,160,4|0,3:1|3:0,3:0:0:0:
244,208,294966,1,0,2:0:0:0:
107,283,295124,2,0,L|193:275,1,80,10|0,0:1|3:0,0:0:0:0:
378,239,295440,1,0,2:0:0:0:
378,239,295598,1,0,2:0:0:0:
161,185,295756,6,0,P|142:136|172:29,1,160,2|0,3:1|3:0,3:0:0:0:
252,113,296230,1,0,2:0:0:0:
187,275,296388,2,0,P|140:275|106:258,1,80,10|0,0:1|3:1,0:1:0:0:
72,188,296703,1,0,2:0:0:0:
244,208,296861,1,0,2:0:0:0:
30,256,297019,6,0,L|51:97,1,160,2|0,3:1|3:0,3:0:0:0:
112,41,297493,1,0,2:0:0:0:
161,185,297651,2,0,L|246:197,1,80,10|0,0:1|3:1,0:1:0:0:
443,192,297966,1,0,2:0:0:0:
443,192,298124,1,0,2:0:0:0:
252,113,298282,5,12,0:1:0:0:
299,315,298440,1,8,0:3:0:0:
299,315,298519,1,8,0:3:0:0:
299,315,298598,1,8,0:3:0:0:
332,152,298756,1,8,0:1:0:0:
187,275,298914,5,8,0:1:0:0:
388,267,299072,1,8,0:3:0:0:
276,90,299230,1,2,0:3:0:0:
269,331,299388,1,0,3:0:0:0:
412,177,299545,6,0,B|354:160|336:201|270:183,2,143.999995605469,4|0|0,3:0|0:0|0:0,0:0:0:0:
179,252,300809,2,0,L|189:98,2,143.999995605469,2|0|0,0:0|0:0|0:0,0:0:0:0:
299,96,302072,6,0,P|247:82|160:96,2,143.999995605469,2|0|0,0:0|0:0|0:0,0:0:0:0:
70,187,303335,2,0,L|215:180,1,143.999995605469,2|0,0:0|0:0,0:0:0:0:
322,78,303966,5,8,0:1:0:0:
69,52,304124,1,2,0:3:0:0:
72,78,304203,1,2,3:0:0:0:
75,104,304282,2,0,L|80:151,1,47.9999985351563,0|2,3:0|0:2,0:0:0:0:
203,261,304598,6,0,B|229:180|174:172|201:94,2,167.999994873047,4|0|0,3:0|0:0|0:0,0:0:0:0:
304,47,305861,5,0,3:0:0:0:
307,63,306019,1,0,3:0:0:0:
359,175,306177,5,8,3:0:0:0:
364,153,306335,1,8,3:0:0:0:
418,33,306493,5,8,3:0:0:0:
385,42,306651,1,8,3:0:0:0:
230,132,306809,5,8,3:0:0:0:
330,154,306967,1,8,3:0:0:0:
290,18,307124,6,8,L|283:84,1,44.0000013427735,8|0,0:1|3:1,0:1:0:0:
260,252,307282,1,0,3:0:0:0:
266,268,307361,1,0,3:0:0:0:
272,284,307440,6,0,L|282:223,1,44.0000013427735,8|0,0:1|3:0,0:0:0:0:
122,114,307598,2,0,L|129:157,1,44.0000013427735,8|0,0:1|3:0,0:0:0:0:
191,347,307756,1,0,3:0:0:0:
197,363,307835,1,0,3:0:0:0:
203,379,307914,6,0,L|246:374,1,44.0000013427735,8|0,0:1|0:1,0:0:0:0:
391,237,308072,1,0,3:0:0:0:
397,221,308151,1,0,3:0:0:0:
403,205,308230,2,0,L|393:148,1,44.0000013427735,8|0,0:1|3:0,0:0:0:0:
203,46,308388,5,8,0:1:0:0:
205,58,308466,1,8,0:1:0:0:
207,70,308545,2,0,L|215:120,1,44.0000013427735,0|0,3:0|3:0,3:0:0:0:
296,288,308703,1,8,0:1:0:0:
284,286,308781,1,8,0:1:0:0:
272,284,308861,2,0,L|222:276,1,44.0000013427735,0|0,3:0|3:0,3:0:0:0:
62,187,309019,5,8,0:1:0:0:
103,202,309097,1,8,0:1:0:0:
147,207,309176,1,8,0:1:0:0:
190,202,309255,1,8,0:1:0:0:
233,191,309334,1,8,0:1:0:0:
276,181,309413,1,8,0:1:0:0:
320,178,309492,1,8,0:1:0:0:
362,187,309571,1,8,0:1:0:0:
403,205,309651,6,0,P|393:169|390:102,1,95.9999970703126,4|8,3:0|0:1,0:0:0:0:
464,285,309966,1,2,3:2:0:0:
441,292,310045,1,0,3:0:0:0:
418,300,310124,1,8,0:1:0:0:
276,181,310282,2,0,P|277:133|289:86,1,95.9999970703126,2|8,3:2|0:1,0:0:0:0:
284,286,310598,1,2,3:2:0:0:
261,279,310677,1,0,3:0:0:0:
238,271,310756,1,8,0:1:0:0:
62,187,310914,6,0,L|159:171,1,95.9999970703126,2|8,3:2|0:1,0:0:0:0:
369,153,311230,1,2,3:2:0:0:
369,153,311309,1,0,3:0:0:0:
369,153,311388,1,8,0:1:0:0:
196,92,311545,1,2,3:2:0:0:
299,205,311703,1,8,0:1:0:0:
321,16,311861,1,2,3:2:0:0:
321,16,311940,1,0,3:0:0:0:
321,16,312019,1,8,0:1:0:0:
196,92,312177,6,0,P|190:135|196:205,1,95.9999970703126,2|8,3:2|0:1,0:0:0:0:
192,0,312493,1,2,3:2:0:0:
169,7,312572,1,0,3:0:0:0:
146,15,312651,1,8,0:1:0:0:
192,187,312809,2,0,P|235:193|305:187,1,95.9999970703126,2|8,3:2|0:1,0:0:0:0:
94,183,313124,1,2,3:2:0:0:
101,206,313203,1,0,3:0:0:0:
109,229,313282,1,8,0:1:0:0:
279,97,313440,6,0,L|171:103,1,95.9999970703126,2|8,3:2|0:1,0:0:0:0:
1,171,313756,1,2,3:2:0:0:
1,171,313835,1,0,3:0:0:0:
1,171,313914,1,8,0:1:0:0:
192,187,314072,1,2,3:2:0:0:
58,102,314230,1,8,0:1:0:0:
57,308,314388,1,2,3:2:0:0:
57,308,314466,1,0,3:0:0:0:
57,308,314545,1,8,0:1:0:0:
192,187,314703,6,0,P|235:181|305:187,1,95.9999970703126,4|8,3:0|0:1,0:0:0:0:
471,249,315019,1,2,3:2:0:0:
467,272,315098,1,0,3:0:0:0:
463,295,315177,1,8,0:1:0:0:
247,362,315335,2,0,P|241:319|247:249,1,95.9999970703126,2|8,3:2|0:1,0:0:0:0:
363,95,315651,1,2,3:2:0:0:
367,118,315730,1,0,3:0:0:0:
371,141,315809,1,8,0:1:0:0:
192,187,315966,6,0,L|203:90,1,95.9999970703126,2|8,3:2|0:1,0:0:0:0:
329,266,316282,1,2,3:2:0:0:
329,266,316361,1,0,3:0:0:0:
329,266,316440,1,8,0:1:0:0:
159,268,316598,1,2,3:2:0:0:
280,150,316756,1,8,0:1:0:0:
247,362,316914,1,2,3:2:0:0:
247,362,316993,1,0,3:0:0:0:
247,362,317072,1,8,0:1:0:0:
163,166,317230,6,0,P|208:161|259:165,1,95.9999970703126,2|8,3:2|0:1,0:0:0:0:
54,218,317545,1,2,3:2:0:0:
58,189,317624,1,0,3:0:0:0:
62,160,317703,1,8,0:1:0:0:
168,38,317861,2,0,P|173:83|169:134,1,95.9999970703126,2|8,3:2|0:1,0:0:0:0:
70,304,318177,1,2,3:2:0:0:
41,300,318256,1,0,3:0:0:0:
12,296,318335,1,8,0:1:0:0:
27,68,318493,6,0,L|140:64,1,95.9999970703126,2|8,3:2|0:1,0:0:0:0:
334,69,318809,1,2,3:2:0:0:
334,69,318888,1,0,3:0:0:0:
334,69,318966,1,8,0:1:0:0:
163,166,319124,1,2,3:2:0:0:
363,171,319282,1,8,0:1:0:0:
252,7,319440,1,2,3:2:0:0:
252,7,319519,1,0,3:0:0:0:
252,7,319598,1,8,0:1:0:0:
238,234,319756,6,0,P|260:191|259:141,1,95.9999970703126,4|8,3:0|0:1,0:0:0:0:
62,160,320072,2,0,P|32:167|2:165,2,47.9999985351563,2|0|8,3:2|3:0|0:1,0:0:0:0:
243,38,320388,1,2,3:2:0:0:
280,30,320466,1,2,0:3:0:0:
318,26,320545,1,8,0:1:0:0:
356,30,320624,1,0,0:0:0:0:
392,41,320703,5,2,3:2:0:0:
377,65,320782,1,2,3:0:0:0:
369,92,320861,1,8,0:1:0:0:
371,120,320940,1,0,0:0:0:0:
381,146,321019,6,0,L|481:136,1,95.9999970703126,4|8,3:0|0:1,0:0:0:0:
243,38,321335,2,0,L|181:34,2,47.9999985351563,2|0|8,3:2|3:0|0:1,0:0:0:0:
338,212,321651,1,2,3:2:0:0:
306,224,321730,1,2,0:3:0:0:
272,229,321809,1,8,0:1:0:0:
238,229,321888,1,0,0:0:0:0:
213,206,321966,5,2,3:2:0:0:
214,244,322045,1,2,3:0:0:0:
215,282,322124,1,8,0:1:0:0:
216,320,322203,1,0,0:0:0:0:
217,358,322282,6,0,P|261:365|330:352,1,95.9999970703126,4|8,3:0|0:1,0:0:0:0:
508,289,322598,2,0,P|512:315|510:346,2,47.9999985351563,2|0|8,3:2|3:0|0:1,0:0:0:0:
371,120,322914,1,2,3:2:0:0:
338,110,322993,1,2,0:3:0:0:
304,107,323072,1,8,0:1:0:0:
270,110,323151,1,0,0:0:0:0:
238,122,323230,1,2,3:2:0:0:
205,131,323309,1,2,3:0:0:0:
171,129,323388,2,0,P|146:123|123:109,1,47.9999985351563,8|0,0:1|0:0,0:0:0:0:
46,11,323545,5,4,3:0:0:0:
35,52,323624,1,2,0:3:0:0:
31,95,323703,1,8,0:1:0:0:
44,136,323782,1,0,0:0:0:0:
56,177,323861,1,2,3:2:0:0:
49,219,323940,1,2,3:0:0:0:
39,261,324019,2,0,P|65:255|99:255,1,47.9999985351563,8|0,0:1|0:0,0:0:0:0:
247,276,324177,6,0,L|237:225,1,47.9999985351563,4|2,3:1|0:3,0:0:0:0:
140,92,324335,2,0,L|130:143,1,47.9999985351563,8|0,0:1|0:0,0:0:0:0:
269,298,324493,6,0,L|259:247,1,47.9999985351563,2|2,3:2|3:0,3:0:0:0:
129,64,324651,2,0,L|119:115,1,47.9999985351563,8|0,0:1|0:0,0:0:0:0:
76,336,324809,6,0,P|118:343|183:334,1,95.9999970703126,4|8,3:0|0:1,0:0:0:0:
302,188,325124,2,0,P|297:164|297:130,2,47.9999985351563,2|0|8,3:2|3:0|0:1,0:0:0:0:
425,345,325440,1,2,3:2:0:0:
435,307,325519,1,2,0:3:0:0:
435,268,325598,1,8,0:1:0:0:
427,230,325677,1,0,0:0:0:0:
402,200,325756,1,2,3:2:0:0:
389,173,325835,1,2,3:0:0:0:
383,144,325914,1,8,0:1:0:0:
385,115,325993,1,0,0:0:0:0:
395,88,326072,6,0,L|295:95,1,95.9999970703126,4|8,3:1|0:1,0:0:0:0:
130,139,326388,2,0,L|139:186,2,47.9999985351563,2|0|8,3:2|3:0|0:1,0:0:0:0:
279,22,326703,1,2,3:2:0:0:
293,57,326782,1,2,0:3:0:0:
299,94,326861,1,8,0:1:0:0:
295,132,326940,1,0,0:0:0:0:
285,169,327019,2,0,P|282:190|282:227,1,47.9999985351563,2|2,3:2|3:0,3:0:0:0:
313,367,327177,1,8,0:1:0:0:
313,367,327256,1,0,0:0:0:0:
313,367,327335,6,0,P|272:377|211:371,1,95.9999970703126,4|8,3:0|0:1,0:0:0:0:
63,249,327651,2,0,P|35:247|8:251,2,47.9999985351563,2|0|8,3:2|3:0|0:1,0:0:0:0:
264,250,327966,1,2,3:2:0:0:
274,217,328045,1,2,0:3:0:0:
276,183,328124,1,8,0:1:0:0:
271,149,328203,1,0,0:0:0:0:
258,117,328282,2,0,L|209:128,1,47.9999985351563,2|2,3:2|3:0,3:0:0:0:
145,290,328440,2,0,L|155:243,1,47.9999985351563,8|0,0:1|0:0,0:0:0:0:
167,45,328598,5,4,3:0:0:0:
368,232,328756,1,8,0:1:0:0:
364,208,328834,1,8,0:1:0:0:
361,184,328913,1,8,0:1:0:0:
357,160,328992,1,8,0:1:0:0:
354,136,329071,1,8,0:1:0:0:
351,113,329150,1,8,0:1:0:0:
347,88,329230,6,0,P|312:108|238:113,1,95.9999970703126,4|0,3:1|0:0,0:0:0:0:
176,134,329466,2,0,L|271:158,1,95.9999970703126,4|0,3:0|0:0,0:0:0:0:
361,184,329703,1,0,3:0:0:0:
116,276,329861,6,0,P|103:238|105:159,1,103.999995239258,4|8,3:0|0:1,0:1:0:0:
187,22,330177,1,2,3:1:0:0:
187,22,330256,1,0,3:0:0:0:
187,22,330335,1,8,0:1:0:0:
239,255,330493,2,0,L|131:248,1,103.999995239258,2|8,3:1|0:1,0:0:0:0:
2,157,330809,1,2,3:1:0:0:
2,157,330888,1,0,3:0:0:0:
2,157,330966,1,8,0:1:0:0:
257,115,331124,6,0,P|263:154|255:222,1,103.999995239258,2|8,3:1|0:1,0:0:0:0:
110,66,331440,1,2,3:1:0:0:
110,66,331519,1,0,3:0:0:0:
110,66,331598,1,8,0:1:0:0:
354,47,331756,2,0,L|348:155,1,103.999995239258,2|8,3:1|0:1,0:0:0:0:
281,345,332072,1,2,3:1:0:0:
281,345,332151,1,0,3:0:0:0:
281,345,332230,1,8,0:1:0:0:
161,164,332388,6,0,P|208:174|284:165,1,103.999995239258,2|8,3:1|0:1,0:0:0:0:
446,87,332703,1,2,3:1:0:0:
446,87,332782,1,0,3:0:0:0:
446,87,332861,1,8,0:1:0:0:
233,33,333019,2,0,L|241:142,1,103.999995239258,2|8,3:1|0:1,0:0:0:0:
281,345,333335,1,2,3:1:0:0:
281,345,333414,1,0,3:0:0:0:
281,345,333493,1,8,0:1:0:0:
273,141,333651,6,0,P|226:131|150:140,1,103.999995239258,2|8,3:1|0:1,0:0:0:0:
13,216,333966,1,2,3:1:0:0:
17,246,334045,1,0,3:0:0:0:
21,276,334124,1,8,0:1:0:0:
241,357,334282,2,0,L|233:253,1,103.999995239258,2|8,3:1|0:1,0:0:0:0:
202,48,334598,1,2,3:1:0:0:
172,52,334677,1,0,3:0:0:0:
142,56,334756,1,8,0:1:0:0:
149,222,334914,5,2,3:1:0:0:
365,160,335072,1,8,0:1:0:0:
202,48,335230,1,2,3:1:0:0:
202,48,335309,1,0,3:0:0:0:
202,48,335388,1,8,0:1:0:0:
212,285,335545,5,2,3:1:0:0:
336,83,335703,1,8,0:1:0:0:
122,152,335861,2,0,L|117:211,2,51.999997619629,2|0|8,3:1|3:0|0:1,0:0:0:0:
403,238,336177,5,4,3:0:0:0:
114,311,336335,1,8,0:1:0:0:
160,303,336414,1,8,0:1:0:0:
206,309,336493,1,8,0:1:0:0:
252,315,336572,1,8,0:1:0:0:
298,308,336651,1,8,0:1:0:0:
344,302,336730,1,8,0:1:0:0:
388,315,336809,6,0,P|328:236|365:171,1,180.000006866455,4|0,3:1|0:0,0:0:0:0:
457,158,337124,2,0,B|418:150|391:162|391:162|382:152|382:152|329:173|267:149,1,180.000006866455,4|0,3:0|0:0,0:0:0:0:
278,143,337598,5,10,0:1:0:0:
462,253,337756,2,0,L|456:152,1,95.9999970703126,0|10,3:0|0:1,0:0:0:0:
248,162,338072,5,0,3:0:0:0:
478,269,338230,2,0,L|472:168,1,95.9999970703126,10|0,0:1|3:0,0:0:0:0:
222,183,338545,5,10,0:1:0:0:
494,285,338703,2,0,L|488:184,1,95.9999970703126,0|10,3:0|0:1,0:0:0:0:
395,50,339019,1,2,3:0:0:0:
334,200,339177,1,10,0:1:0:0:
488,189,339335,1,2,3:0:0:0:
377,33,339493,1,10,0:1:0:0:
321,218,339651,1,2,3:0:0:0:
511,180,339809,2,0,L|410:174,1,95.9999970703126,10|0,0:1|3:0,0:0:0:0:
222,183,340124,5,10,0:1:0:0:
370,6,340282,2,0,P|380:41|378:111,1,95.9999970703126,0|10,3:0|0:1,0:0:0:0:
197,161,340598,5,0,3:0:0:0:
408,6,340756,2,0,P|418:41|416:111,1,95.9999970703126,10|0,0:1|3:0,0:0:0:0:
172,139,341072,5,10,0:1:0:0:
446,6,341230,2,0,P|456:41|454:111,1,95.9999970703126,0|10,3:0|0:1,0:0:0:0:
395,270,341545,1,2,3:0:0:0:
290,124,341703,1,10,0:1:0:0:
469,120,341861,1,2,3:0:0:0:
405,286,342019,1,10,0:1:0:0:
280,140,342177,1,2,3:0:0:0:
477,135,342335,2,0,P|487:170|485:240,1,95.9999970703126,10|0,0:1|3:0,0:0:0:0:
257,231,342651,5,10,0:1:0:0:
302,7,342809,2,0,L|197:14,1,95.9999970703126,0|10,3:0|0:1,0:0:0:0:
244,257,343124,5,0,3:0:0:0:
330,23,343282,2,0,L|225:30,1,95.9999970703126,10|0,0:1|3:0,0:0:0:0:
230,285,343598,5,10,0:1:0:0:
358,39,343756,2,0,L|253:46,1,95.9999970703126,0|10,3:0|0:1,0:0:0:0:
75,106,344072,1,2,3:0:0:0:
221,234,344230,1,10,0:1:0:0:
262,45,344388,1,2,3:0:0:0:
75,129,344545,1,10,0:1:0:0:
243,226,344703,1,2,3:0:0:0:
249,28,344861,2,0,L|144:35,1,95.9999970703126,10|0,0:1|3:0,0:0:0:0:
146,41,345098,1,0,0:0:0:0:
139,47,345177,6,0,L|151:108,1,47.9999985351563,10|0,0:1|0:0,0:0:0:0:
136,234,345335,1,2,3:0:0:0:
132,257,345414,1,0,0:0:0:0:
129,280,345493,2,0,L|136:353,1,47.9999985351563,10|0,0:1|0:0,0:0:0:0:
325,260,345651,2,0,L|329:212,1,47.9999985351563,2|0,3:0|0:0,0:0:0:0:
249,28,345809,1,10,0:1:0:0:
245,51,345888,1,0,0:0:0:0:
242,74,345967,2,0,L|249:147,1,47.9999985351563,2|0,3:0|0:0,0:0:0:0:
298,341,346124,5,10,0:1:0:0:
336,79,346282,2,0,P|298:71|236:75,1,95.9999970703126,0|8,3:0|0:1,0:0:0:0:
84,153,346598,1,8,0:1:0:0:
354,245,346756,1,2,3:0:0:0:
76,172,346914,5,8,0:1:0:0:
336,79,347072,1,8,0:1:0:0:
266,334,347230,1,8,0:1:0:0:
218,29,347388,1,4,3:0:0:0:
245,51,347703,5,0,3:0:0:0:
239,355,347861,2,0,P|269:360|333:352,1,80,4|0,3:0|0:0,0:0:0:0:
269,72,348177,1,12,0:1:0:0:
219,322,348335,2,0,B|202:345|203:376|203:376|188:327|201:248,1,160,0|0,3:0|3:0,0:0:0:0:
216,148,348809,2,0,P|158:189|69:166,1,160,2|0,3:1|2:0,3:0:0:0:
134,94,349282,1,0,3:0:0:0:
270,220,349440,2,0,P|309:229|350:224,1,80,10|0,0:1|3:0,0:0:0:0:
359,56,349756,2,0,P|320:47|279:52,1,80,0|0,3:0|2:0,0:0:0:0:
134,94,350072,5,2,2:1:0:0:
269,72,350230,1,0,3:0:0:0:
112,17,350388,2,0,L|98:176,1,160,0|10,3:0|0:1,0:0:0:0:
251,245,350861,2,0,L|243:157,1,80,0|0,3:0|2:0,0:0:0:0:
200,12,351177,1,0,3:0:0:0:
173,235,351335,2,0,B|223:251|223:251|279:238|279:238|330:249,1,160,2|0,3:1|2:0,0:0:0:0:
277,338,351809,1,0,3:0:0:0:
227,169,351966,2,0,L|235:81,1,80,10|0,0:1|3:1,0:1:0:0:
406,204,352282,2,0,L|413:283,1,80,0|0,3:0|2:0,0:0:0:0:
251,245,352598,5,2,2:1:0:0:
401,172,352756,1,0,3:0:0:0:
198,145,352914,2,0,B|198:194|157:217|157:217|181:248|171:300,1,160,0|10,3:1|0:1,0:1:0:0:
117,143,353388,2,0,B|112:141|103:103|121:54,1,80,0|0,3:0|2:0,0:0:0:0:
240,0,353703,1,0,2:0:0:0:
306,141,353861,2,0,P|354:158|464:145,1,160,2|0,3:1|2:0,0:0:0:0:
315,54,354335,1,0,3:0:0:0:
198,145,354493,2,0,P|196:186|209:236,1,80,10|0,0:1|3:1,0:1:0:0:
382,193,354809,2,0,P|390:153|388:114,1,80,0|0,3:0|2:0,0:0:0:0:
229,68,355124,5,2,2:1:0:0:
297,234,355282,1,0,3:0:0:0:
305,33,355440,2,0,L|138:42,1,160,0|10,3:0|0:1,0:0:0:0:
38,136,355914,2,0,L|205:145,1,160,0|0,3:0|2:0,0:0:0:0:
357,149,356388,5,0,3:0:0:0:
170,224,356545,1,8,3:1:0:0:
406,213,356703,1,8,3:1:0:0:
229,68,356861,1,0,3:0:0:0:
238,300,357019,5,8,3:1:0:0:
362,115,357177,1,8,3:1:0:0:
125,123,357335,1,4,3:1:0:0:
380,132,357493,1,4,3:0:0:0:
401,153,357809,5,0,3:0:0:0:
97,137,357966,2,0,P|92:169|99:226,1,80,4|0,3:0|2:0,0:0:0:0:
151,310,358282,1,10,0:1:0:0:
167,70,358440,2,0,P|92:39|25:73,1,160,0|0,3:0|3:0,0:0:0:0:
195,179,358914,2,0,B|252:164|269:115|269:115|270:147|300:170,1,160,2|0,3:1|2:0,0:0:0:0:
348,105,359388,1,0,3:0:0:0:
310,280,359545,2,0,P|299:246|302:188,1,80,10|0,0:1|3:1,0:1:0:0:
424,53,359861,2,0,P|435:87|432:145,1,80,0|0,3:0|2:0,0:0:0:0:
393,227,360177,5,2,2:1:0:0:
341,74,360335,1,0,3:0:0:0:
310,280,360493,2,0,B|248:282|193:262|193:262|222:283|236:315,1,160,0|10,3:1|0:1,0:1:0:0:
151,334,360966,1,0,3:0:0:0:
195,179,361124,2,0,L|189:91,1,80,0|0,2:0|3:0,0:0:0:0:
125,218,361440,2,0,P|190:261|267:216,1,160,2|0,3:1|2:0,0:0:0:0:
279,145,361914,1,0,3:0:0:0:
99,138,362072,2,0,L|93:217,1,80,10|0,0:1|3:1,0:1:0:0:
264,309,362388,2,0,L|258:221,1,80,0|0,3:0|2:0,0:0:0:0:
210,76,362703,5,2,2:1:0:0:
125,218,362861,1,0,3:0:0:0:
279,145,363019,2,0,B|352:126|362:168|443:145,1,160,0|10,3:1|0:1,0:1:0:0:
396,71,363493,1,0,3:0:0:0:
203,106,363651,2,0,P|194:144|209:197,1,80,0|0,2:0|3:0,0:0:0:0:
260,31,363966,2,0,P|190:15|120:66,1,160,2|0,3:1|2:0,0:0:0:0:
201,183,364440,1,0,3:0:0:0:
147,303,364598,6,0,P|119:313|91:312,2,58.6666684570313,10|0|0,0:1|0:0|3:0,0:0:0:0:
267,242,364914,1,0,3:0:0:0:
312,226,365019,1,0,0:0:0:0:
359,230,365124,1,0,0:0:0:0:
395,261,365230,5,4,3:0:0:0:
179,209,365388,1,8,0:1:0:0:
436,179,365545,1,8,0:1:0:0:
320,320,365703,5,2,3:1:0:0:
228,105,365861,1,8,0:1:0:0:
465,194,366019,1,8,0:1:0:0:
267,242,366177,5,2,3:1:0:0:
441,94,366335,1,8,0:1:0:0:
187,32,366493,1,8,0:1:0:0:
350,198,366651,5,2,3:1:0:0:
469,5,366809,1,8,0:1:0:0:
228,105,366966,1,8,0:1:0:0:
465,194,367124,5,8,0:1:0:0:
385,23,367282,1,0,3:0:0:0:
350,227,367440,1,8,0:3:0:0:
471,81,367598,1,4,3:1:0:0:
502,304,367756,5,4,3:0:0:0:
334,254,382913,6,0,P|353:216|347:139,1,111.999996582031,2|0,0:0|0:0,0:0:0:0:
272,90,383387,1,2,0:0:0:0:
250,112,383545,2,0,P|223:120|186:121,1,55.9999982910157
88,105,383861,2,0,P|117:155|117:222,1,111.999996582031,2|0,0:0|0:0,0:0:0:0:
60,275,384334,2,0,P|107:297|171:281,1,111.999996582031,2|0,0:0|0:0,0:0:0:0:
255,220,384808,6,0,L|245:335,1,111.999996582031,2|0,0:0|0:0,0:0:0:0:
333,259,385282,1,2,0:0:0:0:
346,236,385440,2,0,L|337:173,1,55.9999982910157
272,90,385756,6,0,L|212:94,1,55.9999982910157,2|0,0:0|0:0,0:0:0:0:
231,195,386071,2,0,L|171:191,1,55.9999982910157,2|0,0:0|0:0,0:0:0:0:
130,112,386387,2,0,L|70:116,1,55.9999982910157,2|0,0:0|0:0,0:0:0:0:
30,206,386703,6,0,P|48:166|40:96,1,111.999996582031,2|0,0:0|0:0,0:0:0:0:
64,0,387177,1,2,0:0:0:0:
82,17,387334,2,0,P|111:28|143:27,1,55.9999982910157
238,9,387650,2,0,P|228:46|246:124,1,111.999996582031,2|0,0:0|0:0,0:0:0:0:
314,189,388124,2,0,P|266:216|208:211,1,111.999996582031,2|0,0:0|0:0,0:0:0:0:
130,112,388598,6,0,L|244:117,1,111.999996582031,2|0,0:0|0:0,0:0:0:0:
338,100,389071,1,2,0:0:0:0:
360,111,389229,2,0,L|350:170,1,55.9999982910157
363,268,389545,6,0,L|434:261,1,55.9999982910157,2|0,0:0|0:0,0:0:0:0:
317,352,389861,2,0,L|388:359,1,55.9999982910157,2|0,0:0|0:0,0:0:0:0:
266,266,390177,1,2,0:0:0:0:
266,266,390256,1,2,0:0:0:0:
266,266,390334,1,0,0:0:0:0:
195,338,390492,6,0,P|169:301|175:226,1,111.999996582031,2|0,0:0|0:0,0:0:0:0:
229,151,390966,1,2,0:0:0:0:
239,130,391124,2,0,P|245:105|242:68,1,55.9999982910157
140,38,391440,2,0,P|184:49|259:37,1,111.999996582031,2|0,0:0|0:0,0:0:0:0:
350,47,391913,1,2,0:0:0:0:
337,70,392071,2,0,P|333:97|339:136,1,55.9999982910157
407,219,392387,6,0,B|367:212|367:212|339:219|339:219|294:210,1,111.999996582031,2|0,0:0|0:0,0:0:0:0:
216,159,392861,1,2,0:0:0:0:
175,235,393019,2,0,L|185:297,1,55.9999982910157
269,345,393334,2,0,L|276:234,1,111.999996582031,2|0,0:0|0:0,0:0:0:0:
228,136,393808,1,2,0:0:0:0:
175,235,393966,2,0,L|119:243,1,55.9999982910157
35,274,394282,6,0,B|15:216|53:214|32:155,1,111.999996582031,2|0,0:0|0:0,0:0:0:0:
10,65,394756,1,2,0:0:0:0:
30,81,394913,2,0,P|63:87|97:83,1,55.9999982910157
172,41,395229,2,0,P|218:33|291:41,1,111.999996582031,2|0,0:0|0:0,0:0:0:0:
369,88,395703,2,0,P|355:121|354:151,2,55.9999982910157,2|0|0,0:0|0:0|0:0,0:0:0:0:
459,48,396177,5,2,0:0:0:0:
460,66,396255,1,2,0:0:0:0:
461,85,396334,1,0,0:0:0:0:
462,103,396413,1,0,0:0:0:0:
442,127,396492,5,2,0:0:0:0:
440,145,396570,1,2,0:0:0:0:
439,164,396649,1,0,0:0:0:0:
438,182,396728,1,0,0:0:0:0:
460,206,396808,5,2,0:0:0:0:
461,224,396886,1,2,0:0:0:0:
462,242,396965,1,0,0:0:0:0:
463,261,397044,1,0,0:0:0:0:
464,281,397124,6,0,L|376:274,1,64,2|0,0:0|0:0,0:0:0:0:
331,242,397361,1,0,0:0:0:0:
321,239,397440,2,0,L|233:246,1,64,2|0,0:0|0:0,0:0:0:0:
199,291,397677,1,0,0:0:0:0:
189,294,397756,2,0,L|101:287,1,64,2|0,0:0|0:0,0:0:0:0:
53,319,397992,1,0,0:0:0:0:
55,328,398071,6,0,P|95:269|88:198,1,143.999995605469,4|2,3:0|0:1,0:0:0:0:
19,135,398545,1,0,3:0:0:0:
90,70,398703,2,0,P|126:63|177:70,1,71.9999978027344,2|0,0:1|3:0,0:0:0:0:
300,98,399019,2,0,P|291:75|291:21,1,71.9999978027344,10|0,0:0|0:0,0:0:0:0:
395,43,399334,1,2,0:1:0:0:
393,57,399413,1,2,0:1:0:0:
391,71,399492,2,0,L|382:134,1,35.9999989013672,2|0,0:1|0:0,0:0:0:0:
348,177,399650,1,2,0:1:0:0:
349,191,399729,1,2,0:1:0:0:
350,205,399808,1,2,0:1:0:0:
352,219,399887,1,0,0:0:0:0:
354,233,399966,6,0,B|329:240|301:221|301:221|250:207|208:230,1,143.999995605469,2|2,3:1|0:1,0:0:0:0:
262,313,400440,1,2,0:0:0:0:
434,281,400598,2,0,L|440:197,1,71.9999978027344,2|0,0:1|3:0,0:0:0:0:
481,59,400913,2,0,L|337:66,1,143.999995605469,10|2,0:0|0:1,0:0:0:0:
334,77,401308,1,2,0:1:0:0:
330,87,401387,1,2,0:1:0:0:
184,117,401545,2,0,L|176:65,2,35.9999989013672,4|2|2,0:2|0:1|0:1,0:0:0:0:
259,193,401861,6,0,P|195:223|112:197,1,143.999995605469,4|2,3:1|0:1,0:0:0:0:
97,116,402334,1,2,0:1:0:0:
32,185,402492,2,0,P|30:211|50:267,1,71.9999978027344,2|0,0:1|3:0,0:0:0:0:
200,323,402808,2,0,P|211:289|210:253,1,71.9999978027344,10|0,0:0|0:0,0:0:0:0:
184,117,403124,1,2,0:1:0:0:
188,103,403203,1,2,0:1:0:0:
192,89,403282,2,0,L|248:78,1,35.9999989013672,2|0,0:1|0:0,0:0:0:0:
355,125,403440,1,2,0:1:0:0:
350,0,403598,1,2,0:1:0:0:
468,56,403756,6,0,B|480:83|471:111|471:111|478:121|478:121|460:152|473:197,1,143.999995605469,2|2,3:1|0:1,0:0:0:0:
507,303,404229,2,0,L|425:296,1,71.9999978027344,2|0,3:2|0:0,0:0:0:0:
346,340,404545,2,0,L|264:347,1,71.9999978027344,2|8,3:2|0:0,0:0:0:0:
175,310,404861,1,2,0:1:0:0:
175,310,404940,1,2,0:1:0:0:
175,310,405019,1,2,0:0:0:0:
92,360,405177,1,2,0:0:0:0:
186,212,405334,1,4,0:0:0:0:
256,370,405492,1,4,0:0:0:0:
201,197,405650,6,0,P|263:166|334:194,1,143.999995605469,4|2,3:1|0:1,0:0:0:0:
388,262,406124,2,0,P|366:221|376:121,1,143.999995605469,2|0,3:2|3:0,3:0:0:0:
448,32,406598,2,0,P|413:41|369:38,1,71.9999978027344,10|0,0:0|0:0,0:0:0:0:
259,8,406913,1,2,0:1:0:0:
245,11,406992,1,2,0:1:0:0:
231,14,407071,2,0,L|173:29,1,35.9999989013672,2|0,0:1|0:0,0:0:0:0:
126,74,407229,1,2,0:1:0:0:
111,72,407308,1,2,0:1:0:0:
96,70,407387,1,2,0:1:0:0:
81,69,407466,1,2,0:1:0:0:
66,68,407545,6,0,L|73:156,1,71.9999978027344,2|2,3:1|0:1,0:0:0:0:
84,248,407861,1,2,0:1:0:0:
177,171,408019,2,0,B|226:167|272:178|272:178|248:187|235:212,1,143.999995605469,2|0,0:2|3:0,0:0:0:0:
313,326,408492,2,0,L|309:246,1,71.9999978027344,10|0,0:0|0:0,0:0:0:0:
274,97,408808,2,0,L|354:101,1,71.9999978027344,4|0,0:2|0:0,0:0:0:0:
475,120,409124,1,4,0:1:0:0:
177,171,409440,6,0,P|154:88|173:31,1,143.999995605469,4|2,3:0|0:1,0:0:0:0:
260,1,409913,1,0,3:0:0:0:
274,97,410071,2,0,P|276:134|269:179,1,71.9999978027344,2|0,0:1|3:0,0:0:0:0:
229,297,410387,2,0,P|266:299|311:292,1,71.9999978027344,10|0,0:0|0:0,0:0:0:0:
438,278,410703,1,2,0:1:0:0:
441,263,410782,1,2,0:1:0:0:
444,248,410861,2,0,P|449:224|451:198,1,35.9999989013672,2|0,0:1|0:0,0:0:0:0:
496,112,411019,1,2,0:1:0:0:
401,104,411177,1,2,0:1:0:0:
507,0,411334,6,0,B|464:18|408:22|408:22|433:24|460:42,1,143.999995605469,4|2,3:1|0:1,0:0:0:0:
493,125,411808,1,0,0:0:0:0:
388,166,411966,2,0,L|375:79,1,71.9999978027344,4|0,0:0|3:0,0:0:0:0:
289,17,412282,2,0,L|282:142,1,107.999996704102,10|0,0:0|0:0,0:0:0:0:
293,153,412598,5,8,0:3:0:0:
192,64,412756,1,8,0:3:0:0:
186,236,412913,2,0,B|246:254|243:226|304:246,1,107.999996704102,4|0,0:1|0:0,0:0:0:0:
408,276,413229,6,0,L|265:281,1,143.999995605469,4|0,3:0|0:0,0:0:0:0:
143,335,413703,1,0,0:0:0:0:
201,222,413861,2,0,P|209:190|202:142,1,71.9999978027344,2|0,0:1|3:0,0:0:0:0:
66,66,414177,2,0,P|66:136|119:181,2,143.999995605469,10|2|2,0:0|0:0|3:2,0:0:0:0:
275,93,415124,6,0,L|147:100,2,128,2|2|2,3:2|0:0|0:0,0:0:0:0:
458,131,416071,5,8,0:3:0:0:
449,159,416177,2,8,L|458:210,1,42.6666666666667,8|8,0:3|0:3,0:3:0:0:
371,211,416387,5,8,0:3:0:0:
380,239,416493,2,8,L|371:290,1,42.6666666666667,8|8,0:3|0:3,0:3:0:0:
298,342,416703,5,2,0:3:0:0:
288,313,416808,1,2,0:3:0:0:
269,112,417019,6,0,B|242:99|212:109|212:109|202:97|202:97|173:117|127:106,1,143.999995605469,4|2,3:0|0:3,0:0:0:0:
154,21,417492,1,0,3:0:0:0:
237,187,417650,2,0,P|239:218|231:264,1,71.9999978027344,2|0,0:3|3:0,0:0:0:0:
189,345,417966,2,0,B|268:370|267:325|331:345,1,143.999995605469,10|2,0:3|0:3,0:0:0:0:
340,348,418361,1,2,0:1:0:0:
350,352,418440,1,2,0:3:0:0:
468,343,418598,1,2,0:3:0:0:
463,325,418677,1,2,0:1:0:0:
460,307,418756,1,2,0:3:0:0:
459,289,418834,1,2,0:1:0:0:
460,271,418913,6,0,B|462:238|480:216|480:216|445:244|392:226,1,143.999995605469,2|2,3:3|0:3,0:0:0:0:
428,134,419387,1,2,0:1:0:0:
321,182,419545,2,0,L|325:103,1,71.9999978027344,2|0,0:3|3:0,0:0:0:0:
381,15,419861,2,0,L|230:24,1,143.999995605469,10|2,0:3|0:3,0:0:0:0:
111,54,420334,1,2,0:2:0:0:
178,171,420492,2,0,L|186:87,1,71.9999978027344,2|4,0:3|0:0,0:0:0:0:
92,22,420808,6,0,B|76:45|79:68|79:68|103:104|83:165,1,143.999995605469,4|2,3:1|0:3,0:0:0:0:
24,277,421282,1,2,0:1:0:0:
158,255,421440,2,0,P|195:251|241:257,1,71.9999978027344,2|0,0:3|3:0,0:0:0:0:
450,320,421756,2,0,P|392:330|305:315,1,143.999995605469,10|2,0:3|0:3,0:0:0:0:
299,311,422150,1,2,0:1:0:0:
289,305,422229,1,2,0:3:0:0:
366,169,422387,1,2,0:3:0:0:
366,169,422466,1,2,0:1:0:0:
366,169,422545,1,2,0:3:0:0:
147,226,422703,6,0,L|296:220,1,143.999995605469,2|2,3:3|0:3,0:0:0:0:
391,180,423177,1,2,0:1:0:0:
271,65,423334,2,0,L|279:143,1,71.9999978027344,2|0,0:3|3:0,0:0:0:0:
376,323,423650,2,0,L|390:180,1,143.999995605469,10|2,0:3|0:3,0:0:0:0:
349,25,424124,1,2,0:0:0:0:
282,143,424282,1,2,0:3:0:0:
436,80,424440,1,4,0:0:0:0:
247,34,424598,6,0,B|177:11|170:54|97:31,1,143.999995605469,4|2,3:1|0:3,0:0:0:0:
207,109,425071,1,2,3:1:0:0:
335,7,425229,2,0,P|341:42|331:76,1,71.9999978027344,2|0,0:3|3:0,0:0:0:0:
272,173,425545,2,0,P|334:190|411:156,1,143.999995605469,10|2,0:3|0:3,0:0:0:0:
411,156,425940,1,2,0:1:0:0:
416,150,426019,1,2,0:3:0:0:
181,136,426177,1,2,0:3:0:0:
182,150,426256,1,2,0:1:0:0:
183,164,426334,1,2,0:3:0:0:
184,178,426413,1,2,0:1:0:0:
185,192,426492,6,0,B|131:168|69:177|69:177|87:168|97:148,1,143.999995605469,2|2,3:3|0:3,0:0:0:0:
29,106,426966,1,2,0:1:0:0:
35,260,427124,2,0,P|77:269|123:257,1,71.9999978027344,2|0,0:3|3:0,0:0:0:0:
185,192,427440,2,0,P|161:121|190:56,1,143.999995605469,10|2,0:3|0:3,0:0:0:0:
280,33,427913,1,2,0:0:0:0:
246,122,428071,1,2,0:3:0:0:
183,29,428229,1,4,0:0:0:0:
334,108,428387,6,0,P|350:153|334:267,1,143.999995605469,4|2,3:1|0:3,0:0:0:0:
273,317,428861,1,2,0:1:0:0:
185,213,429019,2,0,P|224:208|272:213,1,71.9999978027344,2|0,0:3|3:0,0:0:0:0:
404,324,429334,2,0,P|337:346|273:317,1,143.999995605469,10|2,0:3|0:3,0:0:0:0:
269,306,429729,1,2,0:1:0:0:
265,295,429808,1,2,0:3:0:0:
326,166,429966,1,2,0:3:0:0:
329,152,430045,1,2,0:1:0:0:
332,138,430124,1,2,0:3:0:0:
334,123,430203,1,2,0:1:0:0:
334,108,430282,6,0,B|284:127|244:122|244:122|265:101|265:62,1,143.999995605469,8|2,3:1|0:3,0:0:0:0:
168,62,430756,1,0,0:0:0:0:
190,196,430913,2,0,P|195:233|183:276,1,71.9999978027344,8|0,0:1|3:0,0:0:0:0:
81,224,431229,1,8,0:0:0:0:
295,200,431387,5,4,3:2:0:0:
97,197,431703,1,4,3:1:0:0:
326,166,432019,1,4,3:2:0:0:
17,139,432177,6,0,P|1:211|35:273,1,143.999995605469,4|2,3:0|0:3,0:0:0:0:
97,197,432650,1,0,3:0:0:0:
104,348,432808,2,0,P|127:317|134:280,1,71.9999978027344,2|0,0:3|3:0,0:0:0:0:
206,111,433124,2,0,P|188:153|217:250,1,143.999995605469,10|2,0:3|0:3,0:0:0:0:
220,251,433519,1,2,0:1:0:0:
227,258,433598,1,2,0:3:0:0:
296,112,433756,1,2,0:3:0:0:
294,101,433834,1,2,0:1:0:0:
292,90,433913,1,2,0:3:0:0:
290,79,433992,1,2,0:1:0:0:
288,68,434071,6,0,L|449:77,1,143.999995605469,8|2,3:1|0:3,0:0:0:0:
511,103,434545,1,2,0:1:0:0:
377,224,434703,2,0,P|372:193|372:138,1,71.9999978027344,8|2,0:1|3:1,0:0:0:0:
410,0,435019,2,0,P|412:41|404:150,1,143.999995605469,10|8,0:3|0:1,0:0:0:0:
322,299,435492,1,2,0:1:0:0:
274,146,435650,1,2,0:3:0:0:
274,146,435729,1,2,0:1:0:0:
274,146,435808,1,2,0:3:0:0:
489,214,435966,6,0,P|432:236|347:211,1,143.999995605469,8|2,3:1|0:3,0:0:0:0:
322,69,436440,1,2,0:1:0:0:
262,245,436598,2,0,L|271:336,1,71.9999978027344,8|2,0:1|3:1,0:0:0:0:
418,139,436913,2,0,L|270:147,1,143.999995605469,10|8,0:3|0:1,0:0:0:0:
149,182,437387,1,2,0:1:0:0:
202,28,437545,1,2,0:3:0:0:
204,38,437624,1,2,0:1:0:0:
205,48,437703,1,2,0:3:0:0:
207,58,437782,1,2,0:1:0:0:
209,68,437861,6,0,B|184:64|166:41|166:41|138:86|75:77,1,143.999995605469,8|2,3:1|0:3,0:0:0:0:
99,0,438334,1,2,0:1:0:0:
166,155,438492,2,0,L|160:236,1,71.9999978027344,2|0,0:3|3:0,0:0:0:0:
118,301,438808,1,10,0:3:0:0:
254,228,438966,1,2,0:1:0:0:
271,222,439045,1,2,0:1:0:0:
288,219,439124,1,2,0:2:0:0:
306,218,439203,1,2,0:1:0:0:
323,219,439282,1,2,0:1:0:0:
340,222,439361,1,2,0:1:0:0:
357,227,439440,2,0,B|363:207|363:207|355:181|355:181|368:154|353:111,1,107.999996704102,4|0,0:2|0:0,0:0:0:0:
302,61,439756,6,0,P|340:94|435:92,1,143.999995605469,4|2,3:0|0:3,0:0:0:0:
385,6,440229,1,0,0:1:0:0:
211,37,440387,2,0,P|208:77|225:118,1,71.9999978027344,2|0,0:3|3:0,0:0:0:0:
307,251,440703,2,0,P|243:232|159:259,1,143.999995605469,10|2,0:3|0:3,0:0:0:0:
239,329,441177,1,2,0:1:0:0:
392,256,441334,2,0,P|388:220|368:190,1,71.9999978027344,2|2,0:3|0:1,0:0:0:0:
233,144,441650,6,0,L|380:150,1,143.999995605469,8|2,3:1|0:3,0:0:0:0:
476,173,442124,1,2,0:1:0:0:
354,65,442282,2,0,L|437:68,1,71.9999978027344,8|0,0:1|3:0,0:0:0:0:
392,256,442598,2,0,L|309:259,1,71.9999978027344,10|0,0:3|0:0,0:0:0:0:
147,213,442913,2,0,L|157:304,1,71.9999978027344,2|0,0:3|0:0,0:0:0:0:
264,181,443229,2,0,L|271:109,1,71.9999978027344,2|0,0:2|0:0,0:0:0:0:
134,24,443545,6,0,B|108:110|161:98|127:193,1,160,4|2,3:1|0:1,0:0:0:0:
44,137,444019,1,0,3:0:0:0:
217,65,444177,2,0,P|261:58|304:66,1,80,2|0,0:1|3:0,0:0:0:0:
503,134,444492,2,0,P|425:157|342:138,1,160,10|2,0:1|0:1,0:0:0:0:
295,63,444966,1,0,0:0:0:0:
249,152,445124,2,0,P|243:191|248:230,1,80,2|0,0:1|0:0,0:0:0:0:
283,318,445440,5,4,3:0:0:0:
114,288,445756,2,8,L|122:253,3,23.9999992675781,8|8|8|8,0:3|0:3|0:3|0:3,0:3:0:0:
84,191,446071,2,8,L|77:150,3,27.9999991455078,8|8|8|8,0:3|0:3|0:3|0:3,0:3:0:0:
94,79,446387,1,8,0:3:0:0:
109,76,446466,1,8,0:3:0:0:
124,74,446545,1,8,0:3:0:0:
140,74,446624,1,8,0:3:0:0:
155,75,446703,5,8,0:3:0:0:
176,88,446782,1,8,0:3:0:0:
203,96,446861,1,2,0:3:0:0:
231,98,446940,1,2,0:3:0:0:
259,92,447019,1,2,0:3:0:0:
288,80,447098,1,2,0:3:0:0:
319,72,447177,1,0,3:0:0:0:
351,70,447256,1,0,3:0:0:0:
388,81,447334,6,0,P|392:115|386:167,1,80,4|0,3:0|2:0,0:0:0:0:
256,301,447650,2,0,P|252:267|258:215,1,80,2|0,2:3|2:0,0:0:0:0:
459,239,447966,1,0,3:0:0:0:
432,255,448044,1,0,3:0:0:0:
401,260,448123,1,0,3:0:0:0:
370,256,448202,1,0,3:0:0:0:
339,248,448282,6,0,L|345:327,1,80,8|0,3:1|2:0,0:0:0:0:
468,157,448598,2,0,L|474:77,1,80,2|0,2:3|2:0,2:0:0:0:
259,26,448913,1,0,3:0:0:0:
250,56,448991,1,0,3:0:0:0:
245,87,449070,1,0,3:0:0:0:
248,118,449149,1,0,3:0:0:0:
256,148,449228,5,2,3:0:0:0:
379,1,449387,1,0,2:0:0:0:
155,64,449545,2,0,P|151:100|161:152,1,80,2|0,2:3|2:0,0:0:0:0:
210,310,449861,1,2,2:3:0:0:
248,118,450019,1,0,2:0:0:0:
95,210,450177,5,8,3:1:0:0:
127,226,450256,1,0,3:0:0:0:
162,231,450334,1,0,3:0:0:0:
197,228,450413,1,0,3:0:0:0:
229,211,450492,1,0,3:0:0:0:
263,202,450571,1,0,3:0:0:0:
299,201,450650,1,0,3:0:0:0:
333,212,450729,1,0,3:0:0:0:
362,233,450808,5,0,3:0:0:0:
348,195,450887,1,0,3:0:0:0:
349,154,450966,1,0,3:0:0:0:
359,115,451045,1,0,3:0:0:0:
383,83,451124,6,0,P|352:91|293:89,1,80,2|0,3:0|2:0,0:0:0:0:
75,37,451440,2,0,P|106:29|165:31,1,80,2|0,2:3|2:0,2:0:0:0:
197,239,451756,1,0,3:0:0:0:
182,212,451834,1,0,3:0:0:0:
173,182,451913,1,0,3:0:0:0:
172,150,451992,1,0,3:0:0:0:
181,119,452071,6,0,L|101:127,1,80,8|0,3:1|2:0,0:0:0:0:
153,317,452387,2,0,L|233:324,1,80,2|0,2:3|2:0,2:0:0:0:
437,230,452703,1,0,3:0:0:0:
400,212,452781,1,0,3:0:0:0:
361,205,452860,1,0,3:0:0:0:
321,207,452939,1,0,3:0:0:0:
283,219,453019,6,0,B|161:287|80:146|95:30|199:4|298:36|341:244|146:215|134:125|46:185,1,559.999982910157,8|2,3:1|0:3,0:0:0:0:
384,202,454913,6,0,B|399:169|384:132|384:132|393:123|393:123|374:84|385:41,1,160,4|2,3:0|0:1,0:0:0:0:
485,73,455387,1,0,3:0:0:0:
434,275,455545,2,0,P|401:287|338:275,1,80,2|0,0:1|3:1,0:1:0:0:
139,168,455861,2,0,P|190:149|302:171,1,160,10|2,0:1|0:1,0:1:0:0:
53,233,456334,1,0,3:0:0:0:
53,233,456413,1,0,3:0:0:0:
53,233,456492,2,0,P|34:196|45:112,1,120,2|0,3:1|0:0,0:0:0:0:
33,49,456808,6,0,B|49:79|40:120|40:120|92:109|122:144,1,160,2|2,3:1|0:1,0:0:0:0:
116,298,457282,1,0,3:0:0:0:
247,216,457440,2,0,L|225:138,1,80,2|0,0:1|3:1,0:1:0:0:
186,356,457756,2,0,L|270:338,1,80,10|0,0:1|0:1,0:1:0:0:
476,205,458071,1,2,3:1:0:0:
439,189,458149,1,0,3:0:0:0:
399,187,458228,1,0,3:0:0:0:
361,199,458307,1,0,3:0:0:0:
329,223,458387,2,0,P|340:181|315:97,1,120,10|0,0:1|0:1,0:1:0:0:
252,60,458703,6,0,P|296:88|406:67,1,160,4|2,3:0|0:1,0:0:0:0:
332,0,459177,1,0,3:0:0:0:
167,36,459334,2,0,P|165:75|180:112,1,80,2|0,0:1|3:1,0:1:0:0:
311,239,459650,2,0,B|227:216|234:264|154:235,1,160,10|2,0:1|0:1,0:1:0:0:
399,171,460124,1,0,3:0:0:0:
399,171,460203,1,0,3:0:0:0:
399,171,460282,2,0,P|424:211|421:286,1,120,2|0,3:1|0:0,0:0:0:0:
346,318,460598,6,0,B|407:301|464:318|464:318|451:339|417:345,1,160,2|2,3:1|0:1,0:0:0:0:
270,366,461071,1,0,3:0:0:0:
304,208,461229,2,0,L|296:124,1,80,2|0,0:1|3:1,0:1:0:0:
113,194,461545,2,0,L|192:201,1,80,10|0,0:1|0:1,0:1:0:0:
395,149,461861,1,0,3:0:0:0:
404,118,461940,1,0,3:0:0:0:
405,86,462019,1,0,3:0:0:0:
395,55,462098,1,0,3:0:0:0:
373,31,462177,5,8,0:1:0:0:
337,49,462256,1,8,0:1:0:0:
298,56,462334,1,8,0:1:0:0:
258,50,462413,1,8,0:1:0:0:
222,32,462492,6,0,B|221:65|248:91|248:91|198:72|151:93,1,160,4|2,3:0|0:1,0:0:0:0:
87,172,462966,1,0,3:0:0:0:
290,182,463124,1,2,0:1:0:0:
160,324,463282,1,0,3:0:0:0:
160,324,463361,1,0,3:0:0:0:
160,324,463440,2,0,B|148:286|169:254|169:254|159:242|159:242|186:214|182:169,1,160,10|2,0:1|0:1,0:1:0:0:
146,33,463913,1,0,3:0:0:0:
146,33,463992,1,0,3:0:0:0:
146,33,464071,2,0,P|193:58|269:42,1,120,2|0,3:1|0:0,0:0:0:0:
322,2,464387,6,0,B|294:21|287:43|287:43|311:84|308:158,1,160,4|2,3:0|0:1,0:0:0:0:
254,267,464861,1,0,3:0:0:0:
394,174,465019,1,2,0:1:0:0:
178,138,465177,1,0,3:0:0:0:
180,157,465256,1,0,3:0:0:0:
182,176,465334,5,10,0:1:0:0:
390,88,465492,1,0,3:0:0:0:
133,61,465650,1,10,0:1:0:0:
370,193,465808,1,0,3:0:0:0:
114,221,465966,1,10,0:1:0:0:
253,42,466124,1,0,3:0:0:0:
240,290,466282,6,0,B|203:280|190:242|190:242|177:292|122:300,1,160,4|2,3:0|0:1,0:0:0:0:
114,221,466756,1,0,3:0:0:0:
276,201,466913,1,2,0:1:0:0:
164,57,467071,1,0,3:0:0:0:
164,57,467150,1,0,3:0:0:0:
164,57,467229,2,0,P|156:85|154:143,1,80,10|0,0:1|0:1,0:1:0:0:
367,225,467545,2,0,P|366:185|356:146,1,80,2|0,0:1|0:0,0:0:0:0:
262,0,467861,2,0,L|258:122,1,120,2|0,3:1|0:0,0:0:0:0:
283,202,468177,6,0,B|263:207|239:202|239:202|230:208|230:208|209:199|178:208,1,107.999996704102,4|0,3:0|0:0,0:0:0:0:
126,280,468492,2,8,P|127:312|141:347,2,47.9999985351563,8|8|8,0:3|0:3|0:3,0:3:0:0:
153,135,468808,1,8,0:3:0:0:
167,104,468913,1,8,0:3:0:0:
174,71,469019,1,8,0:3:0:0:
172,37,469124,6,0,L|246:48,1,47.9999985351563,2|2,0:3|0:3,0:3:0:0:
410,72,469334,1,2,0:3:0:0:
420,83,469440,6,0,L|410:134,1,47.9999985351563,8|8,0:1|0:3,0:0:0:0:
303,304,469650,2,0,L|293:256,1,47.9999985351563,8|8,0:1|0:3,0:0:0:0:
284,95,469861,2,0,L|331:104,1,47.9999985351563,2|0,0:3|3:0,0:0:0:0:
488,181,470071,6,0,B|449:213|400:199|400:199|386:212|386:212|352:177|290:178,1,191.999994140625,4|10,3:0|0:1,0:0:0:0:
150,217,470545,2,0,B|160:176|184:169|184:169|118:149|125:65,1,176.000005371094,0|0,3:0|3:0,3:0:0:0:
257,24,471019,2,0,P|264:67|259:110,1,88.000002685547,10|0,0:1|0:1,0:1:0:0:
208,304,471334,1,2,3:1:0:0:
237,318,471412,1,0,3:0:0:0:
270,324,471491,1,0,3:0:0:0:
302,322,471570,1,0,3:0:0:0:
334,312,471650,2,0,P|308:268|311:176,1,132.00000402832,10|0,0:1|0:1,0:1:0:0:
395,173,471966,6,0,L|217:185,1,176.000005371094,4|10,3:0|0:1,0:0:0:0:
80,168,472440,2,0,B|108:111|87:47|87:47|101:74|130:84,1,176.000005371094,0|0,3:0|3:0,3:0:0:0:
294,25,472913,2,0,L|206:31,1,88.000002685547,10|0,0:1|0:1,0:1:0:0:
395,173,473229,1,2,3:1:0:0:
410,143,473307,1,0,3:0:0:0:
416,111,473386,1,0,3:0:0:0:
414,78,473465,1,0,3:0:0:0:
404,47,473545,2,0,P|345:69|278:61,1,132.00000402832,10|0,0:1|0:0,0:0:0:0:
220,7,473861,6,0,P|253:48|226:169,1,176.000005371094,4|10,3:0|0:1,0:0:0:0:
133,205,474334,2,0,P|212:181|308:207,1,176.000005371094,0|0,3:0|3:0,3:0:0:0:
52,267,474808,2,0,P|34:227|40:166,1,88.000002685547,10|0,0:1|0:1,0:1:0:0:
122,44,475124,1,2,3:1:0:0:
162,225,475282,1,0,3:0:0:0:
8,109,475440,2,0,L|103:120,1,88.000002685547,10|0,0:1|0:1,0:1:0:0:
274,156,475756,5,4,3:0:0:0:
285,186,475834,1,0,3:0:0:0:
290,219,475913,1,0,3:0:0:0:
286,252,475992,1,0,3:0:0:0:
276,283,476071,2,0,P|248:296|185:301,1,88.000002685547,10|0,0:1|0:0,0:0:0:0:
219,67,476387,1,0,3:0:0:0:
257,56,476466,1,0,3:0:0:0:
296,59,476545,1,0,3:0:0:0:
332,74,476624,1,0,3:0:0:0:
358,103,476703,2,8,L|366:154,1,44.0000013427735,8|8,0:1|0:1,0:1:0:0:
314,365,476861,1,0,3:0:0:0:
292,368,476940,1,0,3:0:0:0:
270,371,477019,5,12,0:1:0:0:
100,208,477177,1,0,3:0:0:0:
107,182,477256,1,0,3:0:0:0:
102,156,477334,5,4,3:0:0:0:
142,175,477413,1,0,3:0:0:0:
186,181,477492,1,0,3:0:0:0:
230,176,477571,1,0,3:0:0:0:
274,156,477650,6,0,B|262:206|223:220|223:220|194:271|235:325,1,191.999994140625,4|10,3:0|0:1,0:0:0:0:
359,104,478124,2,0,P|298:61|199:95,1,176.000005371094,0|0,3:0|3:0,3:0:0:0:
364,202,478598,2,0,P|411:189|443:154,1,88.000002685547,10|0,0:1|0:1,0:1:0:0:
247,29,478913,1,2,3:1:0:0:
218,44,478991,1,0,3:0:0:0:
186,52,479070,1,0,3:0:0:0:
153,52,479149,1,0,3:0:0:0:
121,44,479229,2,0,P|134:101|118:175,1,132.00000402832,10|0,0:1|0:1,0:1:0:0:
35,216,479545,6,0,B|85:199|85:199|120:213|120:213|159:195|215:202,1,176.000005371094,4|10,3:0|0:1,0:0:0:0:
369,235,480019,2,0,L|184:227,1,176.000005371094,0|0,3:0|3:0,3:0:0:0:
464,186,480492,2,0,L|470:277,1,88.000002685547,10|0,0:1|0:1,0:1:0:0:
344,130,480808,1,2,3:1:0:0:
357,99,480886,1,0,3:0:0:0:
379,75,480965,1,0,3:0:0:0:
408,60,481044,1,0,3:0:0:0:
441,56,481124,2,0,B|429:41|409:29|409:29|371:45|296:42,1,132.00000402832,10|0,0:1|0:1,0:1:0:0:
263,0,481440,6,0,B|298:88|235:88|267:179,1,176.000005371094,4|10,3:0|0:1,0:0:0:0:
369,235,481913,2,0,P|286:203|203:230,1,176.000005371094,0|0,3:0|3:0,3:0:0:0:
455,291,482387,2,0,P|468:241|459:194,1,88.000002685547,10|0,0:1|0:1,0:1:0:0:
314,118,482703,2,0,P|264:131|217:122,1,88.000002685547,2|0,0:1|3:1,0:1:0:0:
83,39,483019,1,10,0:1:0:0:
272,9,483177,1,0,3:0:0:0:
272,9,483256,1,8,3:0:0:0:
272,9,483334,6,0,L|263:72,1,44.0000013427735,8|8,0:1|0:3,0:0:0:0:
205,227,483492,1,0,3:0:0:0:
207,244,483571,1,0,3:0:0:0:
209,261,483650,2,0,L|217:322,1,44.0000013427735,8|0,0:1|3:0,0:0:0:0:
369,235,483808,2,0,L|374:191,1,44.0000013427735,8|0,0:1|3:0,0:0:0:0:
193,125,483966,5,0,3:0:0:0:
171,130,484045,1,0,3:0:0:0:
149,136,484124,2,0,L|119:181,1,44.0000013427735,8|0,0:1|3:0,0:0:0:0:
295,286,484282,1,0,3:0:0:0:
293,269,484361,1,0,3:0:0:0:
291,252,484440,2,0,L|283:191,1,44.0000013427735,8|0,0:1|3:0,0:0:0:0:
244,39,484598,5,8,0:1:0:0:
269,69,484677,1,8,0:1:0:0:
305,85,484756,1,8,0:1:0:0:
344,86,484834,1,8,0:1:0:0:
380,69,484913,1,4,3:0:0:0:
148,40,485071,1,4,3:1:0:0:
200,297,485229,6,0,B|171:214|235:200|194:109,1,176.000005371094,4|2,3:0|0:1,0:0:0:0:
95,169,485703,1,0,3:0:0:0:
291,252,485861,2,0,P|332:259|382:246,1,88.000002685547,2|0,0:1|3:1,0:1:0:0:
405,139,486177,2,0,P|390:223|439:293,1,176.000005371094,10|2,0:1|0:1,0:1:0:0:
454,54,486650,1,0,3:0:0:0:
454,54,486729,1,0,3:0:0:0:
454,54,486808,2,0,P|413:44|357:54,1,88.000002685547,2|0,3:1|0:0,0:0:0:0:
229,143,487124,6,0,L|407:138,1,176.000005371094,2|2,3:1|0:1,0:0:0:0:
265,35,487598,1,0,3:0:0:0:
184,215,487756,2,0,L|195:303,1,88.000002685547,2|0,0:1|3:1,0:1:0:0:
368,233,488071,2,0,L|272:225,1,88.000002685547,10|0,0:1|0:1,0:1:0:0:
76,231,488387,1,2,3:1:0:0:
65,197,488466,1,0,3:0:0:0:
66,161,488545,1,0,3:0:0:0:
77,127,488624,1,0,3:0:0:0:
95,97,488703,5,8,0:1:0:0:
121,120,488782,1,8,0:1:0:0:
155,126,488861,1,8,0:1:0:0:
190,124,488940,1,8,0:1:0:0:
222,110,489019,6,0,B|254:85|250:42|250:42|281:84|349:71,1,176.000005371094,4|2,3:0|0:1,0:0:0:0:
428,39,489492,1,0,3:0:0:0:
366,147,489650,2,0,P|358:184|368:235,1,88.000002685547,2|0,0:1|3:1,0:1:0:0:
472,292,489966,2,0,P|413:260|307:288,1,176.000005371094,10|2,0:1|0:1,0:1:0:0:
387,369,490440,1,0,3:0:0:0:
456,193,490598,2,0,P|465:150|456:107,1,88.000002685547,2|0,3:1|0:0,0:0:0:0:
194,142,490913,6,0,B|251:152|251:152|305:136|305:136|372:147,1,176.000005371094,2|2,3:1|0:1,0:0:0:0:
246,52,491387,1,0,3:0:0:0:
311,236,491545,2,0,L|410:251,1,88.000002685547,2|0,0:1|3:1,0:1:0:0:
482,169,491861,5,8,0:1:0:0:
283,252,492019,1,8,0:1:0:0:
493,197,492177,1,8,0:1:0:0:
272,224,492334,1,8,0:1:0:0:
504,225,492492,1,8,0:1:0:0:
261,196,492650,1,10,0:1:0:0:
455,328,492808,6,0,P|421:337|363:332,1,88.000002685547,4|0,3:0|0:0,0:0:0:0:
185,229,493124,2,0,P|219:220|277:225,1,88.000002685547,2|0,0:1|3:1,0:1:0:0:
237,332,493440,1,2,0:1:0:0:
105,172,493598,1,0,3:0:0:0:
105,172,493677,1,0,3:0:0:0:
105,172,493756,6,0,L|119:80,1,88.000002685547,10|0,0:1|0:0,0:0:0:0:
246,52,494071,1,2,0:1:0:0:
170,255,494229,1,0,3:0:0:0:
170,255,494308,1,0,3:0:0:0:
170,255,494387,1,2,3:1:0:0:
110,71,494545,1,0,0:0:0:0:
261,196,494703,6,0,P|308:199|362:193,1,88.000002685547,2|0,3:1|0:0,0:0:0:0:
455,42,495019,2,0,P|408:39|354:45,1,88.000002685547,2|0,0:1|3:1,0:1:0:0:
199,125,495334,1,2,0:1:0:0:
379,184,495492,1,0,3:0:0:0:
292,9,495650,6,0,L|288:101,1,88.000002685547,10|0,0:1|0:1,0:1:0:0:
276,280,495966,1,0,3:0:0:0:
246,298,496045,1,0,3:0:0:0:
211,303,496124,1,0,3:0:0:0:
175,300,496203,1,0,3:0:0:0:
143,284,496282,5,8,0:1:0:0:
170,255,496361,1,8,0:1:0:0:
182,217,496440,1,2,0:3:0:0:
178,177,496519,1,0,0:0:0:0:
160,141,496598,6,0,B|102:134|59:173|59:173|82:149|88:98,1,176.000005371094,4|2,3:0|0:1,0:0:0:0:
2,113,497071,1,0,3:0:0:0:
146,42,497229,2,0,P|189:43|227:65,1,88.000002685547,2|0,0:1|3:1,0:1:0:0:
275,171,497545,2,0,P|245:117|292:9,1,176.000005371094,10|2,0:1|0:1,0:1:0:0:
441,85,498019,1,0,3:0:0:0:
441,85,498098,1,0,3:0:0:0:
441,85,498177,2,0,P|407:97|336:94,1,88.000002685547,10|0,0:1|0:1,0:1:0:0:
146,42,498492,6,0,L|152:137,1,88.000002685547,4|0,3:0|0:0,0:0:0:0:
238,199,498729,6,0,L|243:111,1,88.000002685547,4|0,3:0|0:0,0:0:0:0:
233,26,498966,5,4,3:0:0:0:
154,219,499124,1,0,3:0:0:0:
378,192,499282,1,0,0:0:0:0:
378,192,499361,1,8,0:1:0:0:
378,192,499440,5,8,0:1:0:0:
243,111,499598,1,8,0:1:0:0:
313,296,499756,1,4,3:0:0:0:
345,92,499913,1,8,0:1:0:0:
120,136,500071,5,4,3:1:0:0:
378,192,500229,1,0,3:0:0:0:
238,354,500387,6,0,P|229:255|282:207,1,176.000005371094,4|2,3:0|0:1,0:0:0:0:
394,273,500861,1,0,3:0:0:0:
345,92,501019,2,0,P|313:87|257:91,1,88.000002685547,2|0,0:1|3:1,0:1:0:0:
120,136,501334,2,0,P|129:235|76:283,1,176.000005371094,10|2,0:1|0:1,0:1:0:0:
52,46,501808,1,0,3:0:0:0:
52,46,501887,1,0,3:0:0:0:
52,46,501966,2,0,P|93:27|143:26,1,88.000002685547,2|0,3:1|0:0,0:0:0:0:
370,69,502282,6,0,L|192:82,1,176.000005371094,2|2,3:1|0:1,0:0:0:0:
212,0,502756,1,0,3:0:0:0:
314,152,502913,2,0,L|226:159,1,88.000002685547,2|0,0:1|3:1,0:1:0:0:
114,113,503229,1,10,0:1:0:0:
294,43,503387,1,0,0:0:0:0:
250,240,503545,5,0,3:0:0:0:
216,250,503624,1,0,3:0:0:0:
180,248,503703,1,0,3:0:0:0:
146,236,503782,1,0,3:0:0:0:
119,212,503861,5,8,0:1:0:0:
157,203,503940,1,8,0:1:0:0:
189,179,504019,1,8,0:1:0:0:
208,144,504098,1,8,0:1:0:0:
210,97,504177,6,0,P|261:136|371:105,1,176.000005371094,4|2,3:0|0:1,0:0:0:0:
294,43,504650,1,0,3:0:0:0:
132,40,504808,2,0,P|117:85|123:134,1,88.000002685547,2|0,0:1|3:1,0:1:0:0:
151,285,505124,2,0,P|216:250|326:265,1,176.000005371094,10|2,0:1|0:1,0:1:0:0:
92,366,505598,1,0,3:0:0:0:
92,366,505677,1,0,3:0:0:0:
92,366,505756,2,0,P|58:327|55:284,1,88.000002685547,10|0,0:1|0:0,0:0:0:0:
120,124,506071,5,4,3:0:0:0:
373,253,506387,2,8,L|314:259,2,58.6666684570313,8|8|8,0:3|0:3|0:3,0:3:0:0:
478,164,506703,1,8,0:3:0:0:
494,126,506808,1,8,0:3:0:0:
491,85,506913,1,8,0:3:0:0:
475,46,507019,6,0,L|406:56,1,58.6666684570313,2|2,0:3|0:3,0:3:0:0:
212,122,507229,2,0,L|270:130,1,58.6666684570313,2|0,0:3|3:0,0:0:0:0:
478,164,507440,2,0,L|473:234,1,58.6666684570313,0|0,3:0|3:0,0:0:0:0:
441,344,507650,5,4,3:1:0:0:
355,117,507808,1,0,3:0:0:0:
290,282,507966,6,0,P|253:287|185:278,1,88.000002685547,4|0,3:0|0:0,0:0:0:0:
171,93,508282,2,0,P|208:88|276:97,1,88.000002685547,2|0,0:1|3:1,0:1:0:0:
218,200,508598,1,2,0:1:0:0:
94,56,508756,1,0,3:0:0:0:
281,23,508913,6,0,L|273:116,1,88.000002685547,10|0,0:1|0:1,0:1:0:0:
202,282,509229,1,2,0:1:0:0:
171,93,509387,1,0,3:0:0:0:
171,93,509466,1,0,3:0:0:0:
171,93,509545,1,2,3:1:0:0:
307,191,509703,1,0,0:0:0:0:
113,244,509861,6,0,P|106:202|118:153,1,88.000002685547,2|0,3:1|0:0,0:0:0:0:
250,46,510177,2,0,P|259:88|252:131,1,88.000002685547,2|0,0:1|3:1,0:1:0:0:
180,297,510492,1,2,0:1:0:0:
95,132,510650,1,0,3:0:0:0:
283,212,510808,6,0,L|171:203,1,88.000002685547,10|0,0:1|0:1,0:1:0:0:
11,98,511124,1,2,3:1:0:0:
30,71,511202,1,0,3:0:0:0:
57,52,511281,1,0,3:0:0:0:
89,44,511360,1,0,3:0:0:0:
121,48,511440,2,0,P|185:68|256:52,1,132.00000402832,10|0,0:1|0:0,0:0:0:0:
278,36,511756,6,0,P|271:71|286:129,1,88.000002685547,4|0,3:0|0:0,0:0:0:0:
441,187,512071,2,0,P|451:144|444:101,1,88.000002685547,2|0,0:1|3:1,0:1:0:0:
308,227,512387,1,2,0:1:0:0:
494,257,512545,1,0,3:0:0:0:
360,384,512703,6,0,L|367:291,1,88.000002685547,10|0,0:1|0:1,0:1:0:0:
416,99,513019,1,2,0:1:0:0:
474,283,513177,1,0,3:0:0:0:
474,283,513256,1,0,3:0:0:0:
474,283,513334,1,2,3:1:0:0:
285,212,513492,1,0,0:0:0:0:
436,73,513650,6,0,B|427:138|465:189|465:189|434:191|408:212,1,176.000005371094,2|2,3:1|0:1,0:0:0:0:
382,296,514124,1,0,3:0:0:0:
291,182,514282,1,10,0:1:0:0:
279,344,514440,1,0,3:0:0:0:
415,206,514598,5,12,0:1:0:0:
197,215,514756,1,0,3:0:0:0:
178,185,514834,1,0,3:0:0:0:
174,149,514913,2,8,P|174:123|179:89,1,44.0000013427735,8|8,0:3|0:3,0:3:0:0:
335,42,515071,2,0,P|337:63|336:85,1,44.0000013427735,0|0,3:0|3:0,3:0:0:0:
280,313,515229,1,8,0:1:0:0:
240,331,515307,1,8,0:1:0:0:
196,335,515386,1,8,0:1:0:0:
153,326,515465,1,8,0:1:0:0:
116,303,515545,6,0,B|79:296|49:308|49:308|79:259|60:192,1,176.000005371094,4|2,3:0|0:1,0:0:0:0:
25,114,516019,1,0,3:0:0:0:
163,216,516177,2,0,P|199:228|266:218,1,88.000002685547,2|0,0:1|3:1,0:1:0:0:
397,182,516492,2,0,P|344:109|374:21,1,176.000005371094,10|2,0:1|0:1,0:1:0:0:
441,94,516966,1,0,3:0:0:0:
332,248,517124,1,2,0:1:0:0:
250,62,517282,1,0,3:0:0:0:
472,78,517440,5,8,3:1:0:0:
325,17,517598,1,8,3:1:0:0:
469,112,517756,5,8,3:1:0:0:
269,87,517913,1,8,3:1:0:0:
466,146,518071,5,8,3:1:0:0:
276,179,518229,1,8,3:1:0:0:
355,7,518387,5,8,3:0:0:0:
359,223,518545,1,8,3:0:0:0:
201,46,518703,1,8,3:0:0:0:
439,63,518861,1,8,3:0:0:0:
280,266,519019,5,4,3:0:0:0:
323,0,519177,1,4,3:1:0:0:
323,336,519334,6,0,B|284:354|247:339|247:339|237:353|237:353|205:338|166:349,1,160,4|2,3:0|0:1,0:0:0:0:
474,370,519966,1,2,3:1:0:0:
482,341,520044,1,0,3:0:0:0:
484,311,520123,1,0,3:0:0:0:
481,281,520202,1,0,3:0:0:0:
472,252,520282,2,0,L|392:244,1,80,10|0,0:1|0:1,0:1:0:0:
195,269,520598,2,0,L|187:189,1,80,2|0,0:1|0:1,0:1:0:0:
307,9,520913,1,2,3:1:0:0:
313,38,520991,1,0,3:0:0:0:
315,68,521070,1,0,3:0:0:0:
313,97,521149,1,0,3:0:0:0:
306,127,521229,6,0,B|365:128|407:86|407:86|397:107|399:133,1,160,2|2,3:1|0:1,0:0:0:0:
480,124,521703,1,0,0:0:0:0:
307,9,521861,2,0,P|267:6|224:14,1,80,2|0,0:1|0:1,0:1:0:0:
45,120,522177,5,10,0:1:0:0:
74,126,522255,1,0,3:0:0:0:
103,131,522334,1,0,3:0:0:0:
133,132,522413,1,0,3:0:0:0:
163,131,522492,1,2,3:1:0:0:
193,126,522571,1,0,3:0:0:0:
222,120,522650,1,0,3:0:0:0:
252,114,522729,1,0,3:0:0:0:
281,111,522808,1,2,3:1:0:0:
311,112,522887,1,0,3:0:0:0:
341,116,522966,1,0,3:0:0:0:
370,123,523045,1,0,3:0:0:0:
399,132,523124,6,0,B|395:149|375:160|375:160|388:171|395:190|395:190|372:220|376:274,1,160,2|2,3:1|0:1,0:1:0:0:
472,249,523598,1,0,0:0:0:0:
441,50,523756,1,2,3:1:0:0:
411,44,523834,1,0,3:0:0:0:
381,47,523913,1,0,3:0:0:0:
353,56,523992,1,0,3:0:0:0:
328,73,524071,2,0,P|291:85|244:86,1,80,10|0,0:1|0:1,0:1:0:0:
57,41,524387,2,0,P|45:78|44:125,1,80,2|0,0:1|0:1,0:1:0:0:
99,279,524703,1,2,3:1:0:0:
126,267,524781,1,0,3:0:0:0:
156,262,524860,1,0,3:0:0:0:
186,263,524939,1,0,3:0:0:0:
215,271,525019,6,0,P|196:209|227:115,1,160,2|2,3:1|0:1,0:1:0:0:
305,199,525492,1,0,0:0:0:0:
115,178,525650,2,0,P|122:140|145:88,1,80,2|0,0:1|0:1,0:1:0:0:
310,46,525966,5,10,0:1:0:0:
320,76,526045,1,0,3:0:0:0:
324,107,526124,1,0,3:0:0:0:
321,138,526203,1,0,3:0:0:0:
311,168,526282,1,2,3:1:0:0:
305,199,526361,1,0,3:0:0:0:
305,231,526440,1,0,3:0:0:0:
313,261,526519,1,0,3:0:0:0:
321,291,526598,1,2,3:1:0:0:
286,279,526677,1,0,3:0:0:0:
250,273,526756,1,0,3:0:0:0:
214,273,526834,1,0,3:0:0:0:
180,285,526913,6,0,B|101:311|97:264|4:295,1,160,2|2,3:1|0:1,0:1:0:0:
62,366,527387,1,0,0:0:0:0:
133,196,527545,1,2,3:1:0:0:
141,167,527623,1,0,3:0:0:0:
144,137,527702,1,0,3:0:0:0:
141,107,527781,1,0,3:0:0:0:
134,78,527861,2,0,L|218:85,1,80,10|0,0:1|0:1,0:1:0:0:
390,207,528177,2,0,L|306:213,1,80,2|0,0:1|0:1,0:1:0:0:
284,17,528492,1,2,3:1:0:0:
301,41,528570,1,0,3:0:0:0:
311,69,528649,1,0,3:0:0:0:
311,99,528728,1,0,3:0:0:0:
301,127,528808,6,0,B|356:100|406:127|406:127|381:106|379:73,1,160,2|2,3:1|0:1,0:1:0:0:
472,58,529282,1,0,0:0:0:0:
284,17,529440,2,0,P|245:14|195:21,1,80,2|0,0:1|0:1,0:1:0:0:
76,95,529756,5,10,0:1:0:0:
96,120,529834,1,0,3:0:0:0:
106,151,529913,1,0,3:0:0:0:
110,183,529992,1,0,3:0:0:0:
103,215,530071,1,2,3:1:0:0:
88,244,530150,1,0,3:0:0:0:
94,275,530229,5,0,3:0:0:0:
120,295,530308,1,0,3:0:0:0:
150,307,530387,1,2,3:1:0:0:
182,309,530466,1,0,3:0:0:0:
214,305,530545,1,0,3:0:0:0:
243,290,530624,1,0,3:0:0:0:
271,275,530703,6,0,B|300:266|335:276|335:276|376:306|425:290,1,160,2|2,3:1|0:1,0:1:0:0:
393,198,531177,1,0,0:0:0:0:
296,357,531334,1,2,3:1:0:0:
266,362,531412,1,0,3:0:0:0:
236,362,531491,1,0,3:0:0:0:
207,355,531570,1,0,3:0:0:0:
180,343,531650,2,0,L|170:258,1,80,10|0,0:1|0:1,0:1:0:0:
291,116,531966,2,0,L|281:195,1,80,2|0,0:1|0:1,0:1:0:0:
101,182,532282,1,2,3:1:0:0:
104,152,532360,1,0,3:0:0:0:
108,122,532439,1,0,3:0:0:0:
112,92,532518,1,0,3:0:0:0:
116,63,532598,6,0,B|144:56|163:34|163:34|188:52|188:52|221:36|272:41,1,160,2|2,3:1|0:1,0:1:0:0:
360,61,533071,1,0,0:0:0:0:
254,204,533229,2,0,P|241:165|244:119,1,80,2|0,0:1|0:1,0:1:0:0:
302,298,533545,5,10,0:1:0:0:
271,308,533624,1,0,3:0:0:0:
239,304,533703,1,0,3:0:0:0:
208,294,533782,1,0,3:0:0:0:
181,276,533861,1,2,3:1:0:0:
150,265,533940,1,0,3:0:0:0:
118,263,534019,1,0,3:0:0:0:
86,266,534098,1,0,3:0:0:0:
56,278,534177,5,2,3:1:0:0:
65,239,534256,1,0,3:0:0:0:
74,200,534334,1,0,3:0:0:0:
84,161,534413,1,0,3:0:0:0:
94,122,534492,6,0,B|70:109|65:87|65:87|121:114|189:106,1,160,4|2,3:0|0:1,0:0:0:0:
302,48,534966,1,0,0:0:0:0:
417,115,535124,1,2,3:1:0:0:
427,143,535202,1,0,3:0:0:0:
432,172,535281,1,0,3:0:0:0:
431,202,535360,1,0,3:0:0:0:
425,231,535440,2,0,P|398:236|338:229,1,80,10|0,0:1|0:1,0:1:0:0:
202,124,535756,2,0,P|229:119|289:126,1,80,2|0,0:1|0:1,0:1:0:0:
242,323,536071,1,2,3:1:0:0:
231,295,536149,1,0,3:0:0:0:
226,265,536228,1,0,3:0:0:0:
229,235,536307,1,0,3:0:0:0:
238,207,536387,6,0,P|149:196|112:129,1,160,2|2,3:1|0:1,0:1:0:0:
140,55,536861,1,0,0:0:0:0:
309,156,537019,2,0,P|325:197|315:248,1,80,2|0,0:1|0:1,0:1:0:0:
229,353,537334,5,10,0:1:0:0:
259,343,537413,1,0,3:0:0:0:
290,339,537492,1,0,3:0:0:0:
321,341,537571,1,0,3:0:0:0:
351,350,537650,1,2,3:1:0:0:
381,360,537729,1,0,3:0:0:0:
412,364,537808,1,0,3:0:0:0:
443,361,537887,1,0,3:0:0:0:
472,348,537966,1,2,3:1:0:0:
453,316,538045,1,0,3:0:0:0:
444,281,538124,1,0,3:0:0:0:
449,245,538203,1,0,3:0:0:0:
466,213,538282,6,0,B|407:223|407:223|369:203|369:203|311:210,1,160,2|2,3:1|0:1,0:1:0:0:
226,265,538756,1,0,0:0:0:0:
295,125,538913,1,2,3:1:0:0:
303,96,538991,1,0,3:0:0:0:
306,66,539070,1,0,3:0:0:0:
304,36,539149,1,0,3:0:0:0:
295,7,539229,2,0,L|215:15,1,80,10|0,0:1|0:1,0:1:0:0:
136,152,539545,2,0,L|216:159,1,80,2|0,0:1|0:1,0:1:0:0:
48,92,539861,1,2,3:1:0:0:
36,119,539939,1,0,3:0:0:0:
32,149,540018,1,0,3:0:0:0:
34,179,540097,1,0,3:0:0:0:
44,207,540177,6,0,B|72:251|66:301|66:301|97:316|138:306,1,160,2|2,3:1|0:1,0:1:0:0:
226,265,540650,1,0,0:0:0:0:
136,152,540808,2,0,P|173:127|220:122,1,80,2|0,0:1|0:1,0:1:0:0:
366,179,541124,5,10,0:1:0:0:
341,161,541202,1,0,3:0:0:0:
327,135,541281,1,0,3:0:0:0:
327,105,541360,1,0,3:0:0:0:
341,79,541439,1,2,3:1:0:0:
366,62,541518,1,0,3:0:0:0:
395,59,541597,1,0,3:0:0:0:
423,69,541676,1,0,3:0:0:0:
443,91,541756,1,2,3:1:0:0:
431,124,541834,1,0,3:0:0:0:
431,160,541913,1,0,3:0:0:0:
440,194,541992,1,0,3:0:0:0:
454,227,542071,6,0,P|401:270|309:256,1,160,2|2,3:1|0:1,0:1:0:0:
207,121,542545,1,0,0:0:0:0:
208,290,542703,1,2,3:1:0:0:
178,296,542781,1,0,3:0:0:0:
148,298,542860,1,0,3:0:0:0:
118,296,542939,1,0,3:0:0:0:
89,289,543019,2,0,L|84:207,1,80,10|0,0:1|0:1,0:1:0:0:
64,54,543334,2,0,L|146:59,1,80,2|0,0:1|0:1,0:1:0:0:
300,131,543650,1,2,3:1:0:0:
328,139,543728,1,0,3:0:0:0:
358,139,543807,1,0,3:0:0:0:
387,131,543886,1,0,3:0:0:0:
411,114,543966,6,0,P|417:75|406:30,2,80,2|0|2,3:1|0:1|0:1,0:1:0:0:
376,248,544440,1,0,0:0:0:0:
300,131,544598,2,0,P|259:126|215:133,1,80,2|0,0:1|0:1,0:1:0:0:
163,268,544913,5,10,0:1:0:0:
192,279,544992,1,0,3:0:0:0:
223,282,545071,1,0,3:0:0:0:
254,277,545150,1,0,3:0:0:0:
283,264,545229,1,2,3:1:0:0:
313,254,545308,1,0,3:0:0:0:
344,248,545387,1,0,3:0:0:0:
376,248,545466,1,0,3:0:0:0:
406,258,545545,5,2,3:1:0:0:
392,224,545624,1,0,3:0:0:0:
392,187,545703,1,0,3:0:0:0:
403,153,545782,1,0,3:0:0:0:
428,127,545861,6,0,B|458:75|434:26|434:26|423:54|386:67,1,160,2|2,3:1|0:1,0:0:0:0:
264,18,546334,1,0,0:0:0:0:
296,209,546492,1,2,3:1:0:0:
310,183,546570,1,0,3:0:0:0:
318,154,546649,1,0,3:0:0:0:
317,124,546728,1,0,3:0:0:0:
309,95,546808,2,0,P|267:108|224:97,1,80,10|0,0:1|0:1,0:1:0:0:
80,28,547124,2,0,P|67:70|78:113,1,80,2|0,0:1|0:1,0:1:0:0:
150,296,547440,1,2,3:1:0:0:
160,267,547518,1,0,3:0:0:0:
164,238,547597,1,0,3:0:0:0:
160,208,547676,1,0,3:0:0:0:
150,180,547756,6,0,P|218:215|300:194,1,160,2|2,3:1|0:1,0:1:0:0:
232,101,548229,1,0,0:0:0:0:
65,147,548387,2,0,P|59:186|77:238,1,80,2|0,0:1|0:1,0:1:0:0:
234,354,548703,5,10,0:1:0:0:
267,340,548782,1,0,3:0:0:0:
302,334,548861,1,0,3:0:0:0:
337,335,548940,1,0,3:0:0:0:
371,345,549019,1,2,3:1:0:0:
358,311,549098,1,0,3:0:0:0:
355,275,549177,1,0,3:0:0:0:
364,240,549256,1,0,3:0:0:0:
388,214,549334,5,2,3:1:0:0:
381,174,549413,1,0,3:0:0:0:
374,134,549492,1,0,3:0:0:0:
367,94,549571,1,0,3:0:0:0:
360,54,549650,6,8,L|269:62,1,88.000002685547,8|8,3:1|3:1,3:1:0:0:
81,95,549966,1,8,3:1:0:0:
297,185,550124,1,8,3:1:0:0:
367,94,550598,6,8,L|277:102,1,88.000002685547,8|8,3:1|3:1,3:1:0:0:
60,136,550914,1,8,3:1:0:0:
304,225,551072,1,8,3:1:0:0:
15,223,551545,6,8,P|56:234|110:219,1,88.000002685547,8|8,3:1|3:1,3:1:0:0:
164,38,551861,1,8,3:1:0:0:
194,267,552019,1,8,3:1:0:0:
15,248,552492,6,8,P|56:259|110:244,1,88.000002685547,8|8,3:1|3:1,3:1:0:0:
186,43,552808,1,8,3:1:0:0:
209,296,552966,1,8,3:1:0:0:
279,101,553441,5,4,3:0:0:0:
256,192,553519,12,0,562283,0:0:0:0:
294,104,562914,6,0,L|202:112,1,80,2|0,0:0|0:0,0:0:0:0:
88,158,563546,6,0,P|105:203|87:278,2,120,2|0|2,0:0|0:0|0:0,0:0:0:0:
21,61,565441,2,0,L|113:69,1,80,2|0,0:0|0:0,0:0:0:0:
216,142,566072,6,0,P|261:159|336:141,2,120,2|0|2,0:0|0:0|0:0,0:0:0:0:
200,41,568283,1,2,0:0:0:0:
222,62,568598,6,0,P|205:107|223:182,2,120,2|0|2,0:0|0:0|0:0,0:0:0:0:
281,253,571125,6,0,P|236:270|161:252,2,120,2|2|2,0:0|0:0|0:0,0:0:0:0:
303,165,573019,2,0,L|211:173,1,80,2|0,0:0|0:0,0:0:0:0:
66,193,573651,6,0,B|53:121|83:136|69:67,2,120,2|2|2,0:1|0:1|0:1,0:0:0:0:
95,326,575546,2,0,P|127:332|185:325,1,80,2|0,0:0|0:0,0:0:0:0:
276,275,576177,6,0,B|348:262|333:292|402:278,2,120,2|2|2,0:1|0:1|0:1,0:0:0:0:
179,307,577441,1,0,0:0:0:0:
186,285,578388,1,2,0:0:0:0:
192,268,578704,6,0,B|205:196|175:211|189:142,2,120,2|2|2,0:1|0:1|0:1,0:0:0:0:
161,73,581230,6,0,B|233:60|218:90|287:76,2,120,2|2|2,0:1|0:1|0:1,0:0:0:0:
82,31,583125,6,0,B|82:48|74:70|74:70|85:95|82:134,1,95.9999970703126,2|0,0:0|0:0,0:0:0:0:
67,287,583756,6,0,P|112:292|201:283,1,128,4|0,3:0|0:0,0:0:0:0:
260,222,584230,2,0,P|285:285|263:344,1,128,2|0,3:1|0:0,0:0:0:0:
180,200,584704,2,0,L|347:194,1,160,4|0,3:0|2:0,0:0:0:0:
217,0,585651,2,0,L|211:120,1,111.999996582031,2|0,2:2|2:0,0:0:0:0:
194,284,586283,6,0,B|136:266|122:301|67:286,1,128,4|0,3:0|0:0,0:0:0:0:
94,208,586756,2,0,P|108:163|96:81,1,128,2|0,3:1|0:0,0:0:0:0:
21,35,587230,2,0,L|185:49,1,160,4|0,3:0|2:0,0:0:0:0:
120,171,588493,1,0,2:0:0:0:
174,241,588809,6,0,P|192:280|165:363,1,128,4|0,3:0|0:0,0:0:0:0:
120,171,589283,2,0,P|162:154|242:185,1,128,2|0,3:1|0:0,0:0:0:0:
90,249,589756,1,4,3:0:0:0:
280,259,591335,6,0,L|411:249,1,128,4|0,3:0|0:0,0:0:0:0:
498,228,591809,2,0,L|367:218,1,128,2|0,3:1|0:0,0:0:0:0:
284,174,592283,2,0,L|291:104,1,55.9999982910157,4|0,3:0|2:0,0:0:0:0:
296,24,592598,6,0,B|267:19|267:19|242:26|242:26|217:19|181:28,1,111.999996582031,8|0,2:3|2:0,0:0:0:0:
27,76,593072,1,8,2:3:0:0:
49,99,593230,2,0,P|58:132|50:217,1,111.999996582031,8|2,2:3|2:3,0:0:0:0:
10,296,593704,1,2,2:3:0:0:
142,210,593862,6,0,P|187:207|274:218,1,128,4|0,3:0|0:0,0:0:0:0:
327,274,594335,2,0,P|301:223|313:153,1,128,2|0,3:1|0:0,0:0:0:0:
376,70,594809,2,0,L|278:69,1,83.9999974365235,4|0,3:0|0:0,0:0:0:0:
263,47,595125,6,0,L|203:52,1,55.9999982910157,2|2,2:1|2:1,2:1:0:0:
117,80,595441,2,0,P|131:111|124:171,1,83.9999974365235,2|0,2:2|0:0,0:0:0:0:
102,182,595756,2,0,P|101:212|112:252,1,55.9999982910157,2|2,2:1|2:1,2:1:0:0:
150,307,596072,2,0,P|193:296|257:306,1,83.9999974365235,2|0,2:2|2:0,2:0:0:0:
267,283,596388,6,0,P|241:232|253:162,1,128,4|2,3:0|2:1,0:0:0:0:
332,133,596862,2,0,B|323:108|303:94|303:94|332:59|313:8,1,128,0|0,3:0|0:0,0:0:0:0:
238,44,597335,2,0,L|122:52,1,96,2|0,3:1|0:0,0:0:0:0:
109,39,597651,6,0,L|114:109,1,64,2|2,2:1|2:1,2:1:0:0:
78,192,597967,2,0,L|175:179,1,96,2|0,2:2|0:0,0:0:0:0:
205,163,598283,2,0,L|201:231,1,64,2|2,2:1|2:1,2:1:0:0:
175,315,598598,2,0,L|272:302,1,96,2|0,2:2|2:0,2:0:0:0:
298,288,598914,6,0,B|318:224|287:219|304:154,1,128,4|2,3:0|2:1,0:0:0:0:
380,190,599388,2,0,P|440:205|508:188,1,128,0|0,3:0|2:2,0:0:0:0:
442,108,599862,2,0,L|430:45,1,55.9999982910157,2|0,3:1|2:2,0:0:0:0:
336,21,600177,5,2,2:1:0:0:
322,22,600255,1,2,2:1:0:0:
308,23,600334,1,2,2:1:0:0:
294,25,600413,1,2,2:1:0:0:
280,26,600493,2,0,L|187:22,1,83.9999974365235,2|0,2:2|2:2,2:0:0:0:
121,12,600809,5,2,2:1:0:0:
121,25,600887,1,2,2:1:0:0:
123,39,600966,1,2,2:1:0:0:
127,53,601045,1,2,2:1:0:0:
132,66,601125,2,0,P|138:107|125:168,1,83.9999974365235,2|0,2:2|2:0,2:0:0:0:
113,178,601441,5,4,3:0:0:0:
242,186,601598,2,8,L|238:222,2,32,8|8|8,2:3|2:3|2:3,2:3:0:0:
207,54,601914,1,4,3:0:0:0:
342,133,602072,1,8,2:3:0:0:
340,149,602150,1,8,2:3:0:0:
338,165,602229,1,8,2:3:0:0:
336,181,602308,1,8,2:3:0:0:
334,197,602388,6,0,L|422:193,1,64,4|8,3:1|2:3,0:0:0:0:
468,157,602625,1,8,2:3:0:0:
478,132,602704,2,8,L|468:97,1,32,8|8,2:3|2:3,2:3:0:0:
386,29,602862,6,0,L|322:31,1,64,4|8,3:0|2:3,0:0:0:0:
238,65,603098,1,8,2:3:0:0:
217,70,603176,1,8,2:3:0:0:
196,71,603255,1,8,2:3:0:0:
175,65,603335,6,0,P|181:87|181:140,1,64,2|2,2:3|2:3,2:3:0:0:
127,216,603651,1,4,3:1:0:0:
291,126,603809,1,0,2:0:0:0:
91,134,603967,6,0,L|98:305,1,160,4|2,3:0|2:2,0:0:0:0:
142,381,604441,1,0,3:0:0:0:
213,208,604598,2,0,L|294:210,1,80,8|0,0:1|2:0,0:0:0:0:
444,260,604914,6,0,P|392:240|286:246,1,160,4|2,3:0|2:2,0:0:0:0:
355,348,605388,1,0,3:0:0:0:
447,225,605546,2,0,P|454:186|449:141,1,80,2|0,2:2|3:0,0:0:0:0:
366,7,605862,2,0,P|331:39|209:41,1,160,8|2,0:1|2:2,0:0:0:0:
140,0,606335,1,0,3:0:0:0:
213,208,606493,6,0,L|224:42,1,160,4|2,3:0|2:2,0:0:0:0:
303,154,606967,1,0,3:0:0:0:
215,297,607125,2,0,P|181:288|139:255,1,80,8|0,0:1|2:0,0:0:0:0:
76,98,607441,6,0,B|167:80|152:122|236:97,1,160,4|2,3:0|2:2,0:0:0:0:
381,14,607914,2,0,P|384:38|376:97,1,80,0|2,3:0|2:2,0:0:0:0:
298,244,608230,1,0,3:0:0:0:
298,244,608309,1,0,3:0:0:0:
298,244,608388,2,0,L|462:237,1,160,8|4,0:1|3:1,0:0:0:0:
115,177,609019,6,0,P|99:235|140:337,1,160,4|2,3:0|2:2,0:0:0:0:
216,196,609493,1,0,3:0:0:0:
73,70,609651,2,0,P|102:86|159:88,1,80,8|0,0:1|2:0,0:0:0:0:
299,48,609967,6,0,B|315:68|315:99|315:99|290:141|312:216,1,160,4|2,3:0|2:2,0:0:0:0:
397,154,610441,1,0,3:0:0:0:
217,117,610598,2,0,P|212:157|221:211,1,80,2|0,2:2|3:0,0:0:0:0:
290,335,610914,2,0,L|128:326,1,160,8|2,0:1|3:1,0:0:0:0:
217,117,611546,6,0,P|232:162|215:252,1,128,4|0,3:0|0:0,0:0:0:0:
154,68,612019,2,0,L|292:76,1,128,2|0,3:1|0:0,0:0:0:0:
384,117,612493,2,0,L|393:208,1,64,4|0,3:0|0:0,0:0:0:0:
389,190,612730,1,8,0:1:0:0:
388,199,612809,5,8,0:1:0:0:
281,75,612967,1,8,0:1:0:0:
440,49,613125,1,8,0:1:0:0:
310,171,613283,1,8,0:1:0:0:
347,22,613441,2,0,P|363:62|366:100,1,71.9999978027344,8|2,0:1|0:3,0:0:0:0:
324,255,613756,2,0,P|289:265|201:265,1,107.999996704102,4|0,3:1|0:0,0:0:0:0:
172,196,614072,6,0,P|197:251|172:345,1,160,4|2,3:0|2:2,0:0:0:0:
92,270,614546,1,0,3:0:0:0:
269,184,614704,2,0,L|258:92,1,80,8|0,0:1|2:0,0:0:0:0:
124,33,615019,6,0,L|135:197,1,160,4|2,3:0|2:2,0:0:0:0:
151,357,615493,1,0,3:0:0:0:
296,275,615651,2,0,L|285:183,1,80,2|0,2:2|3:0,0:0:0:0:
241,67,615967,2,0,B|301:93|301:93|393:67,1,160,8|4,0:1|3:1,0:0:0:0:
96,13,616598,6,0,P|83:48|113:181,1,160,4|2,3:0|2:2,0:0:0:0:
254,197,617072,1,0,3:0:0:0:
254,197,617151,1,0,3:0:0:0:
254,197,617230,2,0,P|263:240|253:298,1,80,8|0,0:1|2:0,0:0:0:0:
183,125,617546,6,0,P|256:102|326:147,1,160,4|2,3:0|2:2,0:0:0:0:
347,241,618019,1,0,3:0:0:0:
180,236,618177,1,2,2:2:0:0:
406,172,618335,1,0,3:0:0:0:
406,172,618414,1,0,3:0:0:0:
406,172,618493,2,0,P|411:139|385:76,1,80,8|0,0:1|2:0,0:0:0:0:
250,16,618809,2,0,P|207:32|121:28,1,120,2|0,3:1|0:0,0:0:0:0:
99,10,619125,6,0,L|107:162,1,143.999995605469,4|0,3:0|0:0,0:0:0:0:
65,251,619598,2,0,L|72:107,1,143.999995605469,2|0,3:1|0:0,0:0:0:0:
196,200,620072,1,0,3:0:0:0:
85,267,620230,1,0,3:0:0:0:
170,367,620388,6,0,P|135:373|98:367,1,71.9999978027344,4|0,3:0|0:0,0:0:0:0:
90,360,620625,1,8,0:1:0:0:
81,353,620704,1,8,0:1:0:0:
182,209,620862,1,8,0:1:0:0:
0,271,621019,1,8,0:3:0:0:
210,292,621177,1,2,0:3:0:0:
106,153,621335,2,0,L|117:33,1,107.999996704102,4|0,3:1|0:0,0:0:0:0:
140,8,621651,6,0,P|163:17|228:15,1,71.9999978027344,4|0,3:0|0:0,0:0:0:0:
200,96,621888,6,0,P|224:92|279:58,1,71.9999978027344,4|0,3:0|0:0,0:0:0:0:
318,135,622125,6,0,P|332:115|347:51,1,71.9999978027344,4|0,3:0|0:0,0:0:0:0:
433,74,622362,6,0,P|429:49|395:-5,1,71.9999978027344,4|8,3:0|0:1,0:0:0:0:
397,6,622598,1,8,0:1:0:0:
411,188,622756,1,0,3:0:0:0:
266,70,622914,5,8,0:1:0:0:
483,144,623072,1,4,3:0:0:0:
326,229,623230,1,8,0:1:0:0:
433,74,623388,1,4,3:0:0:0:
388,314,623546,1,8,0:1:0:0:
365,328,623624,1,8,0:1:0:0:
339,335,623703,1,8,0:1:0:0:
312,335,623782,1,8,0:1:0:0:
286,327,623861,1,4,3:1:0:0:
339,140,624019,1,0,3:0:0:0:
501,228,624177,6,0,L|318:229,1,176.000005371094,4|2,3:0|2:2,0:0:0:0:
131,232,624651,1,0,3:0:0:0:
240,90,624809,1,8,0:1:0:0:
202,300,624967,1,0,2:0:0:0:
50,177,625125,6,0,P|136:134|202:165,1,176.000005371094,4|2,3:0|2:2,0:0:0:0:
131,232,625598,1,0,3:0:0:0:
162,53,625756,1,2,2:2:0:0:
298,215,625914,1,0,3:0:0:0:
298,215,625993,1,0,3:0:0:0:
298,215,626072,2,0,L|286:320,1,88.000002685547,8|0,0:1|2:0,0:0:0:0:
240,90,626388,2,0,P|300:77|369:101,1,132.00000402832,4|0,3:1|0:0,0:0:0:0:
440,130,626704,6,0,B|421:172|381:179|381:179|402:222|376:274,1,176.000005371094,4|2,3:0|2:2,0:0:0:0:
298,215,627177,1,0,3:0:0:0:
365,98,627335,2,0,P|372:53|360:8,1,88.000002685547,8|0,0:1|2:0,0:0:0:0:
197,18,627651,6,0,L|209:201,1,176.000005371094,4|2,3:0|2:2,0:0:0:0:
133,301,628125,1,0,3:0:0:0:
34,175,628283,2,0,L|125:182,1,88.000002685547,2|0,2:2|3:0,0:0:0:0:
298,215,628598,2,0,L|291:306,1,88.000002685547,8|0,0:1|2:0,0:1:0:0:
183,102,628914,2,0,L|274:95,1,88.000002685547,2|0,3:1|2:0,0:0:0:0:
471,149,629230,5,8,0:1:0:0:
463,187,629309,1,8,0:1:0:0:
455,225,629388,2,0,L|407:233,1,44.0000013427735,0|0,3:0|3:0,3:0:0:0:
208,193,629546,1,8,0:1:0:0:
193,231,629625,1,8,0:1:0:0:
186,271,629704,1,8,0:1:0:0:
189,311,629783,1,8,0:1:0:0:
202,349,629862,6,0,L|143:339,1,44.0000013427735,0|0,3:0|3:0,3:0:0:0:
21,175,630019,1,8,0:1:0:0:
55,166,630098,1,8,0:1:0:0:
89,159,630177,2,0,L|137:169,1,44.0000013427735,0|0,3:0|3:0,3:0:0:0:
329,276,630335,2,8,L|320:232,1,44.0000013427735,8|8,0:1|0:1,0:1:0:0:
234,25,630493,5,8,0:1:0:0:
211,62,630572,1,8,0:1:0:0:
201,105,630651,1,0,3:0:0:0:
205,148,630730,1,0,3:0:0:0:
220,189,630809,2,8,P|226:210|226:232,1,44.0000013427735,8|8,0:3|0:3,0:3:0:0:
85,377,630967,1,0,3:0:0:0:
73,339,631046,1,0,3:0:0:0:
73,299,631125,2,8,P|80:275|90:258,1,44.0000013427735,2|2,0:3|0:3,0:3:0:0:
311,181,631283,2,0,P|306:159|296:139,1,44.0000013427735,0|0,3:0|3:0,3:0:0:0:
61,43,631441,5,8,0:1:0:0:
53,82,631519,1,8,0:1:0:0:
46,122,631598,2,0,L|58:184,1,44.0000013427735,0|0,3:0|3:0,3:0:0:0:
202,349,631756,5,8,0:1:0:0:
239,317,631835,1,8,0:1:0:0:
286,305,631914,1,8,0:1:0:0:
333,311,631993,1,8,0:1:0:0:
372,339,632072,2,0,P|392:345|421:344,1,44.0000013427735,0|0,3:0|3:0,3:0:0:0:
422,118,632230,1,2,0:3:0:0:
382,98,632309,1,2,0:3:0:0:
338,90,632388,6,0,P|316:90|294:95,1,44.0000013427735,0|0,3:0|3:0,3:0:0:0:
117,239,632546,1,8,0:1:0:0:
186,22,632704,1,8,0:1:0:0:
204,61,632783,1,8,0:1:0:0:
209,104,632862,2,0,P|209:126|199:163,1,44.0000013427735,0|0,3:0|3:0,3:0:0:0:
82,361,633019,5,2,0:3:0:0:
48,322,633097,1,2,0:3:0:0:
34,272,633176,1,0,3:0:0:0:
43,220,633255,1,0,3:0:0:0:
73,177,633334,1,8,0:1:0:0:
330,79,633493,2,0,L|284:74,1,44.0000013427735,8|0,0:3|0:0,0:0:0:0:
119,41,633651,5,4,3:0:0:0:
74,101,633729,1,0,3:0:0:0:
73,177,633808,1,0,3:0:0:0:
117,239,633887,1,0,3:0:0:0:
189,263,633966,1,4,3:1:0:0:
261,241,634045,1,0,3:0:0:0:
306,180,634124,1,0,3:0:0:0:
307,104,634203,1,0,3:0:0:0:
263,40,634283,6,0,L|444:57,1,176.000005371094,4|0,3:0|2:0,0:0:0:0:
438,56,634756,1,0,3:0:0:0:
175,0,634914,2,0,P|167:41|181:92,1,88.000002685547,8|4,0:1|2:1,0:0:0:0:
297,328,635230,6,0,B|309:300|290:266|290:266|301:253|301:253|277:213|295:155,1,176.000005371094,4|0,3:0|2:0,0:0:0:0:
383,199,635704,1,0,3:0:0:0:
219,310,635862,2,0,P|179:315|125:303,1,88.000002685547,0|0,2:0|3:0,0:0:0:0:
182,110,636177,1,8,0:1:0:0:
318,301,636335,5,0,3:0:0:0:
334,306,636388,1,0,3:0:0:0:
351,308,636441,1,0,3:0:0:0:
368,308,636493,2,8,P|400:305|441:310,2,58.6666684570313,8|8|8,0:3|0:3|0:3,0:3:0:0:
205,348,636809,6,8,L|195:277,1,58.6666684570313,8|8,0:3|0:3,0:3:0:0:
182,110,637019,1,8,0:3:0:0:
202,93,637125,6,0,L|273:103,1,58.6666684570313,2|2,0:3|0:3,0:3:0:0:
121,250,637335,1,2,0:3:0:0:
101,267,637441,6,0,L|30:257,1,58.6666684570313,0|0,3:0|3:0,3:0:0:0:
75,68,637651,1,0,3:0:0:0:
111,96,637756,5,8,0:1:0:0:
157,106,637862,1,0,3:0:0:0:
202,93,637967,1,8,0:1:0:0:
236,61,638072,6,0,P|240:93|235:125,1,58.6666684570313,8|8,0:1|0:3,0:0:0:0:
196,197,638283,1,2,0:3:0:0:
158,9,638388,2,0,L|288:25,1,117.333336914063,4|8,3:0|0:1,0:0:0:0:
402,61,638704,1,8,0:1:0:0:
380,115,638809,1,8,0:3:0:0:
386,173,638914,1,2,0:3:0:0:
421,219,639019,6,0,P|364:206|306:216,1,117.333336914063,4|0,3:1|0:0,0:0:0:0:
280,233,639335,5,4,3:0:0:0:
256,192,639414,12,0,641704,0:0:0:0:
345,136,641862,6,0,L|338:201,1,47.9999985351563,0|0,3:0|3:0,3:0:0:0:
293,266,642177,1,8,3:0:0:0:
297,289,642335,1,8,3:0:0:0:
393,325,642493,5,8,3:0:0:0:
396,296,642651,1,8,3:0:0:0:
216,225,642809,5,8,3:0:0:0:
211,258,642967,1,8,3:0:0:0:
354,184,643125,5,8,3:0:0:0:
345,136,643283,1,8,3:0:0:0:
215,45,643441,5,8,3:0:0:0:
201,130,643598,1,8,3:0:0:0:
381,48,643756,5,8,3:0:0:0:
247,59,643914,1,8,3:0:0:0:
374,210,644072,5,8,3:0:0:0:
399,24,644230,1,8,3:0:0:0:
127,69,644388,6,0,B|112:98|125:135|125:135|113:154|113:154|132:190|118:245,1,176.000005371094,4|2,3:0|2:1,0:0:0:0:
447,143,645019,1,2,3:1:0:0:
417,128,645097,1,0,3:0:0:0:
385,121,645176,1,0,3:0:0:0:
352,120,645255,1,0,3:0:0:0:
319,127,645335,2,0,B|227:156|229:98|131:129,1,176.000005371094,10|2,3:1|2:1,0:0:0:0:
356,353,645966,1,2,3:1:0:0:
371,324,646044,1,0,3:0:0:0:
380,292,646123,1,0,3:0:0:0:
380,259,646202,1,0,3:0:0:0:
371,227,646282,6,0,B|341:260|311:259|311:259|268:214|199:219,1,176.000005371094,2|2,3:1|2:1,0:0:0:0:
502,362,646914,1,2,2:1:0:0:
411,95,647230,5,10,3:1:0:0:
370,77,647309,1,0,3:0:0:0:
326,72,647388,1,0,3:0:0:0:
283,78,647466,1,0,3:0:0:0:
243,98,647545,1,2,3:1:0:0:
203,118,647624,1,0,3:0:0:0:
160,128,647703,1,0,3:0:0:0:
115,128,647782,1,0,3:0:0:0:
73,113,647861,5,2,3:1:0:0:
98,153,647940,1,0,3:0:0:0:
110,199,648019,1,0,3:0:0:0:
110,247,648098,1,0,3:0:0:0:
92,292,648177,6,0,P|159:248|250:266,1,176.000005371094,2|2,3:1|2:1,0:0:0:0:
462,378,648809,1,2,3:1:0:0:
442,351,648887,1,0,3:0:0:0:
431,320,648966,1,0,3:0:0:0:
428,287,649045,1,0,3:0:0:0:
433,255,649124,2,0,B|437:229|458:197|458:197|414:234|328:216,1,176.000005371094,10|2,3:1|2:1,0:0:0:0:
154,2,649756,1,2,3:1:0:0:
168,31,649834,1,0,3:0:0:0:
173,64,649913,1,0,3:0:0:0:
171,96,649992,1,0,3:0:0:0:
159,127,650072,6,0,L|353:118,1,176.000005371094,2|2,3:1|2:1,0:0:0:0:
16,66,650703,1,2,2:1:0:0:
126,333,651019,5,8,3:1:0:0:
171,303,651097,1,8,3:1:0:0:
190,252,651176,1,8,3:1:0:0:
176,200,651255,1,8,3:1:0:0:
134,166,651334,1,8,3:1:0:0:
80,163,651413,1,8,3:1:0:0:
34,192,651492,1,8,3:1:0:0:
14,242,651571,1,8,3:1:0:0:
28,295,651650,5,8,3:1:0:0:
74,253,651730,1,8,3:1:0:0:
133,237,651809,1,8,3:1:0:0:
190,252,651888,1,8,3:1:0:0:
226,300,651966,1,8,3:1:0:0:
