osu file format v14

[General]
AudioFilename: Avenged Sevenfold - Not Ready To Die Lyrics.mp3
AudioLeadIn: 0
PreviewTime: 103296
Countdown: 0
SampleSet: Normal
StackLeniency: 0.7
Mode: 1
LetterboxInBreaks: 0
WidescreenStoryboard: 0

[Editor]
DistanceSpacing: 1.1
BeatDivisor: 4
GridSize: 4
TimelineZoom: 2.8

[Metadata]
Title:Not Ready to Die
TitleUnicode:Not Ready to Die
Artist:Avenged Sevenfold
ArtistUnicode:Avenged Sevenfold
Creator:Raiden
Version:Avenged Oni
Source:
Tags:nrtd rock metalcore gutural screams Synyster Gates Zacky Vengeance Johnny Christ Arin Ilejay M. Shadows zombies Call of the Dead Call of Duty: Black Ops Damned A7X
BeatmapID:755308
BeatmapSetID:341609

[Difficulty]
HPDrainRate:4.5
CircleSize:2
OverallDifficulty:6
ApproachRate:10
SliderMultiplier:1.4
SliderTickRate:1

[Events]
//Background and Video events
0,0,"nrtd.png",0,50
//Break Periods
//Storyboard Layer 0 (Background)
//Storyboard Layer 1 (Fail)
//Storyboard Layer 2 (Pass)
//Storyboard Layer 3 (Foreground)
//Storyboard Sound Samples

[TimingPoints]
5890,375,4,1,0,30,1,0
5983,-100,4,1,0,5,0,0
8796,-100,4,1,0,30,0,0
8983,-100,4,1,0,5,0,0
11796,-100,4,1,0,30,0,0
11983,-100,4,1,0,5,0,0
14796,-100,4,1,0,30,0,0
14983,-100,4,1,0,5,0,0
17796,-100,4,1,0,30,0,0
20983,-100,4,1,0,5,0,0
23796,-100,4,1,0,30,0,0
26983,-100,4,1,0,5,0,0
29796,-100,4,1,0,30,0,0
41890,375,6,1,0,70,1,0
41890,-83.3333333333333,4,1,0,70,0,0
44140,375,4,1,0,70,1,0
44140,-83.3333333333333,4,1,0,70,0,0
45640,375,6,1,0,70,1,0
45640,-83.3333333333333,4,1,0,70,0,0
47890,375,4,1,0,70,1,0
47890,-83.3333333333333,4,1,0,70,0,0
49390,375,6,1,0,70,1,0
49390,-83.3333333333333,4,1,0,70,0,0
51640,375,4,1,0,70,1,0
51640,-83.3333333333333,4,1,0,70,0,0
53140,375,6,1,0,70,1,0
53140,-83.3333333333333,4,1,0,70,0,0
55390,375,4,1,0,70,1,0
55390,-83.3333333333333,4,1,0,70,0,0
90265,-84.5094228006423,4,1,0,70,0,0
90358,-85.7191839533688,4,1,0,70,0,0
90452,-86.9565217391304,4,1,0,70,0,0
90546,-88.2456759618779,4,1,0,70,0,0
90640,-89.5656068069861,4,1,0,70,0,0
90733,-90.9256228405165,4,1,0,70,0,0
90827,-92.3275782476226,4,1,0,70,0,0
90921,-93.7734433608402,4,1,0,70,0,0
91015,-95.2653138992093,4,1,0,70,0,0
91108,-96.8054211035818,4,1,0,70,0,0
91202,-98.3961428711994,4,1,0,70,0,0
91390,-100,4,1,0,70,0,1
103390,-100,4,1,0,70,0,0
114452,-98.0392156862745,4,1,0,70,0,0
114546,-97.0873786407767,4,1,0,70,0,0
114640,-95.2380952380952,4,1,0,70,0,0
114733,-93.4579439252336,4,1,0,70,0,0
114827,-92.5925925925926,4,1,0,70,0,0
114921,-90.9090909090909,4,1,0,70,0,0
115015,-89.2857142857143,4,1,0,70,0,0
115108,-88.4955752212389,4,1,0,70,0,0
115202,-86.9565217391304,4,1,0,70,0,0
115296,-84.7457627118644,4,1,0,70,0,0
115390,375,6,1,0,70,1,0
115390,-83.3333333333333,4,1,0,70,0,0
117640,375,4,1,0,70,1,0
117640,-83.3333333333333,4,1,0,70,0,0
119140,375,6,1,0,70,1,0
119140,-83.3333333333333,4,1,0,70,0,0
121390,375,4,1,0,70,1,0
121390,-83.3333333333333,4,1,0,70,0,0
122890,375,6,1,0,70,1,0
122890,-83.3333333333333,4,1,0,70,0,0
125140,375,4,1,0,70,1,0
125140,-83.3333333333333,4,1,0,70,0,0
126640,375,6,1,0,70,1,0
126640,-83.3333333333333,4,1,0,70,0,0
128890,375,4,1,0,70,1,0
128890,-83.3333333333333,4,1,0,70,0,0
157765,-83.3333333333333,4,1,0,70,0,0
157858,-84.7457627118644,4,1,0,70,0,0
157952,-86.9565217391304,4,1,0,70,0,0
158046,-88.4955752212389,4,1,0,70,0,0
158140,-89.2857142857143,4,1,0,70,0,0
158233,-90.9090909090909,4,1,0,70,0,0
158327,-92.5925925925926,4,1,0,70,0,0
158421,-93.4579439252336,4,1,0,70,0,0
158515,-95.2380952380952,4,1,0,70,0,0
158608,-97.0873786407767,4,1,0,70,0,0
158702,-98.0392156862745,4,1,0,70,0,0
158890,-100,4,1,0,70,0,1
170890,-100,4,1,0,70,0,0
181952,-98.0392156862745,4,1,0,70,0,0
182046,-97.0873786407767,4,1,0,70,0,0
182140,-95.2380952380952,4,1,0,70,0,0
182233,-93.4579439252336,4,1,0,70,0,0
182327,-92.5925925925926,4,1,0,70,0,0
182421,-90.9090909090909,4,1,0,70,0,0
182515,-89.2857142857143,4,1,0,70,0,0
182608,-88.4955752212389,4,1,0,70,0,0
182702,-86.9565217391304,4,1,0,70,0,0
182796,-84.7457627118644,4,1,0,70,0,0
182890,375,6,1,0,70,1,0
182890,-83.3333333333333,4,1,0,70,0,0
185140,375,4,1,0,70,1,0
185140,-83.3333333333333,4,1,0,70,0,0
186640,375,6,1,0,70,1,0
186640,-83.3333333333333,4,1,0,70,0,0
188890,375,4,1,0,70,1,0
188890,-83.3333333333333,4,1,0,70,0,0
190390,375,6,1,0,70,1,0
190390,-83.3333333333333,4,1,0,70,0,0
235390,-83.3333333333333,4,1,0,70,0,1
253390,-83.3333333333333,4,1,0,70,0,0
280390,375,4,1,0,70,1,0
280390,-83.3333333333333,4,1,0,70,0,0
280483,-83.3333333333333,4,1,0,20,0,0
292296,-83.3333333333333,4,1,0,70,0,0
304390,-83.3333333333333,4,1,0,70,0,1
327640,-85.1063829787234,4,1,0,70,0,0
327733,-86.9565217391304,4,1,0,70,0,0
327827,-88.8888888888889,4,1,0,70,0,0
327921,-90.9090909090909,4,1,0,70,0,0
328015,-93.0232558139535,4,1,0,70,0,0
328108,-95.2380952380952,4,1,0,70,0,0
328202,-97.0873786407767,4,1,0,70,0,0
328390,-100,4,1,0,70,0,1
340390,-100,4,1,0,70,0,0
370390,-100,4,1,0,70,0,1
400390,-100,4,1,0,60,0,1
403390,-100,4,1,0,50,0,1
406390,-100,4,1,0,40,0,1
409390,-100,4,1,0,30,0,1
412390,-100,4,1,0,20,0,1
415390,-100,4,1,0,20,0,0
416890,-100,4,1,0,15,0,0
418390,-100,4,1,0,10,0,0
419890,-100,4,1,0,5,0,0

[HitObjects]
364,268,5890,5,4,0:0:0:0:
256,192,6077,12,0,8702,0:0:0:0:
347,241,8890,5,12,0:0:0:0:
256,192,9077,12,0,11702,0:0:0:0:
236,183,11890,5,12,0:0:0:0:
256,192,12077,12,0,14702,0:0:0:0:
235,223,14890,5,4,0:0:0:0:
256,192,15077,12,4,17702,0:0:0:0:
239,172,17890,5,8,0:0:0:0:
190,208,18140,1,0,0:0:0:0:
203,217,18390,1,0,0:0:0:0:
221,195,18640,1,0,0:0:0:0:
225,208,18890,1,0,0:0:0:0:
187,192,19140,1,0,0:0:0:0:
245,181,19390,1,0,0:0:0:0:
245,181,19640,1,0,0:0:0:0:
245,181,19890,1,0,0:0:0:0:
306,217,20140,1,8,0:0:0:0:
259,229,20640,1,0,0:0:0:0:
245,219,20890,1,12,0:0:0:0:
256,192,21077,12,0,23702,0:0:0:0:
212,161,23890,5,8,0:0:0:0:
288,205,24140,1,0,0:0:0:0:
288,205,24390,1,0,0:0:0:0:
288,205,24640,1,0,0:0:0:0:
288,205,24890,1,0,0:0:0:0:
288,205,25140,1,0,0:0:0:0:
288,205,25390,1,8,0:0:0:0:
309,207,25640,1,8,0:0:0:0:
271,231,25890,1,0,0:0:0:0:
271,231,26140,1,8,0:0:0:0:
288,205,26640,1,0,0:0:0:0:
288,205,26890,1,12,0:0:0:0:
256,192,27077,12,0,29702,0:0:0:0:
202,201,29890,5,8,0:0:0:0:
202,201,30140,1,0,0:0:0:0:
202,201,30390,1,0,0:0:0:0:
202,201,30640,1,0,0:0:0:0:
202,201,30890,1,0,0:0:0:0:
202,201,31140,1,0,0:0:0:0:
202,201,31390,1,0,0:0:0:0:
226,225,31640,1,8,0:0:0:0:
226,225,31890,1,0,0:0:0:0:
226,225,32140,1,8,0:0:0:0:
241,237,32640,1,0,0:0:0:0:
241,237,32890,1,12,0:0:0:0:
175,178,34390,5,0,0:0:0:0:
180,181,35140,1,8,0:0:0:0:
180,181,35890,1,4,0:0:0:0:
206,215,37390,1,0,0:0:0:0:
190,205,38140,1,8,0:0:0:0:
190,205,38890,1,12,0:0:0:0:
175,180,39874,1,8,0:0:0:0:
175,180,40140,1,0,0:0:0:0:
175,180,40390,1,4,0:0:0:0:
238,187,41890,5,8,0:0:0:0:
181,183,42077,1,0,0:0:0:0:
238,187,42265,1,8,0:0:0:0:
238,187,42452,1,0,0:0:0:0:
171,214,42640,1,0,0:0:0:0:
306,214,42827,1,0,0:0:0:0:
232,216,42921,1,0,0:0:0:0:
306,214,43015,1,8,0:0:0:0:
232,204,43202,1,0,0:0:0:0:
262,266,43390,1,0,0:0:0:0:
262,266,43483,1,0,0:0:0:0:
306,214,43577,1,8,0:0:0:0:
261,188,43765,1,8,0:0:0:0:
306,214,43952,1,0,0:0:0:0:
232,240,44140,1,8,0:0:0:0:
232,204,44327,1,0,0:0:0:0:
226,190,44515,1,8,0:0:0:0:
226,190,44702,1,0,0:0:0:0:
234,219,44890,1,0,0:0:0:0:
291,149,45077,1,0,0:0:0:0:
291,149,45140,1,0,0:0:0:0:
291,149,45202,1,0,0:0:0:0:
291,149,45265,1,8,0:0:0:0:
227,233,45640,1,0,0:0:0:0:
227,233,45827,1,8,0:0:0:0:
232,204,45921,1,0,0:0:0:0:
227,233,46015,1,8,0:0:0:0:
227,233,46202,1,0,0:0:0:0:
234,219,46390,1,0,0:0:0:0:
227,233,46577,1,0,0:0:0:0:
232,204,46671,1,8,0:0:0:0:
227,233,46765,1,8,0:0:0:0:
232,204,46952,1,8,0:0:0:0:
227,233,47140,1,0,0:0:0:0:
88,192,47233,1,0,0:0:0:0:
227,233,47327,1,0,0:0:0:0:
227,233,47421,1,0,0:0:0:0:
227,233,47515,1,8,0:0:0:0:
300,268,47702,1,8,0:0:0:0:
227,233,47890,1,0,0:0:0:0:
132,164,47983,1,0,0:0:0:0:
227,233,48077,1,0,0:0:0:0:
227,233,48171,1,0,0:0:0:0:
227,233,48265,1,8,0:0:0:0:
227,233,48358,1,0,0:0:0:0:
227,233,48452,1,0,0:0:0:0:
227,233,48546,1,0,0:0:0:0:
227,233,48640,1,0,0:0:0:0:
284,288,48733,1,0,0:0:0:0:
227,233,48827,1,0,0:0:0:0:
227,233,48921,1,0,0:0:0:0:
227,233,49015,1,8,0:0:0:0:
227,233,49108,1,0,0:0:0:0:
227,233,49202,1,0,0:0:0:0:
144,172,49296,1,0,0:0:0:0:
144,172,49390,1,8,0:0:0:0:
233,246,49577,1,8,0:0:0:0:
233,246,49765,1,8,0:0:0:0:
233,246,49952,1,0,0:0:0:0:
296,284,50046,1,8,0:0:0:0:
208,202,50140,1,0,0:0:0:0:
233,246,50327,1,0,0:0:0:0:
233,246,50515,1,8,0:0:0:0:
220,168,50702,1,8,0:0:0:0:
233,246,50890,1,0,0:0:0:0:
428,280,50983,1,8,0:0:0:0:
233,246,51077,1,0,0:0:0:0:
233,246,51171,1,0,0:0:0:0:
233,246,51265,1,8,0:0:0:0:
144,168,51452,1,0,0:0:0:0:
233,246,51640,1,8,0:0:0:0:
233,246,51827,1,0,0:0:0:0:
233,246,52015,1,8,0:0:0:0:
233,246,52202,1,0,0:0:0:0:
234,219,52390,1,0,0:0:0:0:
233,246,52577,1,0,0:0:0:0:
278,190,52640,1,0,0:0:0:0:
278,190,52702,1,0,0:0:0:0:
278,190,52765,1,8,0:0:0:0:
277,167,53140,1,0,0:0:0:0:
231,228,53327,1,0,0:0:0:0:
231,228,53515,1,8,0:0:0:0:
231,228,53702,1,0,0:0:0:0:
228,218,53890,1,0,0:0:0:0:
231,228,54077,1,0,0:0:0:0:
240,208,54171,1,0,0:0:0:0:
231,228,54265,1,8,0:0:0:0:
250,208,54452,1,0,0:0:0:0:
257,273,54640,1,0,0:0:0:0:
257,273,54733,1,0,0:0:0:0:
257,273,54827,1,0,0:0:0:0:
278,252,54921,1,0,0:0:0:0:
278,252,55015,1,8,0:0:0:0:
297,249,55108,1,8,0:0:0:0:
297,249,55202,1,0,0:0:0:0:
297,249,55296,1,0,0:0:0:0:
297,249,55390,1,8,0:0:0:0:
297,249,55765,1,8,0:0:0:0:
296,279,55952,1,0,0:0:0:0:
297,249,56140,1,0,0:0:0:0:
251,242,56233,1,0,0:0:0:0:
296,279,56327,1,0,0:0:0:0:
297,249,56515,1,8,0:0:0:0:
236,224,56702,1,0,0:0:0:0:
297,249,56890,1,0,0:0:0:0:
236,224,57077,1,0,0:0:0:0:
297,249,57265,1,8,0:0:0:0:
202,255,57452,1,0,0:0:0:0:
251,242,57546,1,0,0:0:0:0:
202,255,57640,1,0,0:0:0:0:
202,255,57827,1,8,0:0:0:0:
271,204,58015,1,8,0:0:0:0:
236,224,58202,1,0,0:0:0:0:
208,258,58390,1,0,0:0:0:0:
261,235,58577,1,0,0:0:0:0:
191,206,58671,1,0,0:0:0:0:
261,235,58765,1,8,0:0:0:0:
261,235,58952,1,0,0:0:0:0:
251,242,59140,1,0,0:0:0:0:
148,160,59233,1,0,0:0:0:0:
261,235,59327,1,0,0:0:0:0:
261,235,59515,1,8,0:0:0:0:
261,235,59702,1,0,0:0:0:0:
251,242,59890,1,0,0:0:0:0:
294,299,60077,1,8,0:0:0:0:
250,220,60171,1,0,0:0:0:0:
294,299,60265,1,8,0:0:0:0:
294,299,60452,1,0,0:0:0:0:
294,299,60640,1,8,0:0:0:0:
158,201,60733,1,8,0:0:0:0:
294,299,60827,1,8,0:0:0:0:
158,201,60921,1,8,0:0:0:0:
294,299,61015,1,0,0:0:0:0:
158,201,61108,1,0,0:0:0:0:
294,299,61202,1,0,0:0:0:0:
236,296,61390,1,12,0:0:0:0:
291,239,61765,1,8,0:0:0:0:
291,239,61952,1,0,0:0:0:0:
291,239,62140,1,0,0:0:0:0:
291,239,62327,1,0,0:0:0:0:
244,259,62421,1,0,0:0:0:0:
291,239,62515,1,8,0:0:0:0:
264,272,62702,1,0,0:0:0:0:
291,239,62890,1,0,0:0:0:0:
264,272,63077,1,0,0:0:0:0:
291,239,63265,1,8,0:0:0:0:
291,239,63452,1,8,0:0:0:0:
291,239,63640,1,0,0:0:0:0:
244,259,63733,1,0,0:0:0:0:
291,239,63827,1,0,0:0:0:0:
244,259,63921,1,0,0:0:0:0:
291,239,64015,1,8,0:0:0:0:
291,239,64202,1,8,0:0:0:0:
291,239,64390,1,4,0:0:0:0:
291,239,64765,1,8,0:0:0:0:
291,239,64952,1,8,0:0:0:0:
291,239,65140,1,0,0:0:0:0:
263,228,65233,1,0,0:0:0:0:
291,239,65327,1,0,0:0:0:0:
291,239,65515,1,8,0:0:0:0:
335,189,65702,1,8,0:0:0:0:
335,189,65796,1,8,0:0:0:0:
335,189,65890,1,0,0:0:0:0:
256,233,66077,1,0,0:0:0:0:
256,233,66265,1,8,0:0:0:0:
238,185,66452,1,8,0:0:0:0:
238,185,66640,1,0,0:0:0:0:
264,205,66733,1,0,0:0:0:0:
264,205,66827,1,8,0:0:0:0:
264,205,67015,1,8,0:0:0:0:
264,205,67202,1,0,0:0:0:0:
264,205,67390,1,4,0:0:0:0:
241,208,67765,1,8,0:0:0:0:
241,208,67952,1,0,0:0:0:0:
241,208,68140,1,0,0:0:0:0:
241,208,68233,1,0,0:0:0:0:
241,208,68327,1,0,0:0:0:0:
241,208,68515,1,8,0:0:0:0:
193,213,68702,1,8,0:0:0:0:
193,213,68890,1,0,0:0:0:0:
264,272,69077,1,0,0:0:0:0:
187,185,69265,1,8,0:0:0:0:
194,198,69358,1,8,0:0:0:0:
187,185,69452,1,8,0:0:0:0:
187,185,69640,1,0,0:0:0:0:
187,185,69827,1,0,0:0:0:0:
187,185,70015,1,8,0:0:0:0:
352,242,70108,1,8,0:0:0:0:
187,185,70202,1,8,0:0:0:0:
165,187,70390,1,4,0:0:0:0:
227,196,70765,1,8,0:0:0:0:
227,196,70952,1,8,0:0:0:0:
227,196,71140,1,0,0:0:0:0:
227,196,71327,1,0,0:0:0:0:
227,196,71515,1,8,0:0:0:0:
227,196,71702,1,8,0:0:0:0:
233,228,71890,1,8,0:0:0:0:
127,206,71983,1,8,0:0:0:0:
279,236,72077,1,0,0:0:0:0:
270,242,72171,1,0,0:0:0:0:
274,163,72265,1,8,0:0:0:0:
218,226,72452,1,0,0:0:0:0:
218,226,72640,1,0,0:0:0:0:
218,226,72827,1,8,0:0:0:0:
182,205,73015,1,8,0:0:0:0:
176,203,73202,1,0,0:0:0:0:
182,205,73390,1,4,0:0:0:0:
192,196,73577,1,0,0:0:0:0:
244,148,73640,1,0,0:0:0:0:
212,188,73702,1,0,0:0:0:0:
202,198,73765,1,8,0:0:0:0:
236,182,73952,1,0,0:0:0:0:
236,182,74140,1,0,0:0:0:0:
302,256,74327,1,0,0:0:0:0:
266,248,74421,1,0,0:0:0:0:
236,182,74515,1,8,0:0:0:0:
302,256,74702,1,0,0:0:0:0:
302,256,74890,1,0,0:0:0:0:
266,248,75077,1,0,0:0:0:0:
266,248,75171,1,0,0:0:0:0:
302,256,75265,1,8,0:0:0:0:
292,235,75452,1,0,0:0:0:0:
292,235,75640,1,0,0:0:0:0:
292,235,75827,1,0,0:0:0:0:
112,160,75921,1,0,0:0:0:0:
292,235,76015,1,8,0:0:0:0:
292,235,76202,1,0,0:0:0:0:
292,235,76390,1,4,0:0:0:0:
236,233,76577,1,8,0:0:0:0:
262,258,76671,1,8,0:0:0:0:
236,233,76765,1,8,0:0:0:0:
236,233,76952,1,0,0:0:0:0:
236,233,77140,1,0,0:0:0:0:
256,211,77327,1,8,0:0:0:0:
256,211,77421,1,8,0:0:0:0:
262,237,77515,1,8,0:0:0:0:
199,213,77702,1,0,0:0:0:0:
199,213,77890,1,0,0:0:0:0:
199,213,78077,1,8,0:0:0:0:
256,211,78171,1,8,0:0:0:0:
199,213,78265,1,8,0:0:0:0:
236,233,78452,1,0,0:0:0:0:
256,211,78546,1,0,0:0:0:0:
256,211,78640,1,8,0:0:0:0:
288,160,78733,1,8,0:0:0:0:
225,233,78827,1,0,0:0:0:0:
225,233,79015,1,8,0:0:0:0:
225,233,79202,1,0,0:0:0:0:
225,233,79390,1,4,0:0:0:0:
241,228,79765,1,8,0:0:0:0:
241,228,79952,1,8,0:0:0:0:
281,327,80046,1,8,0:0:0:0:
241,228,80140,1,0,0:0:0:0:
241,228,80327,1,0,0:0:0:0:
241,228,80515,1,8,0:0:0:0:
264,272,80702,1,0,0:0:0:0:
188,189,80890,1,4,0:0:0:0:
245,268,81265,1,8,0:0:0:0:
245,268,81452,1,0,0:0:0:0:
251,322,81546,1,8,0:0:0:0:
245,268,81640,1,0,0:0:0:0:
245,268,81827,1,0,0:0:0:0:
245,268,82015,1,8,0:0:0:0:
264,272,82202,1,0,0:0:0:0:
172,183,82390,1,4,0:0:0:0:
236,250,82765,1,8,0:0:0:0:
236,250,82952,1,8,0:0:0:0:
208,193,83046,1,8,0:0:0:0:
208,193,83140,1,0,0:0:0:0:
236,250,83327,1,0,0:0:0:0:
236,250,83515,1,8,0:0:0:0:
264,272,83702,1,0,0:0:0:0:
234,199,83890,1,4,0:0:0:0:
252,201,84265,1,12,0:0:0:0:
252,201,84452,1,4,0:0:0:0:
252,201,84640,1,12,0:0:0:0:
252,201,84827,1,4,0:0:0:0:
252,201,85015,1,8,0:0:0:0:
112,136,85108,1,8,0:0:0:0:
368,277,85202,1,0,0:0:0:0:
368,277,85296,1,0,0:0:0:0:
368,277,85390,1,8,0:0:0:0:
254,208,85577,1,0,0:0:0:0:
254,208,85765,1,8,0:0:0:0:
253,207,85952,1,0,0:0:0:0:
253,207,86140,1,8,0:0:0:0:
253,207,86327,1,0,0:0:0:0:
253,207,86515,1,8,0:0:0:0:
252,206,86702,1,0,0:0:0:0:
228,208,86796,1,0,0:0:0:0:
289,214,86890,1,8,0:0:0:0:
289,214,87077,1,0,0:0:0:0:
289,214,87265,1,8,0:0:0:0:
252,206,87452,1,0,0:0:0:0:
289,214,87640,1,8,0:0:0:0:
289,214,87827,1,0,0:0:0:0:
289,214,88015,1,8,0:0:0:0:
310,203,88202,1,0,0:0:0:0:
168,184,88296,1,0,0:0:0:0:
310,203,88390,1,8,0:0:0:0:
325,245,88577,1,0,0:0:0:0:
297,188,88765,1,8,0:0:0:0:
252,206,88952,1,0,0:0:0:0:
289,214,89140,1,8,0:0:0:0:
289,214,89327,1,0,0:0:0:0:
289,214,89515,1,8,0:0:0:0:
252,206,89702,1,0,0:0:0:0:
289,214,89890,1,8,0:0:0:0:
242,178,89983,1,8,0:0:0:0:
242,178,90077,1,0,0:0:0:0:
242,178,90265,1,0,0:0:0:0:
242,178,90358,1,0,0:0:0:0:
242,178,90452,1,8,0:0:0:0:
242,178,90546,1,0,0:0:0:0:
242,178,90640,1,0,0:0:0:0:
242,178,90733,1,0,0:0:0:0:
242,178,90827,1,8,0:0:0:0:
210,188,90921,1,0,0:0:0:0:
253,184,91015,1,8,0:0:0:0:
253,184,91108,1,8,0:0:0:0:
253,184,91202,1,8,0:0:0:0:
238,226,91390,1,0,0:0:0:0:
255,218,91483,1,0,0:0:0:0:
255,218,91577,1,0,0:0:0:0:
255,219,91671,1,0,0:0:0:0:
255,219,91765,1,0,0:0:0:0:
247,174,91952,1,0,0:0:0:0:
236,225,92140,1,8,0:0:0:0:
201,193,92327,1,0,0:0:0:0:
201,193,92702,1,0,0:0:0:0:
201,193,92890,1,8,0:0:0:0:
201,193,93077,1,0,0:0:0:0:
201,193,93265,1,0,0:0:0:0:
201,193,93452,1,8,0:0:0:0:
201,193,93640,1,8,0:0:0:0:
256,227,94015,1,8,0:0:0:0:
194,188,94390,1,0,0:0:0:0:
201,193,94483,1,0,0:0:0:0:
201,193,94577,1,0,0:0:0:0:
201,193,94671,1,0,0:0:0:0:
201,193,94765,1,0,0:0:0:0:
303,217,94952,1,0,0:0:0:0:
303,217,95140,1,8,0:0:0:0:
303,217,95327,1,0,0:0:0:0:
303,217,95702,1,0,0:0:0:0:
303,217,95890,1,0,0:0:0:0:
303,217,96452,1,0,0:0:0:0:
124,240,96640,2,0,L|320:128,1,210
253,214,97390,1,0,0:0:0:0:
272,256,97483,1,0,0:0:0:0:
272,256,97577,1,0,0:0:0:0:
272,256,97671,1,0,0:0:0:0:
272,256,97765,1,0,0:0:0:0:
241,207,97952,1,0,0:0:0:0:
241,207,98140,1,8,0:0:0:0:
241,207,98327,1,0,0:0:0:0:
241,207,98702,1,8,0:0:0:0:
241,207,98890,1,0,0:0:0:0:
261,252,99077,1,0,0:0:0:0:
261,252,99265,1,0,0:0:0:0:
261,252,99452,1,8,0:0:0:0:
261,252,99640,1,8,0:0:0:0:
293,285,100015,1,8,0:0:0:0:
174,224,100390,1,0,0:0:0:0:
160,152,100483,1,0,0:0:0:0:
228,224,100577,1,0,0:0:0:0:
228,224,100671,1,0,0:0:0:0:
228,224,100765,1,0,0:0:0:0:
217,243,100952,1,0,0:0:0:0:
217,243,101140,1,8,0:0:0:0:
217,243,101327,1,0,0:0:0:0:
258,250,101702,1,0,0:0:0:0:
258,250,101890,1,0,0:0:0:0:
316,204,102077,1,0,0:0:0:0:
196,164,102140,1,0,0:0:0:0:
196,164,102202,1,0,0:0:0:0:
196,164,102265,1,0,0:0:0:0:
329,245,102452,1,0,0:0:0:0:
323,250,102515,1,0,0:0:0:0:
72,144,102577,1,0,0:0:0:0:
323,250,102640,1,8,0:0:0:0:
272,212,102827,1,0,0:0:0:0:
272,212,102890,1,0,0:0:0:0:
272,212,102952,1,0,0:0:0:0:
299,203,103015,1,0,0:0:0:0:
281,217,103202,1,0,0:0:0:0:
281,217,103390,1,0,0:0:0:0:
294,266,103483,1,0,0:0:0:0:
294,266,103577,1,0,0:0:0:0:
294,266,103671,1,0,0:0:0:0:
294,266,103765,1,0,0:0:0:0:
294,266,103952,1,0,0:0:0:0:
294,266,104140,1,8,0:0:0:0:
294,266,104327,1,0,0:0:0:0:
316,270,104702,1,0,0:0:0:0:
316,270,104890,1,0,0:0:0:0:
349,291,105265,1,0,0:0:0:0:
349,291,105452,1,0,0:0:0:0:
349,291,105640,1,8,0:0:0:0:
316,264,106015,1,8,0:0:0:0:
316,264,106202,1,0,0:0:0:0:
316,264,106390,1,0,0:0:0:0:
148,152,106483,1,0,0:0:0:0:
216,209,106577,1,0,0:0:0:0:
216,209,106671,1,0,0:0:0:0:
236,143,106765,1,0,0:0:0:0:
316,264,106952,1,0,0:0:0:0:
251,143,107140,1,8,0:0:0:0:
316,264,107327,1,0,0:0:0:0:
316,264,107702,1,0,0:0:0:0:
316,264,107890,1,0,0:0:0:0:
206,206,108265,1,0,0:0:0:0:
224,194,108452,1,0,0:0:0:0:
241,235,108640,1,8,0:0:0:0:
256,232,109015,1,8,0:0:0:0:
241,235,109390,1,0,0:0:0:0:
218,219,109483,1,0,0:0:0:0:
218,219,109577,1,0,0:0:0:0:
218,219,109671,1,0,0:0:0:0:
218,219,109765,1,0,0:0:0:0:
218,219,109952,1,0,0:0:0:0:
272,224,110140,1,8,0:0:0:0:
272,224,110327,1,0,0:0:0:0:
272,224,110702,1,0,0:0:0:0:
272,224,110890,1,0,0:0:0:0:
223,257,111452,1,0,0:0:0:0:
223,257,111640,1,8,0:0:0:0:
223,257,112015,1,8,0:0:0:0:
203,260,112390,1,0,0:0:0:0:
203,260,112483,1,0,0:0:0:0:
203,260,112577,1,0,0:0:0:0:
203,260,112671,1,0,0:0:0:0:
203,260,112765,1,0,0:0:0:0:
203,260,112952,1,0,0:0:0:0:
203,260,113140,1,8,0:0:0:0:
166,192,113327,1,0,0:0:0:0:
176,194,113702,1,0,0:0:0:0:
231,244,114077,1,0,0:0:0:0:
312,264,114265,1,8,0:0:0:0:
231,244,114452,1,0,0:0:0:0:
231,244,114546,1,0,0:0:0:0:
231,244,114640,1,8,0:0:0:0:
231,244,114733,1,8,0:0:0:0:
231,244,114827,1,0,0:0:0:0:
231,244,114921,1,0,0:0:0:0:
231,244,115015,1,8,0:0:0:0:
231,244,115108,1,8,0:0:0:0:
231,244,115202,1,8,0:0:0:0:
231,244,115296,1,8,0:0:0:0:
238,187,115390,1,0,0:0:0:0:
181,183,115577,1,0,0:0:0:0:
238,187,115765,1,8,0:0:0:0:
238,187,115952,1,0,0:0:0:0:
171,214,116140,1,0,0:0:0:0:
104,140,116233,1,0,0:0:0:0:
306,214,116327,1,0,0:0:0:0:
306,214,116515,1,8,0:0:0:0:
240,200,116702,1,0,0:0:0:0:
262,266,116890,1,0,0:0:0:0:
262,266,116983,1,0,0:0:0:0:
306,214,117077,1,8,0:0:0:0:
228,248,117171,1,0,0:0:0:0:
261,188,117265,1,8,0:0:0:0:
306,214,117452,1,0,0:0:0:0:
231,239,117640,1,8,0:0:0:0:
264,276,117827,1,8,0:0:0:0:
164,152,117921,1,8,0:0:0:0:
226,190,118015,1,8,0:0:0:0:
226,190,118202,1,0,0:0:0:0:
234,219,118390,1,0,0:0:0:0:
291,149,118577,1,0,0:0:0:0:
291,149,118640,1,0,0:0:0:0:
291,149,118702,1,0,0:0:0:0:
291,149,118765,1,8,0:0:0:0:
227,233,119140,1,0,0:0:0:0:
227,233,119327,1,8,0:0:0:0:
227,233,119515,1,8,0:0:0:0:
227,233,119702,1,0,0:0:0:0:
234,219,119890,1,0,0:0:0:0:
227,233,120077,1,0,0:0:0:0:
227,233,120265,1,8,0:0:0:0:
264,276,120452,1,0,0:0:0:0:
227,233,120640,1,0,0:0:0:0:
228,180,120733,1,0,0:0:0:0:
227,233,120827,1,0,0:0:0:0:
227,233,120921,1,0,0:0:0:0:
227,233,121015,1,8,0:0:0:0:
264,276,121202,1,0,0:0:0:0:
227,233,121390,1,0,0:0:0:0:
208,240,121483,1,0,0:0:0:0:
227,233,121577,1,0,0:0:0:0:
227,233,121671,1,0,0:0:0:0:
227,233,121765,1,8,0:0:0:0:
227,233,121858,1,0,0:0:0:0:
227,233,121952,1,0,0:0:0:0:
227,233,122046,1,0,0:0:0:0:
227,233,122140,1,0,0:0:0:0:
272,264,122233,1,0,0:0:0:0:
227,233,122327,1,0,0:0:0:0:
227,233,122421,1,0,0:0:0:0:
227,233,122515,1,8,0:0:0:0:
227,233,122608,1,0,0:0:0:0:
227,233,122702,1,0,0:0:0:0:
227,233,122796,1,0,0:0:0:0:
256,220,122890,1,8,0:0:0:0:
233,246,123077,1,8,0:0:0:0:
233,246,123265,1,8,0:0:0:0:
233,246,123452,1,0,0:0:0:0:
231,243,123640,1,0,0:0:0:0:
233,246,123827,1,0,0:0:0:0:
233,246,124015,1,8,0:0:0:0:
214,203,124202,1,0,0:0:0:0:
233,246,124390,1,0,0:0:0:0:
284,252,124483,1,8,0:0:0:0:
233,246,124577,1,0,0:0:0:0:
233,246,124671,1,0,0:0:0:0:
233,246,124765,1,8,0:0:0:0:
222,205,124952,1,0,0:0:0:0:
233,246,125140,1,8,0:0:0:0:
233,246,125327,1,0,0:0:0:0:
233,246,125515,1,8,0:0:0:0:
220,240,125608,1,0,0:0:0:0:
233,246,125702,1,0,0:0:0:0:
220,240,125890,1,0,0:0:0:0:
233,246,126077,1,0,0:0:0:0:
278,190,126140,1,0,0:0:0:0:
220,240,126202,1,0,0:0:0:0:
278,190,126265,1,8,0:0:0:0:
277,167,126640,1,0,0:0:0:0:
231,228,126827,1,0,0:0:0:0:
246,231,126921,1,0,0:0:0:0:
231,228,127015,1,8,0:0:0:0:
231,228,127202,1,0,0:0:0:0:
228,218,127390,1,0,0:0:0:0:
231,228,127577,1,0,0:0:0:0:
246,230,127671,1,0,0:0:0:0:
231,228,127765,1,8,0:0:0:0:
230,204,127952,1,0,0:0:0:0:
257,273,128140,1,0,0:0:0:0:
257,273,128233,1,0,0:0:0:0:
257,273,128327,1,8,0:0:0:0:
278,252,128421,1,8,0:0:0:0:
278,252,128515,1,8,0:0:0:0:
297,249,128608,1,8,0:0:0:0:
297,249,128702,1,0,0:0:0:0:
297,249,128890,1,12,0:0:0:0:
208,168,129077,1,0,0:0:0:0:
297,249,129265,1,8,0:0:0:0:
296,279,129452,1,0,0:0:0:0:
297,249,129640,1,0,0:0:0:0:
296,279,129827,1,0,0:0:0:0:
251,242,129921,1,0,0:0:0:0:
297,249,130015,1,8,0:0:0:0:
260,224,130202,1,0,0:0:0:0:
297,249,130390,1,0,0:0:0:0:
260,224,130577,1,0,0:0:0:0:
297,249,130765,1,8,0:0:0:0:
202,255,130952,1,0,0:0:0:0:
251,242,131046,1,0,0:0:0:0:
202,255,131140,1,0,0:0:0:0:
264,276,131327,1,0,0:0:0:0:
202,255,131515,1,8,0:0:0:0:
286,256,131702,1,0,0:0:0:0:
256,200,131796,1,0,0:0:0:0:
208,258,131890,1,8,0:0:0:0:
292,264,132077,1,0,0:0:0:0:
266,268,132265,1,8,0:0:0:0:
249,249,132452,1,0,0:0:0:0:
256,200,132546,1,0,0:0:0:0:
251,242,132640,1,0,0:0:0:0:
249,249,132827,1,0,0:0:0:0:
266,278,133015,1,8,0:0:0:0:
292,236,133202,1,8,0:0:0:0:
256,200,133296,1,0,0:0:0:0:
251,242,133390,1,0,0:0:0:0:
266,278,133577,1,0,0:0:0:0:
294,299,133765,1,8,0:0:0:0:
294,299,133952,1,0,0:0:0:0:
256,200,134046,1,0,0:0:0:0:
294,299,134140,1,8,0:0:0:0:
256,200,134233,1,0,0:0:0:0:
294,299,134327,1,0,0:0:0:0:
294,299,134515,1,8,0:0:0:0:
256,200,134608,1,8,0:0:0:0:
294,299,134702,1,0,0:0:0:0:
292,236,134890,1,0,0:0:0:0:
260,224,135077,1,0,0:0:0:0:
256,200,135171,1,0,0:0:0:0:
256,200,135265,1,8,0:0:0:0:
291,239,135452,1,0,0:0:0:0:
291,239,135640,1,0,0:0:0:0:
244,259,135733,1,0,0:0:0:0:
291,239,135827,1,0,0:0:0:0:
291,239,136015,1,8,0:0:0:0:
224,160,136202,1,0,0:0:0:0:
291,239,136390,1,0,0:0:0:0:
72,156,136577,1,0,0:0:0:0:
291,239,136765,1,8,0:0:0:0:
291,239,136952,1,8,0:0:0:0:
291,239,137140,1,0,0:0:0:0:
244,259,137233,1,0,0:0:0:0:
291,239,137327,1,0,0:0:0:0:
244,259,137421,1,0,0:0:0:0:
291,239,137515,1,8,0:0:0:0:
291,239,137702,1,8,0:0:0:0:
291,239,137890,1,4,0:0:0:0:
291,239,138265,1,8,0:0:0:0:
291,239,138452,1,8,0:0:0:0:
291,239,138640,1,0,0:0:0:0:
263,228,138733,1,0,0:0:0:0:
291,239,138827,1,0,0:0:0:0:
291,239,139015,1,8,0:0:0:0:
335,189,139202,1,0,0:0:0:0:
335,189,139390,1,8,0:0:0:0:
232,168,139483,1,0,0:0:0:0:
256,233,139577,1,8,0:0:0:0:
238,185,139765,1,0,0:0:0:0:
228,178,139859,1,8,0:0:0:0:
256,233,139952,1,0,0:0:0:0:
238,185,140140,1,0,0:0:0:0:
264,205,140233,1,0,0:0:0:0:
264,205,140327,1,0,0:0:0:0:
264,205,140515,1,8,0:0:0:0:
256,178,140608,1,0,0:0:0:0:
256,178,140702,1,0,0:0:0:0:
264,205,140890,1,4,0:0:0:0:
208,136,141140,1,0,0:0:0:0:
208,136,141202,1,0,0:0:0:0:
241,208,141265,1,8,0:0:0:0:
241,208,141452,1,0,0:0:0:0:
241,208,141640,1,0,0:0:0:0:
241,208,141733,1,0,0:0:0:0:
241,208,141827,1,0,0:0:0:0:
241,208,142015,1,8,0:0:0:0:
193,213,142202,1,8,0:0:0:0:
193,213,142390,1,0,0:0:0:0:
216,176,142577,1,0,0:0:0:0:
187,185,142765,1,8,0:0:0:0:
194,198,142858,1,8,0:0:0:0:
187,185,142952,1,8,0:0:0:0:
187,185,143140,1,0,0:0:0:0:
187,185,143327,1,0,0:0:0:0:
187,185,143515,1,8,0:0:0:0:
352,242,143608,1,8,0:0:0:0:
187,185,143702,1,0,0:0:0:0:
165,187,143890,1,4,0:0:0:0:
368,256,144077,1,0,0:0:0:0:
227,196,144265,1,8,0:0:0:0:
227,196,144452,1,8,0:0:0:0:
227,196,144640,1,0,0:0:0:0:
227,196,144827,1,0,0:0:0:0:
352,242,144921,1,0,0:0:0:0:
227,196,145015,1,8,0:0:0:0:
227,196,145202,1,8,0:0:0:0:
233,228,145390,1,8,0:0:0:0:
127,206,145483,1,8,0:0:0:0:
279,236,145577,1,0,0:0:0:0:
270,242,145671,1,0,0:0:0:0:
165,227,145765,1,8,0:0:0:0:
218,226,145952,1,0,0:0:0:0:
218,226,146140,1,8,0:0:0:0:
352,242,146233,1,0,0:0:0:0:
218,226,146327,1,0,0:0:0:0:
176,203,146515,1,0,0:0:0:0:
182,205,146702,1,8,0:0:0:0:
182,205,146890,1,4,0:0:0:0:
268,256,147077,1,0,0:0:0:0:
202,198,147265,1,8,0:0:0:0:
236,182,147452,1,0,0:0:0:0:
236,182,147640,1,0,0:0:0:0:
302,256,147827,1,0,0:0:0:0:
266,248,147921,1,0,0:0:0:0:
236,182,148015,1,8,0:0:0:0:
302,256,148202,1,0,0:0:0:0:
302,256,148390,1,4,0:0:0:0:
266,248,148577,1,0,0:0:0:0:
266,248,148671,1,0,0:0:0:0:
302,256,148765,1,8,0:0:0:0:
292,235,148952,1,0,0:0:0:0:
292,235,149140,1,0,0:0:0:0:
176,152,149327,1,8,0:0:0:0:
176,152,149421,1,8,0:0:0:0:
292,235,149515,1,8,0:0:0:0:
292,235,149702,1,0,0:0:0:0:
292,235,149890,1,4,0:0:0:0:
236,233,150077,1,0,0:0:0:0:
262,258,150171,1,0,0:0:0:0:
236,233,150265,1,8,0:0:0:0:
236,233,150452,1,0,0:0:0:0:
236,233,150640,1,0,0:0:0:0:
256,211,150827,1,0,0:0:0:0:
256,211,150921,1,0,0:0:0:0:
262,237,151015,1,8,0:0:0:0:
199,213,151202,1,0,0:0:0:0:
199,213,151390,1,4,0:0:0:0:
199,213,151577,1,0,0:0:0:0:
256,211,151671,1,0,0:0:0:0:
199,213,151765,1,8,0:0:0:0:
296,104,151858,1,0,0:0:0:0:
236,233,151952,1,0,0:0:0:0:
248,226,152046,1,0,0:0:0:0:
256,211,152140,1,8,0:0:0:0:
225,233,152327,1,0,0:0:0:0:
220,265,152421,1,0,0:0:0:0:
225,233,152515,1,8,0:0:0:0:
288,256,152608,1,8,0:0:0:0:
225,233,152702,1,0,0:0:0:0:
220,265,152796,1,0,0:0:0:0:
368,277,152890,1,8,0:0:0:0:
254,208,153077,1,0,0:0:0:0:
254,208,153265,1,8,0:0:0:0:
253,207,153452,1,0,0:0:0:0:
253,207,153640,1,8,0:0:0:0:
253,207,153827,1,0,0:0:0:0:
232,216,153921,1,0,0:0:0:0:
253,207,154015,1,8,0:0:0:0:
252,206,154202,1,0,0:0:0:0:
289,214,154390,1,8,0:0:0:0:
289,214,154577,1,0,0:0:0:0:
232,216,154671,1,0,0:0:0:0:
289,214,154765,1,8,0:0:0:0:
252,206,154952,1,0,0:0:0:0:
289,214,155140,1,8,0:0:0:0:
289,214,155327,1,0,0:0:0:0:
232,216,155421,1,0,0:0:0:0:
289,214,155515,1,8,0:0:0:0:
310,203,155702,1,0,0:0:0:0:
310,203,155890,1,8,0:0:0:0:
325,245,156077,1,0,0:0:0:0:
232,216,156171,1,0,0:0:0:0:
297,188,156265,1,8,0:0:0:0:
252,206,156452,1,0,0:0:0:0:
232,216,156546,1,0,0:0:0:0:
289,214,156640,1,8,0:0:0:0:
289,214,156827,1,0,0:0:0:0:
232,216,156921,1,0,0:0:0:0:
289,214,157015,1,8,0:0:0:0:
252,206,157202,1,0,0:0:0:0:
232,216,157296,1,0,0:0:0:0:
289,214,157390,1,8,0:0:0:0:
242,178,157577,1,0,0:0:0:0:
242,178,157765,1,0,0:0:0:0:
242,178,157858,1,0,0:0:0:0:
242,178,157952,1,8,0:0:0:0:
242,178,158046,1,0,0:0:0:0:
242,178,158140,1,0,0:0:0:0:
242,178,158233,1,0,0:0:0:0:
242,178,158327,1,8,0:0:0:0:
210,188,158421,1,0,0:0:0:0:
253,184,158515,1,8,0:0:0:0:
253,184,158608,1,8,0:0:0:0:
253,184,158702,1,8,0:0:0:0:
238,226,158890,1,0,0:0:0:0:
255,218,158983,1,0,0:0:0:0:
255,219,159077,1,0,0:0:0:0:
255,219,159171,1,0,0:0:0:0:
255,219,159265,1,0,0:0:0:0:
247,174,159452,1,0,0:0:0:0:
236,225,159640,1,8,0:0:0:0:
201,193,159827,1,0,0:0:0:0:
201,193,160202,1,0,0:0:0:0:
201,193,160390,1,8,0:0:0:0:
201,193,160577,1,0,0:0:0:0:
201,193,160765,1,0,0:0:0:0:
201,193,160952,1,8,0:0:0:0:
201,193,161140,1,8,0:0:0:0:
256,227,161515,1,8,0:0:0:0:
194,188,161890,1,0,0:0:0:0:
201,193,161983,1,0,0:0:0:0:
201,193,162077,1,0,0:0:0:0:
201,193,162171,1,0,0:0:0:0:
201,193,162265,1,0,0:0:0:0:
303,217,162452,1,0,0:0:0:0:
303,217,162640,1,8,0:0:0:0:
303,217,162827,1,0,0:0:0:0:
303,217,163202,1,0,0:0:0:0:
303,217,163390,1,0,0:0:0:0:
303,217,163952,1,0,0:0:0:0:
100,260,164140,2,0,L|296:140,1,210
253,214,164890,1,0,0:0:0:0:
272,256,164983,1,0,0:0:0:0:
272,256,165077,1,0,0:0:0:0:
272,256,165171,1,0,0:0:0:0:
272,256,165265,1,0,0:0:0:0:
241,207,165452,1,0,0:0:0:0:
241,207,165640,1,8,0:0:0:0:
241,207,165827,1,0,0:0:0:0:
241,207,166202,1,8,0:0:0:0:
241,207,166390,1,0,0:0:0:0:
261,252,166577,1,0,0:0:0:0:
261,252,166765,1,0,0:0:0:0:
261,252,166952,1,8,0:0:0:0:
261,252,167140,1,8,0:0:0:0:
293,285,167515,1,8,0:0:0:0:
174,224,167890,1,0,0:0:0:0:
174,224,167983,1,0,0:0:0:0:
228,224,168077,1,0,0:0:0:0:
228,224,168171,1,0,0:0:0:0:
228,224,168265,1,0,0:0:0:0:
217,243,168452,1,0,0:0:0:0:
217,243,168640,1,8,0:0:0:0:
217,243,168827,1,0,0:0:0:0:
258,250,169202,1,0,0:0:0:0:
258,250,169390,1,0,0:0:0:0:
258,250,169577,1,0,0:0:0:0:
294,218,169640,1,0,0:0:0:0:
294,218,169702,1,0,0:0:0:0:
272,244,169765,1,0,0:0:0:0:
329,245,169952,1,0,0:0:0:0:
323,250,170015,1,0,0:0:0:0:
60,160,170077,1,0,0:0:0:0:
323,250,170140,1,8,0:0:0:0:
323,250,170327,1,0,0:0:0:0:
299,203,170390,1,0,0:0:0:0:
278,199,170452,1,0,0:0:0:0:
299,203,170515,1,0,0:0:0:0:
281,217,170702,1,0,0:0:0:0:
281,217,170890,1,0,0:0:0:0:
294,266,170983,1,0,0:0:0:0:
294,266,171077,1,0,0:0:0:0:
294,266,171171,1,0,0:0:0:0:
294,266,171265,1,0,0:0:0:0:
294,266,171452,1,0,0:0:0:0:
294,266,171640,1,8,0:0:0:0:
294,266,171827,1,0,0:0:0:0:
316,270,172202,1,0,0:0:0:0:
316,270,172390,1,0,0:0:0:0:
349,291,172765,1,0,0:0:0:0:
349,291,172952,1,0,0:0:0:0:
349,291,173140,1,8,0:0:0:0:
316,264,173515,1,8,0:0:0:0:
316,264,173702,1,0,0:0:0:0:
316,264,173890,1,0,0:0:0:0:
212,176,173983,1,8,0:0:0:0:
216,209,174077,1,0,0:0:0:0:
216,209,174171,1,0,0:0:0:0:
236,143,174265,1,8,0:0:0:0:
316,264,174452,1,8,0:0:0:0:
251,143,174640,1,8,0:0:0:0:
316,264,174827,1,0,0:0:0:0:
316,264,175202,1,0,0:0:0:0:
316,264,175390,1,0,0:0:0:0:
206,206,175765,1,0,0:0:0:0:
224,194,175952,1,0,0:0:0:0:
241,235,176140,1,8,0:0:0:0:
208,148,176515,1,8,0:0:0:0:
241,235,176890,1,0,0:0:0:0:
218,219,176983,1,0,0:0:0:0:
218,219,177077,1,0,0:0:0:0:
218,219,177171,1,0,0:0:0:0:
218,219,177265,1,0,0:0:0:0:
218,219,177452,1,0,0:0:0:0:
272,224,177640,1,8,0:0:0:0:
272,224,177827,1,0,0:0:0:0:
272,224,178202,1,0,0:0:0:0:
272,224,178390,1,0,0:0:0:0:
223,257,178952,1,0,0:0:0:0:
223,257,179140,1,8,0:0:0:0:
223,257,179515,1,8,0:0:0:0:
203,260,179890,1,0,0:0:0:0:
203,260,179983,1,0,0:0:0:0:
203,260,180077,1,0,0:0:0:0:
203,260,180171,1,0,0:0:0:0:
203,260,180265,1,0,0:0:0:0:
203,260,180452,1,0,0:0:0:0:
203,260,180640,1,8,0:0:0:0:
166,192,180827,1,0,0:0:0:0:
176,194,181202,1,0,0:0:0:0:
231,244,181577,1,0,0:0:0:0:
320,264,181765,1,8,0:0:0:0:
231,244,181952,1,0,0:0:0:0:
231,244,182046,1,0,0:0:0:0:
231,244,182140,1,8,0:0:0:0:
231,244,182233,1,8,0:0:0:0:
231,244,182327,1,0,0:0:0:0:
231,244,182421,1,0,0:0:0:0:
231,244,182515,1,8,0:0:0:0:
231,244,182608,1,8,0:0:0:0:
231,244,182702,1,8,0:0:0:0:
231,244,182796,1,8,0:0:0:0:
238,187,182890,1,0,0:0:0:0:
181,183,183077,1,8,0:0:0:0:
238,187,183265,1,0,0:0:0:0:
238,187,183452,1,8,0:0:0:0:
171,214,183640,1,0,0:0:0:0:
306,214,183827,1,0,0:0:0:0:
306,214,184015,1,8,0:0:0:0:
264,160,184202,1,8,0:0:0:0:
262,266,184390,1,0,0:0:0:0:
262,266,184483,1,0,0:0:0:0:
306,214,184577,1,8,0:0:0:0:
261,188,184765,1,8,0:0:0:0:
306,214,184952,1,0,0:0:0:0:
231,239,185140,1,8,0:0:0:0:
256,220,185233,1,8,0:0:0:0:
268,220,185327,1,8,0:0:0:0:
252,236,185421,1,8,0:0:0:0:
226,190,185515,1,8,0:0:0:0:
226,190,185702,1,0,0:0:0:0:
234,219,185890,1,0,0:0:0:0:
291,149,186077,1,0,0:0:0:0:
291,149,186140,1,0,0:0:0:0:
291,149,186202,1,0,0:0:0:0:
291,149,186265,1,8,0:0:0:0:
276,232,186452,1,0,0:0:0:0:
227,233,186640,1,8,0:0:0:0:
304,260,186733,1,0,0:0:0:0:
227,233,186827,1,0,0:0:0:0:
227,233,187015,1,8,0:0:0:0:
227,233,187202,1,0,0:0:0:0:
234,219,187390,1,8,0:0:0:0:
227,233,187577,1,0,0:0:0:0:
288,288,187671,1,0,0:0:0:0:
227,233,187765,1,8,0:0:0:0:
241,238,187952,1,8,0:0:0:0:
227,233,188140,1,0,0:0:0:0:
227,233,188327,1,8,0:0:0:0:
227,233,188421,1,8,0:0:0:0:
227,233,188515,1,8,0:0:0:0:
241,238,188702,1,0,0:0:0:0:
216,184,188890,2,0,L|168:96,7,83.9999974365235
263,186,190390,1,8,0:0:0:0:
263,186,190577,1,8,0:0:0:0:
228,236,190765,1,0,0:0:0:0:
250,238,190858,1,0,0:0:0:0:
233,246,190952,1,8,0:0:0:0:
231,243,191140,1,0,0:0:0:0:
233,246,191327,1,0,0:0:0:0:
233,246,191515,1,8,0:0:0:0:
236,232,191608,1,8,0:0:0:0:
214,203,191702,1,0,0:0:0:0:
233,246,191890,1,0,0:0:0:0:
233,246,192077,1,8,0:0:0:0:
233,246,192171,1,0,0:0:0:0:
233,246,192265,1,8,0:0:0:0:
222,205,192452,1,0,0:0:0:0:
184,166,192640,2,0,L|176:88,8,41.9999987182618
157,166,193577,1,0,0:0:0:0:
199,207,193765,1,8,0:0:0:0:
320,192,193952,1,0,0:0:0:0:
288,288,194046,1,8,0:0:0:0:
174,188,194140,1,0,0:0:0:0:
228,173,194327,1,0,0:0:0:0:
236,174,194515,1,0,0:0:0:0:
260,219,194640,1,8,0:0:0:0:
260,219,194765,1,8,0:0:0:0:
260,219,194890,1,0,0:0:0:0:
225,143,195077,1,0,0:0:0:0:
171,195,195265,1,8,0:0:0:0:
171,195,195452,1,0,0:0:0:0:
280,256,195546,1,8,0:0:0:0:
141,221,195640,1,0,0:0:0:0:
171,195,195827,1,0,0:0:0:0:
171,195,196015,1,8,0:0:0:0:
191,216,196202,1,0,0:0:0:0:
312,260,196296,1,0,0:0:0:0:
191,216,196390,1,0,0:0:0:0:
191,216,196577,1,0,0:0:0:0:
191,216,196765,1,8,0:0:0:0:
275,141,196952,1,8,0:0:0:0:
246,175,197140,1,0,0:0:0:0:
339,205,197233,1,0,0:0:0:0:
241,129,197327,1,8,0:0:0:0:
368,283,197421,1,0,0:0:0:0:
368,283,197515,1,8,0:0:0:0:
197,233,197608,1,8,0:0:0:0:
368,283,197702,1,0,0:0:0:0:
368,283,197765,1,8,0:0:0:0:
226,173,197827,1,8,0:0:0:0:
368,283,197890,1,8,0:0:0:0:
368,283,197983,1,8,0:0:0:0:
368,283,198077,1,0,0:0:0:0:
368,283,198171,1,0,0:0:0:0:
368,283,198265,1,0,0:0:0:0:
261,200,198358,1,8,0:0:0:0:
368,283,198452,1,0,0:0:0:0:
368,283,198515,1,8,0:0:0:0:
253,254,198577,1,8,0:0:0:0:
368,283,198640,1,0,0:0:0:0:
147,168,198733,1,8,0:0:0:0:
316,197,198827,1,0,0:0:0:0:
240,195,198890,1,0,0:0:0:0:
316,197,198952,1,0,0:0:0:0:
274,213,199015,1,8,0:0:0:0:
274,213,199108,1,0,0:0:0:0:
274,213,199202,1,0,0:0:0:0:
231,242,199265,1,0,0:0:0:0:
180,148,199327,1,0,0:0:0:0:
180,148,199390,1,8,0:0:0:0:
256,192,199577,1,0,0:0:0:0:
260,226,199765,1,8,0:0:0:0:
260,226,199952,1,0,0:0:0:0:
260,200,200046,1,0,0:0:0:0:
260,226,200140,1,0,0:0:0:0:
260,200,200233,1,0,0:0:0:0:
260,226,200327,1,0,0:0:0:0:
260,226,200515,1,8,0:0:0:0:
244,224,200702,1,0,0:0:0:0:
277,237,200890,1,0,0:0:0:0:
277,237,201077,1,8,0:0:0:0:
244,224,201171,1,0,0:0:0:0:
277,237,201265,1,8,0:0:0:0:
210,203,201452,1,0,0:0:0:0:
277,237,201640,1,0,0:0:0:0:
244,224,201827,1,0,0:0:0:0:
277,237,202015,1,8,0:0:0:0:
277,237,202202,1,0,0:0:0:0:
244,224,202296,1,8,0:0:0:0:
277,237,202390,1,0,0:0:0:0:
244,224,202483,1,8,0:0:0:0:
277,237,202577,1,0,0:0:0:0:
277,237,202765,1,8,0:0:0:0:
244,224,202952,1,0,0:0:0:0:
260,232,203046,1,0,0:0:0:0:
155,134,203140,1,8,0:0:0:0:
155,134,203327,1,0,0:0:0:0:
155,134,203515,1,8,0:0:0:0:
269,202,203702,1,0,0:0:0:0:
155,134,203890,1,8,0:0:0:0:
244,224,204077,1,0,0:0:0:0:
220,260,204171,1,0,0:0:0:0:
155,134,204265,1,8,0:0:0:0:
256,175,204452,1,0,0:0:0:0:
150,133,204640,1,0,0:0:0:0:
150,133,204733,1,8,0:0:0:0:
192,252,204827,1,8,0:0:0:0:
150,133,204921,1,8,0:0:0:0:
184,240,205015,1,0,0:0:0:0:
264,198,205202,1,8,0:0:0:0:
162,163,205390,1,0,0:0:0:0:
252,228,205577,1,0,0:0:0:0:
252,228,205671,1,0,0:0:0:0:
162,163,205765,1,8,0:0:0:0:
162,163,205952,1,0,0:0:0:0:
194,84,206140,1,8,0:0:0:0:
287,151,206327,1,0,0:0:0:0:
296,260,206421,1,0,0:0:0:0:
162,163,206515,1,8,0:0:0:0:
162,163,206702,1,8,0:0:0:0:
162,163,206890,1,0,0:0:0:0:
252,228,206983,1,0,0:0:0:0:
252,228,207077,1,0,0:0:0:0:
162,163,207265,1,8,0:0:0:0:
240,149,207452,1,0,0:0:0:0:
296,260,207640,1,0,0:0:0:0:
296,260,207733,1,0,0:0:0:0:
329,170,207827,1,0,0:0:0:0:
296,260,207921,1,0,0:0:0:0:
329,170,208015,1,8,0:0:0:0:
322,168,208202,1,0,0:0:0:0:
322,168,208390,1,8,0:0:0:0:
220,272,208483,1,8,0:0:0:0:
312,256,208577,1,8,0:0:0:0:
261,169,208765,1,0,0:0:0:0:
261,169,208952,1,8,0:0:0:0:
232,180,209046,1,8,0:0:0:0:
261,169,209140,1,0,0:0:0:0:
261,169,209327,1,0,0:0:0:0:
261,169,209515,1,8,0:0:0:0:
292,172,209608,1,8,0:0:0:0:
292,144,209702,1,0,0:0:0:0:
200,116,209796,1,8,0:0:0:0:
254,147,209890,1,0,0:0:0:0:
271,193,210077,1,8,0:0:0:0:
271,193,210265,1,0,0:0:0:0:
264,224,210358,1,8,0:0:0:0:
264,224,210452,1,8,0:0:0:0:
233,201,210546,1,8,0:0:0:0:
266,193,210640,1,0,0:0:0:0:
296,220,210827,1,0,0:0:0:0:
273,169,211015,1,8,0:0:0:0:
273,169,211202,1,0,0:0:0:0:
273,169,211390,1,0,0:0:0:0:
272,228,211483,1,0,0:0:0:0:
273,169,211577,1,0,0:0:0:0:
273,169,211765,1,8,0:0:0:0:
264,224,211952,1,0,0:0:0:0:
273,169,212140,1,0,0:0:0:0:
260,220,212327,1,0,0:0:0:0:
231,195,212421,1,0,0:0:0:0:
273,169,212515,1,8,0:0:0:0:
273,169,212702,1,8,0:0:0:0:
273,169,212890,1,8,0:0:0:0:
273,169,213077,1,0,0:0:0:0:
273,169,213265,1,8,0:0:0:0:
273,169,213452,1,8,0:0:0:0:
273,169,213640,1,0,0:0:0:0:
292,256,213733,1,0,0:0:0:0:
285,167,213827,1,0,0:0:0:0:
285,167,214015,1,8,0:0:0:0:
285,167,214202,1,0,0:0:0:0:
285,167,214390,1,0,0:0:0:0:
264,224,214483,1,0,0:0:0:0:
285,167,214577,1,0,0:0:0:0:
256,220,214671,1,0,0:0:0:0:
285,167,214765,1,8,0:0:0:0:
286,167,214952,1,0,0:0:0:0:
191,194,215046,1,0,0:0:0:0:
292,256,215140,1,0,0:0:0:0:
285,167,215327,1,0,0:0:0:0:
189,143,215515,1,8,0:0:0:0:
194,143,215702,1,0,0:0:0:0:
218,181,215796,1,0,0:0:0:0:
194,142,215890,1,0,0:0:0:0:
191,194,216077,1,0,0:0:0:0:
199,189,216265,1,0,0:0:0:0:
199,189,216327,1,8,0:0:0:0:
221,243,216390,1,8,0:0:0:0:
248,262,216452,1,0,0:0:0:0:
294,231,216546,1,8,0:0:0:0:
248,262,216640,1,0,0:0:0:0:
324,243,216702,1,0,0:0:0:0:
209,168,216765,1,0,0:0:0:0:
324,243,216827,1,8,0:0:0:0:
283,196,216921,1,0,0:0:0:0:
283,196,217015,1,8,0:0:0:0:
194,183,217077,1,8,0:0:0:0:
147,219,217140,1,8,0:0:0:0:
172,158,217202,1,0,0:0:0:0:
172,158,217265,1,0,0:0:0:0:
144,184,217327,1,0,0:0:0:0:
114,185,217390,1,8,0:0:0:0:
248,212,217577,1,0,0:0:0:0:
207,175,217765,1,8,0:0:0:0:
207,175,217952,1,0,0:0:0:0:
196,196,218046,1,0,0:0:0:0:
207,175,218140,1,0,0:0:0:0:
207,175,218327,1,0,0:0:0:0:
207,175,218515,1,8,0:0:0:0:
256,216,218702,1,8,0:0:0:0:
260,256,218796,1,8,0:0:0:0:
207,175,218890,1,0,0:0:0:0:
207,175,219077,1,0,0:0:0:0:
207,175,219265,1,8,0:0:0:0:
207,175,219452,1,0,0:0:0:0:
196,196,219546,1,8,0:0:0:0:
207,175,219640,1,0,0:0:0:0:
248,216,219827,1,0,0:0:0:0:
207,175,220015,1,8,0:0:0:0:
207,175,220202,1,8,0:0:0:0:
216,152,220296,1,0,0:0:0:0:
207,175,220390,1,0,0:0:0:0:
207,175,220577,1,0,0:0:0:0:
207,175,220765,1,8,0:0:0:0:
248,216,220952,1,8,0:0:0:0:
272,236,221046,1,8,0:0:0:0:
121,172,221140,1,0,0:0:0:0:
127,173,221327,1,8,0:0:0:0:
127,173,221515,1,0,0:0:0:0:
127,173,221702,1,8,0:0:0:0:
192,176,221796,1,8,0:0:0:0:
127,173,221890,1,8,0:0:0:0:
164,220,222077,1,0,0:0:0:0:
325,207,222265,1,8,0:0:0:0:
325,207,222452,1,8,0:0:0:0:
325,207,222640,1,0,0:0:0:0:
267,165,222733,1,8,0:0:0:0:
267,165,222827,1,8,0:0:0:0:
325,207,222921,1,8,0:0:0:0:
325,207,223015,1,8,0:0:0:0:
325,207,223202,1,0,0:0:0:0:
280,224,223296,1,0,0:0:0:0:
325,207,223390,1,8,0:0:0:0:
261,196,223577,1,8,0:0:0:0:
261,196,223765,1,0,0:0:0:0:
261,196,223952,1,8,0:0:0:0:
261,196,224140,1,8,0:0:0:0:
224,200,224233,1,8,0:0:0:0:
328,224,224327,1,0,0:0:0:0:
295,170,224515,1,8,0:0:0:0:
295,170,224702,1,0,0:0:0:0:
261,162,224796,1,8,0:0:0:0:
295,170,224890,1,0,0:0:0:0:
295,170,225077,1,0,0:0:0:0:
295,170,225265,1,8,0:0:0:0:
326,263,225452,1,0,0:0:0:0:
224,200,225546,1,8,0:0:0:0:
326,263,225640,1,0,0:0:0:0:
326,263,225827,1,0,0:0:0:0:
326,263,226015,1,0,0:0:0:0:
326,263,226202,1,8,0:0:0:0:
319,203,226390,1,8,0:0:0:0:
236,212,226483,1,8,0:0:0:0:
243,194,226577,1,0,0:0:0:0:
172,173,226671,1,0,0:0:0:0:
128,163,226765,1,8,0:0:0:0:
146,159,226858,1,0,0:0:0:0:
231,174,226952,1,8,0:0:0:0:
201,198,227046,1,8,0:0:0:0:
128,163,227140,1,8,0:0:0:0:
172,173,227233,1,0,0:0:0:0:
128,163,227327,1,8,0:0:0:0:
146,159,227421,1,0,0:0:0:0:
231,181,227515,1,8,0:0:0:0:
184,184,227608,1,8,0:0:0:0:
252,168,227702,1,8,0:0:0:0:
163,174,227796,1,0,0:0:0:0:
178,208,227890,1,8,0:0:0:0:
136,196,227952,1,0,0:0:0:0:
115,172,228015,1,0,0:0:0:0:
64,176,228077,1,8,0:0:0:0:
136,196,228171,1,8,0:0:0:0:
80,180,228265,1,0,0:0:0:0:
72,228,228358,1,0,0:0:0:0:
160,160,228452,1,8,0:0:0:0:
168,160,228546,1,0,0:0:0:0:
172,196,228640,1,8,0:0:0:0:
200,224,228733,1,0,0:0:0:0:
184,248,228827,1,8,0:0:0:0:
184,248,228921,1,8,0:0:0:0:
212,208,229015,1,8,0:0:0:0:
184,248,229108,1,0,0:0:0:0:
184,248,229202,1,8,0:0:0:0:
208,260,229265,1,0,0:0:0:0:
208,260,229327,1,0,0:0:0:0:
208,260,229390,1,8,0:0:0:0:
192,320,229483,1,8,0:0:0:0:
288,268,229577,1,0,0:0:0:0:
288,268,229671,1,0,0:0:0:0:
288,268,229765,1,8,0:0:0:0:
304,216,229858,1,0,0:0:0:0:
216,200,229952,1,0,0:0:0:0:
240,196,230046,1,0,0:0:0:0:
328,220,230140,1,8,0:0:0:0:
344,296,230233,1,0,0:0:0:0:
344,296,230327,1,8,0:0:0:0:
252,216,230421,1,8,0:0:0:0:
252,216,230515,1,8,0:0:0:0:
252,216,230608,1,0,0:0:0:0:
260,216,230702,1,8,0:0:0:0:
252,216,230796,1,0,0:0:0:0:
172,186,230890,1,8,0:0:0:0:
228,204,230952,1,8,0:0:0:0:
118,165,231015,1,0,0:0:0:0:
232,180,231077,1,8,0:0:0:0:
260,272,231171,1,0,0:0:0:0:
248,212,231265,1,8,0:0:0:0:
276,164,231358,1,0,0:0:0:0:
204,285,231452,1,0,0:0:0:0:
260,212,231515,1,0,0:0:0:0:
217,194,231577,1,0,0:0:0:0:
192,256,231640,1,8,0:0:0:0:
196,208,231733,1,8,0:0:0:0:
196,208,231827,1,8,0:0:0:0:
196,212,231921,1,0,0:0:0:0:
196,212,232015,1,8,0:0:0:0:
180,192,232108,1,0,0:0:0:0:
184,196,232202,1,8,0:0:0:0:
184,196,232296,1,0,0:0:0:0:
192,256,232390,1,0,0:0:0:0:
220,200,232483,1,8,0:0:0:0:
220,200,232577,1,8,0:0:0:0:
220,200,232671,1,0,0:0:0:0:
220,200,232765,1,8,0:0:0:0:
316,256,232858,1,0,0:0:0:0:
220,200,232952,1,8,0:0:0:0:
312,264,233046,1,8,0:0:0:0:
192,256,233140,1,0,0:0:0:0:
244,248,233202,1,0,0:0:0:0:
244,248,233265,1,0,0:0:0:0:
242,161,233327,1,8,0:0:0:0:
188,160,233421,1,0,0:0:0:0:
320,252,233515,1,8,0:0:0:0:
308,248,233577,1,0,0:0:0:0:
256,152,233640,1,0,0:0:0:0:
308,248,233702,1,8,0:0:0:0:
288,236,233796,1,0,0:0:0:0:
192,256,233890,1,8,0:0:0:0:
308,248,233952,1,0,0:0:0:0:
232,152,234015,1,0,0:0:0:0:
308,248,234077,1,0,0:0:0:0:
308,248,234171,1,8,0:0:0:0:
256,216,234265,1,0,0:0:0:0:
258,215,234327,1,8,0:0:0:0:
256,216,234390,1,8,0:0:0:0:
256,216,234452,1,0,0:0:0:0:
308,248,234546,1,0,0:0:0:0:
192,256,234640,1,8,0:0:0:0:
308,248,234733,1,0,0:0:0:0:
308,248,234827,1,8,0:0:0:0:
308,248,234921,1,0,0:0:0:0:
192,256,235015,1,8,0:0:0:0:
236,256,235108,1,8,0:0:0:0:
244,248,235202,1,8,0:0:0:0:
191,236,235296,1,8,0:0:0:0:
192,256,235390,1,0,0:0:0:0:
168,208,235483,1,0,0:0:0:0:
168,208,235577,1,0,0:0:0:0:
192,256,235765,1,0,0:0:0:0:
168,208,235858,1,0,0:0:0:0:
168,208,235952,1,8,0:0:0:0:
192,256,236140,1,0,0:0:0:0:
168,208,236233,1,0,0:0:0:0:
168,208,236327,1,0,0:0:0:0:
192,256,236515,1,0,0:0:0:0:
168,208,236608,1,0,0:0:0:0:
168,208,236702,1,8,0:0:0:0:
192,256,236890,1,0,0:0:0:0:
168,208,236983,1,0,0:0:0:0:
168,208,237077,1,0,0:0:0:0:
192,256,237265,1,0,0:0:0:0:
168,208,237358,1,0,0:0:0:0:
168,208,237452,1,8,0:0:0:0:
192,256,237640,1,8,0:0:0:0:
168,208,237733,1,0,0:0:0:0:
168,208,237827,1,8,0:0:0:0:
192,256,237921,1,0,0:0:0:0:
168,208,238014,1,8,0:0:0:0:
168,208,238108,1,0,0:0:0:0:
192,256,238202,1,8,0:0:0:0:
168,208,238295,1,0,0:0:0:0:
168,208,238389,1,8,0:0:0:0:
176,172,238577,1,0,0:0:0:0:
192,172,238765,1,8,0:0:0:0:
224,212,238858,1,8,0:0:0:0:
176,172,238952,1,0,0:0:0:0:
224,212,239046,1,0,0:0:0:0:
192,172,239140,1,8,0:0:0:0:
224,212,239233,1,8,0:0:0:0:
176,172,239327,1,0,0:0:0:0:
224,212,239421,1,0,0:0:0:0:
192,172,239515,1,8,0:0:0:0:
224,212,239608,1,8,0:0:0:0:
176,172,239702,1,0,0:0:0:0:
224,212,239796,1,0,0:0:0:0:
192,172,239890,1,8,0:0:0:0:
224,212,239983,1,8,0:0:0:0:
200,168,240077,1,0,0:0:0:0:
192,208,240171,1,0,0:0:0:0:
232,224,240265,1,8,0:0:0:0:
236,232,240452,1,8,0:0:0:0:
232,216,240546,1,0,0:0:0:0:
240,236,240640,1,8,0:0:0:0:
240,236,240827,1,0,0:0:0:0:
240,236,241015,1,0,0:0:0:0:
164,156,241108,1,8,0:0:0:0:
240,236,241202,1,0,0:0:0:0:
240,236,241390,1,0,0:0:0:0:
144,208,241483,1,8,0:0:0:0:
144,208,241577,1,0,0:0:0:0:
240,236,241765,1,0,0:0:0:0:
212,136,241858,1,0,0:0:0:0:
240,236,241952,1,8,0:0:0:0:
240,236,242140,1,8,0:0:0:0:
164,196,242233,1,0,0:0:0:0:
172,200,242327,1,0,0:0:0:0:
172,200,242421,1,0,0:0:0:0:
172,200,242515,1,8,0:0:0:0:
164,196,242608,1,8,0:0:0:0:
172,200,242702,1,0,0:0:0:0:
172,200,242796,1,0,0:0:0:0:
172,200,242890,1,8,0:0:0:0:
164,196,242983,1,0,0:0:0:0:
172,200,243077,1,0,0:0:0:0:
172,200,243171,1,0,0:0:0:0:
172,200,243265,1,8,0:0:0:0:
164,196,243358,1,8,0:0:0:0:
172,200,243452,1,0,0:0:0:0:
172,200,243546,1,0,0:0:0:0:
172,200,243640,1,8,0:0:0:0:
164,196,243733,1,0,0:0:0:0:
172,200,243827,1,0,0:0:0:0:
172,200,243921,1,0,0:0:0:0:
172,200,244015,1,8,0:0:0:0:
148,216,244202,1,0,0:0:0:0:
148,216,244390,1,8,0:0:0:0:
148,216,244577,1,0,0:0:0:0:
148,216,244671,1,0,0:0:0:0:
148,216,244765,1,8,0:0:0:0:
148,216,244952,1,0,0:0:0:0:
148,216,245140,1,8,0:0:0:0:
148,216,245327,1,0,0:0:0:0:
148,216,245421,1,0,0:0:0:0:
148,216,245515,1,8,0:0:0:0:
148,216,245702,1,0,0:0:0:0:
148,216,245890,1,8,0:0:0:0:
144,200,246077,1,0,0:0:0:0:
200,156,246171,1,0,0:0:0:0:
144,200,246265,1,8,0:0:0:0:
200,156,246358,1,8,0:0:0:0:
168,172,246452,1,0,0:0:0:0:
144,200,246640,1,8,0:0:0:0:
164,196,246733,1,0,0:0:0:0:
172,200,246827,1,0,0:0:0:0:
172,200,246921,1,0,0:0:0:0:
172,200,247015,1,8,0:0:0:0:
164,196,247108,1,0,0:0:0:0:
172,200,247202,1,0,0:0:0:0:
172,200,247296,1,0,0:0:0:0:
172,200,247390,1,8,0:0:0:0:
164,196,247483,1,8,0:0:0:0:
172,200,247577,1,0,0:0:0:0:
172,200,247671,1,0,0:0:0:0:
172,200,247765,1,8,0:0:0:0:
164,196,247858,1,0,0:0:0:0:
172,200,247952,1,0,0:0:0:0:
172,200,248046,1,0,0:0:0:0:
172,200,248140,1,8,0:0:0:0:
164,196,248233,1,0,0:0:0:0:
172,200,248327,1,0,0:0:0:0:
172,200,248421,1,0,0:0:0:0:
172,200,248515,1,8,0:0:0:0:
164,196,248608,1,8,0:0:0:0:
172,200,248702,1,0,0:0:0:0:
172,200,248796,1,0,0:0:0:0:
172,200,248890,1,8,0:0:0:0:
172,200,249077,1,0,0:0:0:0:
172,200,249265,1,8,0:0:0:0:
172,200,249452,1,0,0:0:0:0:
172,200,249546,1,0,0:0:0:0:
172,200,249640,1,8,0:0:0:0:
172,200,249827,1,0,0:0:0:0:
172,200,250015,1,8,0:0:0:0:
172,200,250202,1,0,0:0:0:0:
152,132,250296,1,0,0:0:0:0:
172,200,250390,1,8,0:0:0:0:
172,200,250577,1,0,0:0:0:0:
172,200,250765,1,8,0:0:0:0:
172,200,250952,1,0,0:0:0:0:
172,200,251046,1,0,0:0:0:0:
172,200,251140,1,8,0:0:0:0:
172,200,251233,1,8,0:0:0:0:
172,200,251327,1,0,0:0:0:0:
172,200,251420,1,0,0:0:0:0:
172,200,251515,1,8,0:0:0:0:
172,200,251608,1,8,0:0:0:0:
172,200,251702,1,0,0:0:0:0:
172,200,251795,1,0,0:0:0:0:
172,200,251890,1,8,0:0:0:0:
172,200,251983,1,8,0:0:0:0:
172,200,252077,1,0,0:0:0:0:
172,200,252171,1,0,0:0:0:0:
172,200,252265,1,8,0:0:0:0:
172,200,252327,1,0,0:0:0:0:
172,200,252390,1,0,0:0:0:0:
128,140,252452,1,0,0:0:0:0:
172,200,252515,1,0,0:0:0:0:
200,224,252577,1,0,0:0:0:0:
172,200,252640,1,8,0:0:0:0:
236,176,252702,1,0,0:0:0:0:
226,206,252765,1,0,0:0:0:0:
172,200,252827,1,0,0:0:0:0:
136,140,252890,1,0,0:0:0:0:
226,206,252952,1,0,0:0:0:0:
172,200,253015,1,8,0:0:0:0:
226,206,253077,1,0,0:0:0:0:
168,152,253140,1,0,0:0:0:0:
172,200,253202,1,0,0:0:0:0:
168,152,253265,1,0,0:0:0:0:
172,200,253327,1,0,0:0:0:0:
212,216,253390,1,8,0:0:0:0:
264,244,253577,1,0,0:0:0:0:
264,244,253765,1,8,0:0:0:0:
204,163,253858,1,0,0:0:0:0:
392,192,253952,1,0,0:0:0:0:
264,244,254046,1,0,0:0:0:0:
264,244,254140,1,8,0:0:0:0:
316,316,254327,1,0,0:0:0:0:
316,316,254421,1,0,0:0:0:0:
316,316,254515,1,8,0:0:0:0:
316,316,254702,1,0,0:0:0:0:
316,316,254796,1,0,0:0:0:0:
316,316,254890,1,8,0:0:0:0:
316,316,255077,1,0,0:0:0:0:
316,316,255171,1,0,0:0:0:0:
316,316,255265,1,0,0:0:0:0:
316,316,255452,1,0,0:0:0:0:
316,316,255546,1,0,0:0:0:0:
316,316,255640,1,8,0:0:0:0:
229,268,255733,1,8,0:0:0:0:
316,316,255827,1,0,0:0:0:0:
316,316,255921,1,0,0:0:0:0:
316,316,256015,1,8,0:0:0:0:
229,268,256108,1,8,0:0:0:0:
316,316,256202,1,0,0:0:0:0:
316,316,256296,1,0,0:0:0:0:
316,316,256390,1,8,0:0:0:0:
229,268,256483,1,8,0:0:0:0:
316,316,256577,1,0,0:0:0:0:
316,316,256671,1,0,0:0:0:0:
316,316,256765,1,8,0:0:0:0:
231,258,256858,1,8,0:0:0:0:
316,316,256952,1,0,0:0:0:0:
316,316,257046,1,0,0:0:0:0:
316,316,257140,1,8,0:0:0:0:
309,209,257233,1,0,0:0:0:0:
316,316,257327,1,0,0:0:0:0:
316,316,257421,1,0,0:0:0:0:
316,316,257515,1,8,0:0:0:0:
309,209,257608,1,0,0:0:0:0:
316,316,257702,1,0,0:0:0:0:
316,316,257796,1,0,0:0:0:0:
316,316,257890,1,8,0:0:0:0:
316,316,258077,1,0,0:0:0:0:
316,316,258171,1,0,0:0:0:0:
316,316,258265,1,8,0:0:0:0:
316,316,258452,1,0,0:0:0:0:
316,316,258546,1,0,0:0:0:0:
316,316,258640,1,8,0:0:0:0:
316,316,258733,1,8,0:0:0:0:
316,316,258827,1,0,0:0:0:0:
316,316,259015,1,8,0:0:0:0:
316,316,259202,1,0,0:0:0:0:
316,316,259296,1,0,0:0:0:0:
316,316,259390,1,0,0:0:0:0:
316,316,259577,1,0,0:0:0:0:
316,316,259671,1,0,0:0:0:0:
316,316,259765,1,8,0:0:0:0:
316,316,259952,1,0,0:0:0:0:
316,316,260046,1,0,0:0:0:0:
316,316,260140,1,8,0:0:0:0:
202,178,260233,1,8,0:0:0:0:
316,316,260327,1,0,0:0:0:0:
316,316,260421,1,0,0:0:0:0:
316,316,260515,1,8,0:0:0:0:
216,199,260608,1,8,0:0:0:0:
316,316,260702,1,0,0:0:0:0:
316,316,260796,1,0,0:0:0:0:
316,316,260890,1,8,0:0:0:0:
216,199,260983,1,8,0:0:0:0:
316,316,261077,1,0,0:0:0:0:
216,204,261171,1,0,0:0:0:0:
316,316,261265,1,8,0:0:0:0:
216,199,261358,1,8,0:0:0:0:
316,316,261452,1,0,0:0:0:0:
316,316,261546,1,0,0:0:0:0:
316,316,261640,1,8,0:0:0:0:
216,199,261733,1,0,0:0:0:0:
316,316,261827,1,0,0:0:0:0:
216,204,261921,1,0,0:0:0:0:
316,316,262015,1,8,0:0:0:0:
216,199,262108,1,0,0:0:0:0:
252,172,262202,1,0,0:0:0:0:
216,199,262296,1,0,0:0:0:0:
272,132,262390,1,8,0:0:0:0:
316,316,262577,1,0,0:0:0:0:
216,204,262671,1,8,0:0:0:0:
316,316,262765,1,8,0:0:0:0:
216,199,262858,1,8,0:0:0:0:
316,316,262952,1,0,0:0:0:0:
316,316,263046,1,0,0:0:0:0:
316,316,263140,1,8,0:0:0:0:
316,316,263327,1,0,0:0:0:0:
316,316,263421,1,0,0:0:0:0:
316,316,263515,1,8,0:0:0:0:
316,316,263702,1,8,0:0:0:0:
316,316,263796,1,0,0:0:0:0:
316,316,263890,1,8,0:0:0:0:
316,316,264077,1,0,0:0:0:0:
316,316,264171,1,0,0:0:0:0:
316,316,264265,1,8,0:0:0:0:
316,316,264452,1,0,0:0:0:0:
316,316,264546,1,0,0:0:0:0:
316,316,264640,1,8,0:0:0:0:
252,162,264733,1,8,0:0:0:0:
316,316,264827,1,0,0:0:0:0:
316,316,264921,1,0,0:0:0:0:
316,316,265015,1,8,0:0:0:0:
252,162,265108,1,8,0:0:0:0:
316,316,265202,1,0,0:0:0:0:
316,316,265296,1,0,0:0:0:0:
316,316,265390,1,8,0:0:0:0:
265,165,265483,1,8,0:0:0:0:
316,316,265577,1,0,0:0:0:0:
316,316,265671,1,0,0:0:0:0:
316,316,265765,1,8,0:0:0:0:
265,165,265858,1,8,0:0:0:0:
316,316,265952,1,0,0:0:0:0:
316,316,266046,1,0,0:0:0:0:
316,316,266140,1,8,0:0:0:0:
265,165,266233,1,0,0:0:0:0:
316,316,266327,1,0,0:0:0:0:
316,316,266421,1,0,0:0:0:0:
316,316,266515,1,8,0:0:0:0:
265,165,266608,1,0,0:0:0:0:
316,316,266702,1,0,0:0:0:0:
316,316,266796,1,0,0:0:0:0:
316,316,266890,1,8,0:0:0:0:
316,316,267077,1,0,0:0:0:0:
316,316,267171,1,0,0:0:0:0:
316,316,267265,1,8,0:0:0:0:
265,165,267358,1,8,0:0:0:0:
316,316,267452,1,8,0:0:0:0:
316,316,267546,1,0,0:0:0:0:
316,316,267640,1,8,0:0:0:0:
316,316,267827,1,0,0:0:0:0:
316,316,267921,1,8,0:0:0:0:
316,316,268015,1,8,0:0:0:0:
316,316,268202,1,0,0:0:0:0:
316,316,268296,1,0,0:0:0:0:
316,316,268390,1,8,0:0:0:0:
316,316,268577,1,8,0:0:0:0:
316,316,268671,1,0,0:0:0:0:
316,316,268765,1,8,0:0:0:0:
316,316,268952,1,0,0:0:0:0:
316,316,269046,1,0,0:0:0:0:
316,316,269140,1,8,0:0:0:0:
102,151,269233,1,8,0:0:0:0:
316,316,269327,1,0,0:0:0:0:
316,316,269421,1,0,0:0:0:0:
316,316,269515,1,8,0:0:0:0:
102,151,269608,1,8,0:0:0:0:
316,316,269702,1,0,0:0:0:0:
316,316,269796,1,0,0:0:0:0:
316,316,269890,1,8,0:0:0:0:
101,150,269983,1,8,0:0:0:0:
316,316,270077,1,0,0:0:0:0:
316,316,270171,1,0,0:0:0:0:
316,316,270265,1,8,0:0:0:0:
131,173,270358,1,8,0:0:0:0:
316,316,270452,1,0,0:0:0:0:
316,316,270546,1,0,0:0:0:0:
316,316,270640,1,8,0:0:0:0:
205,173,270733,1,0,0:0:0:0:
316,316,270827,1,0,0:0:0:0:
316,316,270921,1,0,0:0:0:0:
316,316,271015,1,8,0:0:0:0:
205,173,271108,1,0,0:0:0:0:
316,316,271202,1,0,0:0:0:0:
316,316,271296,1,0,0:0:0:0:
316,316,271390,1,8,0:0:0:0:
316,316,271577,1,0,0:0:0:0:
316,316,271671,1,0,0:0:0:0:
316,316,271765,1,0,0:0:0:0:
272,144,271858,1,0,0:0:0:0:
316,316,271952,1,8,0:0:0:0:
316,316,272046,1,0,0:0:0:0:
316,316,272140,1,8,0:0:0:0:
316,316,272327,1,0,0:0:0:0:
316,316,272421,1,0,0:0:0:0:
316,316,272515,1,8,0:0:0:0:
108,104,272608,1,0,0:0:0:0:
316,316,272702,1,0,0:0:0:0:
316,316,272796,1,0,0:0:0:0:
316,316,272890,1,8,0:0:0:0:
316,316,273077,1,0,0:0:0:0:
316,316,273171,1,0,0:0:0:0:
316,316,273265,1,8,0:0:0:0:
240,100,273358,1,8,0:0:0:0:
316,316,273452,1,0,0:0:0:0:
316,316,273546,1,0,0:0:0:0:
316,316,273640,1,8,0:0:0:0:
316,316,273827,1,0,0:0:0:0:
316,316,273921,1,0,0:0:0:0:
316,316,274015,1,8,0:0:0:0:
204,128,274108,1,8,0:0:0:0:
316,316,274202,1,8,0:0:0:0:
316,316,274296,1,0,0:0:0:0:
316,316,274390,1,8,0:0:0:0:
316,316,274577,1,0,0:0:0:0:
316,316,274671,1,8,0:0:0:0:
316,316,274765,1,8,0:0:0:0:
156,80,274858,1,8,0:0:0:0:
316,316,274952,1,8,0:0:0:0:
316,316,275046,1,0,0:0:0:0:
316,316,275140,1,8,0:0:0:0:
316,316,275327,1,8,0:0:0:0:
316,316,275421,1,0,0:0:0:0:
152,184,275515,1,8,0:0:0:0:
196,96,275608,1,8,0:0:0:0:
316,316,275702,1,0,0:0:0:0:
316,316,275796,1,0,0:0:0:0:
316,316,275890,1,8,0:0:0:0:
316,316,276077,1,8,0:0:0:0:
316,316,276171,1,0,0:0:0:0:
220,192,276265,1,8,0:0:0:0:
224,96,276358,1,8,0:0:0:0:
316,316,276452,1,8,0:0:0:0:
316,316,276546,1,0,0:0:0:0:
316,316,276640,1,8,0:0:0:0:
316,316,276827,1,8,0:0:0:0:
316,316,276921,1,0,0:0:0:0:
316,316,277015,1,8,0:0:0:0:
216,104,277108,1,8,0:0:0:0:
316,316,277202,1,8,0:0:0:0:
316,316,277296,1,0,0:0:0:0:
316,316,277390,1,8,0:0:0:0:
280,272,277483,1,8,0:0:0:0:
316,316,277577,1,0,0:0:0:0:
316,316,277671,1,0,0:0:0:0:
316,316,277765,1,8,0:0:0:0:
168,184,277858,1,8,0:0:0:0:
316,316,277952,1,0,0:0:0:0:
316,316,278046,1,0,0:0:0:0:
316,316,278140,1,8,0:0:0:0:
316,316,278327,1,0,0:0:0:0:
316,316,278421,1,0,0:0:0:0:
316,316,278515,1,8,0:0:0:0:
244,184,278608,1,0,0:0:0:0:
316,316,278702,1,0,0:0:0:0:
316,316,278796,1,0,0:0:0:0:
316,316,278890,1,8,0:0:0:0:
244,184,278983,1,0,0:0:0:0:
316,316,279077,1,0,0:0:0:0:
316,316,279171,1,0,0:0:0:0:
316,316,279265,1,8,0:0:0:0:
244,184,279358,1,8,0:0:0:0:
316,316,279452,1,0,0:0:0:0:
316,316,279546,1,0,0:0:0:0:
316,316,279640,1,8,0:0:0:0:
244,184,279733,1,8,0:0:0:0:
316,316,279827,1,0,0:0:0:0:
316,316,279921,1,0,0:0:0:0:
316,316,280015,1,8,0:0:0:0:
252,264,280108,1,8,0:0:0:0:
252,264,280202,1,0,0:0:0:0:
225,315,280390,1,12,0:0:0:0:
256,192,280577,12,4,292202,0:0:0:0:
167,178,292390,5,4,0:0:0:0:
156,164,292577,2,0,L|216:140,28,41.9999987182618
317,113,295390,1,4,0:0:0:0:
317,113,295515,1,0,0:0:0:0:
317,113,295640,1,0,0:0:0:0:
317,113,295765,1,4,0:0:0:0:
244,192,298390,1,4,0:0:0:0:
176,159,298577,2,0,L|216:132,26,41.9999987182618
210,169,301202,1,0,0:0:0:0:
120,184,301390,1,8,0:0:0:0:
120,184,301483,1,8,0:0:0:0:
224,232,301577,1,8,0:0:0:0:
224,232,301671,1,8,0:0:0:0:
224,232,301765,1,0,0:0:0:0:
224,232,301858,1,0,0:0:0:0:
224,232,301952,1,8,0:0:0:0:
224,232,302046,1,0,0:0:0:0:
224,232,302140,1,8,0:0:0:0:
224,232,302233,1,0,0:0:0:0:
224,232,302327,1,0,0:0:0:0:
224,232,302421,1,0,0:0:0:0:
224,232,302515,1,8,0:0:0:0:
188,172,302608,1,0,0:0:0:0:
210,169,302702,1,0,0:0:0:0:
210,169,302796,1,0,0:0:0:0:
208,172,302890,1,8,0:0:0:0:
352,160,302952,1,0,0:0:0:0:
352,160,303015,1,0,0:0:0:0:
352,160,303077,1,0,0:0:0:0:
352,160,303140,1,0,0:0:0:0:
352,160,303202,1,0,0:0:0:0:
352,160,303265,1,8,0:0:0:0:
352,160,303327,1,8,0:0:0:0:
352,160,303389,1,8,0:0:0:0:
352,160,303452,1,0,0:0:0:0:
352,160,303515,1,0,0:0:0:0:
352,160,303577,1,0,0:0:0:0:
352,160,303640,1,8,0:0:0:0:
352,160,303702,1,0,0:0:0:0:
352,160,303764,1,0,0:0:0:0:
352,160,303827,1,0,0:0:0:0:
125,140,303890,1,0,0:0:0:0:
125,140,303952,1,0,0:0:0:0:
213,147,304015,1,8,0:0:0:0:
348,184,304390,1,8,0:0:0:0:
348,184,304483,1,0,0:0:0:0:
348,184,304577,1,0,0:0:0:0:
240,204,304671,1,0,0:0:0:0:
240,204,304765,1,8,0:0:0:0:
216,172,304858,1,0,0:0:0:0:
216,172,304952,1,0,0:0:0:0:
216,172,305046,1,0,0:0:0:0:
216,172,305140,1,8,0:0:0:0:
216,172,305233,1,8,0:0:0:0:
216,172,305327,1,0,0:0:0:0:
216,172,305421,1,0,0:0:0:0:
216,172,305515,1,8,0:0:0:0:
348,184,305608,1,8,0:0:0:0:
348,184,305702,1,0,0:0:0:0:
240,204,305796,1,0,0:0:0:0:
240,204,305890,1,8,0:0:0:0:
216,172,305983,1,0,0:0:0:0:
216,172,306077,1,0,0:0:0:0:
216,172,306171,1,0,0:0:0:0:
216,172,306265,1,8,0:0:0:0:
216,172,306358,1,0,0:0:0:0:
216,172,306452,1,0,0:0:0:0:
216,172,306546,1,0,0:0:0:0:
216,172,306640,1,8,0:0:0:0:
348,184,306733,1,8,0:0:0:0:
348,184,306827,1,0,0:0:0:0:
240,204,306921,1,0,0:0:0:0:
240,204,307015,1,8,0:0:0:0:
216,172,307108,1,8,0:0:0:0:
216,172,307202,1,0,0:0:0:0:
216,172,307296,1,0,0:0:0:0:
216,172,307390,1,8,0:0:0:0:
216,172,307483,1,0,0:0:0:0:
216,172,307577,1,0,0:0:0:0:
216,172,307671,1,0,0:0:0:0:
216,172,307765,1,8,0:0:0:0:
348,184,307858,1,0,0:0:0:0:
348,184,307952,1,0,0:0:0:0:
240,204,308046,1,0,0:0:0:0:
240,204,308140,1,8,0:0:0:0:
216,172,308233,1,8,0:0:0:0:
216,172,308327,1,0,0:0:0:0:
216,172,308421,1,0,0:0:0:0:
216,172,308515,1,8,0:0:0:0:
216,172,308608,1,8,0:0:0:0:
216,172,308702,1,0,0:0:0:0:
216,172,308796,1,0,0:0:0:0:
216,172,308890,1,8,0:0:0:0:
348,184,308983,1,0,0:0:0:0:
348,184,309077,1,0,0:0:0:0:
240,204,309171,1,0,0:0:0:0:
240,204,309265,1,8,0:0:0:0:
216,172,309358,1,0,0:0:0:0:
216,172,309452,1,0,0:0:0:0:
216,172,309546,1,0,0:0:0:0:
216,172,309640,1,8,0:0:0:0:
216,172,309733,1,8,0:0:0:0:
216,172,309827,1,0,0:0:0:0:
216,172,309921,1,0,0:0:0:0:
216,172,310015,1,8,0:0:0:0:
348,184,310108,1,8,0:0:0:0:
348,184,310202,1,0,0:0:0:0:
240,204,310296,1,0,0:0:0:0:
240,204,310390,1,8,0:0:0:0:
244,236,310483,1,8,0:0:0:0:
216,172,310577,1,8,0:0:0:0:
216,172,310671,1,0,0:0:0:0:
216,172,310765,1,8,0:0:0:0:
216,172,310858,1,0,0:0:0:0:
216,172,310952,1,8,0:0:0:0:
244,236,311046,1,8,0:0:0:0:
216,172,311140,1,8,0:0:0:0:
348,184,311233,1,0,0:0:0:0:
348,184,311327,1,8,0:0:0:0:
240,204,311421,1,0,0:0:0:0:
240,204,311515,1,8,0:0:0:0:
216,172,311608,1,8,0:0:0:0:
216,172,311702,1,8,0:0:0:0:
216,172,311796,1,0,0:0:0:0:
216,172,311890,1,8,0:0:0:0:
244,236,311983,1,8,0:0:0:0:
216,172,312077,1,8,0:0:0:0:
216,172,312171,1,0,0:0:0:0:
216,172,312265,1,8,0:0:0:0:
348,184,312358,1,0,0:0:0:0:
348,184,312452,1,8,0:0:0:0:
240,204,312546,1,8,0:0:0:0:
240,204,312640,1,8,0:0:0:0:
216,172,312733,1,0,0:0:0:0:
216,172,312827,1,8,0:0:0:0:
216,172,312921,1,0,0:0:0:0:
216,172,313015,1,8,0:0:0:0:
216,172,313108,1,8,0:0:0:0:
216,172,313202,1,8,0:0:0:0:
216,172,313296,1,0,0:0:0:0:
216,172,313390,1,8,0:0:0:0:
348,184,313483,1,8,0:0:0:0:
348,184,313577,1,8,0:0:0:0:
240,204,313671,1,0,0:0:0:0:
240,204,313765,1,8,0:0:0:0:
216,172,313858,1,0,0:0:0:0:
216,172,313952,1,8,0:0:0:0:
216,172,314046,1,8,0:0:0:0:
216,172,314140,1,8,0:0:0:0:
216,172,314233,1,0,0:0:0:0:
216,172,314327,1,8,0:0:0:0:
216,172,314421,1,0,0:0:0:0:
216,172,314515,1,8,0:0:0:0:
348,184,314608,1,8,0:0:0:0:
348,184,314702,1,8,0:0:0:0:
240,204,314796,1,0,0:0:0:0:
240,204,314890,1,8,0:0:0:0:
216,172,314983,1,0,0:0:0:0:
216,172,315077,1,0,0:0:0:0:
216,172,315171,1,0,0:0:0:0:
216,172,315265,1,8,0:0:0:0:
216,172,315358,1,0,0:0:0:0:
216,172,315452,1,8,0:0:0:0:
216,172,315546,1,0,0:0:0:0:
216,172,315640,1,0,0:0:0:0:
348,184,315733,1,0,0:0:0:0:
348,184,315827,1,8,0:0:0:0:
240,204,315921,1,0,0:0:0:0:
216,172,316015,1,8,0:0:0:0:
216,172,316108,1,0,0:0:0:0:
240,204,316202,1,0,0:0:0:0:
216,172,316296,1,0,0:0:0:0:
216,172,316390,1,8,0:0:0:0:
216,172,316483,1,8,0:0:0:0:
216,172,316577,1,0,0:0:0:0:
216,172,316671,1,0,0:0:0:0:
216,172,316765,1,8,0:0:0:0:
348,184,316858,1,0,0:0:0:0:
348,184,316952,1,8,0:0:0:0:
240,204,317046,1,0,0:0:0:0:
240,204,317140,1,8,0:0:0:0:
216,172,317233,1,8,0:0:0:0:
216,172,317327,1,0,0:0:0:0:
216,172,317421,1,0,0:0:0:0:
216,172,317515,1,8,0:0:0:0:
216,172,317608,1,8,0:0:0:0:
216,172,317702,1,0,0:0:0:0:
216,172,317796,1,0,0:0:0:0:
216,172,317890,1,8,0:0:0:0:
348,184,317983,1,8,0:0:0:0:
348,184,318077,1,0,0:0:0:0:
240,204,318171,1,0,0:0:0:0:
240,204,318265,1,8,0:0:0:0:
216,172,318358,1,0,0:0:0:0:
216,172,318452,1,8,0:0:0:0:
216,172,318546,1,0,0:0:0:0:
216,172,318640,1,8,0:0:0:0:
216,172,318733,1,8,0:0:0:0:
216,172,318827,1,0,0:0:0:0:
216,172,318921,1,0,0:0:0:0:
216,172,319015,1,8,0:0:0:0:
348,184,319108,1,8,0:0:0:0:
348,184,319202,1,0,0:0:0:0:
240,204,319296,1,0,0:0:0:0:
240,204,319390,1,8,0:0:0:0:
216,172,319483,1,8,0:0:0:0:
216,172,319577,1,0,0:0:0:0:
216,172,319671,1,0,0:0:0:0:
216,172,319765,1,8,0:0:0:0:
216,172,319858,1,0,0:0:0:0:
216,172,319952,1,8,0:0:0:0:
216,172,320046,1,0,0:0:0:0:
216,172,320140,1,8,0:0:0:0:
348,184,320233,1,8,0:0:0:0:
348,184,320327,1,0,0:0:0:0:
240,204,320421,1,0,0:0:0:0:
240,204,320515,1,8,0:0:0:0:
216,172,320608,1,8,0:0:0:0:
216,172,320702,1,0,0:0:0:0:
216,172,320796,1,0,0:0:0:0:
216,172,320890,1,8,0:0:0:0:
216,172,320983,1,8,0:0:0:0:
216,172,321077,1,0,0:0:0:0:
216,172,321171,1,0,0:0:0:0:
216,172,321265,1,8,0:0:0:0:
348,184,321358,1,0,0:0:0:0:
348,184,321452,1,8,0:0:0:0:
240,204,321546,1,0,0:0:0:0:
240,204,321640,1,8,0:0:0:0:
216,172,321733,1,8,0:0:0:0:
216,172,321827,1,0,0:0:0:0:
216,172,321921,1,0,0:0:0:0:
216,172,322015,1,8,0:0:0:0:
216,172,322108,1,8,0:0:0:0:
216,172,322202,1,0,0:0:0:0:
216,172,322296,1,0,0:0:0:0:
216,172,322390,1,8,0:0:0:0:
348,184,322483,1,8,0:0:0:0:
348,184,322577,1,8,0:0:0:0:
240,204,322671,1,0,0:0:0:0:
240,204,322765,1,8,0:0:0:0:
216,172,322858,1,0,0:0:0:0:
216,172,322952,1,8,0:0:0:0:
216,172,323046,1,8,0:0:0:0:
216,172,323140,1,0,0:0:0:0:
216,172,323233,1,0,0:0:0:0:
216,172,323327,1,8,0:0:0:0:
216,172,323421,1,0,0:0:0:0:
216,172,323515,1,8,0:0:0:0:
348,184,323608,1,0,0:0:0:0:
348,184,323702,1,8,0:0:0:0:
240,204,323796,1,0,0:0:0:0:
216,172,323890,1,8,0:0:0:0:
348,184,323983,1,8,0:0:0:0:
348,184,324077,1,8,0:0:0:0:
240,204,324171,1,0,0:0:0:0:
240,204,324265,1,8,0:0:0:0:
216,172,324358,1,0,0:0:0:0:
216,172,324452,1,8,0:0:0:0:
216,172,324546,1,8,0:0:0:0:
216,172,324640,1,0,0:0:0:0:
216,172,324733,1,0,0:0:0:0:
216,172,324827,1,8,0:0:0:0:
216,172,324921,1,0,0:0:0:0:
216,172,325015,1,8,0:0:0:0:
348,184,325108,1,0,0:0:0:0:
348,184,325202,1,8,0:0:0:0:
240,204,325296,1,0,0:0:0:0:
348,184,325390,1,8,0:0:0:0:
240,204,325484,1,0,0:0:0:0:
348,184,325577,1,0,0:0:0:0:
348,184,325671,1,0,0:0:0:0:
240,204,325765,1,0,0:0:0:0:
348,184,325858,1,0,0:0:0:0:
348,184,325952,1,8,0:0:0:0:
240,204,326046,1,0,0:0:0:0:
228,192,326140,1,0,0:0:0:0:
348,184,326234,1,0,0:0:0:0:
240,204,326328,1,0,0:0:0:0:
348,184,326421,1,0,0:0:0:0:
348,184,326515,1,8,0:0:0:0:
240,204,326609,1,0,0:0:0:0:
348,184,326702,1,0,0:0:0:0:
348,184,326796,1,0,0:0:0:0:
240,204,326890,1,8,0:0:0:0:
348,184,326983,1,0,0:0:0:0:
348,184,327077,1,0,0:0:0:0:
240,204,327171,1,0,0:0:0:0:
348,184,327265,1,0,0:0:0:0:
348,184,327359,1,0,0:0:0:0:
240,204,327453,1,8,0:0:0:0:
192,200,327546,1,0,0:0:0:0:
248,232,327640,1,0,0:0:0:0:
248,232,327733,1,0,0:0:0:0:
248,232,327827,1,0,0:0:0:0:
248,232,327921,1,0,0:0:0:0:
248,232,328015,1,8,0:0:0:0:
248,232,328108,1,8,0:0:0:0:
248,232,328202,1,0,0:0:0:0:
238,226,328390,1,0,0:0:0:0:
255,218,328483,1,0,0:0:0:0:
255,219,328577,1,0,0:0:0:0:
255,219,328671,1,0,0:0:0:0:
255,219,328765,1,0,0:0:0:0:
247,174,328952,1,0,0:0:0:0:
236,225,329140,1,8,0:0:0:0:
201,193,329327,1,0,0:0:0:0:
201,193,329702,1,0,0:0:0:0:
201,193,329890,1,8,0:0:0:0:
201,193,330077,1,0,0:0:0:0:
201,193,330265,1,0,0:0:0:0:
201,193,330452,1,8,0:0:0:0:
201,193,330640,1,8,0:0:0:0:
256,227,331015,1,8,0:0:0:0:
194,188,331390,1,0,0:0:0:0:
201,193,331483,1,0,0:0:0:0:
201,193,331577,1,0,0:0:0:0:
201,193,331671,1,0,0:0:0:0:
201,193,331765,1,0,0:0:0:0:
303,217,331952,1,0,0:0:0:0:
303,217,332140,1,8,0:0:0:0:
303,217,332327,1,0,0:0:0:0:
303,217,332702,1,0,0:0:0:0:
303,217,332890,1,0,0:0:0:0:
303,217,333452,1,0,0:0:0:0:
104,232,333640,2,0,L|296:120,1,210
253,214,334390,1,0,0:0:0:0:
272,256,334483,1,0,0:0:0:0:
272,256,334577,1,0,0:0:0:0:
272,256,334671,1,0,0:0:0:0:
272,256,334765,1,0,0:0:0:0:
241,207,334952,1,0,0:0:0:0:
241,207,335140,1,8,0:0:0:0:
241,207,335327,1,0,0:0:0:0:
241,207,335702,1,8,0:0:0:0:
241,207,335890,1,0,0:0:0:0:
261,252,336077,1,0,0:0:0:0:
261,252,336265,1,0,0:0:0:0:
261,252,336452,1,8,0:0:0:0:
261,252,336640,1,8,0:0:0:0:
293,285,337015,1,8,0:0:0:0:
174,224,337390,1,0,0:0:0:0:
208,176,337483,1,0,0:0:0:0:
228,224,337577,1,0,0:0:0:0:
228,224,337671,1,0,0:0:0:0:
228,224,337765,1,0,0:0:0:0:
217,243,337952,1,0,0:0:0:0:
217,243,338140,1,8,0:0:0:0:
217,243,338327,1,0,0:0:0:0:
258,250,338702,1,0,0:0:0:0:
258,250,338890,1,0,0:0:0:0:
258,250,339077,1,0,0:0:0:0:
294,218,339140,1,0,0:0:0:0:
240,244,339202,1,0,0:0:0:0:
294,218,339265,1,0,0:0:0:0:
329,245,339452,1,0,0:0:0:0:
323,250,339515,1,0,0:0:0:0:
52,108,339577,1,0,0:0:0:0:
323,250,339640,1,8,0:0:0:0:
323,250,339827,1,0,0:0:0:0:
299,203,339890,1,0,0:0:0:0:
60,126,339952,1,0,0:0:0:0:
299,203,340015,1,0,0:0:0:0:
281,217,340202,1,0,0:0:0:0:
281,217,340390,1,0,0:0:0:0:
294,266,340483,1,0,0:0:0:0:
294,266,340577,1,0,0:0:0:0:
294,266,340671,1,0,0:0:0:0:
294,266,340765,1,0,0:0:0:0:
294,266,340952,1,0,0:0:0:0:
294,266,341140,1,8,0:0:0:0:
294,266,341327,1,0,0:0:0:0:
316,270,341702,1,0,0:0:0:0:
316,270,341890,1,0,0:0:0:0:
349,291,342265,1,0,0:0:0:0:
349,291,342452,1,0,0:0:0:0:
349,291,342640,1,8,0:0:0:0:
316,264,343015,1,8,0:0:0:0:
316,264,343202,1,0,0:0:0:0:
316,264,343390,1,0,0:0:0:0:
216,209,343577,1,0,0:0:0:0:
216,209,343671,1,0,0:0:0:0:
236,143,343765,1,8,0:0:0:0:
316,264,343952,1,0,0:0:0:0:
251,143,344140,1,8,0:0:0:0:
316,264,344327,1,0,0:0:0:0:
316,264,344702,1,0,0:0:0:0:
316,264,344890,1,0,0:0:0:0:
206,206,345265,1,0,0:0:0:0:
224,194,345452,1,0,0:0:0:0:
241,235,345640,1,8,0:0:0:0:
204,144,346015,1,8,0:0:0:0:
241,235,346390,1,0,0:0:0:0:
218,219,346483,1,0,0:0:0:0:
218,219,346577,1,0,0:0:0:0:
218,219,346671,1,0,0:0:0:0:
218,219,346765,1,0,0:0:0:0:
218,219,346952,1,0,0:0:0:0:
272,224,347140,1,8,0:0:0:0:
272,224,347327,1,0,0:0:0:0:
272,224,347702,1,0,0:0:0:0:
272,224,347890,1,0,0:0:0:0:
223,257,348452,1,0,0:0:0:0:
223,257,348640,1,8,0:0:0:0:
223,257,349015,1,8,0:0:0:0:
203,260,349390,1,0,0:0:0:0:
203,260,349483,1,0,0:0:0:0:
203,260,349577,1,0,0:0:0:0:
203,260,349671,1,0,0:0:0:0:
203,260,349765,1,0,0:0:0:0:
203,260,349952,1,0,0:0:0:0:
203,260,350140,1,8,0:0:0:0:
166,192,350327,1,0,0:0:0:0:
176,194,350702,1,0,0:0:0:0:
168,140,350890,1,8,0:0:0:0:
208,154,351452,1,0,0:0:0:0:
208,154,351515,1,0,0:0:0:0:
208,154,351577,1,0,0:0:0:0:
208,154,351640,1,8,0:0:0:0:
112,172,351827,2,0,L|268:128,1,140
281,217,352390,5,0,0:0:0:0:
294,266,352483,1,0,0:0:0:0:
294,266,352577,1,0,0:0:0:0:
294,266,352671,1,0,0:0:0:0:
294,266,352765,1,0,0:0:0:0:
294,266,352952,1,0,0:0:0:0:
294,266,353140,1,8,0:0:0:0:
294,266,353327,1,0,0:0:0:0:
316,270,353702,1,0,0:0:0:0:
316,270,353890,1,0,0:0:0:0:
349,291,354265,1,0,0:0:0:0:
349,291,354452,1,0,0:0:0:0:
349,291,354640,1,8,0:0:0:0:
316,264,355015,1,8,0:0:0:0:
316,264,355202,1,0,0:0:0:0:
316,264,355390,1,8,0:0:0:0:
216,209,355577,1,0,0:0:0:0:
216,209,355671,1,0,0:0:0:0:
236,143,355765,1,0,0:0:0:0:
316,264,355952,1,0,0:0:0:0:
251,143,356140,1,8,0:0:0:0:
316,264,356327,1,0,0:0:0:0:
316,264,356702,1,0,0:0:0:0:
316,264,356890,1,0,0:0:0:0:
206,206,357265,1,0,0:0:0:0:
206,206,357358,1,0,0:0:0:0:
224,194,357452,1,0,0:0:0:0:
241,235,357640,1,8,0:0:0:0:
156,140,358015,1,8,0:0:0:0:
156,140,358202,1,0,0:0:0:0:
241,235,358390,1,0,0:0:0:0:
218,219,358765,1,0,0:0:0:0:
218,219,358952,1,0,0:0:0:0:
272,224,359140,1,8,0:0:0:0:
272,224,359327,1,0,0:0:0:0:
272,224,359702,1,0,0:0:0:0:
272,224,359890,1,0,0:0:0:0:
88,144,360265,1,0,0:0:0:0:
96,144,360358,1,0,0:0:0:0:
223,257,360452,1,0,0:0:0:0:
223,257,360640,1,8,0:0:0:0:
223,257,361015,1,8,0:0:0:0:
203,260,361390,1,0,0:0:0:0:
203,260,361577,1,0,0:0:0:0:
160,152,361671,1,0,0:0:0:0:
203,260,361765,1,0,0:0:0:0:
203,260,361952,1,0,0:0:0:0:
203,260,362140,1,8,0:0:0:0:
166,192,362327,1,0,0:0:0:0:
176,194,362702,1,0,0:0:0:0:
220,176,363077,1,12,0:0:0:0:
220,192,363358,1,4,0:0:0:0:
224,192,363640,1,12,0:0:0:0:
224,192,363921,1,12,0:0:0:0:
224,192,364202,1,4,0:0:0:0:
228,212,364483,1,12,0:0:0:0:
256,192,364671,12,0,369265,0:0:0:0:
232,180,369640,5,12,0:0:0:0:
188,184,370390,5,0,0:0:0:0:
204,188,370483,1,0,0:0:0:0:
204,188,370577,1,0,0:0:0:0:
204,188,370671,1,0,0:0:0:0:
204,188,370765,1,8,0:0:0:0:
204,188,370952,1,0,0:0:0:0:
204,188,371327,1,0,0:0:0:0:
184,172,371702,1,0,0:0:0:0:
200,132,371890,1,0,0:0:0:0:
208,132,372077,1,0,0:0:0:0:
224,112,372265,1,0,0:0:0:0:
192,176,372452,1,0,0:0:0:0:
192,176,372640,1,8,0:0:0:0:
248,200,373015,1,8,0:0:0:0:
200,168,373390,1,0,0:0:0:0:
216,172,373483,1,0,0:0:0:0:
216,172,373577,1,0,0:0:0:0:
216,172,373671,1,0,0:0:0:0:
208,216,373765,1,8,0:0:0:0:
224,272,373952,1,0,0:0:0:0:
244,232,374327,1,0,0:0:0:0:
256,236,374702,1,0,0:0:0:0:
176,208,375452,1,0,0:0:0:0:
112,152,375640,2,0,P|124:148|152:128,6,35
376,176,376390,1,0,0:0:0:0:
376,176,376483,1,0,0:0:0:0:
368,208,376577,1,0,0:0:0:0:
368,208,376671,1,0,0:0:0:0:
368,208,376765,1,8,0:0:0:0:
400,168,376952,1,0,0:0:0:0:
239,224,377140,1,8,0:0:0:0:
256,200,377327,1,0,0:0:0:0:
256,200,377702,1,0,0:0:0:0:
239,224,377890,1,0,0:0:0:0:
236,245,378077,1,0,0:0:0:0:
236,245,378265,1,0,0:0:0:0:
256,200,378452,1,0,0:0:0:0:
256,200,378640,1,8,0:0:0:0:
192,200,379015,1,8,0:0:0:0:
376,176,379390,1,0,0:0:0:0:
376,176,379483,1,0,0:0:0:0:
368,208,379577,1,0,0:0:0:0:
368,208,379671,1,0,0:0:0:0:
368,208,379765,1,8,0:0:0:0:
200,216,379952,1,0,0:0:0:0:
196,224,380327,1,0,0:0:0:0:
196,224,380702,1,0,0:0:0:0:
196,224,381452,1,0,0:0:0:0:
80,200,381640,2,8,L|112:184,6,35
376,176,382390,1,0,0:0:0:0:
376,176,382483,1,0,0:0:0:0:
368,208,382577,1,0,0:0:0:0:
368,208,382671,1,0,0:0:0:0:
368,208,382765,1,8,0:0:0:0:
228,188,382952,1,0,0:0:0:0:
356,241,383140,1,8,0:0:0:0:
256,236,383327,1,0,0:0:0:0:
271,248,383702,1,0,0:0:0:0:
136,174,383890,1,0,0:0:0:0:
135,164,384077,1,0,0:0:0:0:
135,164,384265,1,0,0:0:0:0:
248,212,384452,1,0,0:0:0:0:
248,212,384640,1,8,0:0:0:0:
248,212,385015,1,8,0:0:0:0:
376,176,385390,1,0,0:0:0:0:
376,176,385483,1,0,0:0:0:0:
368,208,385577,1,0,0:0:0:0:
368,208,385671,1,0,0:0:0:0:
368,208,385765,1,8,0:0:0:0:
400,168,385952,1,0,0:0:0:0:
256,200,386327,1,0,0:0:0:0:
256,200,386702,1,0,0:0:0:0:
256,200,387452,1,0,0:0:0:0:
136,240,387640,2,0,P|244:174|208:116,1,210
376,176,388390,1,0,0:0:0:0:
376,176,388483,1,0,0:0:0:0:
368,208,388577,1,0,0:0:0:0:
368,208,388671,1,0,0:0:0:0:
368,208,388765,1,8,0:0:0:0:
200,216,388952,1,0,0:0:0:0:
294,252,389140,1,8,0:0:0:0:
196,224,389327,1,0,0:0:0:0:
196,224,389702,1,0,0:0:0:0:
294,252,389890,1,0,0:0:0:0:
294,252,390077,1,0,0:0:0:0:
294,252,390265,1,0,0:0:0:0:
196,224,390452,1,0,0:0:0:0:
196,224,390640,1,8,0:0:0:0:
232,256,391015,1,8,0:0:0:0:
376,176,391390,1,0,0:0:0:0:
376,176,391483,1,0,0:0:0:0:
368,208,391577,1,0,0:0:0:0:
368,208,391671,1,0,0:0:0:0:
368,208,391765,1,8,0:0:0:0:
200,216,391952,1,0,0:0:0:0:
196,224,392327,1,0,0:0:0:0:
196,224,392702,1,0,0:0:0:0:
196,224,393452,1,0,0:0:0:0:
80,200,393640,2,8,L|120:176,6,35
376,176,394390,1,0,0:0:0:0:
376,176,394483,1,0,0:0:0:0:
368,208,394577,1,0,0:0:0:0:
368,208,394671,1,0,0:0:0:0:
368,208,394765,1,8,0:0:0:0:
228,188,394952,1,0,0:0:0:0:
294,252,395140,1,8,0:0:0:0:
256,236,395327,1,0,0:0:0:0:
168,208,395702,1,0,0:0:0:0:
294,252,395890,1,0,0:0:0:0:
294,252,396077,1,0,0:0:0:0:
294,252,396265,1,0,0:0:0:0:
248,212,396452,1,0,0:0:0:0:
248,212,396640,1,8,0:0:0:0:
248,212,397015,1,8,0:0:0:0:
376,176,397390,1,0,0:0:0:0:
376,176,397483,1,0,0:0:0:0:
368,208,397577,1,0,0:0:0:0:
368,208,397671,1,0,0:0:0:0:
368,208,397765,1,8,0:0:0:0:
200,216,397952,1,0,0:0:0:0:
196,224,398327,1,0,0:0:0:0:
196,224,398702,1,0,0:0:0:0:
196,224,399452,1,0,0:0:0:0:
80,200,399640,2,8,L|144:176,6,35
376,176,400390,1,0,0:0:0:0:
376,176,400483,1,0,0:0:0:0:
368,208,400577,1,0,0:0:0:0:
368,208,400671,1,0,0:0:0:0:
368,208,400765,1,8,0:0:0:0:
228,188,400952,1,0,0:0:0:0:
312,245,401140,1,8,0:0:0:0:
256,236,401327,1,0,0:0:0:0:
168,208,401702,1,0,0:0:0:0:
312,245,401890,1,0,0:0:0:0:
312,245,402077,1,0,0:0:0:0:
312,245,402265,1,0,0:0:0:0:
248,212,402452,1,0,0:0:0:0:
248,212,402640,1,8,0:0:0:0:
248,212,403015,1,8,0:0:0:0:
376,176,403390,1,0,0:0:0:0:
376,176,403483,1,0,0:0:0:0:
368,208,403577,1,0,0:0:0:0:
368,208,403765,1,8,0:0:0:0:
200,216,403952,1,0,0:0:0:0:
196,224,404327,1,0,0:0:0:0:
196,224,404702,1,0,0:0:0:0:
196,224,405452,1,0,0:0:0:0:
80,200,405640,2,8,L|132:180,6,35
376,176,406390,1,0,0:0:0:0:
368,208,406577,1,0,0:0:0:0:
368,208,406765,1,8,0:0:0:0:
228,188,406952,1,0,0:0:0:0:
312,245,407140,1,8,0:0:0:0:
256,236,407327,1,0,0:0:0:0:
168,208,407702,1,0,0:0:0:0:
312,245,407890,1,0,0:0:0:0:
312,245,408077,1,0,0:0:0:0:
312,245,408265,1,0,0:0:0:0:
248,212,408452,1,0,0:0:0:0:
248,212,408640,1,8,0:0:0:0:
248,212,409015,1,8,0:0:0:0:
376,176,409390,1,0,0:0:0:0:
225,197,409577,1,0,0:0:0:0:
368,208,409765,1,8,0:0:0:0:
200,216,409952,1,0,0:0:0:0:
196,224,410327,1,0,0:0:0:0:
196,224,410702,1,0,0:0:0:0:
196,224,411452,1,0,0:0:0:0:
80,200,411640,2,8,L|132:180,6,35
376,176,412390,1,0,0:0:0:0:
368,208,412765,1,8,0:0:0:0:
304,202,412952,1,0,0:0:0:0:
256,236,413327,1,0,0:0:0:0:
309,243,413702,1,0,0:0:0:0:
248,212,414452,1,0,0:0:0:0:
248,212,414640,1,8,0:0:0:0:
248,212,415015,1,8,0:0:0:0:
256,192,415390,12,0,422890,0:0:0:0:
