osu file format v14

[General]
AudioFilename: audio.mp3
AudioLeadIn: 0
PreviewTime: 102638
Countdown: 0
SampleSet: Normal
StackLeniency: 0.7
Mode: 3
LetterboxInBreaks: 0
SpecialStyle: 0
WidescreenStoryboard: 0

[Editor]
Bookmarks: 86023
DistanceSpacing: 1
BeatDivisor: 8
GridSize: 32
TimelineZoom: 2.6

[Metadata]
Title:Nightmare
TitleUnicode:Nightmare
Artist:Avenged Sevenfold
ArtistUnicode:Avenged Sevenfold
Creator:Roabs
Version:collab
Source:
Tags:
BeatmapID:1935578
BeatmapSetID:926682

[Difficulty]
HPDrainRate:8
CircleSize:4
OverallDifficulty:8
ApproachRate:5
SliderMultiplier:1.4
SliderTickRate:1

[Events]
//Background and Video events
0,0,"proxy.duckduckgo.com.jpg",0,0
//Break Periods
2,191243,191920
//Storyboard Layer 0 (Background)
//Storyboard Layer 1 (Fail)
//Storyboard Layer 2 (Pass)
//Storyboard Layer 3 (Foreground)
//Storyboard Layer 4 (Overlay)
//Storyboard Sound Samples

[TimingPoints]
1120,461.538461538462,4,1,0,30,1,0
102196,-100,4,1,0,30,0,1
119043,-100,4,1,0,30,0,0
159427,-100,4,1,0,30,0,1
191043,-100,4,1,0,30,0,0
290504,-111.111111111111,4,1,0,30,0,0
319812,-100,4,1,0,30,0,0
327427,-100,4,1,0,30,0,1
359043,-100,4,1,0,30,0,0

[HitObjects]
64,192,1120,5,0,0:0:0:0:
448,192,1812,1,0,0:0:0:0:
320,192,2504,1,0,0:0:0:0:
192,192,3196,1,0,0:0:0:0:
320,192,3889,1,0,0:0:0:0:
64,192,4350,1,0,0:0:0:0:
64,192,6658,1,0,0:0:0:0:
448,192,7350,1,0,0:0:0:0:
320,192,8043,1,0,0:0:0:0:
192,192,8735,1,0,0:0:0:0:
448,192,9427,1,0,0:0:0:0:
64,192,12196,1,0,0:0:0:0:
448,192,12889,1,0,0:0:0:0:
320,192,13581,1,0,0:0:0:0:
192,192,14273,1,0,0:0:0:0:
320,192,14966,1,0,0:0:0:0:
64,192,15427,1,0,0:0:0:0:
64,192,17735,1,0,0:0:0:0:
448,192,18427,1,0,0:0:0:0:
320,192,19120,1,0,0:0:0:0:
192,192,19812,1,0,0:0:0:0:
448,192,20504,1,0,0:0:0:0:
320,192,23273,1,0,0:0:0:0:
192,192,23966,1,0,0:0:0:0:
448,192,23966,128,0,24658:0:0:0:0:
320,192,24658,128,0,25350:0:0:0:0:
64,192,24658,1,0,0:0:0:0:
448,192,25350,1,0,0:0:0:0:
192,192,25350,128,0,26043:0:0:0:0:
320,192,26043,1,0,0:0:0:0:
448,192,26735,128,0,27427:0:0:0:0:
64,192,26735,1,0,0:0:0:0:
192,192,27427,128,0,28120:0:0:0:0:
320,192,27427,1,0,0:0:0:0:
64,192,28120,128,0,28812:0:0:0:0:
320,192,28120,1,0,0:0:0:0:
448,192,28812,1,0,0:0:0:0:
320,192,29504,1,0,0:0:0:0:
192,192,29504,128,0,30196:0:0:0:0:
320,192,30196,128,0,30889:0:0:0:0:
64,192,30196,1,0,0:0:0:0:
192,192,30889,1,0,0:0:0:0:
448,192,30889,128,0,31581:0:0:0:0:
320,192,31581,1,0,0:0:0:0:
64,192,31581,128,0,32273:0:0:0:0:
448,192,32273,128,0,32966:0:0:0:0:
192,192,32273,1,0,0:0:0:0:
192,192,32966,128,0,33658:0:0:0:0:
64,192,32966,1,0,0:0:0:0:
320,192,33658,128,0,34350:0:0:0:0:
448,192,33658,1,0,0:0:0:0:
192,192,34350,1,0,0:0:0:0:
64,192,34350,1,0,0:0:0:0:
320,192,34427,1,0,0:0:0:0:
448,192,34427,1,0,0:0:0:0:
192,192,34504,1,0,0:0:0:0:
64,192,34504,1,0,0:0:0:0:
320,192,34581,1,0,0:0:0:0:
448,192,34581,1,0,0:0:0:0:
64,192,34658,1,0,0:0:0:0:
192,192,34658,1,0,0:0:0:0:
320,192,34735,1,0,0:0:0:0:
448,192,34735,1,0,0:0:0:0:
192,192,34812,1,0,0:0:0:0:
64,192,34812,1,0,0:0:0:0:
448,192,34889,1,0,0:0:0:0:
320,192,34889,1,0,0:0:0:0:
192,192,34966,1,0,0:0:0:0:
64,192,34966,1,0,0:0:0:0:
320,192,35043,1,0,0:0:0:0:
64,192,35043,1,0,0:0:0:0:
448,192,35043,128,0,35735:0:0:0:0:
320,192,35504,128,0,35735:0:0:0:0:
64,192,35735,128,0,36427:0:0:0:0:
192,192,36196,128,0,36427:0:0:0:0:
320,192,36427,128,0,37120:0:0:0:0:
448,192,36889,128,0,37120:0:0:0:0:
64,192,37120,1,0,0:0:0:0:
192,192,37120,1,0,0:0:0:0:
320,192,37196,1,0,0:0:0:0:
448,192,37196,1,0,0:0:0:0:
192,192,37273,1,0,0:0:0:0:
64,192,37273,1,0,0:0:0:0:
320,192,37350,1,0,0:0:0:0:
448,192,37350,1,0,0:0:0:0:
192,192,37427,1,0,0:0:0:0:
64,192,37427,1,0,0:0:0:0:
320,192,37504,1,0,0:0:0:0:
448,192,37504,1,0,0:0:0:0:
192,192,37581,1,0,0:0:0:0:
64,192,37581,1,0,0:0:0:0:
320,192,37658,1,0,0:0:0:0:
448,192,37658,1,0,0:0:0:0:
192,192,37735,1,0,0:0:0:0:
64,192,37735,1,0,0:0:0:0:
64,192,37812,1,0,0:0:0:0:
320,192,37812,1,0,0:0:0:0:
448,192,37812,128,0,38504:0:0:0:0:
320,192,38273,128,0,38504:0:0:0:0:
64,192,38504,128,0,38735:0:0:0:0:
192,192,38735,128,0,38966:0:0:0:0:
320,192,38966,128,0,39196:0:0:0:0:
448,192,39196,128,0,39427:0:0:0:0:
64,192,39427,128,0,39658:0:0:0:0:
192,192,39658,128,0,39889:0:0:0:0:
320,192,39889,1,0,0:0:0:0:
448,192,39889,1,0,0:0:0:0:
192,192,39966,1,0,0:0:0:0:
64,192,39966,1,0,0:0:0:0:
448,192,40043,1,0,0:0:0:0:
320,192,40043,1,0,0:0:0:0:
192,192,40120,1,0,0:0:0:0:
64,192,40120,1,0,0:0:0:0:
320,192,40196,1,0,0:0:0:0:
448,192,40196,1,0,0:0:0:0:
192,192,40273,1,0,0:0:0:0:
64,192,40273,1,0,0:0:0:0:
320,192,40350,1,0,0:0:0:0:
448,192,40350,1,0,0:0:0:0:
192,192,40427,1,0,0:0:0:0:
64,192,40427,1,0,0:0:0:0:
320,192,40504,1,0,0:0:0:0:
448,192,40504,1,0,0:0:0:0:
192,192,40581,1,0,0:0:0:0:
448,192,40581,1,0,0:0:0:0:
64,192,40581,128,0,41043:0:0:0:0:
448,192,41043,1,0,0:0:0:0:
192,192,41043,1,0,0:0:0:0:
320,192,41158,1,0,0:0:0:0:
64,192,41158,1,0,0:0:0:0:
192,192,41216,1,0,0:0:0:0:
448,192,41273,128,0,41735:0:0:0:0:
64,192,41273,1,0,0:0:0:0:
320,192,41735,1,0,0:0:0:0:
64,192,41735,1,0,0:0:0:0:
192,192,41850,1,0,0:0:0:0:
448,192,41850,1,0,0:0:0:0:
64,192,41908,1,0,0:0:0:0:
320,192,41966,128,0,42427:0:0:0:0:
192,192,41966,1,0,0:0:0:0:
192,192,42427,1,0,0:0:0:0:
448,192,42427,1,0,0:0:0:0:
320,192,42543,1,0,0:0:0:0:
64,192,42543,1,0,0:0:0:0:
448,192,42600,1,0,0:0:0:0:
192,192,42658,128,0,42889:0:0:0:0:
320,192,42658,1,0,0:0:0:0:
320,192,42889,128,0,43120:0:0:0:0:
448,192,43120,1,0,0:0:0:0:
192,192,43120,1,0,0:0:0:0:
320,192,43235,1,0,0:0:0:0:
64,192,43235,1,0,0:0:0:0:
192,192,43293,1,0,0:0:0:0:
448,192,43350,128,0,43812:0:0:0:0:
64,192,43350,1,0,0:0:0:0:
320,192,43812,1,0,0:0:0:0:
64,192,43812,1,0,0:0:0:0:
192,192,43927,1,0,0:0:0:0:
448,192,43927,1,0,0:0:0:0:
320,192,43985,1,0,0:0:0:0:
64,192,44043,128,0,44504:0:0:0:0:
448,192,44043,1,0,0:0:0:0:
192,192,44504,1,0,0:0:0:0:
448,192,44504,1,0,0:0:0:0:
320,192,44620,1,0,0:0:0:0:
64,192,44620,1,0,0:0:0:0:
448,192,44677,1,0,0:0:0:0:
192,192,44735,128,0,44966:0:0:0:0:
320,192,44735,1,0,0:0:0:0:
320,192,44966,128,0,45196:0:0:0:0:
192,192,45196,1,0,0:0:0:0:
64,192,45196,1,0,0:0:0:0:
448,192,45196,128,0,45427:0:0:0:0:
320,192,45312,1,0,0:0:0:0:
192,192,45370,1,0,0:0:0:0:
64,192,45427,1,0,0:0:0:0:
320,192,45427,1,0,0:0:0:0:
320,192,45889,1,0,0:0:0:0:
320,192,46120,1,0,0:0:0:0:
64,192,46120,128,0,46812:0:0:0:0:
320,192,46350,1,0,0:0:0:0:
320,192,46581,1,0,0:0:0:0:
448,192,46812,128,0,47504:0:0:0:0:
320,192,46812,1,0,0:0:0:0:
192,192,46812,1,0,0:0:0:0:
192,192,47043,1,0,0:0:0:0:
192,192,47273,1,0,0:0:0:0:
320,192,47504,128,0,48196:0:0:0:0:
192,192,47504,1,0,0:0:0:0:
192,192,47735,1,0,0:0:0:0:
192,192,47966,1,0,0:0:0:0:
64,192,48196,128,0,48427:0:0:0:0:
448,192,48196,1,0,0:0:0:0:
192,192,48427,128,0,48658:0:0:0:0:
448,192,48427,1,0,0:0:0:0:
320,192,48658,128,0,48889:0:0:0:0:
64,192,48658,1,0,0:0:0:0:
448,192,48889,128,0,49350:0:0:0:0:
64,192,48889,1,0,0:0:0:0:
64,192,49120,1,0,0:0:0:0:
64,192,49350,1,0,0:0:0:0:
320,192,49581,1,0,0:0:0:0:
448,192,49581,1,0,0:0:0:0:
192,192,49639,1,0,0:0:0:0:
64,192,49639,1,0,0:0:0:0:
320,192,49696,1,0,0:0:0:0:
448,192,49696,1,0,0:0:0:0:
192,192,49754,1,0,0:0:0:0:
320,192,49812,1,0,0:0:0:0:
64,192,49870,1,0,0:0:0:0:
448,192,49927,1,0,0:0:0:0:
192,192,49985,1,0,0:0:0:0:
320,192,50043,1,0,0:0:0:0:
448,192,50100,1,0,0:0:0:0:
64,192,50158,1,0,0:0:0:0:
192,192,50216,1,0,0:0:0:0:
320,192,50273,1,0,0:0:0:0:
448,192,50273,1,0,0:0:0:0:
192,192,50331,1,0,0:0:0:0:
64,192,50331,1,0,0:0:0:0:
320,192,50389,1,0,0:0:0:0:
448,192,50446,1,0,0:0:0:0:
192,192,50504,1,0,0:0:0:0:
320,192,50562,1,0,0:0:0:0:
448,192,50620,1,0,0:0:0:0:
64,192,50677,1,0,0:0:0:0:
320,192,50735,1,0,0:0:0:0:
192,192,50850,1,0,0:0:0:0:
320,192,50908,1,0,0:0:0:0:
192,192,50966,1,0,0:0:0:0:
448,192,50966,1,0,0:0:0:0:
64,192,50966,128,0,51658:0:0:0:0:
320,192,51196,1,0,0:0:0:0:
320,192,51427,1,0,0:0:0:0:
320,192,51658,1,0,0:0:0:0:
448,192,51658,128,0,52350:0:0:0:0:
320,192,51889,1,0,0:0:0:0:
320,192,52120,1,0,0:0:0:0:
192,192,52350,128,0,53043:0:0:0:0:
320,192,52350,1,0,0:0:0:0:
64,192,52350,1,0,0:0:0:0:
64,192,52581,1,0,0:0:0:0:
64,192,52812,1,0,0:0:0:0:
320,192,53043,128,0,53735:0:0:0:0:
64,192,53043,1,0,0:0:0:0:
64,192,53273,1,0,0:0:0:0:
64,192,53504,1,0,0:0:0:0:
64,192,53735,1,0,0:0:0:0:
192,192,53735,128,0,53966:0:0:0:0:
448,192,53966,128,0,54196:0:0:0:0:
320,192,53966,1,0,0:0:0:0:
64,192,54196,128,0,54427:0:0:0:0:
320,192,54196,1,0,0:0:0:0:
192,192,54427,128,0,54889:0:0:0:0:
320,192,54427,1,0,0:0:0:0:
320,192,54658,1,0,0:0:0:0:
320,192,54889,1,0,0:0:0:0:
448,192,55120,1,0,0:0:0:0:
64,192,55120,1,0,0:0:0:0:
192,192,55235,1,0,0:0:0:0:
320,192,55293,1,0,0:0:0:0:
448,192,55350,1,0,0:0:0:0:
64,192,55408,1,0,0:0:0:0:
320,192,55466,1,0,0:0:0:0:
192,192,55523,1,0,0:0:0:0:
448,192,55581,1,0,0:0:0:0:
320,192,55639,1,0,0:0:0:0:
64,192,55696,1,0,0:0:0:0:
448,192,55754,1,0,0:0:0:0:
192,192,55812,1,0,0:0:0:0:
320,192,55812,1,0,0:0:0:0:
64,192,55870,1,0,0:0:0:0:
448,192,55927,1,0,0:0:0:0:
192,192,55985,1,0,0:0:0:0:
320,192,56043,1,0,0:0:0:0:
64,192,56100,1,0,0:0:0:0:
192,192,56158,1,0,0:0:0:0:
448,192,56216,1,0,0:0:0:0:
320,192,56273,1,0,0:0:0:0:
64,192,56331,1,0,0:0:0:0:
448,192,56389,1,0,0:0:0:0:
192,192,56446,1,0,0:0:0:0:
448,192,56504,1,0,0:0:0:0:
64,192,56504,1,0,0:0:0:0:
320,192,56504,128,0,57427:0:0:0:0:
64,192,56735,1,0,0:0:0:0:
64,192,56966,1,0,0:0:0:0:
64,192,57196,1,0,0:0:0:0:
64,192,57427,1,0,0:0:0:0:
192,192,57658,128,0,57889:0:0:0:0:
64,192,57658,1,0,0:0:0:0:
448,192,57889,128,0,58350:0:0:0:0:
320,192,57889,1,0,0:0:0:0:
64,192,57889,1,0,0:0:0:0:
192,192,58120,1,0,0:0:0:0:
192,192,58350,1,0,0:0:0:0:
64,192,58581,128,0,59273:0:0:0:0:
320,192,58581,128,0,59273:0:0:0:0:
192,192,58581,1,0,0:0:0:0:
192,192,58812,1,0,0:0:0:0:
192,192,59043,1,0,0:0:0:0:
192,192,59273,128,0,60658:0:0:0:0:
448,192,59273,128,0,60658:0:0:0:0:
320,192,59504,1,0,0:0:0:0:
64,192,59504,1,0,0:0:0:0:
64,192,59735,1,0,0:0:0:0:
320,192,59735,1,0,0:0:0:0:
320,192,59966,1,0,0:0:0:0:
64,192,59966,1,0,0:0:0:0:
64,192,60196,1,0,0:0:0:0:
320,192,60196,1,0,0:0:0:0:
64,192,60427,1,0,0:0:0:0:
320,192,60427,1,0,0:0:0:0:
64,192,60658,1,0,0:0:0:0:
320,192,60658,128,0,63427:0:0:0:0:
192,192,63427,1,0,0:0:0:0:
64,192,63427,1,0,0:0:0:0:
448,192,63427,128,0,70120:0:0:0:0:
192,192,63889,1,0,0:0:0:0:
64,192,63889,1,0,0:0:0:0:
192,192,64350,1,0,0:0:0:0:
64,192,64350,1,0,0:0:0:0:
192,192,64812,1,0,0:0:0:0:
64,192,64812,1,0,0:0:0:0:
192,192,65273,1,0,0:0:0:0:
64,192,65273,1,0,0:0:0:0:
192,192,65735,1,0,0:0:0:0:
64,192,65735,1,0,0:0:0:0:
192,192,66196,1,0,0:0:0:0:
64,192,66196,1,0,0:0:0:0:
192,192,66658,1,0,0:0:0:0:
64,192,66658,1,0,0:0:0:0:
192,192,67120,1,0,0:0:0:0:
64,192,67120,1,0,0:0:0:0:
192,192,67581,1,0,0:0:0:0:
64,192,67581,1,0,0:0:0:0:
192,192,68043,1,0,0:0:0:0:
64,192,68043,1,0,0:0:0:0:
192,192,68504,1,0,0:0:0:0:
64,192,68504,1,0,0:0:0:0:
320,192,68735,1,0,0:0:0:0:
192,192,68966,1,0,0:0:0:0:
64,192,68966,1,0,0:0:0:0:
320,192,69081,1,0,0:0:0:0:
192,192,69427,1,0,0:0:0:0:
64,192,69427,1,0,0:0:0:0:
320,192,69427,1,0,0:0:0:0:
192,192,69658,128,0,70120:0:0:0:0:
64,192,69889,1,0,0:0:0:0:
320,192,69889,1,0,0:0:0:0:
320,192,70120,128,0,70812:0:0:0:0:
64,192,70120,1,0,0:0:0:0:
192,192,70235,1,0,0:0:0:0:
448,192,70235,1,0,0:0:0:0:
64,192,70350,1,0,0:0:0:0:
448,192,70350,1,0,0:0:0:0:
192,192,70466,1,0,0:0:0:0:
64,192,70466,1,0,0:0:0:0:
448,192,70581,1,0,0:0:0:0:
192,192,70581,1,0,0:0:0:0:
64,192,70696,1,0,0:0:0:0:
448,192,70696,1,0,0:0:0:0:
192,192,70812,1,0,0:0:0:0:
64,192,70812,1,0,0:0:0:0:
448,192,70812,128,0,71504:0:0:0:0:
320,192,71273,1,0,0:0:0:0:
192,192,71273,1,0,0:0:0:0:
192,192,71504,128,0,71735:0:0:0:0:
448,192,71735,1,0,0:0:0:0:
64,192,71735,1,0,0:0:0:0:
320,192,71966,1,0,0:0:0:0:
320,192,72081,1,0,0:0:0:0:
192,192,72196,1,0,0:0:0:0:
64,192,72196,1,0,0:0:0:0:
448,192,72196,1,0,0:0:0:0:
320,192,72312,1,0,0:0:0:0:
448,192,72427,1,0,0:0:0:0:
192,192,72543,1,0,0:0:0:0:
320,192,72658,1,0,0:0:0:0:
448,192,72658,1,0,0:0:0:0:
64,192,72658,128,0,73350:0:0:0:0:
192,192,73120,1,0,0:0:0:0:
320,192,73120,1,0,0:0:0:0:
320,192,73350,128,0,73581:0:0:0:0:
192,192,73581,1,0,0:0:0:0:
64,192,73581,1,0,0:0:0:0:
448,192,73812,1,0,0:0:0:0:
448,192,73927,1,0,0:0:0:0:
320,192,74043,1,0,0:0:0:0:
192,192,74043,1,0,0:0:0:0:
64,192,74043,1,0,0:0:0:0:
448,192,74158,1,0,0:0:0:0:
320,192,74273,1,0,0:0:0:0:
64,192,74389,1,0,0:0:0:0:
192,192,74504,1,0,0:0:0:0:
320,192,74504,1,0,0:0:0:0:
448,192,74504,128,0,75196:0:0:0:0:
320,192,74966,1,0,0:0:0:0:
192,192,74966,1,0,0:0:0:0:
192,192,75196,128,0,75427:0:0:0:0:
64,192,75427,1,0,0:0:0:0:
448,192,75427,1,0,0:0:0:0:
320,192,75658,1,0,0:0:0:0:
320,192,75773,1,0,0:0:0:0:
192,192,75889,1,0,0:0:0:0:
64,192,75889,1,0,0:0:0:0:
448,192,75889,1,0,0:0:0:0:
320,192,76004,1,0,0:0:0:0:
448,192,76120,1,0,0:0:0:0:
192,192,76235,1,0,0:0:0:0:
64,192,76350,1,0,0:0:0:0:
320,192,76350,1,0,0:0:0:0:
448,192,76350,1,0,0:0:0:0:
320,192,76466,1,0,0:0:0:0:
64,192,76581,1,0,0:0:0:0:
192,192,76581,1,0,0:0:0:0:
448,192,76581,1,0,0:0:0:0:
64,192,76696,1,0,0:0:0:0:
320,192,76812,1,0,0:0:0:0:
448,192,76812,1,0,0:0:0:0:
192,192,76812,1,0,0:0:0:0:
448,192,76927,1,0,0:0:0:0:
64,192,77043,1,0,0:0:0:0:
192,192,77043,1,0,0:0:0:0:
320,192,77043,1,0,0:0:0:0:
192,192,77158,1,0,0:0:0:0:
64,192,77273,1,0,0:0:0:0:
448,192,77273,1,0,0:0:0:0:
320,192,77273,1,0,0:0:0:0:
320,192,77389,1,0,0:0:0:0:
192,192,77504,1,0,0:0:0:0:
448,192,77504,1,0,0:0:0:0:
64,192,77504,1,0,0:0:0:0:
64,192,77620,1,0,0:0:0:0:
192,192,77735,1,0,0:0:0:0:
320,192,77735,1,0,0:0:0:0:
448,192,77735,1,0,0:0:0:0:
448,192,77850,1,0,0:0:0:0:
192,192,77966,1,0,0:0:0:0:
64,192,77966,1,0,0:0:0:0:
320,192,77966,1,0,0:0:0:0:
320,192,78081,1,0,0:0:0:0:
448,192,78196,1,0,0:0:0:0:
192,192,78196,1,0,0:0:0:0:
64,192,78196,128,0,78889:0:0:0:0:
448,192,78658,1,0,0:0:0:0:
320,192,78658,1,0,0:0:0:0:
192,192,78889,1,0,0:0:0:0:
448,192,78889,128,0,79120:0:0:0:0:
320,192,79120,1,0,0:0:0:0:
64,192,79120,1,0,0:0:0:0:
64,192,79350,1,0,0:0:0:0:
64,192,79466,1,0,0:0:0:0:
448,192,79581,1,0,0:0:0:0:
192,192,79581,1,0,0:0:0:0:
320,192,79581,1,0,0:0:0:0:
64,192,79696,1,0,0:0:0:0:
192,192,79812,1,0,0:0:0:0:
448,192,79927,1,0,0:0:0:0:
64,192,80043,1,0,0:0:0:0:
192,192,80043,1,0,0:0:0:0:
320,192,80043,128,0,80735:0:0:0:0:
64,192,80504,1,0,0:0:0:0:
448,192,80504,1,0,0:0:0:0:
448,192,80735,128,0,80966:0:0:0:0:
192,192,80966,1,0,0:0:0:0:
64,192,80966,1,0,0:0:0:0:
320,192,81196,1,0,0:0:0:0:
320,192,81312,1,0,0:0:0:0:
192,192,81427,1,0,0:0:0:0:
64,192,81427,1,0,0:0:0:0:
448,192,81427,1,0,0:0:0:0:
320,192,81543,1,0,0:0:0:0:
192,192,81658,1,0,0:0:0:0:
64,192,81773,1,0,0:0:0:0:
192,192,81889,1,0,0:0:0:0:
448,192,81889,1,0,0:0:0:0:
320,192,81889,128,0,82581:0:0:0:0:
192,192,82350,1,0,0:0:0:0:
448,192,82350,1,0,0:0:0:0:
192,192,82581,128,0,82812:0:0:0:0:
448,192,82812,1,0,0:0:0:0:
64,192,82812,1,0,0:0:0:0:
320,192,83043,1,0,0:0:0:0:
192,192,83158,1,0,0:0:0:0:
320,192,83273,1,0,0:0:0:0:
448,192,83273,1,0,0:0:0:0:
192,192,83389,1,0,0:0:0:0:
320,192,83504,1,0,0:0:0:0:
64,192,83620,1,0,0:0:0:0:
192,192,83735,1,0,0:0:0:0:
320,192,83735,1,0,0:0:0:0:
448,192,83735,1,0,0:0:0:0:
192,192,83850,1,0,0:0:0:0:
448,192,83966,1,0,0:0:0:0:
64,192,83966,1,0,0:0:0:0:
320,192,83966,1,0,0:0:0:0:
320,192,84081,1,0,0:0:0:0:
448,192,84196,1,0,0:0:0:0:
192,192,84196,1,0,0:0:0:0:
64,192,84196,1,0,0:0:0:0:
64,192,84312,1,0,0:0:0:0:
320,192,84427,1,0,0:0:0:0:
448,192,84427,1,0,0:0:0:0:
192,192,84427,1,0,0:0:0:0:
320,192,84543,1,0,0:0:0:0:
192,192,84658,1,0,0:0:0:0:
64,192,84658,1,0,0:0:0:0:
448,192,84658,1,0,0:0:0:0:
192,192,84773,1,0,0:0:0:0:
64,192,84889,1,0,0:0:0:0:
320,192,84889,1,0,0:0:0:0:
448,192,84889,1,0,0:0:0:0:
448,192,85004,1,0,0:0:0:0:
64,192,85120,1,0,0:0:0:0:
192,192,85120,1,0,0:0:0:0:
320,192,85235,1,0,0:0:0:0:
448,192,85235,1,0,0:0:0:0:
192,192,85350,1,0,0:0:0:0:
64,192,85350,1,0,0:0:0:0:
320,192,85466,1,0,0:0:0:0:
448,192,85466,1,0,0:0:0:0:
192,192,85581,1,0,0:0:0:0:
64,192,85581,128,0,86043:0:0:0:0:
320,192,85812,1,0,0:0:0:0:
192,192,86043,128,0,86504:0:0:0:0:
320,192,86043,1,0,0:0:0:0:
448,192,86273,1,0,0:0:0:0:
448,192,86504,1,0,0:0:0:0:
320,192,86504,128,0,86966:0:0:0:0:
64,192,86735,1,0,0:0:0:0:
192,192,86966,1,0,0:0:0:0:
448,192,86966,128,0,87427:0:0:0:0:
64,192,87196,1,0,0:0:0:0:
192,192,87427,1,0,0:0:0:0:
320,192,87427,128,0,87658:0:0:0:0:
64,192,87658,128,0,87889:0:0:0:0:
448,192,87658,1,0,0:0:0:0:
320,192,87889,1,0,0:0:0:0:
192,192,87889,1,0,0:0:0:0:
64,192,88120,1,0,0:0:0:0:
192,192,88350,1,0,0:0:0:0:
448,192,88350,1,0,0:0:0:0:
192,192,88581,1,0,0:0:0:0:
320,192,88812,1,0,0:0:0:0:
448,192,88812,1,0,0:0:0:0:
64,192,88812,1,0,0:0:0:0:
320,192,89043,1,0,0:0:0:0:
192,192,89273,1,0,0:0:0:0:
448,192,89273,1,0,0:0:0:0:
192,192,89504,1,0,0:0:0:0:
64,192,89735,128,0,90196:0:0:0:0:
320,192,89735,1,0,0:0:0:0:
448,192,89735,1,0,0:0:0:0:
192,192,89966,1,0,0:0:0:0:
320,192,90196,128,0,90658:0:0:0:0:
448,192,90427,1,0,0:0:0:0:
192,192,90658,128,0,91120:0:0:0:0:
64,192,90658,1,0,0:0:0:0:
320,192,90889,1,0,0:0:0:0:
320,192,91120,1,0,0:0:0:0:
448,192,91120,1,0,0:0:0:0:
64,192,91120,1,0,0:0:0:0:
64,192,91235,1,0,0:0:0:0:
192,192,91350,1,0,0:0:0:0:
448,192,91350,1,0,0:0:0:0:
320,192,91350,1,0,0:0:0:0:
320,192,91466,1,0,0:0:0:0:
448,192,91581,1,0,0:0:0:0:
192,192,91581,1,0,0:0:0:0:
64,192,91581,1,0,0:0:0:0:
192,192,91696,1,0,0:0:0:0:
64,192,91812,1,0,0:0:0:0:
448,192,91812,1,0,0:0:0:0:
320,192,91812,1,0,0:0:0:0:
448,192,91927,1,0,0:0:0:0:
192,192,92043,1,0,0:0:0:0:
320,192,92043,1,0,0:0:0:0:
64,192,92043,1,0,0:0:0:0:
64,192,92158,1,0,0:0:0:0:
320,192,92273,1,0,0:0:0:0:
192,192,92273,1,0,0:0:0:0:
448,192,92273,1,0,0:0:0:0:
192,192,92389,1,0,0:0:0:0:
64,192,92504,1,0,0:0:0:0:
320,192,92504,1,0,0:0:0:0:
448,192,92504,1,0,0:0:0:0:
320,192,92620,1,0,0:0:0:0:
192,192,92735,1,0,0:0:0:0:
64,192,92735,1,0,0:0:0:0:
448,192,92735,1,0,0:0:0:0:
64,192,92850,1,0,0:0:0:0:
192,192,92966,1,0,0:0:0:0:
320,192,92966,1,0,0:0:0:0:
448,192,92966,128,0,93427:0:0:0:0:
320,192,93196,1,0,0:0:0:0:
64,192,93427,128,0,93889:0:0:0:0:
192,192,93427,1,0,0:0:0:0:
192,192,93658,1,0,0:0:0:0:
320,192,93889,128,0,94350:0:0:0:0:
448,192,93889,1,0,0:0:0:0:
448,192,94120,1,0,0:0:0:0:
192,192,94350,128,0,94812:0:0:0:0:
64,192,94350,1,0,0:0:0:0:
64,192,94581,1,0,0:0:0:0:
320,192,94639,1,0,0:0:0:0:
448,192,94696,1,0,0:0:0:0:
64,192,94812,1,0,0:0:0:0:
320,192,94812,1,0,0:0:0:0:
448,192,95043,1,0,0:0:0:0:
192,192,95273,1,0,0:0:0:0:
320,192,95273,1,0,0:0:0:0:
448,192,95273,1,0,0:0:0:0:
192,192,95504,1,0,0:0:0:0:
64,192,95735,1,0,0:0:0:0:
448,192,95735,1,0,0:0:0:0:
320,192,95735,1,0,0:0:0:0:
320,192,95966,1,0,0:0:0:0:
64,192,96196,1,0,0:0:0:0:
192,192,96196,1,0,0:0:0:0:
320,192,96196,1,0,0:0:0:0:
448,192,96427,1,0,0:0:0:0:
320,192,96485,1,0,0:0:0:0:
192,192,96543,1,0,0:0:0:0:
448,192,96658,1,0,0:0:0:0:
320,192,96658,1,0,0:0:0:0:
64,192,96658,1,0,0:0:0:0:
192,192,96889,1,0,0:0:0:0:
192,192,97120,1,0,0:0:0:0:
320,192,97120,1,0,0:0:0:0:
64,192,97120,128,0,97581:0:0:0:0:
448,192,97350,1,0,0:0:0:0:
192,192,97581,1,0,0:0:0:0:
448,192,97581,128,0,98043:0:0:0:0:
320,192,97581,1,0,0:0:0:0:
64,192,97812,1,0,0:0:0:0:
320,192,98043,1,0,0:0:0:0:
192,192,98043,128,0,98504:0:0:0:0:
64,192,98273,1,0,0:0:0:0:
320,192,98504,1,0,0:0:0:0:
448,192,98504,1,0,0:0:0:0:
64,192,98620,1,0,0:0:0:0:
192,192,98735,1,0,0:0:0:0:
320,192,98735,1,0,0:0:0:0:
448,192,98735,1,0,0:0:0:0:
320,192,98850,1,0,0:0:0:0:
192,192,98966,1,0,0:0:0:0:
64,192,98966,1,0,0:0:0:0:
448,192,98966,1,0,0:0:0:0:
64,192,99081,1,0,0:0:0:0:
192,192,99196,1,0,0:0:0:0:
320,192,99196,1,0,0:0:0:0:
448,192,99196,1,0,0:0:0:0:
448,192,99312,1,0,0:0:0:0:
320,192,99427,1,0,0:0:0:0:
192,192,99427,1,0,0:0:0:0:
64,192,99427,1,0,0:0:0:0:
320,192,99543,1,0,0:0:0:0:
192,192,99658,1,0,0:0:0:0:
64,192,99658,1,0,0:0:0:0:
448,192,99658,1,0,0:0:0:0:
64,192,99773,1,0,0:0:0:0:
192,192,99889,1,0,0:0:0:0:
320,192,99889,1,0,0:0:0:0:
448,192,99889,1,0,0:0:0:0:
448,192,100004,1,0,0:0:0:0:
320,192,100120,1,0,0:0:0:0:
192,192,100120,1,0,0:0:0:0:
64,192,100120,1,0,0:0:0:0:
192,192,100235,1,0,0:0:0:0:
64,192,100350,1,0,0:0:0:0:
320,192,100350,1,0,0:0:0:0:
448,192,100350,1,0,0:0:0:0:
192,192,100427,1,0,0:0:0:0:
320,192,100504,1,0,0:0:0:0:
448,192,100581,1,0,0:0:0:0:
64,192,100581,1,0,0:0:0:0:
320,192,100658,1,0,0:0:0:0:
192,192,100735,1,0,0:0:0:0:
448,192,100812,1,0,0:0:0:0:
320,192,100812,1,0,0:0:0:0:
64,192,100889,1,0,0:0:0:0:
320,192,100966,1,0,0:0:0:0:
192,192,101043,1,0,0:0:0:0:
448,192,101043,1,0,0:0:0:0:
320,192,101120,1,0,0:0:0:0:
192,192,101196,1,0,0:0:0:0:
64,192,101273,1,0,0:0:0:0:
448,192,101273,1,0,0:0:0:0:
320,192,101350,1,0,0:0:0:0:
192,192,101427,1,0,0:0:0:0:
320,192,101504,1,0,0:0:0:0:
448,192,101504,1,0,0:0:0:0:
64,192,101581,1,0,0:0:0:0:
192,192,101658,1,0,0:0:0:0:
320,192,101735,1,0,0:0:0:0:
448,192,101735,1,0,0:0:0:0:
64,192,101850,1,0,0:0:0:0:
192,192,101850,1,0,0:0:0:0:
320,192,101966,1,0,0:0:0:0:
448,192,101966,1,0,0:0:0:0:
64,192,102081,1,0,0:0:0:0:
192,192,102081,1,0,0:0:0:0:
320,192,102196,1,0,0:0:0:0:
448,192,102196,1,0,0:0:0:0:
64,192,102196,1,0,0:0:0:0:
192,192,102312,1,0,0:0:0:0:
320,192,102427,1,0,0:0:0:0:
448,192,102543,1,0,0:0:0:0:
320,192,102658,1,0,0:0:0:0:
192,192,102658,1,0,0:0:0:0:
64,192,102658,1,0,0:0:0:0:
448,192,102773,1,0,0:0:0:0:
320,192,102889,1,0,0:0:0:0:
192,192,103004,1,0,0:0:0:0:
64,192,103120,1,0,0:0:0:0:
320,192,103120,1,0,0:0:0:0:
192,192,103235,1,0,0:0:0:0:
320,192,103350,1,0,0:0:0:0:
192,192,103466,1,0,0:0:0:0:
64,192,103581,1,0,0:0:0:0:
320,192,103581,1,0,0:0:0:0:
448,192,103581,1,0,0:0:0:0:
192,192,103696,1,0,0:0:0:0:
320,192,103812,1,0,0:0:0:0:
448,192,103927,1,0,0:0:0:0:
320,192,104043,1,0,0:0:0:0:
192,192,104043,1,0,0:0:0:0:
64,192,104158,1,0,0:0:0:0:
192,192,104273,1,0,0:0:0:0:
320,192,104389,1,0,0:0:0:0:
448,192,104504,1,0,0:0:0:0:
192,192,104504,1,0,0:0:0:0:
64,192,104504,1,0,0:0:0:0:
320,192,104620,1,0,0:0:0:0:
192,192,104735,1,0,0:0:0:0:
64,192,104850,1,0,0:0:0:0:
192,192,104966,1,0,0:0:0:0:
320,192,104966,1,0,0:0:0:0:
448,192,105081,1,0,0:0:0:0:
320,192,105196,1,0,0:0:0:0:
64,192,105196,1,0,0:0:0:0:
192,192,105312,1,0,0:0:0:0:
64,192,105427,1,0,0:0:0:0:
320,192,105427,1,0,0:0:0:0:
448,192,105427,1,0,0:0:0:0:
192,192,105543,1,0,0:0:0:0:
64,192,105543,1,0,0:0:0:0:
320,192,105658,1,0,0:0:0:0:
448,192,105658,1,0,0:0:0:0:
192,192,105773,1,0,0:0:0:0:
320,192,105889,1,0,0:0:0:0:
448,192,105889,1,0,0:0:0:0:
64,192,105889,1,0,0:0:0:0:
192,192,106004,1,0,0:0:0:0:
320,192,106120,1,0,0:0:0:0:
448,192,106235,1,0,0:0:0:0:
320,192,106350,1,0,0:0:0:0:
192,192,106350,1,0,0:0:0:0:
64,192,106350,1,0,0:0:0:0:
448,192,106466,1,0,0:0:0:0:
320,192,106581,1,0,0:0:0:0:
192,192,106696,1,0,0:0:0:0:
64,192,106812,1,0,0:0:0:0:
320,192,106812,1,0,0:0:0:0:
448,192,106927,1,0,0:0:0:0:
320,192,107043,1,0,0:0:0:0:
192,192,107158,1,0,0:0:0:0:
320,192,107273,1,0,0:0:0:0:
448,192,107273,1,0,0:0:0:0:
64,192,107273,1,0,0:0:0:0:
192,192,107389,1,0,0:0:0:0:
320,192,107504,1,0,0:0:0:0:
64,192,107620,1,0,0:0:0:0:
448,192,107735,1,0,0:0:0:0:
192,192,107735,1,0,0:0:0:0:
320,192,107850,1,0,0:0:0:0:
192,192,107966,1,0,0:0:0:0:
64,192,108081,1,0,0:0:0:0:
192,192,108196,1,0,0:0:0:0:
320,192,108196,1,0,0:0:0:0:
448,192,108196,1,0,0:0:0:0:
64,192,108312,1,0,0:0:0:0:
192,192,108427,1,0,0:0:0:0:
448,192,108427,1,0,0:0:0:0:
320,192,108543,1,0,0:0:0:0:
64,192,108658,1,0,0:0:0:0:
192,192,108658,1,0,0:0:0:0:
448,192,108773,1,0,0:0:0:0:
320,192,108889,1,0,0:0:0:0:
64,192,108889,1,0,0:0:0:0:
192,192,109004,1,0,0:0:0:0:
320,192,109120,1,0,0:0:0:0:
448,192,109120,1,0,0:0:0:0:
64,192,109120,1,0,0:0:0:0:
64,192,109235,1,0,0:0:0:0:
192,192,109235,1,0,0:0:0:0:
320,192,109350,1,0,0:0:0:0:
448,192,109350,1,0,0:0:0:0:
192,192,109466,1,0,0:0:0:0:
64,192,109466,1,0,0:0:0:0:
320,192,109581,1,0,0:0:0:0:
448,192,109581,1,0,0:0:0:0:
64,192,109581,1,0,0:0:0:0:
192,192,109696,1,0,0:0:0:0:
320,192,109812,1,0,0:0:0:0:
448,192,109927,1,0,0:0:0:0:
320,192,110043,1,0,0:0:0:0:
192,192,110043,1,0,0:0:0:0:
64,192,110043,1,0,0:0:0:0:
448,192,110158,1,0,0:0:0:0:
320,192,110273,1,0,0:0:0:0:
192,192,110389,1,0,0:0:0:0:
64,192,110504,1,0,0:0:0:0:
320,192,110504,1,0,0:0:0:0:
448,192,110504,1,0,0:0:0:0:
192,192,110620,1,0,0:0:0:0:
320,192,110735,1,0,0:0:0:0:
448,192,110850,1,0,0:0:0:0:
320,192,110966,1,0,0:0:0:0:
192,192,110966,1,0,0:0:0:0:
64,192,110966,1,0,0:0:0:0:
448,192,111081,1,0,0:0:0:0:
320,192,111196,1,0,0:0:0:0:
192,192,111312,1,0,0:0:0:0:
64,192,111427,1,0,0:0:0:0:
448,192,111427,1,0,0:0:0:0:
320,192,111427,1,0,0:0:0:0:
192,192,111543,1,0,0:0:0:0:
64,192,111658,1,0,0:0:0:0:
320,192,111773,1,0,0:0:0:0:
192,192,111889,1,0,0:0:0:0:
64,192,111889,1,0,0:0:0:0:
448,192,111889,1,0,0:0:0:0:
320,192,112004,1,0,0:0:0:0:
192,192,112120,1,0,0:0:0:0:
64,192,112235,1,0,0:0:0:0:
448,192,112350,1,0,0:0:0:0:
192,192,112350,1,0,0:0:0:0:
320,192,112350,1,0,0:0:0:0:
64,192,112466,1,0,0:0:0:0:
192,192,112581,1,0,0:0:0:0:
320,192,112696,1,0,0:0:0:0:
448,192,112812,1,0,0:0:0:0:
192,192,112812,1,0,0:0:0:0:
64,192,112812,1,0,0:0:0:0:
320,192,112927,1,0,0:0:0:0:
192,192,113043,1,0,0:0:0:0:
64,192,113158,1,0,0:0:0:0:
192,192,113273,1,0,0:0:0:0:
320,192,113273,1,0,0:0:0:0:
448,192,113273,1,0,0:0:0:0:
64,192,113389,1,0,0:0:0:0:
192,192,113504,1,0,0:0:0:0:
320,192,113620,1,0,0:0:0:0:
448,192,113735,1,0,0:0:0:0:
192,192,113735,1,0,0:0:0:0:
64,192,113735,1,0,0:0:0:0:
320,192,113850,1,0,0:0:0:0:
192,192,113966,1,0,0:0:0:0:
64,192,114081,1,0,0:0:0:0:
192,192,114196,1,0,0:0:0:0:
320,192,114196,1,0,0:0:0:0:
448,192,114196,1,0,0:0:0:0:
64,192,114312,1,0,0:0:0:0:
192,192,114427,1,0,0:0:0:0:
320,192,114543,1,0,0:0:0:0:
448,192,114658,1,0,0:0:0:0:
192,192,114658,1,0,0:0:0:0:
64,192,114658,1,0,0:0:0:0:
320,192,114773,1,0,0:0:0:0:
192,192,114889,1,0,0:0:0:0:
320,192,115004,1,0,0:0:0:0:
192,192,115120,1,0,0:0:0:0:
448,192,115120,1,0,0:0:0:0:
64,192,115120,1,0,0:0:0:0:
320,192,115235,1,0,0:0:0:0:
192,192,115350,1,0,0:0:0:0:
448,192,115350,1,0,0:0:0:0:
64,192,115466,1,0,0:0:0:0:
448,192,115581,1,0,0:0:0:0:
192,192,115581,1,0,0:0:0:0:
320,192,115581,1,0,0:0:0:0:
64,192,115696,1,0,0:0:0:0:
320,192,115812,1,0,0:0:0:0:
448,192,115812,1,0,0:0:0:0:
192,192,115927,1,0,0:0:0:0:
320,192,116043,1,0,0:0:0:0:
64,192,116043,1,0,0:0:0:0:
448,192,116043,1,0,0:0:0:0:
192,192,116158,1,0,0:0:0:0:
64,192,116273,1,0,0:0:0:0:
320,192,116273,1,0,0:0:0:0:
192,192,116389,1,0,0:0:0:0:
320,192,116504,1,0,0:0:0:0:
448,192,116504,1,0,0:0:0:0:
64,192,116504,1,0,0:0:0:0:
192,192,116620,1,0,0:0:0:0:
64,192,116735,1,0,0:0:0:0:
448,192,116735,1,0,0:0:0:0:
320,192,116850,1,0,0:0:0:0:
192,192,116966,1,0,0:0:0:0:
64,192,116966,1,0,0:0:0:0:
448,192,116966,1,0,0:0:0:0:
192,192,117196,1,0,0:0:0:0:
320,192,117196,1,0,0:0:0:0:
448,192,117196,1,0,0:0:0:0:
320,192,117427,1,0,0:0:0:0:
192,192,117427,1,0,0:0:0:0:
64,192,117427,1,0,0:0:0:0:
192,192,117658,1,0,0:0:0:0:
448,192,117658,1,0,0:0:0:0:
320,192,117889,1,0,0:0:0:0:
64,192,117889,1,0,0:0:0:0:
192,192,117889,1,0,0:0:0:0:
192,192,118120,1,0,0:0:0:0:
320,192,118120,1,0,0:0:0:0:
448,192,118120,1,0,0:0:0:0:
320,192,118350,1,0,0:0:0:0:
64,192,118350,1,0,0:0:0:0:
320,192,118581,1,0,0:0:0:0:
448,192,118581,1,0,0:0:0:0:
64,192,118658,1,0,0:0:0:0:
192,192,118658,1,0,0:0:0:0:
448,192,118735,1,0,0:0:0:0:
320,192,118735,1,0,0:0:0:0:
192,192,118812,128,0,119043:0:0:0:0:
64,192,118812,128,0,119043:0:0:0:0:
192,192,120658,128,0,122966:0:0:0:0:
448,192,120658,1,0,0:0:0:0:
64,192,120658,1,0,0:0:0:0:
320,192,120658,128,0,122966:0:0:0:0:
64,192,121120,1,0,0:0:0:0:
448,192,121120,1,0,0:0:0:0:
448,192,121581,1,0,0:0:0:0:
64,192,121581,1,0,0:0:0:0:
64,192,122043,1,0,0:0:0:0:
448,192,122043,1,0,0:0:0:0:
448,192,122504,1,0,0:0:0:0:
64,192,122504,1,0,0:0:0:0:
64,192,122966,1,0,0:0:0:0:
448,192,122966,1,0,0:0:0:0:
192,192,123196,1,0,0:0:0:0:
448,192,123312,1,0,0:0:0:0:
64,192,123427,1,0,0:0:0:0:
192,192,123427,1,0,0:0:0:0:
320,192,123427,1,0,0:0:0:0:
448,192,123543,1,0,0:0:0:0:
192,192,123658,1,0,0:0:0:0:
64,192,123658,1,0,0:0:0:0:
320,192,123773,1,0,0:0:0:0:
448,192,123773,1,0,0:0:0:0:
448,192,123889,1,0,0:0:0:0:
192,192,123889,1,0,0:0:0:0:
64,192,123889,1,0,0:0:0:0:
320,192,124004,1,0,0:0:0:0:
192,192,124120,1,0,0:0:0:0:
64,192,124120,1,0,0:0:0:0:
320,192,124235,1,0,0:0:0:0:
448,192,124235,1,0,0:0:0:0:
192,192,124350,1,0,0:0:0:0:
64,192,124350,1,0,0:0:0:0:
448,192,124350,1,0,0:0:0:0:
320,192,124466,1,0,0:0:0:0:
192,192,124581,1,0,0:0:0:0:
64,192,124696,1,0,0:0:0:0:
192,192,124812,1,0,0:0:0:0:
320,192,124812,1,0,0:0:0:0:
448,192,124812,1,0,0:0:0:0:
64,192,124927,1,0,0:0:0:0:
192,192,125043,1,0,0:0:0:0:
320,192,125158,1,0,0:0:0:0:
448,192,125273,1,0,0:0:0:0:
192,192,125273,1,0,0:0:0:0:
64,192,125273,1,0,0:0:0:0:
320,192,125389,1,0,0:0:0:0:
192,192,125504,1,0,0:0:0:0:
64,192,125620,1,0,0:0:0:0:
192,192,125735,1,0,0:0:0:0:
320,192,125735,1,0,0:0:0:0:
448,192,125735,1,0,0:0:0:0:
64,192,125850,1,0,0:0:0:0:
192,192,125966,1,0,0:0:0:0:
320,192,126081,1,0,0:0:0:0:
448,192,126196,1,0,0:0:0:0:
192,192,126196,1,0,0:0:0:0:
64,192,126196,1,0,0:0:0:0:
320,192,126312,1,0,0:0:0:0:
192,192,126427,1,0,0:0:0:0:
64,192,126427,1,0,0:0:0:0:
320,192,126485,1,0,0:0:0:0:
448,192,126485,1,0,0:0:0:0:
192,192,126543,1,0,0:0:0:0:
64,192,126543,1,0,0:0:0:0:
64,192,126658,1,0,0:0:0:0:
448,192,126658,1,0,0:0:0:0:
320,192,126658,1,0,0:0:0:0:
192,192,126773,1,0,0:0:0:0:
448,192,126773,1,0,0:0:0:0:
320,192,126889,1,0,0:0:0:0:
64,192,126889,1,0,0:0:0:0:
192,192,127004,1,0,0:0:0:0:
448,192,127004,1,0,0:0:0:0:
320,192,127120,1,0,0:0:0:0:
64,192,127120,1,0,0:0:0:0:
192,192,127120,1,0,0:0:0:0:
448,192,127177,1,0,0:0:0:0:
320,192,127235,1,0,0:0:0:0:
64,192,127350,1,0,0:0:0:0:
320,192,127466,1,0,0:0:0:0:
192,192,127523,1,0,0:0:0:0:
64,192,127581,1,0,0:0:0:0:
320,192,127581,1,0,0:0:0:0:
448,192,127581,1,0,0:0:0:0:
192,192,127696,1,0,0:0:0:0:
64,192,127696,1,0,0:0:0:0:
320,192,127812,1,0,0:0:0:0:
448,192,127812,1,0,0:0:0:0:
192,192,127927,1,0,0:0:0:0:
64,192,127927,1,0,0:0:0:0:
320,192,128043,1,0,0:0:0:0:
64,192,128043,1,0,0:0:0:0:
448,192,128043,128,0,128735:0:0:0:0:
320,192,128504,1,0,0:0:0:0:
192,192,128504,1,0,0:0:0:0:
192,192,128735,128,0,128966:0:0:0:0:
448,192,128966,1,0,0:0:0:0:
64,192,128966,1,0,0:0:0:0:
320,192,129196,1,0,0:0:0:0:
320,192,129312,1,0,0:0:0:0:
192,192,129427,1,0,0:0:0:0:
64,192,129427,1,0,0:0:0:0:
448,192,129427,1,0,0:0:0:0:
320,192,129543,1,0,0:0:0:0:
64,192,129658,1,0,0:0:0:0:
448,192,129773,1,0,0:0:0:0:
192,192,129889,1,0,0:0:0:0:
320,192,129889,1,0,0:0:0:0:
64,192,129889,128,0,130581:0:0:0:0:
192,192,130350,1,0,0:0:0:0:
320,192,130350,1,0,0:0:0:0:
320,192,130581,128,0,130812:0:0:0:0:
64,192,130812,1,0,0:0:0:0:
448,192,130812,1,0,0:0:0:0:
192,192,131043,1,0,0:0:0:0:
192,192,131158,1,0,0:0:0:0:
320,192,131273,1,0,0:0:0:0:
448,192,131273,1,0,0:0:0:0:
64,192,131273,1,0,0:0:0:0:
192,192,131389,1,0,0:0:0:0:
448,192,131504,1,0,0:0:0:0:
64,192,131620,1,0,0:0:0:0:
192,192,131735,1,0,0:0:0:0:
448,192,131735,1,0,0:0:0:0:
320,192,131735,128,0,132427:0:0:0:0:
192,192,132196,1,0,0:0:0:0:
64,192,132196,1,0,0:0:0:0:
64,192,132427,128,0,132658:0:0:0:0:
192,192,132658,1,0,0:0:0:0:
448,192,132658,1,0,0:0:0:0:
320,192,132889,1,0,0:0:0:0:
320,192,133004,1,0,0:0:0:0:
192,192,133120,1,0,0:0:0:0:
64,192,133120,1,0,0:0:0:0:
448,192,133120,1,0,0:0:0:0:
320,192,133235,1,0,0:0:0:0:
192,192,133350,1,0,0:0:0:0:
448,192,133466,1,0,0:0:0:0:
320,192,133581,1,0,0:0:0:0:
64,192,133581,1,0,0:0:0:0:
192,192,133581,1,0,0:0:0:0:
64,192,133696,1,0,0:0:0:0:
320,192,133812,1,0,0:0:0:0:
448,192,133812,1,0,0:0:0:0:
192,192,133812,1,0,0:0:0:0:
320,192,133927,1,0,0:0:0:0:
192,192,134043,1,0,0:0:0:0:
64,192,134043,1,0,0:0:0:0:
448,192,134043,1,0,0:0:0:0:
192,192,134158,1,0,0:0:0:0:
448,192,134273,1,0,0:0:0:0:
64,192,134273,1,0,0:0:0:0:
320,192,134273,1,0,0:0:0:0:
448,192,134389,1,0,0:0:0:0:
320,192,134504,1,0,0:0:0:0:
192,192,134504,1,0,0:0:0:0:
64,192,134504,1,0,0:0:0:0:
64,192,134620,1,0,0:0:0:0:
320,192,134735,1,0,0:0:0:0:
448,192,134735,1,0,0:0:0:0:
192,192,134735,1,0,0:0:0:0:
320,192,134850,1,0,0:0:0:0:
192,192,134966,1,0,0:0:0:0:
64,192,134966,1,0,0:0:0:0:
448,192,134966,1,0,0:0:0:0:
448,192,135081,1,0,0:0:0:0:
320,192,135196,1,0,0:0:0:0:
192,192,135196,1,0,0:0:0:0:
64,192,135196,1,0,0:0:0:0:
64,192,135312,1,0,0:0:0:0:
192,192,135427,1,0,0:0:0:0:
320,192,135427,1,0,0:0:0:0:
448,192,135427,128,0,136120:0:0:0:0:
192,192,135889,1,0,0:0:0:0:
64,192,135889,1,0,0:0:0:0:
192,192,136120,128,0,136350:0:0:0:0:
320,192,136350,1,0,0:0:0:0:
448,192,136350,1,0,0:0:0:0:
64,192,136581,1,0,0:0:0:0:
64,192,136696,1,0,0:0:0:0:
192,192,136812,1,0,0:0:0:0:
320,192,136812,1,0,0:0:0:0:
448,192,136812,1,0,0:0:0:0:
64,192,136927,1,0,0:0:0:0:
192,192,137043,1,0,0:0:0:0:
448,192,137158,1,0,0:0:0:0:
192,192,137273,1,0,0:0:0:0:
64,192,137273,1,0,0:0:0:0:
320,192,137273,128,0,137966:0:0:0:0:
192,192,137735,1,0,0:0:0:0:
448,192,137735,1,0,0:0:0:0:
192,192,137966,128,0,138196:0:0:0:0:
64,192,138196,1,0,0:0:0:0:
448,192,138196,1,0,0:0:0:0:
320,192,138427,1,0,0:0:0:0:
320,192,138543,1,0,0:0:0:0:
192,192,138658,1,0,0:0:0:0:
64,192,138658,1,0,0:0:0:0:
448,192,138658,1,0,0:0:0:0:
320,192,138773,1,0,0:0:0:0:
192,192,138889,1,0,0:0:0:0:
64,192,139004,1,0,0:0:0:0:
448,192,139120,1,0,0:0:0:0:
320,192,139120,1,0,0:0:0:0:
192,192,139120,128,0,139812:0:0:0:0:
320,192,139581,1,0,0:0:0:0:
448,192,139581,1,0,0:0:0:0:
320,192,139812,128,0,140043:0:0:0:0:
64,192,140043,1,0,0:0:0:0:
448,192,140043,1,0,0:0:0:0:
192,192,140273,1,0,0:0:0:0:
192,192,140389,1,0,0:0:0:0:
320,192,140504,1,0,0:0:0:0:
448,192,140504,1,0,0:0:0:0:
64,192,140504,1,0,0:0:0:0:
192,192,140620,1,0,0:0:0:0:
320,192,140735,1,0,0:0:0:0:
448,192,140850,1,0,0:0:0:0:
320,192,140966,1,0,0:0:0:0:
192,192,140966,1,0,0:0:0:0:
64,192,140966,1,0,0:0:0:0:
192,192,141081,1,0,0:0:0:0:
320,192,141196,1,0,0:0:0:0:
448,192,141196,1,0,0:0:0:0:
64,192,141196,1,0,0:0:0:0:
448,192,141312,1,0,0:0:0:0:
320,192,141427,1,0,0:0:0:0:
192,192,141427,1,0,0:0:0:0:
64,192,141427,1,0,0:0:0:0:
320,192,141543,1,0,0:0:0:0:
192,192,141658,1,0,0:0:0:0:
448,192,141658,1,0,0:0:0:0:
64,192,141658,1,0,0:0:0:0:
64,192,141773,1,0,0:0:0:0:
192,192,141889,1,0,0:0:0:0:
320,192,141889,1,0,0:0:0:0:
448,192,141889,1,0,0:0:0:0:
192,192,142004,1,0,0:0:0:0:
320,192,142120,1,0,0:0:0:0:
448,192,142120,1,0,0:0:0:0:
64,192,142120,1,0,0:0:0:0:
448,192,142235,1,0,0:0:0:0:
192,192,142350,1,0,0:0:0:0:
64,192,142350,1,0,0:0:0:0:
320,192,142466,1,0,0:0:0:0:
448,192,142466,1,0,0:0:0:0:
192,192,142581,1,0,0:0:0:0:
64,192,142581,1,0,0:0:0:0:
320,192,142696,1,0,0:0:0:0:
448,192,142696,1,0,0:0:0:0:
192,192,142812,1,0,0:0:0:0:
448,192,142812,1,0,0:0:0:0:
64,192,142812,128,0,143273:0:0:0:0:
320,192,143043,1,0,0:0:0:0:
192,192,143273,128,0,143735:0:0:0:0:
448,192,143273,1,0,0:0:0:0:
320,192,143504,1,0,0:0:0:0:
448,192,143735,128,0,144196:0:0:0:0:
320,192,143735,1,0,0:0:0:0:
64,192,143966,1,0,0:0:0:0:
64,192,144196,128,0,144658:0:0:0:0:
192,192,144196,1,0,0:0:0:0:
192,192,144427,1,0,0:0:0:0:
320,192,144658,128,0,144889:0:0:0:0:
192,192,144658,1,0,0:0:0:0:
448,192,144889,1,0,0:0:0:0:
192,192,144889,128,0,145120:0:0:0:0:
448,192,145120,1,0,0:0:0:0:
64,192,145120,1,0,0:0:0:0:
192,192,145350,1,0,0:0:0:0:
320,192,145350,128,0,145581:0:0:0:0:
192,192,145581,1,0,0:0:0:0:
64,192,145581,1,0,0:0:0:0:
448,192,145812,128,0,145870:0:0:0:0:
192,192,146043,1,0,0:0:0:0:
320,192,146043,1,0,0:0:0:0:
64,192,146043,128,0,146273:0:0:0:0:
192,192,146273,128,0,146331:0:0:0:0:
448,192,146273,1,0,0:0:0:0:
64,192,146504,1,0,0:0:0:0:
448,192,146504,1,0,0:0:0:0:
320,192,146504,128,0,146735:0:0:0:0:
64,192,146735,128,0,146793:0:0:0:0:
192,192,146735,1,0,0:0:0:0:
448,192,146966,1,0,0:0:0:0:
320,192,146966,128,0,147427:0:0:0:0:
64,192,147196,1,0,0:0:0:0:
448,192,147427,128,0,147889:0:0:0:0:
192,192,147427,1,0,0:0:0:0:
64,192,147658,1,0,0:0:0:0:
192,192,147889,128,0,148350:0:0:0:0:
64,192,147889,1,0,0:0:0:0:
320,192,148120,1,0,0:0:0:0:
320,192,148350,1,0,0:0:0:0:
448,192,148350,1,0,0:0:0:0:
64,192,148466,1,0,0:0:0:0:
192,192,148581,1,0,0:0:0:0:
448,192,148581,1,0,0:0:0:0:
64,192,148581,1,0,0:0:0:0:
192,192,148696,1,0,0:0:0:0:
320,192,148812,1,0,0:0:0:0:
448,192,148812,1,0,0:0:0:0:
64,192,148812,1,0,0:0:0:0:
448,192,148927,1,0,0:0:0:0:
320,192,149043,1,0,0:0:0:0:
192,192,149043,1,0,0:0:0:0:
64,192,149043,1,0,0:0:0:0:
320,192,149158,1,0,0:0:0:0:
192,192,149273,1,0,0:0:0:0:
64,192,149273,1,0,0:0:0:0:
448,192,149273,1,0,0:0:0:0:
192,192,149389,1,0,0:0:0:0:
320,192,149504,1,0,0:0:0:0:
448,192,149504,1,0,0:0:0:0:
64,192,149504,1,0,0:0:0:0:
192,192,149620,1,0,0:0:0:0:
64,192,149735,1,0,0:0:0:0:
320,192,149735,1,0,0:0:0:0:
448,192,149735,1,0,0:0:0:0:
64,192,149850,1,0,0:0:0:0:
192,192,149850,1,0,0:0:0:0:
448,192,149966,1,0,0:0:0:0:
320,192,149966,1,0,0:0:0:0:
192,192,150081,1,0,0:0:0:0:
64,192,150081,1,0,0:0:0:0:
64,192,150196,1,0,0:0:0:0:
320,192,150196,1,0,0:0:0:0:
448,192,150196,128,0,150658:0:0:0:0:
192,192,150427,1,0,0:0:0:0:
64,192,150658,1,0,0:0:0:0:
320,192,150658,128,0,151120:0:0:0:0:
448,192,150889,1,0,0:0:0:0:
192,192,151120,128,0,151581:0:0:0:0:
64,192,151120,1,0,0:0:0:0:
320,192,151350,1,0,0:0:0:0:
64,192,151581,128,0,152043:0:0:0:0:
448,192,151581,1,0,0:0:0:0:
320,192,151812,1,0,0:0:0:0:
448,192,151927,1,0,0:0:0:0:
320,192,151985,1,0,0:0:0:0:
192,192,152043,1,0,0:0:0:0:
448,192,152043,128,0,152504:0:0:0:0:
64,192,152273,1,0,0:0:0:0:
320,192,152504,1,0,0:0:0:0:
192,192,152504,128,0,152562:0:0:0:0:
320,192,152735,128,0,152966:0:0:0:0:
64,192,152735,1,0,0:0:0:0:
448,192,152966,1,0,0:0:0:0:
192,192,152966,1,0,0:0:0:0:
192,192,153196,1,0,0:0:0:0:
64,192,153196,128,0,153254:0:0:0:0:
448,192,153427,1,0,0:0:0:0:
320,192,153427,128,0,153658:0:0:0:0:
192,192,153658,1,0,0:0:0:0:
448,192,153716,1,0,0:0:0:0:
64,192,153773,1,0,0:0:0:0:
320,192,153831,1,0,0:0:0:0:
192,192,153889,1,0,0:0:0:0:
64,192,153889,1,0,0:0:0:0:
448,192,153889,1,0,0:0:0:0:
64,192,154120,1,0,0:0:0:0:
448,192,154350,128,0,154812:0:0:0:0:
320,192,154350,1,0,0:0:0:0:
192,192,154350,1,0,0:0:0:0:
64,192,154581,1,0,0:0:0:0:
320,192,154812,128,0,155273:0:0:0:0:
192,192,154812,1,0,0:0:0:0:
448,192,155043,1,0,0:0:0:0:
192,192,155273,128,0,155735:0:0:0:0:
448,192,155273,1,0,0:0:0:0:
64,192,155504,1,0,0:0:0:0:
64,192,155735,1,0,0:0:0:0:
320,192,155735,1,0,0:0:0:0:
448,192,155850,1,0,0:0:0:0:
320,192,155966,1,0,0:0:0:0:
192,192,155966,1,0,0:0:0:0:
64,192,155966,1,0,0:0:0:0:
64,192,156081,1,0,0:0:0:0:
192,192,156196,1,0,0:0:0:0:
448,192,156196,1,0,0:0:0:0:
320,192,156196,1,0,0:0:0:0:
192,192,156312,1,0,0:0:0:0:
320,192,156427,1,0,0:0:0:0:
448,192,156427,1,0,0:0:0:0:
64,192,156427,1,0,0:0:0:0:
448,192,156543,1,0,0:0:0:0:
192,192,156658,1,0,0:0:0:0:
64,192,156658,1,0,0:0:0:0:
320,192,156658,1,0,0:0:0:0:
64,192,156773,1,0,0:0:0:0:
192,192,156889,1,0,0:0:0:0:
320,192,156889,1,0,0:0:0:0:
448,192,156889,1,0,0:0:0:0:
192,192,157004,1,0,0:0:0:0:
448,192,157120,1,0,0:0:0:0:
320,192,157120,1,0,0:0:0:0:
64,192,157120,1,0,0:0:0:0:
448,192,157235,1,0,0:0:0:0:
320,192,157350,1,0,0:0:0:0:
192,192,157350,1,0,0:0:0:0:
64,192,157350,1,0,0:0:0:0:
320,192,157466,1,0,0:0:0:0:
64,192,157581,1,0,0:0:0:0:
192,192,157581,1,0,0:0:0:0:
448,192,157581,1,0,0:0:0:0:
320,192,157658,1,0,0:0:0:0:
192,192,157735,1,0,0:0:0:0:
448,192,157812,1,0,0:0:0:0:
64,192,157812,1,0,0:0:0:0:
192,192,157889,1,0,0:0:0:0:
320,192,157966,1,0,0:0:0:0:
192,192,158043,1,0,0:0:0:0:
64,192,158043,1,0,0:0:0:0:
448,192,158120,1,0,0:0:0:0:
192,192,158196,1,0,0:0:0:0:
64,192,158273,1,0,0:0:0:0:
320,192,158273,1,0,0:0:0:0:
192,192,158350,1,0,0:0:0:0:
320,192,158427,1,0,0:0:0:0:
64,192,158504,1,0,0:0:0:0:
448,192,158504,1,0,0:0:0:0:
192,192,158581,1,0,0:0:0:0:
320,192,158658,1,0,0:0:0:0:
64,192,158735,1,0,0:0:0:0:
192,192,158735,1,0,0:0:0:0:
448,192,158812,1,0,0:0:0:0:
320,192,158889,1,0,0:0:0:0:
64,192,158966,1,0,0:0:0:0:
192,192,158966,1,0,0:0:0:0:
320,192,159081,1,0,0:0:0:0:
448,192,159081,1,0,0:0:0:0:
64,192,159196,1,0,0:0:0:0:
192,192,159196,1,0,0:0:0:0:
320,192,159312,1,0,0:0:0:0:
448,192,159312,1,0,0:0:0:0:
448,192,159427,1,0,0:0:0:0:
64,192,159427,1,0,0:0:0:0:
192,192,159427,1,0,0:0:0:0:
320,192,159543,1,0,0:0:0:0:
192,192,159658,1,0,0:0:0:0:
64,192,159773,1,0,0:0:0:0:
192,192,159889,1,0,0:0:0:0:
320,192,159889,1,0,0:0:0:0:
448,192,159889,1,0,0:0:0:0:
64,192,160004,1,0,0:0:0:0:
192,192,160120,1,0,0:0:0:0:
320,192,160235,1,0,0:0:0:0:
192,192,160350,1,0,0:0:0:0:
64,192,160350,1,0,0:0:0:0:
448,192,160466,1,0,0:0:0:0:
320,192,160581,1,0,0:0:0:0:
192,192,160696,1,0,0:0:0:0:
448,192,160812,1,0,0:0:0:0:
64,192,160812,1,0,0:0:0:0:
320,192,160812,1,0,0:0:0:0:
192,192,160927,1,0,0:0:0:0:
320,192,161043,1,0,0:0:0:0:
448,192,161158,1,0,0:0:0:0:
192,192,161273,1,0,0:0:0:0:
320,192,161273,1,0,0:0:0:0:
64,192,161389,1,0,0:0:0:0:
192,192,161504,1,0,0:0:0:0:
320,192,161620,1,0,0:0:0:0:
448,192,161735,1,0,0:0:0:0:
192,192,161735,1,0,0:0:0:0:
64,192,161735,1,0,0:0:0:0:
320,192,161850,1,0,0:0:0:0:
192,192,161966,1,0,0:0:0:0:
64,192,162081,1,0,0:0:0:0:
192,192,162196,1,0,0:0:0:0:
320,192,162196,1,0,0:0:0:0:
448,192,162312,1,0,0:0:0:0:
320,192,162427,1,0,0:0:0:0:
64,192,162427,1,0,0:0:0:0:
192,192,162543,1,0,0:0:0:0:
320,192,162658,1,0,0:0:0:0:
448,192,162658,1,0,0:0:0:0:
64,192,162658,1,0,0:0:0:0:
192,192,162773,1,0,0:0:0:0:
64,192,162773,1,0,0:0:0:0:
320,192,162889,1,0,0:0:0:0:
448,192,162889,1,0,0:0:0:0:
192,192,163004,1,0,0:0:0:0:
64,192,163120,1,0,0:0:0:0:
320,192,163120,1,0,0:0:0:0:
448,192,163120,1,0,0:0:0:0:
192,192,163235,1,0,0:0:0:0:
320,192,163350,1,0,0:0:0:0:
448,192,163466,1,0,0:0:0:0:
320,192,163581,1,0,0:0:0:0:
192,192,163581,1,0,0:0:0:0:
64,192,163581,1,0,0:0:0:0:
448,192,163696,1,0,0:0:0:0:
320,192,163812,1,0,0:0:0:0:
192,192,163927,1,0,0:0:0:0:
64,192,164043,1,0,0:0:0:0:
448,192,164043,1,0,0:0:0:0:
192,192,164158,1,0,0:0:0:0:
320,192,164273,1,0,0:0:0:0:
448,192,164389,1,0,0:0:0:0:
64,192,164504,1,0,0:0:0:0:
192,192,164504,1,0,0:0:0:0:
320,192,164504,1,0,0:0:0:0:
448,192,164620,1,0,0:0:0:0:
320,192,164735,1,0,0:0:0:0:
192,192,164850,1,0,0:0:0:0:
64,192,164966,1,0,0:0:0:0:
448,192,164966,1,0,0:0:0:0:
192,192,165081,1,0,0:0:0:0:
320,192,165196,1,0,0:0:0:0:
448,192,165196,1,0,0:0:0:0:
192,192,165312,1,0,0:0:0:0:
320,192,165427,1,0,0:0:0:0:
64,192,165427,1,0,0:0:0:0:
448,192,165427,1,0,0:0:0:0:
192,192,165543,1,0,0:0:0:0:
320,192,165658,1,0,0:0:0:0:
64,192,165658,1,0,0:0:0:0:
448,192,165773,1,0,0:0:0:0:
192,192,165889,1,0,0:0:0:0:
320,192,165889,1,0,0:0:0:0:
64,192,166004,1,0,0:0:0:0:
192,192,166120,1,0,0:0:0:0:
448,192,166120,1,0,0:0:0:0:
320,192,166235,1,0,0:0:0:0:
192,192,166350,1,0,0:0:0:0:
64,192,166350,1,0,0:0:0:0:
448,192,166350,1,0,0:0:0:0:
320,192,166466,1,0,0:0:0:0:
448,192,166581,1,0,0:0:0:0:
64,192,166581,1,0,0:0:0:0:
192,192,166696,1,0,0:0:0:0:
320,192,166812,1,0,0:0:0:0:
448,192,166812,1,0,0:0:0:0:
64,192,166812,1,0,0:0:0:0:
192,192,166927,1,0,0:0:0:0:
320,192,167043,1,0,0:0:0:0:
448,192,167158,1,0,0:0:0:0:
320,192,167273,1,0,0:0:0:0:
192,192,167273,1,0,0:0:0:0:
64,192,167273,1,0,0:0:0:0:
448,192,167389,1,0,0:0:0:0:
320,192,167504,1,0,0:0:0:0:
64,192,167620,1,0,0:0:0:0:
320,192,167735,1,0,0:0:0:0:
192,192,167735,1,0,0:0:0:0:
448,192,167850,1,0,0:0:0:0:
320,192,167966,1,0,0:0:0:0:
192,192,168081,1,0,0:0:0:0:
320,192,168196,1,0,0:0:0:0:
64,192,168196,1,0,0:0:0:0:
448,192,168196,1,0,0:0:0:0:
192,192,168312,1,0,0:0:0:0:
320,192,168427,1,0,0:0:0:0:
448,192,168543,1,0,0:0:0:0:
64,192,168658,1,0,0:0:0:0:
320,192,168658,1,0,0:0:0:0:
192,192,168773,1,0,0:0:0:0:
320,192,168889,1,0,0:0:0:0:
448,192,169004,1,0,0:0:0:0:
320,192,169120,1,0,0:0:0:0:
64,192,169120,1,0,0:0:0:0:
192,192,169120,1,0,0:0:0:0:
448,192,169235,1,0,0:0:0:0:
320,192,169350,1,0,0:0:0:0:
192,192,169466,1,0,0:0:0:0:
320,192,169581,1,0,0:0:0:0:
448,192,169581,1,0,0:0:0:0:
64,192,169696,1,0,0:0:0:0:
192,192,169812,1,0,0:0:0:0:
320,192,169927,1,0,0:0:0:0:
192,192,170043,1,0,0:0:0:0:
64,192,170043,1,0,0:0:0:0:
448,192,170043,1,0,0:0:0:0:
320,192,170158,1,0,0:0:0:0:
192,192,170273,1,0,0:0:0:0:
64,192,170389,1,0,0:0:0:0:
192,192,170504,1,0,0:0:0:0:
320,192,170504,1,0,0:0:0:0:
448,192,170504,1,0,0:0:0:0:
64,192,170620,1,0,0:0:0:0:
192,192,170735,1,0,0:0:0:0:
320,192,170850,1,0,0:0:0:0:
192,192,170966,1,0,0:0:0:0:
64,192,170966,1,0,0:0:0:0:
448,192,170966,1,0,0:0:0:0:
320,192,171081,1,0,0:0:0:0:
192,192,171196,1,0,0:0:0:0:
64,192,171312,1,0,0:0:0:0:
320,192,171427,1,0,0:0:0:0:
448,192,171427,1,0,0:0:0:0:
192,192,171543,1,0,0:0:0:0:
320,192,171658,1,0,0:0:0:0:
448,192,171773,1,0,0:0:0:0:
320,192,171889,1,0,0:0:0:0:
192,192,171889,1,0,0:0:0:0:
64,192,171889,1,0,0:0:0:0:
448,192,172004,1,0,0:0:0:0:
320,192,172120,1,0,0:0:0:0:
192,192,172235,1,0,0:0:0:0:
64,192,172350,1,0,0:0:0:0:
448,192,172350,1,0,0:0:0:0:
320,192,172466,1,0,0:0:0:0:
192,192,172581,1,0,0:0:0:0:
448,192,172581,1,0,0:0:0:0:
64,192,172696,1,0,0:0:0:0:
320,192,172812,1,0,0:0:0:0:
192,192,172812,1,0,0:0:0:0:
448,192,172812,1,0,0:0:0:0:
64,192,172927,1,0,0:0:0:0:
192,192,173043,1,0,0:0:0:0:
320,192,173158,1,0,0:0:0:0:
448,192,173273,1,0,0:0:0:0:
64,192,173273,1,0,0:0:0:0:
192,192,173389,1,0,0:0:0:0:
320,192,173504,1,0,0:0:0:0:
192,192,173620,1,0,0:0:0:0:
320,192,173735,1,0,0:0:0:0:
448,192,173735,1,0,0:0:0:0:
64,192,173735,1,0,0:0:0:0:
64,192,173850,1,0,0:0:0:0:
192,192,173850,1,0,0:0:0:0:
320,192,173966,1,0,0:0:0:0:
448,192,173966,1,0,0:0:0:0:
192,192,174081,1,0,0:0:0:0:
64,192,174196,1,0,0:0:0:0:
448,192,174196,1,0,0:0:0:0:
320,192,174196,1,0,0:0:0:0:
192,192,174312,1,0,0:0:0:0:
320,192,174427,1,0,0:0:0:0:
448,192,174543,1,0,0:0:0:0:
320,192,174658,1,0,0:0:0:0:
192,192,174658,1,0,0:0:0:0:
64,192,174658,1,0,0:0:0:0:
448,192,174773,1,0,0:0:0:0:
320,192,174889,1,0,0:0:0:0:
192,192,175004,1,0,0:0:0:0:
320,192,175120,1,0,0:0:0:0:
448,192,175120,1,0,0:0:0:0:
64,192,175235,1,0,0:0:0:0:
192,192,175350,1,0,0:0:0:0:
320,192,175466,1,0,0:0:0:0:
192,192,175581,1,0,0:0:0:0:
64,192,175581,1,0,0:0:0:0:
448,192,175581,1,0,0:0:0:0:
320,192,175696,1,0,0:0:0:0:
192,192,175812,1,0,0:0:0:0:
64,192,175927,1,0,0:0:0:0:
192,192,176043,1,0,0:0:0:0:
320,192,176043,1,0,0:0:0:0:
448,192,176158,1,0,0:0:0:0:
320,192,176273,1,0,0:0:0:0:
192,192,176389,1,0,0:0:0:0:
64,192,176504,1,0,0:0:0:0:
320,192,176504,1,0,0:0:0:0:
448,192,176504,1,0,0:0:0:0:
192,192,176620,1,0,0:0:0:0:
320,192,176735,1,0,0:0:0:0:
448,192,176850,1,0,0:0:0:0:
64,192,176966,1,0,0:0:0:0:
320,192,176966,1,0,0:0:0:0:
448,192,177081,1,0,0:0:0:0:
320,192,177196,1,0,0:0:0:0:
64,192,177196,1,0,0:0:0:0:
192,192,177312,1,0,0:0:0:0:
320,192,177427,1,0,0:0:0:0:
448,192,177427,1,0,0:0:0:0:
64,192,177427,1,0,0:0:0:0:
192,192,177543,1,0,0:0:0:0:
64,192,177543,1,0,0:0:0:0:
320,192,177658,1,0,0:0:0:0:
448,192,177658,1,0,0:0:0:0:
192,192,177773,1,0,0:0:0:0:
64,192,177889,1,0,0:0:0:0:
320,192,177889,1,0,0:0:0:0:
448,192,177889,1,0,0:0:0:0:
192,192,178004,1,0,0:0:0:0:
320,192,178120,1,0,0:0:0:0:
448,192,178235,1,0,0:0:0:0:
320,192,178350,1,0,0:0:0:0:
192,192,178350,1,0,0:0:0:0:
64,192,178350,1,0,0:0:0:0:
448,192,178466,1,0,0:0:0:0:
320,192,178581,1,0,0:0:0:0:
192,192,178696,1,0,0:0:0:0:
64,192,178812,1,0,0:0:0:0:
448,192,178812,1,0,0:0:0:0:
192,192,178927,1,0,0:0:0:0:
320,192,179043,1,0,0:0:0:0:
448,192,179158,1,0,0:0:0:0:
320,192,179273,1,0,0:0:0:0:
192,192,179273,1,0,0:0:0:0:
64,192,179273,1,0,0:0:0:0:
448,192,179389,1,0,0:0:0:0:
320,192,179504,1,0,0:0:0:0:
192,192,179620,1,0,0:0:0:0:
64,192,179735,1,0,0:0:0:0:
320,192,179735,1,0,0:0:0:0:
448,192,179850,1,0,0:0:0:0:
320,192,179966,1,0,0:0:0:0:
192,192,180081,1,0,0:0:0:0:
64,192,180196,1,0,0:0:0:0:
320,192,180196,1,0,0:0:0:0:
448,192,180196,1,0,0:0:0:0:
192,192,180312,1,0,0:0:0:0:
320,192,180427,1,0,0:0:0:0:
448,192,180427,1,0,0:0:0:0:
192,192,180543,1,0,0:0:0:0:
320,192,180658,1,0,0:0:0:0:
64,192,180658,1,0,0:0:0:0:
448,192,180773,1,0,0:0:0:0:
192,192,180889,1,0,0:0:0:0:
64,192,180889,1,0,0:0:0:0:
320,192,181004,1,0,0:0:0:0:
448,192,181004,1,0,0:0:0:0:
192,192,181120,1,0,0:0:0:0:
448,192,181120,1,0,0:0:0:0:
64,192,181120,1,0,0:0:0:0:
320,192,181235,1,0,0:0:0:0:
448,192,181350,1,0,0:0:0:0:
64,192,181350,1,0,0:0:0:0:
320,192,181466,1,0,0:0:0:0:
192,192,181581,1,0,0:0:0:0:
448,192,181581,1,0,0:0:0:0:
64,192,181581,1,0,0:0:0:0:
320,192,181696,1,0,0:0:0:0:
192,192,181812,1,0,0:0:0:0:
64,192,181927,1,0,0:0:0:0:
192,192,182043,1,0,0:0:0:0:
320,192,182043,1,0,0:0:0:0:
448,192,182043,1,0,0:0:0:0:
64,192,182158,1,0,0:0:0:0:
192,192,182273,1,0,0:0:0:0:
320,192,182389,1,0,0:0:0:0:
448,192,182504,1,0,0:0:0:0:
192,192,182504,1,0,0:0:0:0:
64,192,182620,1,0,0:0:0:0:
192,192,182735,1,0,0:0:0:0:
320,192,182850,1,0,0:0:0:0:
448,192,182966,1,0,0:0:0:0:
192,192,182966,1,0,0:0:0:0:
64,192,182966,1,0,0:0:0:0:
320,192,183081,1,0,0:0:0:0:
192,192,183196,1,0,0:0:0:0:
64,192,183312,1,0,0:0:0:0:
192,192,183427,1,0,0:0:0:0:
320,192,183427,1,0,0:0:0:0:
448,192,183543,1,0,0:0:0:0:
320,192,183658,1,0,0:0:0:0:
192,192,183773,1,0,0:0:0:0:
64,192,183889,1,0,0:0:0:0:
448,192,183889,1,0,0:0:0:0:
320,192,183889,1,0,0:0:0:0:
192,192,184004,1,0,0:0:0:0:
320,192,184120,1,0,0:0:0:0:
448,192,184235,1,0,0:0:0:0:
192,192,184350,1,0,0:0:0:0:
64,192,184350,1,0,0:0:0:0:
320,192,184466,1,0,0:0:0:0:
192,192,184581,1,0,0:0:0:0:
64,192,184696,1,0,0:0:0:0:
192,192,184812,1,0,0:0:0:0:
320,192,184812,1,0,0:0:0:0:
448,192,184812,1,0,0:0:0:0:
64,192,184927,1,0,0:0:0:0:
192,192,185043,1,0,0:0:0:0:
320,192,185158,1,0,0:0:0:0:
448,192,185273,1,0,0:0:0:0:
192,192,185273,1,0,0:0:0:0:
64,192,185273,1,0,0:0:0:0:
320,192,185389,1,0,0:0:0:0:
192,192,185504,1,0,0:0:0:0:
64,192,185620,1,0,0:0:0:0:
192,192,185735,1,0,0:0:0:0:
320,192,185735,1,0,0:0:0:0:
448,192,185735,1,0,0:0:0:0:
64,192,185850,1,0,0:0:0:0:
192,192,185966,1,0,0:0:0:0:
320,192,186081,1,0,0:0:0:0:
192,192,186196,1,0,0:0:0:0:
64,192,186196,1,0,0:0:0:0:
448,192,186312,1,0,0:0:0:0:
320,192,186427,1,0,0:0:0:0:
192,192,186543,1,0,0:0:0:0:
64,192,186658,1,0,0:0:0:0:
320,192,186658,1,0,0:0:0:0:
448,192,186658,1,0,0:0:0:0:
192,192,186773,1,0,0:0:0:0:
320,192,186889,1,0,0:0:0:0:
448,192,187004,1,0,0:0:0:0:
320,192,187120,1,0,0:0:0:0:
192,192,187120,1,0,0:0:0:0:
64,192,187120,1,0,0:0:0:0:
448,192,187235,1,0,0:0:0:0:
320,192,187350,1,0,0:0:0:0:
192,192,187466,1,0,0:0:0:0:
64,192,187581,1,0,0:0:0:0:
320,192,187581,1,0,0:0:0:0:
448,192,187581,1,0,0:0:0:0:
192,192,187696,1,0,0:0:0:0:
64,192,187696,1,0,0:0:0:0:
320,192,187812,1,0,0:0:0:0:
448,192,187812,1,0,0:0:0:0:
192,192,187927,1,0,0:0:0:0:
320,192,188043,1,0,0:0:0:0:
64,192,188043,1,0,0:0:0:0:
448,192,188158,1,0,0:0:0:0:
320,192,188273,1,0,0:0:0:0:
192,192,188389,1,0,0:0:0:0:
64,192,188504,1,0,0:0:0:0:
320,192,188504,1,0,0:0:0:0:
448,192,188504,1,0,0:0:0:0:
192,192,188620,1,0,0:0:0:0:
320,192,188735,1,0,0:0:0:0:
448,192,188850,1,0,0:0:0:0:
64,192,188966,1,0,0:0:0:0:
192,192,188966,1,0,0:0:0:0:
320,192,188966,1,0,0:0:0:0:
192,192,189196,1,0,0:0:0:0:
64,192,189196,1,0,0:0:0:0:
448,192,189196,1,0,0:0:0:0:
192,192,189427,1,0,0:0:0:0:
320,192,189427,1,0,0:0:0:0:
448,192,189427,1,0,0:0:0:0:
320,192,189658,1,0,0:0:0:0:
64,192,189658,1,0,0:0:0:0:
192,192,189658,1,0,0:0:0:0:
320,192,189889,1,0,0:0:0:0:
448,192,189889,1,0,0:0:0:0:
64,192,189889,1,0,0:0:0:0:
192,192,190120,1,0,0:0:0:0:
64,192,190120,1,0,0:0:0:0:
448,192,190120,1,0,0:0:0:0:
192,192,190350,1,0,0:0:0:0:
320,192,190350,1,0,0:0:0:0:
448,192,190350,1,0,0:0:0:0:
192,192,190581,1,0,0:0:0:0:
64,192,190581,1,0,0:0:0:0:
448,192,190658,1,0,0:0:0:0:
320,192,190658,1,0,0:0:0:0:
192,192,190735,1,0,0:0:0:0:
64,192,190735,1,0,0:0:0:0:
320,192,190812,128,0,191043:0:0:0:0:
448,192,190812,128,0,191043:0:0:0:0:
192,192,193120,132,0,196350:0:0:0:0:
320,192,196350,5,0,0:0:0:0:
448,192,196350,128,0,197043:0:0:0:0:
64,192,196350,128,0,197043:0:0:0:0:
320,192,196581,1,0,0:0:0:0:
192,192,196696,1,0,0:0:0:0:
320,192,196812,1,0,0:0:0:0:
192,192,197043,128,0,197735:0:0:0:0:
320,192,197273,128,0,197735:0:0:0:0:
448,192,197273,1,0,0:0:0:0:
448,192,197504,1,0,0:0:0:0:
448,192,197735,1,0,0:0:0:0:
64,192,197735,128,0,198427:0:0:0:0:
320,192,197966,1,0,0:0:0:0:
320,192,198196,1,0,0:0:0:0:
192,192,198196,128,0,198427:0:0:0:0:
320,192,198427,1,0,0:0:0:0:
448,192,198427,128,0,199120:0:0:0:0:
320,192,198658,1,0,0:0:0:0:
192,192,198889,128,0,199120:0:0:0:0:
320,192,198889,1,0,0:0:0:0:
320,192,199120,1,0,0:0:0:0:
64,192,199120,128,0,199350:0:0:0:0:
448,192,199350,128,0,200273:0:0:0:0:
192,192,199350,1,0,0:0:0:0:
192,192,199581,1,0,0:0:0:0:
192,192,199812,1,0,0:0:0:0:
192,192,200043,1,0,0:0:0:0:
192,192,200273,1,0,0:0:0:0:
320,192,200504,1,0,0:0:0:0:
448,192,200504,1,0,0:0:0:0:
64,192,200620,1,0,0:0:0:0:
192,192,200677,1,0,0:0:0:0:
448,192,200735,1,0,0:0:0:0:
320,192,200735,1,0,0:0:0:0:
192,192,200793,1,0,0:0:0:0:
64,192,200793,1,0,0:0:0:0:
320,192,200850,1,0,0:0:0:0:
448,192,200908,1,0,0:0:0:0:
192,192,200966,1,0,0:0:0:0:
64,192,201023,1,0,0:0:0:0:
320,192,201081,1,0,0:0:0:0:
448,192,201139,1,0,0:0:0:0:
192,192,201196,1,0,0:0:0:0:
64,192,201196,1,0,0:0:0:0:
320,192,201254,1,0,0:0:0:0:
448,192,201254,1,0,0:0:0:0:
192,192,201312,1,0,0:0:0:0:
320,192,201370,1,0,0:0:0:0:
448,192,201427,1,0,0:0:0:0:
64,192,201485,1,0,0:0:0:0:
320,192,201543,1,0,0:0:0:0:
192,192,201600,1,0,0:0:0:0:
448,192,201658,1,0,0:0:0:0:
64,192,201773,1,0,0:0:0:0:
320,192,201831,1,0,0:0:0:0:
192,192,201889,1,0,0:0:0:0:
448,192,201889,128,0,203043:0:0:0:0:
64,192,202120,1,0,0:0:0:0:
320,192,202235,1,0,0:0:0:0:
64,192,202350,1,0,0:0:0:0:
64,192,202581,1,0,0:0:0:0:
320,192,202581,128,0,203043:0:0:0:0:
64,192,202812,1,0,0:0:0:0:
192,192,203043,128,0,203273:0:0:0:0:
64,192,203043,1,0,0:0:0:0:
64,192,203273,128,0,203966:0:0:0:0:
320,192,203273,1,0,0:0:0:0:
320,192,203504,1,0,0:0:0:0:
192,192,203735,128,0,203966:0:0:0:0:
320,192,203735,1,0,0:0:0:0:
448,192,203966,128,0,204658:0:0:0:0:
320,192,203966,1,0,0:0:0:0:
192,192,204196,1,0,0:0:0:0:
320,192,204427,128,0,204658:0:0:0:0:
192,192,204427,1,0,0:0:0:0:
192,192,204658,1,0,0:0:0:0:
64,192,204658,128,0,204889:0:0:0:0:
448,192,204889,128,0,205120:0:0:0:0:
320,192,204889,1,0,0:0:0:0:
192,192,205120,128,0,205350:0:0:0:0:
64,192,205120,1,0,0:0:0:0:
320,192,205350,128,0,205812:0:0:0:0:
448,192,205350,1,0,0:0:0:0:
448,192,205581,1,0,0:0:0:0:
448,192,205812,1,0,0:0:0:0:
64,192,206043,1,0,0:0:0:0:
192,192,206043,1,0,0:0:0:0:
320,192,206158,1,0,0:0:0:0:
192,192,206216,1,0,0:0:0:0:
320,192,206273,1,0,0:0:0:0:
448,192,206273,1,0,0:0:0:0:
64,192,206331,1,0,0:0:0:0:
192,192,206331,1,0,0:0:0:0:
320,192,206389,1,0,0:0:0:0:
448,192,206446,1,0,0:0:0:0:
192,192,206504,1,0,0:0:0:0:
320,192,206562,1,0,0:0:0:0:
64,192,206620,1,0,0:0:0:0:
192,192,206677,1,0,0:0:0:0:
448,192,206735,1,0,0:0:0:0:
320,192,206735,1,0,0:0:0:0:
192,192,206793,1,0,0:0:0:0:
64,192,206793,1,0,0:0:0:0:
320,192,206850,1,0,0:0:0:0:
448,192,206908,1,0,0:0:0:0:
64,192,206966,1,0,0:0:0:0:
320,192,207023,1,0,0:0:0:0:
192,192,207081,1,0,0:0:0:0:
64,192,207139,1,0,0:0:0:0:
448,192,207196,1,0,0:0:0:0:
320,192,207254,1,0,0:0:0:0:
192,192,207312,1,0,0:0:0:0:
64,192,207312,1,0,0:0:0:0:
320,192,207370,1,0,0:0:0:0:
448,192,207370,1,0,0:0:0:0:
64,192,207427,128,0,208350:0:0:0:0:
192,192,207427,1,0,0:0:0:0:
320,192,207658,1,0,0:0:0:0:
320,192,207889,1,0,0:0:0:0:
192,192,208120,128,0,208350:0:0:0:0:
320,192,208120,1,0,0:0:0:0:
448,192,208350,128,0,208581:0:0:0:0:
320,192,208350,1,0,0:0:0:0:
320,192,208581,128,0,208812:0:0:0:0:
64,192,208581,1,0,0:0:0:0:
192,192,208812,128,0,209504:0:0:0:0:
64,192,208812,1,0,0:0:0:0:
64,192,209043,1,0,0:0:0:0:
320,192,209273,128,0,209735:0:0:0:0:
64,192,209273,1,0,0:0:0:0:
448,192,209504,128,0,209735:0:0:0:0:
64,192,209504,1,0,0:0:0:0:
64,192,209735,128,0,210196:0:0:0:0:
192,192,209735,1,0,0:0:0:0:
320,192,209966,1,0,0:0:0:0:
192,192,210196,128,0,211120:0:0:0:0:
320,192,210196,1,0,0:0:0:0:
448,192,210427,1,0,0:0:0:0:
64,192,210427,1,0,0:0:0:0:
448,192,210658,1,0,0:0:0:0:
64,192,210658,1,0,0:0:0:0:
64,192,210889,1,0,0:0:0:0:
448,192,210889,1,0,0:0:0:0:
320,192,211120,128,0,211350:0:0:0:0:
448,192,211120,1,0,0:0:0:0:
64,192,211120,1,0,0:0:0:0:
448,192,211350,128,0,211581:0:0:0:0:
64,192,211350,1,0,0:0:0:0:
192,192,211350,1,0,0:0:0:0:
64,192,211581,128,0,212966:0:0:0:0:
192,192,211581,1,0,0:0:0:0:
320,192,211581,1,0,0:0:0:0:
320,192,211812,1,0,0:0:0:0:
448,192,211812,1,0,0:0:0:0:
320,192,212043,1,0,0:0:0:0:
448,192,212043,1,0,0:0:0:0:
320,192,212273,1,0,0:0:0:0:
448,192,212273,1,0,0:0:0:0:
320,192,212504,1,0,0:0:0:0:
448,192,212504,1,0,0:0:0:0:
320,192,212735,1,0,0:0:0:0:
448,192,212735,1,0,0:0:0:0:
448,192,212966,1,0,0:0:0:0:
320,192,212966,1,0,0:0:0:0:
192,192,212966,128,0,213889:0:0:0:0:
448,192,213196,1,0,0:0:0:0:
64,192,213196,1,0,0:0:0:0:
320,192,213254,1,0,0:0:0:0:
448,192,213312,1,0,0:0:0:0:
64,192,213370,1,0,0:0:0:0:
320,192,213427,1,0,0:0:0:0:
448,192,213427,1,0,0:0:0:0:
320,192,213658,1,0,0:0:0:0:
64,192,213716,1,0,0:0:0:0:
320,192,213773,1,0,0:0:0:0:
64,192,213831,1,0,0:0:0:0:
448,192,213889,128,0,214120:0:0:0:0:
320,192,213889,1,0,0:0:0:0:
64,192,214120,128,0,214235:0:0:0:0:
192,192,214235,128,0,214350:0:0:0:0:
320,192,214350,128,0,214427:0:0:0:0:
448,192,214427,128,0,214504:0:0:0:0:
192,192,214504,128,0,214581:0:0:0:0:
320,192,214581,128,0,214658:0:0:0:0:
64,192,214658,128,0,214735:0:0:0:0:
448,192,214735,128,0,214812:0:0:0:0:
320,192,214812,128,0,215735:0:0:0:0:
192,192,214812,1,0,0:0:0:0:
192,192,215043,1,0,0:0:0:0:
64,192,215158,1,0,0:0:0:0:
192,192,215273,1,0,0:0:0:0:
64,192,215273,1,0,0:0:0:0:
448,192,215389,1,0,0:0:0:0:
192,192,215504,1,0,0:0:0:0:
64,192,215620,1,0,0:0:0:0:
448,192,215735,1,0,0:0:0:0:
192,192,215735,128,0,215966:0:0:0:0:
64,192,215850,1,0,0:0:0:0:
448,192,215966,128,0,216081:0:0:0:0:
320,192,215966,1,0,0:0:0:0:
320,192,216081,128,0,216196:0:0:0:0:
192,192,216196,128,0,216273:0:0:0:0:
64,192,216273,128,0,216350:0:0:0:0:
320,192,216350,128,0,216427:0:0:0:0:
192,192,216427,128,0,216504:0:0:0:0:
448,192,216504,128,0,216581:0:0:0:0:
64,192,216581,128,0,216658:0:0:0:0:
320,192,216658,128,0,217581:0:0:0:0:
192,192,216658,1,0,0:0:0:0:
192,192,216889,1,0,0:0:0:0:
64,192,216946,1,0,0:0:0:0:
192,192,217004,1,0,0:0:0:0:
448,192,217062,1,0,0:0:0:0:
64,192,217120,1,0,0:0:0:0:
192,192,217120,1,0,0:0:0:0:
64,192,217350,1,0,0:0:0:0:
448,192,217408,1,0,0:0:0:0:
192,192,217466,1,0,0:0:0:0:
64,192,217523,1,0,0:0:0:0:
192,192,217581,1,0,0:0:0:0:
448,192,217581,128,0,218043:0:0:0:0:
320,192,217812,1,0,0:0:0:0:
192,192,217870,1,0,0:0:0:0:
64,192,217927,1,0,0:0:0:0:
192,192,217985,1,0,0:0:0:0:
320,192,218043,1,0,0:0:0:0:
64,192,218043,128,0,218562:0:0:0:0:
320,192,218273,1,0,0:0:0:0:
448,192,218504,1,0,0:0:0:0:
192,192,218562,128,0,219139:0:0:0:0:
64,192,218735,1,0,0:0:0:0:
320,192,218850,1,0,0:0:0:0:
448,192,218966,1,0,0:0:0:0:
320,192,218966,1,0,0:0:0:0:
64,192,219081,1,0,0:0:0:0:
320,192,219139,128,0,219312:0:0:0:0:
448,192,219196,1,0,0:0:0:0:
64,192,219312,128,0,219427:0:0:0:0:
192,192,219312,1,0,0:0:0:0:
448,192,219427,128,0,219543:0:0:0:0:
320,192,219427,1,0,0:0:0:0:
192,192,219543,128,0,219658:0:0:0:0:
320,192,219543,1,0,0:0:0:0:
64,192,219658,128,0,219773:0:0:0:0:
448,192,219658,1,0,0:0:0:0:
320,192,219773,128,0,219889:0:0:0:0:
192,192,219773,1,0,0:0:0:0:
448,192,219889,1,0,0:0:0:0:
192,192,219889,128,0,220004:0:0:0:0:
64,192,220004,128,0,220062:0:0:0:0:
448,192,220004,1,0,0:0:0:0:
320,192,220062,128,0,220120:0:0:0:0:
448,192,220120,128,0,220177:0:0:0:0:
192,192,220177,128,0,220235:0:0:0:0:
64,192,220350,128,0,221043:0:0:0:0:
320,192,220350,1,0,0:0:0:0:
448,192,220350,1,0,0:0:0:0:
192,192,220581,1,0,0:0:0:0:
448,192,220639,1,0,0:0:0:0:
320,192,220696,1,0,0:0:0:0:
192,192,220754,1,0,0:0:0:0:
448,192,220812,1,0,0:0:0:0:
320,192,220812,1,0,0:0:0:0:
448,192,221043,128,0,221273:0:0:0:0:
192,192,221043,1,0,0:0:0:0:
320,192,221100,1,0,0:0:0:0:
192,192,221158,1,0,0:0:0:0:
64,192,221216,1,0,0:0:0:0:
192,192,221273,1,0,0:0:0:0:
320,192,221273,128,0,221735:0:0:0:0:
448,192,221504,1,0,0:0:0:0:
192,192,221562,1,0,0:0:0:0:
64,192,221620,1,0,0:0:0:0:
448,192,221677,1,0,0:0:0:0:
192,192,221735,128,0,222196:0:0:0:0:
64,192,221735,1,0,0:0:0:0:
320,192,221966,1,0,0:0:0:0:
448,192,222196,128,0,222543:0:0:0:0:
64,192,222196,1,0,0:0:0:0:
320,192,222427,1,0,0:0:0:0:
64,192,222543,128,0,222831:0:0:0:0:
192,192,222543,1,0,0:0:0:0:
320,192,222658,1,0,0:0:0:0:
448,192,222658,1,0,0:0:0:0:
320,192,222773,1,0,0:0:0:0:
192,192,222831,128,0,223120:0:0:0:0:
448,192,222889,1,0,0:0:0:0:
64,192,223004,1,0,0:0:0:0:
448,192,223120,128,0,223581:0:0:0:0:
320,192,223120,1,0,0:0:0:0:
64,192,223235,1,0,0:0:0:0:
320,192,223350,128,0,223466:0:0:0:0:
192,192,223350,1,0,0:0:0:0:
192,192,223466,128,0,223581:0:0:0:0:
64,192,223466,1,0,0:0:0:0:
320,192,223581,1,0,0:0:0:0:
64,192,223581,128,0,223870:0:0:0:0:
192,192,223696,1,0,0:0:0:0:
320,192,223812,1,0,0:0:0:0:
192,192,223927,1,0,0:0:0:0:
448,192,224043,128,0,224504:0:0:0:0:
320,192,224043,1,0,0:0:0:0:
64,192,224043,1,0,0:0:0:0:
192,192,224158,1,0,0:0:0:0:
320,192,224273,1,0,0:0:0:0:
64,192,224389,1,0,0:0:0:0:
192,192,224504,128,0,224966:0:0:0:0:
320,192,224504,1,0,0:0:0:0:
64,192,224620,1,0,0:0:0:0:
448,192,224735,1,0,0:0:0:0:
64,192,224850,1,0,0:0:0:0:
448,192,224966,1,0,0:0:0:0:
320,192,224966,128,0,225427:0:0:0:0:
64,192,225081,1,0,0:0:0:0:
192,192,225196,1,0,0:0:0:0:
448,192,225312,1,0,0:0:0:0:
64,192,225427,128,0,225889:0:0:0:0:
192,192,225427,1,0,0:0:0:0:
448,192,225543,1,0,0:0:0:0:
192,192,225658,1,0,0:0:0:0:
320,192,225773,1,0,0:0:0:0:
192,192,225889,1,0,0:0:0:0:
448,192,225889,128,0,226235:0:0:0:0:
320,192,226004,1,0,0:0:0:0:
64,192,226120,1,0,0:0:0:0:
320,192,226235,1,0,0:0:0:0:
192,192,226235,128,0,226523:0:0:0:0:
448,192,226350,1,0,0:0:0:0:
64,192,226466,1,0,0:0:0:0:
320,192,226523,128,0,226696:0:0:0:0:
448,192,226581,1,0,0:0:0:0:
64,192,226696,1,0,0:0:0:0:
192,192,226812,1,0,0:0:0:0:
320,192,226812,1,0,0:0:0:0:
448,192,226812,128,0,227273:0:0:0:0:
64,192,226927,1,0,0:0:0:0:
192,192,226927,1,0,0:0:0:0:
320,192,227043,1,0,0:0:0:0:
192,192,227043,1,0,0:0:0:0:
64,192,227158,1,0,0:0:0:0:
192,192,227158,1,0,0:0:0:0:
320,192,227273,1,0,0:0:0:0:
192,192,227273,128,0,227735:0:0:0:0:
64,192,227389,1,0,0:0:0:0:
320,192,227389,1,0,0:0:0:0:
448,192,227504,1,0,0:0:0:0:
64,192,227504,1,0,0:0:0:0:
320,192,227620,1,0,0:0:0:0:
448,192,227620,1,0,0:0:0:0:
64,192,227735,128,0,227793:0:0:0:0:
320,192,227793,128,0,227850:0:0:0:0:
448,192,227850,128,0,227908:0:0:0:0:
64,192,227908,128,0,227966:0:0:0:0:
320,192,227966,128,0,228023:0:0:0:0:
448,192,228023,128,0,228081:0:0:0:0:
64,192,228081,128,0,228139:0:0:0:0:
320,192,228139,128,0,228196:0:0:0:0:
448,192,228196,128,0,228254:0:0:0:0:
64,192,228254,128,0,228312:0:0:0:0:
320,192,228312,128,0,228370:0:0:0:0:
448,192,228370,128,0,228427:0:0:0:0:
64,192,228427,128,0,228485:0:0:0:0:
320,192,228485,128,0,228543:0:0:0:0:
448,192,228543,128,0,228600:0:0:0:0:
64,192,228600,128,0,228658:0:0:0:0:
320,192,228658,128,0,228716:0:0:0:0:
448,192,228716,128,0,228773:0:0:0:0:
64,192,228773,128,0,228831:0:0:0:0:
320,192,228831,128,0,228889:0:0:0:0:
448,192,228889,128,0,228946:0:0:0:0:
64,192,228946,128,0,229004:0:0:0:0:
320,192,229004,128,0,229062:0:0:0:0:
448,192,229062,128,0,229120:0:0:0:0:
64,192,229120,128,0,229177:0:0:0:0:
192,192,229177,128,0,229235:0:0:0:0:
320,192,229235,128,0,229293:0:0:0:0:
448,192,229293,128,0,229350:0:0:0:0:
320,192,229350,128,0,229408:0:0:0:0:
192,192,229408,128,0,229466:0:0:0:0:
64,192,229466,128,0,229523:0:0:0:0:
448,192,229523,128,0,229581:0:0:0:0:
192,192,229581,128,0,229639:0:0:0:0:
64,192,229639,128,0,229696:0:0:0:0:
448,192,229696,128,0,229754:0:0:0:0:
192,192,229754,128,0,229812:0:0:0:0:
64,192,229812,128,0,229870:0:0:0:0:
448,192,229870,128,0,229927:0:0:0:0:
192,192,229927,128,0,229985:0:0:0:0:
64,192,229985,128,0,230043:0:0:0:0:
448,192,230043,128,0,230100:0:0:0:0:
192,192,230100,128,0,230158:0:0:0:0:
64,192,230158,128,0,230216:0:0:0:0:
448,192,230216,128,0,230273:0:0:0:0:
192,192,230273,128,0,230331:0:0:0:0:
64,192,230331,128,0,230389:0:0:0:0:
448,192,230389,128,0,230446:0:0:0:0:
192,192,230446,128,0,230504:0:0:0:0:
64,192,230504,128,0,230562:0:0:0:0:
448,192,230562,128,0,230620:0:0:0:0:
192,192,230620,128,0,230677:0:0:0:0:
64,192,230677,128,0,230735:0:0:0:0:
320,192,230735,128,0,230793:0:0:0:0:
448,192,230793,128,0,230850:0:0:0:0:
64,192,230850,128,0,230908:0:0:0:0:
192,192,230908,128,0,230966:0:0:0:0:
320,192,230966,128,0,231023:0:0:0:0:
448,192,231023,128,0,231081:0:0:0:0:
64,192,231081,128,0,231139:0:0:0:0:
192,192,231139,128,0,231196:0:0:0:0:
320,192,231196,128,0,231254:0:0:0:0:
448,192,231254,128,0,231312:0:0:0:0:
320,192,231312,128,0,231370:0:0:0:0:
192,192,231370,128,0,231427:0:0:0:0:
64,192,231427,128,0,231485:0:0:0:0:
448,192,231485,128,0,231543:0:0:0:0:
192,192,231543,128,0,231600:0:0:0:0:
320,192,231600,128,0,231658:0:0:0:0:
64,192,231658,128,0,231716:0:0:0:0:
448,192,231716,128,0,231773:0:0:0:0:
192,192,231773,128,0,231831:0:0:0:0:
320,192,231831,128,0,231889:0:0:0:0:
64,192,231889,128,0,231946:0:0:0:0:
448,192,231946,128,0,232004:0:0:0:0:
192,192,232004,128,0,232062:0:0:0:0:
320,192,232062,128,0,232120:0:0:0:0:
64,192,232120,128,0,232177:0:0:0:0:
448,192,232177,128,0,232235:0:0:0:0:
192,192,232235,128,0,232293:0:0:0:0:
320,192,232293,128,0,232350:0:0:0:0:
64,192,232350,128,0,232408:0:0:0:0:
448,192,232408,128,0,232466:0:0:0:0:
192,192,232466,128,0,232523:0:0:0:0:
320,192,232523,128,0,232581:0:0:0:0:
64,192,232581,128,0,232639:0:0:0:0:
192,192,232639,128,0,232696:0:0:0:0:
320,192,232696,128,0,232754:0:0:0:0:
448,192,232754,128,0,232812:0:0:0:0:
64,192,232812,128,0,232870:0:0:0:0:
192,192,232870,128,0,232927:0:0:0:0:
320,192,232927,128,0,232985:0:0:0:0:
448,192,232985,128,0,233043:0:0:0:0:
64,192,233043,128,0,233100:0:0:0:0:
192,192,233100,128,0,233273:0:0:0:0:
320,192,233273,128,0,233504:0:0:0:0:
64,192,233273,1,0,0:0:0:0:
192,192,233504,128,0,233966:0:0:0:0:
448,192,233504,1,0,0:0:0:0:
64,192,233620,1,0,0:0:0:0:
448,192,233735,1,0,0:0:0:0:
320,192,233735,1,0,0:0:0:0:
64,192,233793,1,0,0:0:0:0:
448,192,233966,128,0,234196:0:0:0:0:
320,192,233966,1,0,0:0:0:0:
192,192,234081,1,0,0:0:0:0:
64,192,234196,128,0,234658:0:0:0:0:
192,192,234196,1,0,0:0:0:0:
320,192,234196,1,0,0:0:0:0:
448,192,234312,1,0,0:0:0:0:
320,192,234427,1,0,0:0:0:0:
448,192,234543,1,0,0:0:0:0:
192,192,234658,128,0,235120:0:0:0:0:
448,192,234658,1,0,0:0:0:0:
320,192,234658,1,0,0:0:0:0:
64,192,234773,1,0,0:0:0:0:
320,192,234889,1,0,0:0:0:0:
64,192,235004,1,0,0:0:0:0:
448,192,235120,128,0,235235:0:0:0:0:
320,192,235120,1,0,0:0:0:0:
64,192,235235,128,0,235350:0:0:0:0:
320,192,235350,128,0,235466:0:0:0:0:
192,192,235350,1,0,0:0:0:0:
448,192,235408,1,0,0:0:0:0:
192,192,235466,128,0,235581:0:0:0:0:
64,192,235466,1,0,0:0:0:0:
448,192,235523,1,0,0:0:0:0:
320,192,235581,128,0,235696:0:0:0:0:
64,192,235581,1,0,0:0:0:0:
448,192,235696,128,0,235812:0:0:0:0:
64,192,235812,128,0,235927:0:0:0:0:
320,192,235812,1,0,0:0:0:0:
448,192,235870,1,0,0:0:0:0:
192,192,235927,128,0,236043:0:0:0:0:
320,192,235927,1,0,0:0:0:0:
448,192,235985,1,0,0:0:0:0:
320,192,236043,128,0,236158:0:0:0:0:
64,192,236043,1,0,0:0:0:0:
192,192,236158,128,0,236273:0:0:0:0:
64,192,236273,128,0,236389:0:0:0:0:
320,192,236273,1,0,0:0:0:0:
192,192,236331,1,0,0:0:0:0:
448,192,236389,128,0,236504:0:0:0:0:
320,192,236389,1,0,0:0:0:0:
192,192,236446,1,0,0:0:0:0:
64,192,236504,128,0,236620:0:0:0:0:
320,192,236504,1,0,0:0:0:0:
192,192,236620,128,0,236735:0:0:0:0:
448,192,236735,128,0,236850:0:0:0:0:
320,192,236735,1,0,0:0:0:0:
320,192,236850,128,0,236966:0:0:0:0:
448,192,236966,128,0,237081:0:0:0:0:
64,192,237081,128,0,237196:0:0:0:0:
192,192,237196,128,0,237312:0:0:0:0:
320,192,237196,1,0,0:0:0:0:
448,192,237312,128,0,237427:0:0:0:0:
64,192,237312,1,0,0:0:0:0:
320,192,237427,128,0,237543:0:0:0:0:
192,192,237427,1,0,0:0:0:0:
64,192,237543,128,0,237658:0:0:0:0:
448,192,237543,1,0,0:0:0:0:
192,192,237658,128,0,237773:0:0:0:0:
320,192,237658,1,0,0:0:0:0:
448,192,237773,128,0,237889:0:0:0:0:
64,192,237773,1,0,0:0:0:0:
320,192,237889,128,0,238350:0:0:0:0:
192,192,237889,1,0,0:0:0:0:
64,192,238004,1,0,0:0:0:0:
192,192,238120,1,0,0:0:0:0:
64,192,238235,1,0,0:0:0:0:
192,192,238350,128,0,238812:0:0:0:0:
448,192,238350,1,0,0:0:0:0:
320,192,238466,1,0,0:0:0:0:
448,192,238581,1,0,0:0:0:0:
320,192,238696,1,0,0:0:0:0:
448,192,238812,128,0,239273:0:0:0:0:
64,192,238812,1,0,0:0:0:0:
320,192,238812,1,0,0:0:0:0:
192,192,238927,1,0,0:0:0:0:
320,192,239043,1,0,0:0:0:0:
192,192,239158,1,0,0:0:0:0:
64,192,239273,128,0,239389:0:0:0:0:
320,192,239273,1,0,0:0:0:0:
192,192,239389,128,0,239504:0:0:0:0:
448,192,239389,1,0,0:0:0:0:
320,192,239504,1,0,0:0:0:0:
448,192,239504,128,0,239562:0:0:0:0:
64,192,239562,128,0,239620:0:0:0:0:
192,192,239620,128,0,239677:0:0:0:0:
320,192,239677,128,0,239735:0:0:0:0:
64,192,239735,128,0,240196:0:0:0:0:
192,192,239850,1,0,0:0:0:0:
320,192,239966,1,0,0:0:0:0:
192,192,240081,1,0,0:0:0:0:
448,192,240196,128,0,240312:0:0:0:0:
320,192,240196,1,0,0:0:0:0:
320,192,240312,128,0,240427:0:0:0:0:
64,192,240312,1,0,0:0:0:0:
192,192,240427,128,0,240543:0:0:0:0:
448,192,240427,1,0,0:0:0:0:
320,192,240543,1,0,0:0:0:0:
64,192,240543,128,0,240658:0:0:0:0:
448,192,240658,128,0,241120:0:0:0:0:
192,192,240658,1,0,0:0:0:0:
320,192,240773,1,0,0:0:0:0:
192,192,240889,1,0,0:0:0:0:
64,192,241004,1,0,0:0:0:0:
192,192,241120,128,0,241235:0:0:0:0:
320,192,241120,1,0,0:0:0:0:
64,192,241235,128,0,241350:0:0:0:0:
448,192,241235,1,0,0:0:0:0:
320,192,241350,128,0,241408:0:0:0:0:
448,192,241408,128,0,241466:0:0:0:0:
64,192,241466,128,0,241523:0:0:0:0:
320,192,241523,128,0,241581:0:0:0:0:
192,192,241581,128,0,242043:0:0:0:0:
448,192,241581,1,0,0:0:0:0:
320,192,241696,1,0,0:0:0:0:
64,192,241812,1,0,0:0:0:0:
320,192,241927,1,0,0:0:0:0:
448,192,242043,128,0,242158:0:0:0:0:
64,192,242043,1,0,0:0:0:0:
320,192,242158,128,0,242273:0:0:0:0:
192,192,242158,1,0,0:0:0:0:
448,192,242273,128,0,242389:0:0:0:0:
64,192,242273,1,0,0:0:0:0:
320,192,242389,128,0,242504:0:0:0:0:
192,192,242389,1,0,0:0:0:0:
448,192,242504,1,0,0:0:0:0:
64,192,242504,128,0,243658:0:0:0:0:
192,192,242735,128,0,242850:0:0:0:0:
320,192,242966,1,0,0:0:0:0:
448,192,242966,1,0,0:0:0:0:
192,192,243196,128,0,243312:0:0:0:0:
448,192,243427,1,0,0:0:0:0:
320,192,243427,1,0,0:0:0:0:
448,192,243658,128,0,243889:0:0:0:0:
192,192,243658,128,0,243773:0:0:0:0:
320,192,243889,128,0,244350:0:0:0:0:
64,192,243889,1,0,0:0:0:0:
64,192,244120,128,0,244235:0:0:0:0:
448,192,244350,1,0,0:0:0:0:
192,192,244350,128,0,245273:0:0:0:0:
320,192,244581,128,0,244696:0:0:0:0:
64,192,244812,1,0,0:0:0:0:
448,192,244812,1,0,0:0:0:0:
448,192,245043,128,0,245158:0:0:0:0:
320,192,245273,1,0,0:0:0:0:
64,192,245273,128,0,246196:0:0:0:0:
448,192,245504,128,0,245620:0:0:0:0:
320,192,245735,1,0,0:0:0:0:
192,192,245735,1,0,0:0:0:0:
448,192,245966,128,0,246081:0:0:0:0:
192,192,246196,128,0,246427:0:0:0:0:
320,192,246196,1,0,0:0:0:0:
448,192,246427,128,0,246658:0:0:0:0:
64,192,246427,128,0,246543:0:0:0:0:
320,192,246658,128,0,246889:0:0:0:0:
192,192,246658,1,0,0:0:0:0:
64,192,246889,128,0,247120:0:0:0:0:
448,192,246889,128,0,247120:0:0:0:0:
192,192,247120,128,0,247581:0:0:0:0:
320,192,247120,1,0,0:0:0:0:
448,192,247350,128,0,247466:0:0:0:0:
320,192,247581,1,0,0:0:0:0:
64,192,247581,128,0,248043:0:0:0:0:
320,192,247812,128,0,247927:0:0:0:0:
192,192,248043,1,0,0:0:0:0:
448,192,248043,1,0,0:0:0:0:
320,192,248273,1,0,0:0:0:0:
64,192,248273,1,0,0:0:0:0:
192,192,248504,1,0,0:0:0:0:
448,192,248504,1,0,0:0:0:0:
192,192,248735,128,0,248966:0:0:0:0:
64,192,248735,128,0,248966:0:0:0:0:
320,192,248966,1,0,0:0:0:0:
448,192,248966,1,0,0:0:0:0:
192,192,249196,1,0,0:0:0:0:
64,192,249196,1,0,0:0:0:0:
320,192,249427,128,0,249658:0:0:0:0:
448,192,249427,128,0,249658:0:0:0:0:
192,192,249658,1,0,0:0:0:0:
64,192,249658,1,0,0:0:0:0:
448,192,249889,1,0,0:0:0:0:
64,192,249889,128,0,250350:0:0:0:0:
320,192,249889,1,0,0:0:0:0:
192,192,250350,1,0,0:0:0:0:
320,192,250350,1,0,0:0:0:0:
448,192,250581,128,0,250639:0:0:0:0:
320,192,250812,1,0,0:0:0:0:
64,192,250812,1,0,0:0:0:0:
192,192,251043,128,0,251273:0:0:0:0:
320,192,251273,1,0,0:0:0:0:
448,192,251273,1,0,0:0:0:0:
64,192,251504,128,0,251562:0:0:0:0:
192,192,251735,1,0,0:0:0:0:
320,192,251735,1,0,0:0:0:0:
448,192,251966,128,0,252023:0:0:0:0:
64,192,252196,1,0,0:0:0:0:
320,192,252196,1,0,0:0:0:0:
192,192,252427,128,0,252658:0:0:0:0:
64,192,252658,1,0,0:0:0:0:
448,192,252658,1,0,0:0:0:0:
320,192,252889,128,0,252946:0:0:0:0:
192,192,253120,1,0,0:0:0:0:
64,192,253120,128,0,253350:0:0:0:0:
448,192,253120,1,0,0:0:0:0:
448,192,253350,128,0,253466:0:0:0:0:
320,192,253581,1,0,0:0:0:0:
192,192,253581,128,0,253812:0:0:0:0:
64,192,253812,128,0,253870:0:0:0:0:
192,192,254043,1,0,0:0:0:0:
448,192,254043,1,0,0:0:0:0:
320,192,254273,128,0,254504:0:0:0:0:
192,192,254504,1,0,0:0:0:0:
64,192,254504,1,0,0:0:0:0:
448,192,254735,128,0,254793:0:0:0:0:
64,192,254966,1,0,0:0:0:0:
320,192,254966,128,0,255196:0:0:0:0:
192,192,255196,128,0,255254:0:0:0:0:
448,192,255427,128,0,255658:0:0:0:0:
64,192,255427,1,0,0:0:0:0:
320,192,255658,128,0,255716:0:0:0:0:
448,192,255889,1,0,0:0:0:0:
192,192,255889,1,0,0:0:0:0:
64,192,256120,128,0,256350:0:0:0:0:
448,192,256350,1,0,0:0:0:0:
320,192,256350,1,0,0:0:0:0:
192,192,256581,1,0,0:0:0:0:
64,192,256581,1,0,0:0:0:0:
320,192,256812,128,0,257043:0:0:0:0:
448,192,256812,1,0,0:0:0:0:
64,192,257043,1,0,0:0:0:0:
192,192,257043,128,0,257100:0:0:0:0:
320,192,257273,1,0,0:0:0:0:
64,192,257273,1,0,0:0:0:0:
448,192,257273,128,0,257735:0:0:0:0:
64,192,257735,1,0,0:0:0:0:
192,192,257735,1,0,0:0:0:0:
320,192,257966,128,0,258023:0:0:0:0:
64,192,258196,1,0,0:0:0:0:
448,192,258196,1,0,0:0:0:0:
192,192,258427,128,0,258658:0:0:0:0:
320,192,258658,128,0,258716:0:0:0:0:
448,192,258658,1,0,0:0:0:0:
64,192,258889,128,0,258946:0:0:0:0:
192,192,259120,1,0,0:0:0:0:
448,192,259120,128,0,259350:0:0:0:0:
320,192,259350,128,0,259408:0:0:0:0:
64,192,259581,1,0,0:0:0:0:
448,192,259581,1,0,0:0:0:0:
192,192,259812,128,0,260043:0:0:0:0:
320,192,260043,1,0,0:0:0:0:
64,192,260043,128,0,260100:0:0:0:0:
448,192,260273,128,0,260331:0:0:0:0:
320,192,260504,128,0,260735:0:0:0:0:
64,192,260504,1,0,0:0:0:0:
192,192,260735,128,0,260793:0:0:0:0:
320,192,260966,1,0,0:0:0:0:
64,192,260966,128,0,261196:0:0:0:0:
448,192,261196,128,0,261254:0:0:0:0:
64,192,261427,1,0,0:0:0:0:
320,192,261427,1,0,0:0:0:0:
192,192,261658,128,0,261889:0:0:0:0:
448,192,261889,128,0,261946:0:0:0:0:
64,192,261889,1,0,0:0:0:0:
320,192,262120,128,0,262177:0:0:0:0:
64,192,262350,128,0,262581:0:0:0:0:
448,192,262350,1,0,0:0:0:0:
192,192,262581,128,0,262639:0:0:0:0:
320,192,262812,1,0,0:0:0:0:
448,192,262812,128,0,263043:0:0:0:0:
64,192,263043,128,0,263100:0:0:0:0:
192,192,263043,1,0,0:0:0:0:
320,192,263273,1,0,0:0:0:0:
448,192,263273,1,0,0:0:0:0:
192,192,263504,128,0,263735:0:0:0:0:
64,192,263504,1,0,0:0:0:0:
320,192,263735,128,0,263793:0:0:0:0:
448,192,263735,1,0,0:0:0:0:
448,192,263966,1,0,0:0:0:0:
64,192,263966,128,0,264023:0:0:0:0:
192,192,264196,128,0,264427:0:0:0:0:
320,192,264196,1,0,0:0:0:0:
448,192,264427,128,0,264485:0:0:0:0:
64,192,264427,1,0,0:0:0:0:
320,192,264658,1,0,0:0:0:0:
192,192,264658,1,0,0:0:0:0:
64,192,264658,1,0,0:0:0:0:
448,192,264773,1,0,0:0:0:0:
320,192,264889,1,0,0:0:0:0:
192,192,265004,1,0,0:0:0:0:
64,192,265120,1,0,0:0:0:0:
320,192,265120,1,0,0:0:0:0:
448,192,265120,1,0,0:0:0:0:
192,192,265235,1,0,0:0:0:0:
320,192,265350,1,0,0:0:0:0:
64,192,265466,1,0,0:0:0:0:
320,192,265581,1,0,0:0:0:0:
448,192,265581,1,0,0:0:0:0:
192,192,265581,1,0,0:0:0:0:
64,192,265696,1,0,0:0:0:0:
192,192,265812,1,0,0:0:0:0:
320,192,265927,1,0,0:0:0:0:
448,192,266043,1,0,0:0:0:0:
192,192,266043,1,0,0:0:0:0:
64,192,266043,1,0,0:0:0:0:
320,192,266158,1,0,0:0:0:0:
192,192,266273,1,0,0:0:0:0:
448,192,266389,1,0,0:0:0:0:
192,192,266504,1,0,0:0:0:0:
320,192,266504,1,0,0:0:0:0:
64,192,266504,1,0,0:0:0:0:
448,192,266620,1,0,0:0:0:0:
320,192,266735,1,0,0:0:0:0:
192,192,266850,1,0,0:0:0:0:
64,192,266966,1,0,0:0:0:0:
320,192,266966,1,0,0:0:0:0:
448,192,266966,1,0,0:0:0:0:
192,192,267081,1,0,0:0:0:0:
320,192,267196,1,0,0:0:0:0:
448,192,267312,1,0,0:0:0:0:
320,192,267427,1,0,0:0:0:0:
192,192,267427,1,0,0:0:0:0:
64,192,267427,128,0,268350:0:0:0:0:
448,192,267658,128,0,268350:0:0:0:0:
192,192,267658,1,0,0:0:0:0:
320,192,267658,1,0,0:0:0:0:
320,192,268120,128,0,268235:0:0:0:0:
320,192,268350,1,0,0:0:0:0:
192,192,268350,128,0,268812:0:0:0:0:
320,192,268812,1,0,0:0:0:0:
448,192,268812,1,0,0:0:0:0:
64,192,269043,128,0,269735:0:0:0:0:
320,192,269273,1,0,0:0:0:0:
448,192,269273,1,0,0:0:0:0:
448,192,269504,128,0,269735:0:0:0:0:
320,192,269735,128,0,269850:0:0:0:0:
192,192,269850,128,0,270196:0:0:0:0:
64,192,269966,128,0,270196:0:0:0:0:
448,192,270196,128,0,271120:0:0:0:0:
320,192,270196,128,0,270427:0:0:0:0:
64,192,270427,128,0,270543:0:0:0:0:
192,192,270658,1,0,0:0:0:0:
320,192,270658,1,0,0:0:0:0:
192,192,270889,128,0,271120:0:0:0:0:
64,192,271120,128,0,272043:0:0:0:0:
320,192,271120,128,0,271235:0:0:0:0:
448,192,271350,128,0,271466:0:0:0:0:
320,192,271581,1,0,0:0:0:0:
192,192,271581,128,0,271812:0:0:0:0:
448,192,271812,128,0,271927:0:0:0:0:
320,192,272043,128,0,272273:0:0:0:0:
192,192,272043,1,0,0:0:0:0:
192,192,272273,128,0,272504:0:0:0:0:
448,192,272504,128,0,272735:0:0:0:0:
320,192,272504,1,0,0:0:0:0:
64,192,272735,128,0,274350:0:0:0:0:
192,192,272966,1,0,0:0:0:0:
320,192,272966,1,0,0:0:0:0:
448,192,273196,128,0,273312:0:0:0:0:
320,192,273427,128,0,273658:0:0:0:0:
192,192,273427,1,0,0:0:0:0:
448,192,273658,128,0,273773:0:0:0:0:
192,192,273889,128,0,274120:0:0:0:0:
320,192,273889,1,0,0:0:0:0:
448,192,274120,128,0,275043:0:0:0:0:
320,192,274120,128,0,274235:0:0:0:0:
192,192,274350,128,0,274466:0:0:0:0:
64,192,274581,128,0,274812:0:0:0:0:
320,192,274812,128,0,276196:0:0:0:0:
192,192,274812,128,0,274927:0:0:0:0:
64,192,275043,128,0,275158:0:0:0:0:
192,192,275273,128,0,275504:0:0:0:0:
64,192,275504,128,0,275620:0:0:0:0:
448,192,275735,128,0,276196:0:0:0:0:
192,192,275735,1,0,0:0:0:0:
64,192,276196,1,0,0:0:0:0:
192,192,276196,1,0,0:0:0:0:
192,192,276427,128,0,276485:0:0:0:0:
320,192,276658,1,0,0:0:0:0:
448,192,276658,128,0,276716:0:0:0:0:
64,192,276889,128,0,277120:0:0:0:0:
320,192,277120,128,0,277177:0:0:0:0:
192,192,277120,1,0,0:0:0:0:
448,192,277350,128,0,277408:0:0:0:0:
64,192,277581,1,0,0:0:0:0:
192,192,277581,128,0,277812:0:0:0:0:
320,192,277812,128,0,277870:0:0:0:0:
64,192,278043,1,0,0:0:0:0:
192,192,278043,1,0,0:0:0:0:
448,192,278273,128,0,278504:0:0:0:0:
320,192,278504,128,0,278562:0:0:0:0:
192,192,278504,1,0,0:0:0:0:
64,192,278735,128,0,278793:0:0:0:0:
448,192,278966,128,0,279196:0:0:0:0:
192,192,278966,1,0,0:0:0:0:
320,192,279196,128,0,279254:0:0:0:0:
64,192,279427,128,0,279658:0:0:0:0:
192,192,279427,1,0,0:0:0:0:
448,192,279658,128,0,279716:0:0:0:0:
192,192,279889,1,0,0:0:0:0:
320,192,279889,1,0,0:0:0:0:
448,192,280120,128,0,280350:0:0:0:0:
192,192,280350,128,0,280408:0:0:0:0:
320,192,280350,1,0,0:0:0:0:
64,192,280581,128,0,280639:0:0:0:0:
320,192,280812,128,0,281043:0:0:0:0:
192,192,280812,1,0,0:0:0:0:
448,192,281043,128,0,281100:0:0:0:0:
192,192,281273,1,0,0:0:0:0:
64,192,281273,128,0,281504:0:0:0:0:
320,192,281504,128,0,281562:0:0:0:0:
192,192,281735,1,0,0:0:0:0:
448,192,281735,1,0,0:0:0:0:
64,192,281966,128,0,282196:0:0:0:0:
192,192,282196,128,0,282254:0:0:0:0:
320,192,282196,1,0,0:0:0:0:
64,192,282427,1,0,0:0:0:0:
448,192,282427,1,0,0:0:0:0:
320,192,282658,128,0,282889:0:0:0:0:
192,192,282658,1,0,0:0:0:0:
64,192,282716,1,0,0:0:0:0:
192,192,282889,128,0,282946:0:0:0:0:
448,192,282889,1,0,0:0:0:0:
64,192,283120,128,0,283581:0:0:0:0:
320,192,283120,1,0,0:0:0:0:
448,192,283581,1,0,0:0:0:0:
192,192,283581,1,0,0:0:0:0:
320,192,283812,128,0,283870:0:0:0:0:
192,192,284043,128,0,284100:0:0:0:0:
64,192,284043,1,0,0:0:0:0:
448,192,284273,128,0,284504:0:0:0:0:
64,192,284504,128,0,284562:0:0:0:0:
320,192,284504,1,0,0:0:0:0:
192,192,284735,128,0,284793:0:0:0:0:
320,192,284966,128,0,285196:0:0:0:0:
64,192,284966,1,0,0:0:0:0:
448,192,285196,128,0,285254:0:0:0:0:
192,192,285427,1,0,0:0:0:0:
320,192,285427,1,0,0:0:0:0:
64,192,285658,128,0,285889:0:0:0:0:
320,192,285889,128,0,285946:0:0:0:0:
448,192,285889,1,0,0:0:0:0:
192,192,286120,128,0,286177:0:0:0:0:
448,192,286350,128,0,286581:0:0:0:0:
320,192,286350,1,0,0:0:0:0:
64,192,286581,128,0,286639:0:0:0:0:
320,192,286812,1,0,0:0:0:0:
192,192,286812,128,0,287043:0:0:0:0:
448,192,287043,128,0,287100:0:0:0:0:
64,192,287273,1,0,0:0:0:0:
320,192,287273,1,0,0:0:0:0:
192,192,287504,128,0,287735:0:0:0:0:
64,192,287735,128,0,287793:0:0:0:0:
448,192,287735,1,0,0:0:0:0:
320,192,287966,128,0,288023:0:0:0:0:
64,192,288196,1,0,0:0:0:0:
448,192,288196,128,0,288427:0:0:0:0:
192,192,288427,128,0,288485:0:0:0:0:
64,192,288658,1,0,0:0:0:0:
320,192,288658,128,0,288889:0:0:0:0:
448,192,288889,128,0,288946:0:0:0:0:
192,192,288889,1,0,0:0:0:0:
64,192,289120,1,0,0:0:0:0:
192,192,289120,1,0,0:0:0:0:
320,192,289177,1,0,0:0:0:0:
448,192,289235,1,0,0:0:0:0:
64,192,289350,128,0,289581:0:0:0:0:
192,192,289350,1,0,0:0:0:0:
448,192,289581,1,0,0:0:0:0:
320,192,289581,128,0,289639:0:0:0:0:
64,192,289812,1,0,0:0:0:0:
192,192,289812,1,0,0:0:0:0:
320,192,290043,128,0,290273:0:0:0:0:
448,192,290043,128,0,290273:0:0:0:0:
192,192,290273,1,0,0:0:0:0:
64,192,290273,1,0,0:0:0:0:
320,192,290504,1,0,0:0:0:0:
448,192,290504,1,0,0:0:0:0:
64,192,290504,128,0,293966:0:0:0:0:
192,192,290966,1,0,0:0:0:0:
320,192,291196,1,0,0:0:0:0:
448,192,291196,128,0,291312:0:0:0:0:
320,192,291427,1,0,0:0:0:0:
192,192,291427,128,0,291543:0:0:0:0:
192,192,291889,1,0,0:0:0:0:
320,192,292120,1,0,0:0:0:0:
448,192,292120,128,0,292235:0:0:0:0:
192,192,292350,1,0,0:0:0:0:
320,192,292350,1,0,0:0:0:0:
320,192,292812,1,0,0:0:0:0:
448,192,292812,128,0,292927:0:0:0:0:
192,192,293273,1,0,0:0:0:0:
320,192,293273,128,0,293389:0:0:0:0:
448,192,293504,1,0,0:0:0:0:
192,192,293504,1,0,0:0:0:0:
320,192,293735,1,0,0:0:0:0:
192,192,293735,128,0,293850:0:0:0:0:
448,192,294196,128,0,296504:0:0:0:0:
192,192,294196,1,0,0:0:0:0:
320,192,294196,1,0,0:0:0:0:
64,192,294427,128,0,294543:0:0:0:0:
320,192,294658,128,0,294773:0:0:0:0:
64,192,294889,1,0,0:0:0:0:
192,192,294889,1,0,0:0:0:0:
320,192,295120,1,0,0:0:0:0:
192,192,295120,128,0,295235:0:0:0:0:
64,192,295350,1,0,0:0:0:0:
320,192,295581,128,0,295696:0:0:0:0:
192,192,295581,1,0,0:0:0:0:
64,192,295812,128,0,295927:0:0:0:0:
192,192,295812,1,0,0:0:0:0:
192,192,296043,1,0,0:0:0:0:
320,192,296043,1,0,0:0:0:0:
64,192,296273,1,0,0:0:0:0:
192,192,296273,1,0,0:0:0:0:
320,192,296331,1,0,0:0:0:0:
64,192,296504,1,0,0:0:0:0:
192,192,296504,1,0,0:0:0:0:
320,192,296562,1,0,0:0:0:0:
64,192,296735,1,0,0:0:0:0:
192,192,296735,1,0,0:0:0:0:
448,192,296966,1,0,0:0:0:0:
320,192,296966,1,0,0:0:0:0:
192,192,297196,1,0,0:0:0:0:
64,192,297196,1,0,0:0:0:0:
320,192,297427,1,0,0:0:0:0:
448,192,297427,1,0,0:0:0:0:
192,192,297658,1,0,0:0:0:0:
64,192,297658,1,0,0:0:0:0:
320,192,297889,1,0,0:0:0:0:
448,192,297889,1,0,0:0:0:0:
64,192,297889,128,0,301350:0:0:0:0:
448,192,298350,128,0,298466:0:0:0:0:
320,192,298350,1,0,0:0:0:0:
320,192,298581,1,0,0:0:0:0:
192,192,298581,128,0,298696:0:0:0:0:
192,192,298812,1,0,0:0:0:0:
448,192,298812,1,0,0:0:0:0:
320,192,299043,1,0,0:0:0:0:
448,192,299273,1,0,0:0:0:0:
320,192,299504,1,0,0:0:0:0:
192,192,299504,128,0,299620:0:0:0:0:
320,192,299735,1,0,0:0:0:0:
448,192,299735,1,0,0:0:0:0:
192,192,300196,1,0,0:0:0:0:
448,192,300196,128,0,300312:0:0:0:0:
320,192,300658,128,0,300773:0:0:0:0:
192,192,300658,1,0,0:0:0:0:
448,192,300889,1,0,0:0:0:0:
192,192,300889,1,0,0:0:0:0:
448,192,301120,128,0,301235:0:0:0:0:
320,192,301120,1,0,0:0:0:0:
192,192,301350,1,0,0:0:0:0:
320,192,301350,1,0,0:0:0:0:
448,192,301581,128,0,303658:0:0:0:0:
64,192,301581,1,0,0:0:0:0:
192,192,301581,1,0,0:0:0:0:
320,192,301812,128,0,301927:0:0:0:0:
192,192,302043,1,0,0:0:0:0:
64,192,302043,128,0,302158:0:0:0:0:
320,192,302273,1,0,0:0:0:0:
192,192,302273,128,0,302389:0:0:0:0:
320,192,302504,1,0,0:0:0:0:
64,192,302504,128,0,302620:0:0:0:0:
192,192,302735,1,0,0:0:0:0:
320,192,302966,128,0,303081:0:0:0:0:
64,192,302966,1,0,0:0:0:0:
192,192,303196,1,0,0:0:0:0:
64,192,303196,1,0,0:0:0:0:
192,192,303427,1,0,0:0:0:0:
64,192,303427,1,0,0:0:0:0:
192,192,303658,1,0,0:0:0:0:
64,192,303658,1,0,0:0:0:0:
448,192,303773,1,0,0:0:0:0:
320,192,303773,1,0,0:0:0:0:
192,192,303889,1,0,0:0:0:0:
64,192,303889,1,0,0:0:0:0:
320,192,304004,1,0,0:0:0:0:
448,192,304004,1,0,0:0:0:0:
64,192,304120,1,0,0:0:0:0:
192,192,304120,1,0,0:0:0:0:
448,192,304120,1,0,0:0:0:0:
320,192,304235,1,0,0:0:0:0:
192,192,304235,1,0,0:0:0:0:
448,192,304350,1,0,0:0:0:0:
64,192,304350,1,0,0:0:0:0:
192,192,304466,1,0,0:0:0:0:
320,192,304466,1,0,0:0:0:0:
64,192,304581,1,0,0:0:0:0:
448,192,304581,1,0,0:0:0:0:
320,192,304696,1,0,0:0:0:0:
192,192,304696,1,0,0:0:0:0:
64,192,304812,1,0,0:0:0:0:
448,192,304812,1,0,0:0:0:0:
192,192,304812,1,0,0:0:0:0:
320,192,305043,1,0,0:0:0:0:
448,192,305043,1,0,0:0:0:0:
64,192,305043,1,0,0:0:0:0:
64,192,305273,1,0,0:0:0:0:
448,192,305273,1,0,0:0:0:0:
192,192,305273,128,0,308735:0:0:0:0:
320,192,305735,1,0,0:0:0:0:
64,192,305966,1,0,0:0:0:0:
448,192,305966,128,0,306081:0:0:0:0:
64,192,306196,1,0,0:0:0:0:
320,192,306196,128,0,306312:0:0:0:0:
448,192,306658,1,0,0:0:0:0:
64,192,306889,1,0,0:0:0:0:
320,192,306889,128,0,307004:0:0:0:0:
64,192,307120,1,0,0:0:0:0:
448,192,307120,1,0,0:0:0:0:
320,192,307581,1,0,0:0:0:0:
64,192,307581,128,0,307696:0:0:0:0:
448,192,308043,1,0,0:0:0:0:
320,192,308043,128,0,308158:0:0:0:0:
64,192,308273,1,0,0:0:0:0:
448,192,308273,1,0,0:0:0:0:
320,192,308504,1,0,0:0:0:0:
64,192,308504,128,0,308620:0:0:0:0:
448,192,308735,1,0,0:0:0:0:
320,192,308735,1,0,0:0:0:0:
320,192,308966,128,0,311504:0:0:0:0:
192,192,308966,1,0,0:0:0:0:
64,192,308966,1,0,0:0:0:0:
448,192,309196,128,0,309312:0:0:0:0:
192,192,309427,128,0,309543:0:0:0:0:
448,192,309658,1,0,0:0:0:0:
64,192,309658,1,0,0:0:0:0:
64,192,309889,128,0,310004:0:0:0:0:
192,192,309889,1,0,0:0:0:0:
192,192,310120,128,0,310235:0:0:0:0:
448,192,310350,128,0,310466:0:0:0:0:
64,192,310350,1,0,0:0:0:0:
64,192,310581,1,0,0:0:0:0:
192,192,310581,128,0,310696:0:0:0:0:
192,192,310812,1,0,0:0:0:0:
64,192,310812,128,0,310927:0:0:0:0:
448,192,311043,128,0,311158:0:0:0:0:
192,192,311273,1,0,0:0:0:0:
64,192,311273,128,0,311389:0:0:0:0:
192,192,311504,1,0,0:0:0:0:
448,192,311504,1,0,0:0:0:0:
64,192,311562,1,0,0:0:0:0:
320,192,311562,1,0,0:0:0:0:
448,192,311620,1,0,0:0:0:0:
192,192,311620,1,0,0:0:0:0:
320,192,311677,1,0,0:0:0:0:
64,192,311677,1,0,0:0:0:0:
192,192,311735,1,0,0:0:0:0:
448,192,311735,1,0,0:0:0:0:
320,192,311966,1,0,0:0:0:0:
64,192,311966,1,0,0:0:0:0:
192,192,312196,1,0,0:0:0:0:
448,192,312196,1,0,0:0:0:0:
320,192,312427,1,0,0:0:0:0:
64,192,312427,1,0,0:0:0:0:
192,192,312658,128,0,314273:0:0:0:0:
448,192,312658,1,0,0:0:0:0:
64,192,312658,1,0,0:0:0:0:
320,192,312889,128,0,313004:0:0:0:0:
448,192,313120,1,0,0:0:0:0:
64,192,313120,128,0,313235:0:0:0:0:
320,192,313350,1,0,0:0:0:0:
448,192,313350,1,0,0:0:0:0:
64,192,313581,1,0,0:0:0:0:
320,192,313581,128,0,313696:0:0:0:0:
448,192,314043,1,0,0:0:0:0:
64,192,314043,128,0,314158:0:0:0:0:
320,192,314273,1,0,0:0:0:0:
448,192,314273,1,0,0:0:0:0:
320,192,314504,128,0,318196:0:0:0:0:
192,192,314504,1,0,0:0:0:0:
64,192,314504,1,0,0:0:0:0:
192,192,314735,128,0,314850:0:0:0:0:
448,192,314966,1,0,0:0:0:0:
64,192,314966,128,0,315081:0:0:0:0:
192,192,315196,1,0,0:0:0:0:
448,192,315196,1,0,0:0:0:0:
64,192,315427,1,0,0:0:0:0:
192,192,315427,1,0,0:0:0:0:
448,192,315889,128,0,316004:0:0:0:0:
192,192,316120,1,0,0:0:0:0:
64,192,316120,1,0,0:0:0:0:
192,192,316350,1,0,0:0:0:0:
64,192,316350,1,0,0:0:0:0:
192,192,316581,1,0,0:0:0:0:
64,192,316581,1,0,0:0:0:0:
448,192,316812,128,0,316927:0:0:0:0:
192,192,317043,128,0,317158:0:0:0:0:
64,192,317043,1,0,0:0:0:0:
448,192,317273,1,0,0:0:0:0:
64,192,317273,1,0,0:0:0:0:
192,192,317504,1,0,0:0:0:0:
64,192,317504,1,0,0:0:0:0:
448,192,317966,1,0,0:0:0:0:
64,192,317966,1,0,0:0:0:0:
64,192,318196,1,0,0:0:0:0:
448,192,318196,1,0,0:0:0:0:
320,192,318658,128,0,318773:0:0:0:0:
64,192,318658,1,0,0:0:0:0:
192,192,318773,1,0,0:0:0:0:
448,192,318889,1,0,0:0:0:0:
64,192,318889,1,0,0:0:0:0:
320,192,319120,1,0,0:0:0:0:
448,192,319120,128,0,319235:0:0:0:0:
320,192,319350,1,0,0:0:0:0:
64,192,319350,1,0,0:0:0:0:
64,192,319581,1,0,0:0:0:0:
448,192,319581,128,0,319696:0:0:0:0:
320,192,319812,1,0,0:0:0:0:
64,192,319812,1,0,0:0:0:0:
64,192,320043,1,0,0:0:0:0:
448,192,320043,128,0,325581:0:0:0:0:
192,192,320043,1,0,0:0:0:0:
320,192,320158,1,0,0:0:0:0:
320,192,320273,1,0,0:0:0:0:
320,192,320389,1,0,0:0:0:0:
64,192,320504,1,0,0:0:0:0:
192,192,320504,1,0,0:0:0:0:
320,192,320620,1,0,0:0:0:0:
320,192,320735,1,0,0:0:0:0:
320,192,320850,1,0,0:0:0:0:
192,192,320966,1,0,0:0:0:0:
64,192,320966,1,0,0:0:0:0:
320,192,321081,1,0,0:0:0:0:
320,192,321196,1,0,0:0:0:0:
320,192,321312,1,0,0:0:0:0:
192,192,321427,1,0,0:0:0:0:
64,192,321427,1,0,0:0:0:0:
320,192,321543,1,0,0:0:0:0:
320,192,321658,1,0,0:0:0:0:
320,192,321773,1,0,0:0:0:0:
192,192,321889,1,0,0:0:0:0:
64,192,321889,1,0,0:0:0:0:
320,192,322004,1,0,0:0:0:0:
320,192,322120,1,0,0:0:0:0:
320,192,322235,1,0,0:0:0:0:
192,192,322350,1,0,0:0:0:0:
64,192,322350,1,0,0:0:0:0:
320,192,322466,1,0,0:0:0:0:
64,192,322581,1,0,0:0:0:0:
192,192,322581,1,0,0:0:0:0:
320,192,322696,1,0,0:0:0:0:
192,192,322812,1,0,0:0:0:0:
64,192,322812,1,0,0:0:0:0:
320,192,322927,1,0,0:0:0:0:
64,192,322927,1,0,0:0:0:0:
320,192,323043,1,0,0:0:0:0:
320,192,323158,1,0,0:0:0:0:
192,192,323273,1,0,0:0:0:0:
64,192,323273,1,0,0:0:0:0:
320,192,323389,1,0,0:0:0:0:
320,192,323504,1,0,0:0:0:0:
320,192,323620,1,0,0:0:0:0:
64,192,323620,1,0,0:0:0:0:
192,192,323735,1,0,0:0:0:0:
64,192,323735,1,0,0:0:0:0:
320,192,323850,1,0,0:0:0:0:
320,192,323966,1,0,0:0:0:0:
320,192,324081,1,0,0:0:0:0:
192,192,324196,1,0,0:0:0:0:
64,192,324196,1,0,0:0:0:0:
320,192,324312,1,0,0:0:0:0:
320,192,324427,1,0,0:0:0:0:
320,192,324543,1,0,0:0:0:0:
192,192,324658,1,0,0:0:0:0:
64,192,324658,1,0,0:0:0:0:
320,192,324773,1,0,0:0:0:0:
320,192,324889,1,0,0:0:0:0:
320,192,325004,1,0,0:0:0:0:
192,192,325120,1,0,0:0:0:0:
64,192,325120,1,0,0:0:0:0:
320,192,325235,1,0,0:0:0:0:
320,192,325350,1,0,0:0:0:0:
320,192,325466,1,0,0:0:0:0:
192,192,325581,1,0,0:0:0:0:
64,192,325581,1,0,0:0:0:0:
320,192,325639,1,0,0:0:0:0:
448,192,325639,1,0,0:0:0:0:
192,192,325696,1,0,0:0:0:0:
64,192,325696,1,0,0:0:0:0:
320,192,325812,1,0,0:0:0:0:
448,192,325812,1,0,0:0:0:0:
192,192,325927,1,0,0:0:0:0:
64,192,325927,1,0,0:0:0:0:
320,192,325985,1,0,0:0:0:0:
448,192,325985,1,0,0:0:0:0:
192,192,326043,1,0,0:0:0:0:
64,192,326043,1,0,0:0:0:0:
448,192,326043,1,0,0:0:0:0:
192,192,326158,1,0,0:0:0:0:
448,192,326158,1,0,0:0:0:0:
448,192,326273,1,0,0:0:0:0:
320,192,326273,1,0,0:0:0:0:
192,192,326331,1,0,0:0:0:0:
64,192,326331,1,0,0:0:0:0:
320,192,326389,1,0,0:0:0:0:
448,192,326389,1,0,0:0:0:0:
192,192,326504,1,0,0:0:0:0:
64,192,326504,1,0,0:0:0:0:
448,192,326504,1,0,0:0:0:0:
192,192,326620,1,0,0:0:0:0:
320,192,326620,1,0,0:0:0:0:
64,192,326677,1,0,0:0:0:0:
448,192,326677,1,0,0:0:0:0:
320,192,326735,1,0,0:0:0:0:
192,192,326735,1,0,0:0:0:0:
192,192,326850,1,0,0:0:0:0:
320,192,326850,1,0,0:0:0:0:
320,192,326966,1,0,0:0:0:0:
192,192,326966,1,0,0:0:0:0:
448,192,326966,1,0,0:0:0:0:
192,192,327081,1,0,0:0:0:0:
64,192,327081,1,0,0:0:0:0:
320,192,327196,1,0,0:0:0:0:
448,192,327196,1,0,0:0:0:0:
192,192,327312,1,0,0:0:0:0:
64,192,327312,1,0,0:0:0:0:
320,192,327427,1,0,0:0:0:0:
448,192,327427,1,0,0:0:0:0:
64,192,327427,1,0,0:0:0:0:
192,192,327543,1,0,0:0:0:0:
320,192,327658,1,0,0:0:0:0:
448,192,327773,1,0,0:0:0:0:
320,192,327889,1,0,0:0:0:0:
64,192,327889,1,0,0:0:0:0:
192,192,327889,1,0,0:0:0:0:
448,192,328004,1,0,0:0:0:0:
64,192,328120,1,0,0:0:0:0:
192,192,328235,1,0,0:0:0:0:
320,192,328350,1,0,0:0:0:0:
448,192,328350,1,0,0:0:0:0:
64,192,328466,1,0,0:0:0:0:
192,192,328581,1,0,0:0:0:0:
320,192,328696,1,0,0:0:0:0:
448,192,328812,1,0,0:0:0:0:
192,192,328812,1,0,0:0:0:0:
64,192,328812,1,0,0:0:0:0:
320,192,328927,1,0,0:0:0:0:
192,192,329043,1,0,0:0:0:0:
64,192,329158,1,0,0:0:0:0:
192,192,329273,1,0,0:0:0:0:
448,192,329273,1,0,0:0:0:0:
320,192,329273,1,0,0:0:0:0:
64,192,329389,1,0,0:0:0:0:
192,192,329504,1,0,0:0:0:0:
320,192,329620,1,0,0:0:0:0:
64,192,329735,1,0,0:0:0:0:
192,192,329735,1,0,0:0:0:0:
448,192,329735,1,0,0:0:0:0:
320,192,329850,1,0,0:0:0:0:
448,192,329966,1,0,0:0:0:0:
320,192,330081,1,0,0:0:0:0:
192,192,330196,1,0,0:0:0:0:
64,192,330196,1,0,0:0:0:0:
448,192,330312,1,0,0:0:0:0:
320,192,330427,1,0,0:0:0:0:
192,192,330427,1,0,0:0:0:0:
64,192,330543,1,0,0:0:0:0:
448,192,330543,1,0,0:0:0:0:
320,192,330658,1,0,0:0:0:0:
192,192,330658,1,0,0:0:0:0:
64,192,330658,1,0,0:0:0:0:
448,192,330773,1,0,0:0:0:0:
320,192,330773,1,0,0:0:0:0:
64,192,330889,1,0,0:0:0:0:
192,192,330889,1,0,0:0:0:0:
320,192,331004,1,0,0:0:0:0:
448,192,331004,1,0,0:0:0:0:
64,192,331120,1,0,0:0:0:0:
192,192,331120,1,0,0:0:0:0:
448,192,331120,1,0,0:0:0:0:
320,192,331235,1,0,0:0:0:0:
192,192,331350,1,0,0:0:0:0:
64,192,331466,1,0,0:0:0:0:
192,192,331581,1,0,0:0:0:0:
448,192,331581,1,0,0:0:0:0:
320,192,331581,1,0,0:0:0:0:
64,192,331696,1,0,0:0:0:0:
192,192,331812,1,0,0:0:0:0:
320,192,331927,1,0,0:0:0:0:
192,192,332043,1,0,0:0:0:0:
64,192,332043,1,0,0:0:0:0:
448,192,332158,1,0,0:0:0:0:
320,192,332273,1,0,0:0:0:0:
192,192,332389,1,0,0:0:0:0:
320,192,332504,1,0,0:0:0:0:
448,192,332504,1,0,0:0:0:0:
64,192,332504,1,0,0:0:0:0:
192,192,332620,1,0,0:0:0:0:
320,192,332735,1,0,0:0:0:0:
448,192,332850,1,0,0:0:0:0:
320,192,332966,1,0,0:0:0:0:
64,192,332966,1,0,0:0:0:0:
192,192,332966,1,0,0:0:0:0:
448,192,333081,1,0,0:0:0:0:
320,192,333196,1,0,0:0:0:0:
192,192,333196,1,0,0:0:0:0:
64,192,333312,1,0,0:0:0:0:
192,192,333427,1,0,0:0:0:0:
448,192,333427,1,0,0:0:0:0:
320,192,333427,1,0,0:0:0:0:
64,192,333543,1,0,0:0:0:0:
192,192,333658,1,0,0:0:0:0:
320,192,333773,1,0,0:0:0:0:
448,192,333889,1,0,0:0:0:0:
192,192,333889,1,0,0:0:0:0:
64,192,334004,1,0,0:0:0:0:
192,192,334120,1,0,0:0:0:0:
320,192,334235,1,0,0:0:0:0:
192,192,334350,1,0,0:0:0:0:
448,192,334350,1,0,0:0:0:0:
64,192,334350,1,0,0:0:0:0:
320,192,334466,1,0,0:0:0:0:
192,192,334581,1,0,0:0:0:0:
64,192,334696,1,0,0:0:0:0:
448,192,334812,1,0,0:0:0:0:
320,192,334812,1,0,0:0:0:0:
192,192,334812,1,0,0:0:0:0:
64,192,334927,1,0,0:0:0:0:
192,192,335043,1,0,0:0:0:0:
320,192,335158,1,0,0:0:0:0:
448,192,335273,1,0,0:0:0:0:
192,192,335273,1,0,0:0:0:0:
64,192,335273,1,0,0:0:0:0:
320,192,335389,1,0,0:0:0:0:
192,192,335504,1,0,0:0:0:0:
320,192,335620,1,0,0:0:0:0:
448,192,335735,1,0,0:0:0:0:
192,192,335735,1,0,0:0:0:0:
64,192,335850,1,0,0:0:0:0:
192,192,335966,1,0,0:0:0:0:
320,192,336081,1,0,0:0:0:0:
448,192,336196,1,0,0:0:0:0:
192,192,336196,1,0,0:0:0:0:
64,192,336196,1,0,0:0:0:0:
320,192,336312,1,0,0:0:0:0:
448,192,336427,1,0,0:0:0:0:
320,192,336543,1,0,0:0:0:0:
192,192,336658,1,0,0:0:0:0:
64,192,336658,1,0,0:0:0:0:
448,192,336658,1,0,0:0:0:0:
320,192,336773,1,0,0:0:0:0:
192,192,336889,1,0,0:0:0:0:
64,192,337004,1,0,0:0:0:0:
192,192,337120,1,0,0:0:0:0:
448,192,337120,1,0,0:0:0:0:
320,192,337120,1,0,0:0:0:0:
64,192,337235,1,0,0:0:0:0:
192,192,337350,1,0,0:0:0:0:
320,192,337466,1,0,0:0:0:0:
448,192,337581,1,0,0:0:0:0:
192,192,337581,1,0,0:0:0:0:
64,192,337696,1,0,0:0:0:0:
192,192,337812,1,0,0:0:0:0:
320,192,337927,1,0,0:0:0:0:
448,192,338043,1,0,0:0:0:0:
192,192,338043,1,0,0:0:0:0:
64,192,338043,1,0,0:0:0:0:
320,192,338158,1,0,0:0:0:0:
192,192,338273,1,0,0:0:0:0:
64,192,338389,1,0,0:0:0:0:
192,192,338504,1,0,0:0:0:0:
320,192,338504,1,0,0:0:0:0:
448,192,338504,1,0,0:0:0:0:
64,192,338620,1,0,0:0:0:0:
192,192,338735,1,0,0:0:0:0:
320,192,338850,1,0,0:0:0:0:
448,192,338966,1,0,0:0:0:0:
64,192,338966,1,0,0:0:0:0:
192,192,338966,1,0,0:0:0:0:
320,192,339081,1,0,0:0:0:0:
448,192,339196,1,0,0:0:0:0:
320,192,339312,1,0,0:0:0:0:
192,192,339427,1,0,0:0:0:0:
64,192,339427,1,0,0:0:0:0:
448,192,339427,1,0,0:0:0:0:
320,192,339543,1,0,0:0:0:0:
192,192,339658,1,0,0:0:0:0:
320,192,339773,1,0,0:0:0:0:
192,192,339889,1,0,0:0:0:0:
448,192,339889,1,0,0:0:0:0:
64,192,339889,1,0,0:0:0:0:
320,192,340004,1,0,0:0:0:0:
192,192,340120,1,0,0:0:0:0:
64,192,340235,1,0,0:0:0:0:
192,192,340350,1,0,0:0:0:0:
320,192,340350,1,0,0:0:0:0:
448,192,340350,1,0,0:0:0:0:
64,192,340466,1,0,0:0:0:0:
192,192,340581,1,0,0:0:0:0:
320,192,340696,1,0,0:0:0:0:
448,192,340812,1,0,0:0:0:0:
192,192,340812,1,0,0:0:0:0:
64,192,340812,1,0,0:0:0:0:
320,192,340927,1,0,0:0:0:0:
448,192,341043,1,0,0:0:0:0:
320,192,341158,1,0,0:0:0:0:
64,192,341273,1,0,0:0:0:0:
192,192,341273,1,0,0:0:0:0:
448,192,341331,1,0,0:0:0:0:
192,192,341504,1,0,0:0:0:0:
64,192,341504,1,0,0:0:0:0:
320,192,341735,1,0,0:0:0:0:
448,192,341735,1,0,0:0:0:0:
64,192,341966,1,0,0:0:0:0:
192,192,341966,1,0,0:0:0:0:
448,192,341966,1,0,0:0:0:0:
320,192,342196,1,0,0:0:0:0:
448,192,342196,1,0,0:0:0:0:
64,192,342196,1,0,0:0:0:0:
64,192,342889,1,0,0:0:0:0:
448,192,342889,1,0,0:0:0:0:
320,192,342889,1,0,0:0:0:0:
192,192,343120,1,0,0:0:0:0:
64,192,343120,1,0,0:0:0:0:
320,192,343812,1,0,0:0:0:0:
192,192,343812,1,0,0:0:0:0:
64,192,344043,1,0,0:0:0:0:
448,192,344043,1,0,0:0:0:0:
320,192,344043,1,0,0:0:0:0:
320,192,344504,1,0,0:0:0:0:
64,192,344504,1,0,0:0:0:0:
192,192,344504,1,0,0:0:0:0:
320,192,344735,1,0,0:0:0:0:
448,192,344735,1,0,0:0:0:0:
192,192,344735,1,0,0:0:0:0:
448,192,344966,1,0,0:0:0:0:
64,192,344966,1,0,0:0:0:0:
192,192,345196,1,0,0:0:0:0:
64,192,345196,1,0,0:0:0:0:
448,192,345196,1,0,0:0:0:0:
320,192,345427,1,0,0:0:0:0:
448,192,345427,1,0,0:0:0:0:
64,192,345658,1,0,0:0:0:0:
192,192,345658,1,0,0:0:0:0:
320,192,345658,1,0,0:0:0:0:
448,192,345889,1,0,0:0:0:0:
64,192,345889,1,0,0:0:0:0:
320,192,345889,1,0,0:0:0:0:
192,192,345889,1,0,0:0:0:0:
64,192,346581,1,0,0:0:0:0:
192,192,346581,1,0,0:0:0:0:
448,192,346581,1,0,0:0:0:0:
64,192,346812,1,0,0:0:0:0:
320,192,346812,1,0,0:0:0:0:
192,192,347504,1,0,0:0:0:0:
320,192,347504,1,0,0:0:0:0:
448,192,347504,1,0,0:0:0:0:
64,192,347735,1,0,0:0:0:0:
192,192,347735,1,0,0:0:0:0:
320,192,347735,1,0,0:0:0:0:
64,192,348543,1,0,0:0:0:0:
192,192,348543,1,0,0:0:0:0:
320,192,348600,1,0,0:0:0:0:
448,192,348600,1,0,0:0:0:0:
192,192,348658,1,0,0:0:0:0:
64,192,348658,1,0,0:0:0:0:
448,192,348658,1,0,0:0:0:0:
320,192,348889,1,0,0:0:0:0:
448,192,348889,1,0,0:0:0:0:
64,192,348889,1,0,0:0:0:0:
192,192,349004,1,0,0:0:0:0:
64,192,349004,1,0,0:0:0:0:
192,192,349120,1,0,0:0:0:0:
64,192,349120,1,0,0:0:0:0:
320,192,349235,1,0,0:0:0:0:
448,192,349235,1,0,0:0:0:0:
320,192,349350,1,0,0:0:0:0:
448,192,349350,1,0,0:0:0:0:
192,192,349466,1,0,0:0:0:0:
64,192,349466,1,0,0:0:0:0:
448,192,349466,1,0,0:0:0:0:
448,192,349581,1,0,0:0:0:0:
320,192,349581,1,0,0:0:0:0:
64,192,349581,1,0,0:0:0:0:
192,192,349581,1,0,0:0:0:0:
192,192,350273,1,0,0:0:0:0:
320,192,350273,1,0,0:0:0:0:
448,192,350273,1,0,0:0:0:0:
192,192,350504,1,0,0:0:0:0:
64,192,350504,1,0,0:0:0:0:
192,192,351196,1,0,0:0:0:0:
448,192,351196,1,0,0:0:0:0:
64,192,351196,1,0,0:0:0:0:
448,192,351427,1,0,0:0:0:0:
64,192,351427,1,0,0:0:0:0:
320,192,351427,1,0,0:0:0:0:
192,192,352120,1,0,0:0:0:0:
320,192,352120,1,0,0:0:0:0:
64,192,352120,1,0,0:0:0:0:
448,192,352350,1,0,0:0:0:0:
64,192,352350,1,0,0:0:0:0:
192,192,352581,1,0,0:0:0:0:
320,192,352581,1,0,0:0:0:0:
448,192,352581,1,0,0:0:0:0:
64,192,353043,1,0,0:0:0:0:
320,192,353043,1,0,0:0:0:0:
448,192,353043,1,0,0:0:0:0:
192,192,353273,1,0,0:0:0:0:
64,192,353273,1,0,0:0:0:0:
448,192,353273,1,0,0:0:0:0:
320,192,353273,1,0,0:0:0:0:
64,192,353966,1,0,0:0:0:0:
320,192,353966,1,0,0:0:0:0:
448,192,353966,1,0,0:0:0:0:
192,192,354196,1,0,0:0:0:0:
448,192,354196,1,0,0:0:0:0:
448,192,354889,1,0,0:0:0:0:
64,192,354889,1,0,0:0:0:0:
192,192,354889,1,0,0:0:0:0:
320,192,355120,1,0,0:0:0:0:
64,192,355120,1,0,0:0:0:0:
192,192,355812,1,0,0:0:0:0:
320,192,355812,1,0,0:0:0:0:
448,192,355812,1,0,0:0:0:0:
192,192,356043,1,0,0:0:0:0:
64,192,356043,1,0,0:0:0:0:
320,192,356273,1,0,0:0:0:0:
448,192,356273,1,0,0:0:0:0:
64,192,356273,1,0,0:0:0:0:
192,192,356504,1,0,0:0:0:0:
448,192,356504,1,0,0:0:0:0:
64,192,356504,1,0,0:0:0:0:
320,192,356793,1,0,0:0:0:0:
448,192,356793,1,0,0:0:0:0:
192,192,356850,1,0,0:0:0:0:
64,192,356850,1,0,0:0:0:0:
320,192,356908,1,0,0:0:0:0:
448,192,356908,1,0,0:0:0:0:
192,192,356966,1,0,0:0:0:0:
64,192,356966,1,0,0:0:0:0:
448,192,356966,1,0,0:0:0:0:
320,192,357196,1,0,0:0:0:0:
448,192,357196,1,0,0:0:0:0:
64,192,357196,1,0,0:0:0:0:
192,192,357427,1,0,0:0:0:0:
64,192,357427,1,0,0:0:0:0:
448,192,357427,1,0,0:0:0:0:
448,192,357658,1,0,0:0:0:0:
320,192,357658,1,0,0:0:0:0:
192,192,357889,1,0,0:0:0:0:
64,192,357889,1,0,0:0:0:0:
320,192,357889,1,0,0:0:0:0:
192,192,358120,1,0,0:0:0:0:
320,192,358120,1,0,0:0:0:0:
448,192,358120,1,0,0:0:0:0:
320,192,358350,1,0,0:0:0:0:
64,192,358350,1,0,0:0:0:0:
192,192,358581,1,0,0:0:0:0:
64,192,358581,1,0,0:0:0:0:
320,192,358639,1,0,0:0:0:0:
448,192,358639,1,0,0:0:0:0:
192,192,358696,1,0,0:0:0:0:
64,192,358696,1,0,0:0:0:0:
320,192,358754,1,0,0:0:0:0:
448,192,358754,1,0,0:0:0:0:
64,192,358812,128,0,359043:0:0:0:0:
192,192,358812,128,0,359043:0:0:0:0:
448,192,358812,1,0,0:0:0:0:
