osu file format v14

[General]
AudioFilename: audio.mp3
AudioLeadIn: 0
PreviewTime: 134608
Countdown: 0
SampleSet: Normal
StackLeniency: 0.5
Mode: 0
LetterboxInBreaks: 1
WidescreenStoryboard: 1

[Editor]
Bookmarks: 148885
DistanceSpacing: 0.5
BeatDivisor: 4
GridSize: 4
TimelineZoom: 2.3

[Metadata]
Title:M.I.A (Missing In Action)
TitleUnicode:M.I.A (Missing In Action)
Artist:Avenged Sevenfold
ArtistUnicode:Avenged Sevenfold
Creator:Senzzen
Version:Nemesis
Source:
Tags:Rock, mia
BeatmapID:1171338
BeatmapSetID:553193

[Difficulty]
HPDrainRate:6
CircleSize:4
OverallDifficulty:8.6
ApproachRate:9
SliderMultiplier:1.4
SliderTickRate:2

[Events]
//Background and Video events
0,0,"Lin_Wenjun_fantasy_dark_warrior_knight_battle_weapons_army_fire_art_1920x1080.jpg",0,0
//Break Periods
2,88524,90088
2,91070,91724
2,93979,96270
//Storyboard Layer 0 (Background)
//Storyboard Layer 1 (Fail)
//Storyboard Layer 2 (Pass)
//Storyboard Layer 3 (Foreground)
//Storyboard Sound Samples

[TimingPoints]
225,428.571428571429,3,1,1,37,1,0
22052,-200,3,1,1,37,0,0
22802,-100,3,1,1,37,0,0
25909,-200,3,1,1,37,0,0
26766,-100,3,1,1,37,0,0
28480,-200,3,1,1,37,0,0
29123,-100,3,1,1,37,0,0
30409,-200,3,1,1,37,0,0
31695,-100,3,1,1,37,0,0
33623,-200,3,1,1,37,0,0
34266,-100,3,1,1,37,0,0
36195,-200,3,1,1,37,0,0
37052,-100,3,1,1,37,0,0
38766,-149.253731343284,3,1,1,37,0,0
39409,-100,3,1,1,37,0,0
40510,-200,3,1,1,37,0,0
41338,-200,3,1,1,37,0,0
49052,-200,3,1,1,37,0,0
51623,-200,3,1,1,37,0,0
55510,-200,3,1,1,37,0,0
56552,-100,3,1,1,37,0,0
59338,-200,3,1,1,37,0,0
59980,-100,3,1,1,37,0,0
61266,-200,3,1,1,37,0,0
62153,-200,3,1,1,20,0,0
62582,-200,3,1,1,30,0,0
63225,-200,3,1,1,40,0,0
63867,-200,3,1,1,50,0,0
64403,-200,3,1,1,60,0,0
64870,363.636363636364,4,1,1,60,1,0
64870,-71.4285714285714,4,1,1,60,0,0
65051,-71.4285714285714,4,1,1,20,0,0
65233,-71.4285714285714,4,1,1,60,0,0
65415,-71.4285714285714,4,1,1,20,0,0
65597,-71.4285714285714,4,1,1,60,0,0
66051,-133.333333333333,4,1,1,60,0,0
66506,-71.4285714285714,4,1,1,20,0,0
66688,-71.4285714285714,4,1,1,60,0,0
67597,-133.333333333333,4,1,1,60,0,0
67960,-133.333333333333,4,1,1,20,0,0
68051,-133.333333333333,4,1,1,50,0,0
69779,-133.333333333333,4,1,1,20,0,0
69960,-133.333333333333,4,1,1,60,0,0
70142,-71.4285714285714,4,1,1,60,0,0
70506,-133.333333333333,4,1,1,60,0,0
70870,-133.333333333333,4,1,1,20,0,0
71051,-71.4285714285714,4,1,1,60,0,0
71233,-71.4285714285714,4,1,1,20,0,0
71415,-71.4285714285714,4,1,1,60,0,0
71779,-71.4285714285714,4,1,1,20,0,0
71960,-133.333333333333,4,1,1,60,0,0
72324,-71.4285714285714,4,1,1,20,0,0
72506,-71.4285714285714,4,1,1,60,0,0
73051,-71.4285714285714,4,1,1,60,0,0
73233,-71.4285714285714,4,1,1,20,0,0
73415,-71.4285714285714,4,1,1,60,0,0
74142,-133.333333333333,4,1,1,60,0,0
74506,-133.333333333333,4,1,1,50,0,0
74688,-133.333333333333,4,1,1,60,0,0
75051,-71.4285714285714,4,1,1,20,0,0
75233,-71.4285714285714,4,1,1,45,0,0
75597,-71.4285714285714,4,1,1,60,0,0
75960,-71.4285714285714,4,1,1,75,0,0
76324,-71.4285714285714,4,1,1,60,0,0
76688,-71.4285714285714,4,1,1,20,0,0
76870,-71.4285714285714,4,1,1,60,0,0
77051,-71.4285714285714,4,1,1,20,0,0
77233,-71.4285714285714,4,1,1,60,0,0
77779,-133.333333333333,4,1,1,60,0,0
78142,-71.4285714285714,4,1,1,20,0,0
78324,-71.4285714285714,4,1,1,60,0,0
79051,-71.4285714285714,4,1,1,60,0,0
79233,-133.333333333333,4,1,1,60,0,0
79597,-133.333333333333,4,1,1,20,0,0
79688,-133.333333333333,4,1,1,50,0,0
81415,-133.333333333333,4,1,1,20,0,0
81597,-133.333333333333,4,1,1,60,0,0
81779,-71.4285714285714,4,1,1,60,0,0
82142,-133.333333333333,4,1,1,60,0,0
82506,-133.333333333333,4,1,1,20,0,0
82688,-71.4285714285714,4,1,1,60,0,0
82870,-71.4285714285714,4,1,1,20,0,0
83051,-71.4285714285714,4,1,1,60,0,0
83597,-133.333333333333,4,1,1,60,0,0
83960,-71.4285714285714,4,1,1,20,0,0
84142,-71.4285714285714,4,1,1,60,0,0
85779,-133.333333333333,4,1,1,60,0,0
86142,-133.333333333333,4,1,1,50,0,0
86324,-133.333333333333,4,1,1,60,0,0
86688,-71.4285714285714,4,1,1,20,0,0
86870,-71.4285714285714,4,1,1,45,0,0
87233,-71.4285714285714,4,1,1,60,0,0
87597,-71.4285714285714,4,1,1,75,0,0
88142,-71.4285714285714,4,1,1,60,0,0
92324,-133.333333333333,4,1,1,60,0,0
92688,-71.4285714285714,4,1,1,60,0,0
98142,-133.333333333333,4,1,1,60,0,0
98506,-71.4285714285714,4,1,1,20,0,0
98688,-71.4285714285714,4,1,1,40,0,0
98870,-133.333333333333,4,1,1,60,0,0
99233,-71.4285714285714,4,1,1,20,0,0
99415,-71.4285714285714,4,1,1,40,0,0
99960,-133.333333333333,4,1,1,25,0,0
102324,-71.4285714285714,4,1,1,60,0,0
102688,-133.333333333333,4,1,1,25,0,0
103960,-133.333333333333,4,1,1,60,0,0
104324,-71.4285714285714,4,1,1,20,0,0
104506,-71.4285714285714,4,1,1,60,0,0
105779,-133.333333333333,4,1,1,25,0,0
108506,-71.4285714285714,4,1,1,60,0,0
108870,-133.333333333333,4,1,1,25,0,0
109779,-133.333333333333,4,1,1,60,0,0
110142,-133.333333333333,4,1,1,20,0,0
110324,-71.4285714285714,4,1,1,40,0,0
110506,-133.333333333333,4,1,1,60,0,0
110870,-71.4285714285714,4,1,1,20,0,0
111051,-71.4285714285714,4,1,1,60,0,0
111233,-71.4285714285714,4,1,1,30,0,0
111415,-71.4285714285714,4,1,1,60,0,0
111597,-71.4285714285714,4,1,1,50,0,0
111960,-142.857142857143,4,1,1,40,0,0
112324,-71.4285714285714,4,1,1,20,0,0
112506,-71.4285714285714,4,1,1,60,0,0
114142,-71.4285714285714,4,1,1,30,0,0
114324,-71.4285714285714,4,1,1,60,0,0
114506,-71.4285714285714,4,1,1,50,0,0
114870,-142.857142857143,4,1,1,40,0,0
115233,-71.4285714285714,4,1,1,20,0,0
115415,-71.4285714285714,4,1,1,60,0,0
117051,-71.4285714285714,4,1,1,30,0,0
117233,-90.9090909090909,4,1,1,60,0,0
118870,-90.9090909090909,4,1,1,20,0,0
119051,-90.9090909090909,4,1,1,60,0,0
120324,-90.9090909090909,4,1,1,20,0,0
120506,-90.9090909090909,4,1,1,60,0,0
121233,-90.9090909090909,4,1,1,20,0,0
121415,-90.9090909090909,4,1,1,60,0,0
121779,-90.9090909090909,4,1,1,20,0,0
121960,-90.9090909090909,4,1,1,60,0,0
122870,-90.9090909090909,4,1,1,30,0,0
123051,-71.4285714285714,4,1,1,60,0,0
123233,-71.4285714285714,4,1,1,50,0,0
123597,-142.857142857143,4,1,1,40,0,0
123960,-142.857142857143,4,1,1,20,0,0
124142,-142.857142857143,4,1,1,60,0,0
125779,-142.857142857143,4,1,1,30,0,0
125960,-71.4285714285714,4,1,1,60,0,0
126142,-71.4285714285714,4,1,1,50,0,0
126506,-142.857142857143,4,1,1,40,0,0
126870,-142.857142857143,4,1,1,20,0,0
127051,-142.857142857143,4,1,1,60,0,0
128688,-142.857142857143,4,1,1,30,0,0
128870,-90.9090909090909,4,1,1,60,0,0
130506,-90.9090909090909,4,1,1,20,0,0
130688,-90.9090909090909,4,1,1,60,0,0
131960,-90.9090909090909,4,1,1,20,0,0
132142,-90.9090909090909,4,1,1,60,0,0
132870,-90.9090909090909,4,1,1,20,0,0
133051,-200,4,1,1,60,0,0
134688,-66.6666666666667,4,1,1,60,0,1
134870,-66.6666666666667,4,1,1,20,0,1
135051,-66.6666666666667,4,1,1,60,0,1
135779,-66.6666666666667,4,1,1,20,0,1
135960,-66.6666666666667,4,1,1,60,0,1
136688,-66.6666666666667,4,1,1,20,0,1
136870,-66.6666666666667,4,1,1,60,0,1
137779,-66.6666666666667,4,1,1,20,0,1
137960,-66.6666666666667,4,1,1,60,0,1
138688,-66.6666666666667,4,1,1,20,0,1
138870,-66.6666666666667,4,1,1,20,0,1
139051,-66.6666666666667,4,1,1,25,0,1
139233,-66.6666666666667,4,1,1,30,0,1
139415,-66.6666666666667,4,1,1,35,0,1
139597,-66.6666666666667,4,1,1,40,0,1
139779,-66.6666666666667,4,1,1,45,0,1
139960,-66.6666666666667,4,1,1,50,0,1
140142,-66.6666666666667,4,1,1,55,0,1
140324,-66.6666666666667,4,1,1,60,0,1
140688,-66.6666666666667,4,1,1,20,0,1
140870,-66.6666666666667,4,1,1,60,0,1
141597,-66.6666666666667,4,1,1,20,0,1
141779,-66.6666666666667,4,1,1,60,0,1
142870,-66.6666666666667,4,1,1,30,0,1
143051,-66.6666666666667,4,1,1,60,0,1
143233,-66.6666666666667,4,1,1,30,0,1
143415,-66.6666666666667,4,1,1,30,0,1
144142,-66.6666666666667,4,1,1,45,0,1
144870,-66.6666666666667,4,1,1,60,0,1
145779,-66.6666666666667,4,1,1,30,0,1
145870,-66.6666666666667,4,1,1,35,0,1
145960,-66.6666666666667,4,1,1,40,0,1
146051,-66.6666666666667,4,1,1,45,0,1
146142,-66.6666666666667,4,1,1,50,0,1
146233,-66.6666666666667,4,1,1,55,0,1
146324,-66.6666666666667,4,1,1,60,0,1
146506,-66.6666666666667,4,1,1,20,0,1
146687,-66.6666666666667,4,1,1,60,0,1
147415,-66.6666666666667,4,1,1,20,0,1
147596,-66.6666666666667,4,1,1,60,0,1
148324,-66.6666666666667,4,1,1,20,0,1
148506,-66.6666666666667,4,1,1,60,0,1
149415,-66.6666666666667,4,1,1,20,0,1
149596,-66.6666666666667,4,1,1,60,0,1
150324,-66.6666666666667,4,1,1,20,0,1
150506,-66.6666666666667,4,1,1,20,0,1
150687,-66.6666666666667,4,1,1,25,0,1
150869,-66.6666666666667,4,1,1,30,0,1
151051,-66.6666666666667,4,1,1,35,0,1
151233,-66.6666666666667,4,1,1,40,0,1
151415,-66.6666666666667,4,1,1,45,0,1
151596,-66.6666666666667,4,1,1,50,0,1
151778,-66.6666666666667,4,1,1,55,0,1
151960,-66.6666666666667,4,1,1,60,0,1
152324,-66.6666666666667,4,1,1,20,0,1
152506,-66.6666666666667,4,1,1,60,0,1
153233,-66.6666666666667,4,1,1,20,0,1
153415,-66.6666666666667,4,1,1,60,0,1
154506,-66.6666666666667,4,1,1,20,0,1
154688,-66.6666666666667,4,1,1,60,0,1
154870,-66.6666666666667,4,1,1,20,0,1
155051,-66.6666666666667,4,1,1,30,0,1
155779,-66.6666666666667,4,1,1,45,0,1
156506,-66.6666666666667,4,1,1,60,0,1
156688,-66.6666666666667,4,1,1,50,0,1
157415,-66.6666666666667,4,1,1,30,0,1
157506,-66.6666666666667,4,1,1,35,0,1
157597,-66.6666666666667,4,1,1,40,0,1
157688,-66.6666666666667,4,1,1,45,0,1
157779,-71.4285714285714,4,1,1,50,0,1
157870,-66.6666666666667,4,1,1,55,0,1
157960,-71.4285714285714,4,1,1,60,0,0
158141,-71.4285714285714,4,1,1,20,0,0
158323,-71.4285714285714,4,1,1,60,0,0
158505,-71.4285714285714,4,1,1,20,0,0
158687,-71.4285714285714,4,1,1,60,0,0
159141,-133.333333333333,4,1,1,60,0,0
159233,-133.333333333333,4,1,1,60,0,0
159596,-71.4285714285714,4,1,1,20,0,0
159778,-71.4285714285714,4,1,1,60,0,0
159960,-71.4285714285714,4,1,1,20,0,0
160142,-71.4285714285714,4,1,1,60,0,0
160687,-133.333333333333,4,1,1,60,0,0
161050,-133.333333333333,4,1,1,20,0,0
161141,-133.333333333333,4,1,1,50,0,0
162869,-133.333333333333,4,1,1,20,0,0
163050,-133.333333333333,4,1,1,60,0,0
163232,-71.4285714285714,4,1,1,60,0,0
163596,-133.333333333333,4,1,1,60,0,0
163960,-133.333333333333,4,1,1,20,0,0
164141,-71.4285714285714,4,1,1,60,0,0
164323,-71.4285714285714,4,1,1,20,0,0
164505,-71.4285714285714,4,1,1,60,0,0
164870,-71.4285714285714,4,1,1,20,0,0
165050,-133.333333333333,4,1,1,60,0,0
165414,-71.4285714285714,4,1,1,20,0,0
165596,-71.4285714285714,4,1,1,60,0,0
166324,-71.4285714285714,4,1,1,20,0,0
166506,-71.4285714285714,4,1,1,60,0,0
167233,-133.333333333333,4,1,1,60,0,0
167596,-133.333333333333,4,1,1,50,0,0
167778,-133.333333333333,4,1,1,60,0,0
168141,-71.4285714285714,4,1,1,20,0,0
168323,-71.4285714285714,4,1,1,45,0,0
168687,-71.4285714285714,4,1,1,60,0,0
169050,-71.4285714285714,4,1,1,75,0,0
169414,-71.4285714285714,4,1,1,60,0,0
169778,-71.4285714285714,4,1,1,20,0,0
169960,-71.4285714285714,4,1,1,60,0,0
170141,-71.4285714285714,4,1,1,20,0,0
170323,-71.4285714285714,4,1,1,60,0,0
170870,-133.333333333333,4,1,1,60,0,0
171232,-71.4285714285714,4,1,1,20,0,0
171414,-71.4285714285714,4,1,1,60,0,0
171597,-71.4285714285714,4,1,1,20,0,0
171779,-71.4285714285714,4,1,1,60,0,0
172324,-133.333333333333,4,1,1,60,0,0
172687,-133.333333333333,4,1,1,20,0,0
172778,-133.333333333333,4,1,1,50,0,0
174505,-133.333333333333,4,1,1,20,0,0
174687,-133.333333333333,4,1,1,60,0,0
174869,-71.4285714285714,4,1,1,60,0,0
175233,-133.333333333333,4,1,1,60,0,0
175596,-133.333333333333,4,1,1,20,0,0
175778,-71.4285714285714,4,1,1,60,0,0
175960,-71.4285714285714,4,1,1,20,0,0
176141,-71.4285714285714,4,1,1,60,0,0
176688,-133.333333333333,4,1,1,60,0,0
177050,-71.4285714285714,4,1,1,20,0,0
177232,-71.4285714285714,4,1,1,60,0,0
177960,-71.4285714285714,4,1,1,20,0,0
178142,-71.4285714285714,4,1,1,60,0,0
178870,-133.333333333333,4,1,1,60,0,0
179232,-133.333333333333,4,1,1,50,0,0
179414,-133.333333333333,4,1,1,60,0,0
179778,-71.4285714285714,4,1,1,20,0,0
179960,-71.4285714285714,4,1,1,45,0,0
180323,-71.4285714285714,4,1,1,60,0,0
180687,-71.4285714285714,4,1,1,75,0,0
181051,-71.4285714285714,4,1,1,30,0,0
181233,-71.4285714285714,4,1,1,60,0,0
181415,-71.4285714285714,4,1,1,50,0,0
181778,-142.857142857143,4,1,1,40,0,0
182142,-71.4285714285714,4,1,1,20,0,0
182324,-71.4285714285714,4,1,1,60,0,0
183960,-71.4285714285714,4,1,1,30,0,0
184142,-71.4285714285714,4,1,1,60,0,0
184324,-71.4285714285714,4,1,1,50,0,0
184688,-142.857142857143,4,1,1,40,0,0
185051,-71.4285714285714,4,1,1,20,0,0
185233,-71.4285714285714,4,1,1,60,0,0
186869,-71.4285714285714,4,1,1,30,0,0
187051,-90.9090909090909,4,1,1,60,0,0
188688,-90.9090909090909,4,1,1,20,0,0
188869,-90.9090909090909,4,1,1,60,0,0
190142,-90.9090909090909,4,1,1,20,0,0
190324,-90.9090909090909,4,1,1,60,0,0
191051,-90.9090909090909,4,1,1,20,0,0
191233,-90.9090909090909,4,1,1,60,0,0
191597,-90.9090909090909,4,1,1,20,0,0
191778,-90.9090909090909,4,1,1,60,0,0
192688,-90.9090909090909,4,1,1,30,0,0
192869,-71.4285714285714,4,1,1,60,0,0
193051,-71.4285714285714,4,1,1,50,0,0
193415,-142.857142857143,4,1,1,40,0,0
193778,-142.857142857143,4,1,1,20,0,0
193960,-142.857142857143,4,1,1,60,0,0
195597,-142.857142857143,4,1,1,30,0,0
195778,-71.4285714285714,4,1,1,60,0,0
195960,-71.4285714285714,4,1,1,50,0,0
196324,-142.857142857143,4,1,1,40,0,0
196688,-142.857142857143,4,1,1,20,0,0
196869,-142.857142857143,4,1,1,60,0,0
198506,-142.857142857143,4,1,1,30,0,0
198688,-90.9090909090909,4,1,1,60,0,0
200324,-90.9090909090909,4,1,1,20,0,0
200506,-90.9090909090909,4,1,1,60,0,0
201778,-90.9090909090909,4,1,1,20,0,0
201960,-90.9090909090909,4,1,1,60,0,0
202688,-90.9090909090909,4,1,1,20,0,0
202869,-200,4,1,1,60,0,0
204506,-66.6666666666667,4,1,1,60,0,1
204688,-66.6666666666667,4,1,1,20,0,1
204869,-66.6666666666667,4,1,1,60,0,1
205597,-66.6666666666667,4,1,1,20,0,1
205778,-66.6666666666667,4,1,1,60,0,1
206506,-66.6666666666667,4,1,1,20,0,1
206688,-66.6666666666667,4,1,1,60,0,1
207597,-66.6666666666667,4,1,1,20,0,1
207778,-66.6666666666667,4,1,1,60,0,1
208506,-66.6666666666667,4,1,1,20,0,1
208688,-66.6666666666667,4,1,1,20,0,1
208869,-66.6666666666667,4,1,1,25,0,1
209051,-66.6666666666667,4,1,1,30,0,1
209233,-66.6666666666667,4,1,1,35,0,1
209415,-66.6666666666667,4,1,1,40,0,1
209597,-66.6666666666667,4,1,1,45,0,1
209778,-66.6666666666667,4,1,1,50,0,1
209960,-66.6666666666667,4,1,1,55,0,1
210142,-66.6666666666667,4,1,1,60,0,1
210506,-66.6666666666667,4,1,1,20,0,1
210688,-66.6666666666667,4,1,1,60,0,1
211415,-66.6666666666667,4,1,1,20,0,1
211597,-66.6666666666667,4,1,1,60,0,1
212688,-66.6666666666667,4,1,1,30,0,1
212869,-66.6666666666667,4,1,1,60,0,1
213051,-66.6666666666667,4,1,1,30,0,1
213233,-66.6666666666667,4,1,1,30,0,1
213960,-66.6666666666667,4,1,1,45,0,1
214688,-66.6666666666667,4,1,1,60,0,1
215597,-66.6666666666667,4,1,1,30,0,1
215688,-66.6666666666667,4,1,1,35,0,1
215778,-66.6666666666667,4,1,1,40,0,1
215869,-66.6666666666667,4,1,1,45,0,1
215960,-66.6666666666667,4,1,1,50,0,1
216051,-66.6666666666667,4,1,1,55,0,1
216142,-66.6666666666667,4,1,1,60,0,1
216324,-66.6666666666667,4,1,1,20,0,1
216505,-66.6666666666667,4,1,1,60,0,1
217233,-66.6666666666667,4,1,1,20,0,1
217414,-66.6666666666667,4,1,1,60,0,1
218142,-66.6666666666667,4,1,1,20,0,1
218324,-66.6666666666667,4,1,1,60,0,1
219233,-66.6666666666667,4,1,1,20,0,1
219414,-66.6666666666667,4,1,1,60,0,1
220142,-66.6666666666667,4,1,1,20,0,1
220324,-66.6666666666667,4,1,1,20,0,1
220505,-66.6666666666667,4,1,1,25,0,1
220687,-66.6666666666667,4,1,1,30,0,1
220869,-66.6666666666667,4,1,1,35,0,1
221051,-66.6666666666667,4,1,1,40,0,1
221233,-66.6666666666667,4,1,1,45,0,1
221414,-66.6666666666667,4,1,1,50,0,1
221596,-66.6666666666667,4,1,1,55,0,1
221778,-66.6666666666667,4,1,1,60,0,1
222142,-66.6666666666667,4,1,1,20,0,1
222324,-66.6666666666667,4,1,1,60,0,1
223051,-66.6666666666667,4,1,1,20,0,1
223233,-66.6666666666667,4,1,1,60,0,1
224324,-66.6666666666667,4,1,1,20,0,1
224506,-66.6666666666667,4,1,1,60,0,1
224688,-66.6666666666667,4,1,1,20,0,1
224869,-66.6666666666667,4,1,1,30,0,1
225597,-66.6666666666667,4,1,1,45,0,1
226324,-66.6666666666667,4,1,1,60,0,1
226506,-66.6666666666667,4,1,1,50,0,1
227233,-66.6666666666667,4,1,1,30,0,1
227324,-66.6666666666667,4,1,1,35,0,1
227415,-133.333333333333,4,1,1,40,0,1
227506,-66.6666666666667,4,1,1,45,0,1
227597,-71.4285714285714,4,1,1,50,0,1
227688,-66.6666666666667,4,1,1,55,0,1
227779,363.636363636364,3,1,1,60,1,0
227779,-100,3,1,1,60,0,0
228324,-100,3,1,1,20,0,0
228506,-100,3,1,1,40,0,0
229233,-100,3,1,1,40,0,0
229597,-100,3,1,1,20,0,0
229960,-100,3,1,1,60,0,0
230506,-100,3,1,1,20,0,0
230688,-100,3,1,1,40,0,0
231051,-100,3,1,1,60,0,0
231415,-100,3,1,1,40,0,0
231779,-100,3,1,1,20,0,0
231960,-100,3,1,1,40,0,0
232142,-100,3,1,1,60,0,0
232506,-100,3,1,1,20,0,0
232688,-100,3,1,1,60,0,0
233597,-100,3,1,1,50,0,0
233960,-100,3,1,1,40,0,0
234324,-100,3,1,1,60,0,0
234869,-100,3,1,1,20,0,0
235051,-100,3,1,1,40,0,0
235415,-100,3,1,1,60,0,0
235779,-100,3,1,1,50,0,0
236324,-100,3,1,1,40,0,0
236506,-100,3,1,1,60,0,0
237051,-100,3,1,1,20,0,0
237233,-100,3,1,1,40,0,0
237597,-100,3,1,1,60,0,0
237960,-100,3,1,1,40,0,0
238324,-100,3,1,1,20,0,0
238688,-100,3,1,1,60,0,0
239233,-100,3,1,1,20,0,0
239415,-100,3,1,1,40,0,0
239779,-100,3,1,1,60,0,0
240142,-100,3,1,1,40,0,0
240506,-100,3,1,1,20,0,0
240869,-100,3,1,1,60,0,0
241415,-100,3,1,1,20,0,0
241597,-100,3,1,1,40,0,0
241960,-100,3,1,1,60,0,0
242324,-100,3,1,1,40,0,0
242688,-100,3,1,1,20,0,0
243051,-100,3,1,1,60,0,0
243779,-100,3,1,1,40,0,0
244142,-100,3,1,1,60,0,0
244506,-100,3,1,1,40,0,0
244869,-100,3,1,1,20,0,0
245233,-100,3,1,1,60,0,0
245597,-100,3,1,1,30,0,0
246324,-100,3,1,1,60,0,0
246688,-100,3,1,1,30,0,0
247415,-100,3,1,1,60,0,0
247779,-100,3,1,1,30,0,0
248506,-100,3,1,1,60,0,0
248869,-100,3,1,1,30,0,0
250688,-100,3,1,1,60,0,0
251051,-100,3,1,1,30,0,0
251779,-100,3,1,1,60,0,0
252142,-100,3,1,1,30,0,0
252869,-100,3,1,1,60,0,0
253960,-100,3,1,1,100,0,0
254051,-100,3,1,1,40,0,0
255051,-100,3,1,1,100,0,0
255142,-100,3,1,1,40,0,0
256142,-100,3,1,1,100,0,0
256233,-100,3,1,1,40,0,0
257233,363.636363636364,3,1,1,40,1,0
257233,-100,3,1,1,100,0,0
257323,-100,3,1,1,40,0,0
258323,-100,3,1,1,60,0,0
258687,-100,3,1,1,30,0,0
259414,-100,3,1,1,60,0,0
259778,-100,3,1,1,30,0,0
260505,-100,3,1,1,60,0,0
260869,-100,3,1,1,30,0,0
261596,-100,3,1,1,60,0,0
261960,-100,3,1,1,30,0,0
263778,-100,3,1,1,60,0,0
264142,-100,3,1,1,30,0,0
264869,-100,3,1,1,60,0,0
265233,-100,3,1,1,30,0,0
265960,-100,3,1,1,60,0,0
267051,-100,3,1,1,100,0,0
267142,-100,3,1,1,40,0,0
268142,-100,3,1,1,100,0,0
268233,-100,3,1,1,40,0,0
269233,-100,3,1,1,100,0,0
269323,-100,3,1,1,40,0,0
270323,-100,3,1,1,100,0,0
270414,-100,3,1,1,40,0,0
271415,-133.333333333333,3,1,1,60,0,0
271960,-133.333333333333,3,1,1,40,0,0
272142,-133.333333333333,3,1,1,60,0,0
272869,-133.333333333333,3,1,1,40,0,0
273233,-133.333333333333,3,1,1,20,0,0
273596,-133.333333333333,3,1,1,60,0,0
274142,-133.333333333333,3,1,1,40,0,0
274687,-133.333333333333,3,1,1,60,0,0
275051,-133.333333333333,3,1,1,40,0,0
275414,-133.333333333333,3,1,1,20,0,0
275778,-133.333333333333,3,1,1,60,0,0
276142,-133.333333333333,3,1,1,50,0,0
276505,-133.333333333333,3,1,1,40,0,0
276869,-133.333333333333,3,1,1,60,0,0
277233,-133.333333333333,3,1,1,50,0,0
277596,-133.333333333333,3,1,1,40,0,0
277960,-133.333333333333,3,1,1,60,0,0
278323,-133.333333333333,3,1,1,50,0,0
278687,-133.333333333333,3,1,1,40,0,0
279051,-100,3,1,1,20,0,0
279142,-100,3,1,1,23,0,0
279233,-100,3,1,1,26,0,0
279324,-100,3,1,1,29,0,0
279415,-100,3,1,1,32,0,0
279506,-100,3,1,1,35,0,0
279597,-100,3,1,1,38,0,0
279688,-100,3,1,1,41,0,0
279779,-100,3,1,1,44,0,0
279869,-100,3,1,1,47,0,0
279960,-100,3,1,1,50,0,0
280051,-100,3,1,1,55,0,0
280142,363.636363636364,4,1,1,60,1,1
280142,-66.6666666666667,4,1,1,60,0,1
282323,-133.333333333333,4,1,1,60,0,1
287414,-66.6666666666667,4,1,1,60,0,1
288142,-133.333333333333,4,1,1,60,0,1
288869,-66.6666666666667,4,1,1,60,0,1
289596,-133.333333333333,4,1,1,60,0,1
291778,-74.0740740740741,4,1,1,60,0,1
293232,-50,4,1,1,60,0,1
293657,-50,4,1,1,5,0,1
293960,-50,4,1,1,60,0,1
296142,-66.6666666666667,4,1,1,60,0,1
296187,-66.6666666666667,4,1,1,5,0,1
296232,-66.6666666666667,4,1,1,60,0,1
296278,-66.6666666666667,4,1,1,5,0,1
296323,-66.6666666666667,4,1,1,60,0,1
296369,-66.6666666666667,4,1,1,5,0,1
296414,-66.6666666666667,4,1,1,60,0,1
296460,-66.6666666666667,4,1,1,5,0,1
296505,-66.6666666666667,4,1,1,60,0,1
296551,-66.6666666666667,4,1,1,5,0,1
296596,-66.6666666666667,4,1,1,60,0,1
296642,-66.6666666666667,4,1,1,5,0,1
296687,-66.6666666666667,4,1,1,60,0,1
296732,-66.6666666666667,4,1,1,5,0,1
296778,-66.6666666666667,4,1,1,60,0,1
296823,-66.6666666666667,4,1,1,60,0,1
296869,-133.333333333333,4,1,1,60,0,1
299414,-50,4,1,1,60,0,1
299596,-50,4,1,1,20,0,1
299687,-50,4,1,1,60,0,1
300505,-66.6666666666667,4,1,1,60,0,1
301051,-133.333333333333,4,1,1,60,0,1
301778,-80,4,1,1,60,0,1
301960,-80,4,1,1,40,0,1
303414,-66.6666666666667,4,1,1,60,0,0
306142,-200,4,1,1,60,0,0
306687,-66.6666666666667,4,1,1,60,0,0
309051,-200,4,1,1,60,0,0
309960,-66.6666666666667,4,1,1,60,0,0
311960,-200,4,1,1,60,0,0
313596,-200,4,1,1,40,0,0
315051,-66.6666666666667,4,1,1,60,0,0
317778,-200,4,1,1,60,0,0
318323,-66.6666666666667,4,1,1,60,0,0
320687,-200,4,1,1,60,0,0
321232,-66.6666666666667,4,1,1,60,0,0
323596,-200,4,1,1,60,0,0
326687,-80,4,1,1,40,0,0
327232,-80,4,1,1,20,0,0
327414,-80,4,1,1,40,0,0
327960,-133.333333333333,4,1,1,60,0,0
329232,-80,4,1,1,60,0,0
329414,-80,4,1,1,20,0,0
329596,-80,4,1,1,40,0,0
330505,-80,4,1,1,20,0,0
330687,-80,4,1,1,40,0,0
330869,-133.333333333333,4,1,1,60,0,0
331414,-133.333333333333,4,1,1,40,0,0
332142,-80,4,1,1,60,0,0
332323,-80,4,1,1,20,0,0
332505,-80,4,1,1,40,0,0
333778,-133.333333333333,4,1,1,60,0,0
334869,-133.333333333333,4,1,1,20,0,0
335051,-133.333333333333,4,1,1,60,0,0
335414,-79.9999999999999,4,1,1,60,0,0
339596,-133.333333333333,4,1,1,60,0,0
342505,-80,4,1,1,60,0,0
343960,-80,4,1,1,20,0,0
344142,-80,4,1,1,60,0,0
344687,-133.333333333333,4,1,1,60,0,0
345414,-80,4,1,1,60,0,0
350687,-80,4,1,1,50,0,0
351414,-80,4,1,1,40,0,0
352142,-80,4,1,1,30,0,0
352869,-80,4,1,1,20,0,0

[Colours]
Combo1 : 128,64,64
Combo2 : 128,0,0
Combo3 : 255,0,0
Combo4 : 64,0,0
Combo5 : 255,128,0

[HitObjects]
128,228,225,6,0,P|164:264|256:264,1,140
331,213,1082,1,0,0:0:0:0:
418,168,1510,6,0,P|382:132|290:132,1,140
215,183,2367,1,0,0:0:0:0:
213,281,2796,6,0,P|281:261|313:173,1,140
400,158,3653,1,0,0:0:0:0:
445,244,4082,6,0,P|410:302|344:321,2,140
443,145,5368,6,0,P|411:109|319:101,1,140
226,113,6225,1,0,0:0:0:0:
136,152,6653,6,0,P|168:188|260:196,2,140
159,56,7939,5,0,0:0:0:0:
247,104,8368,1,0,0:0:0:0:
283,196,8796,1,0,0:0:0:0:
351,128,9225,5,0,0:0:0:0:
439,176,9653,1,0,0:0:0:0:
475,268,10082,1,0,0:0:0:0:
392,320,10510,6,0,P|312:316|256:288,1,140
178,233,11368,1,0,0:0:0:0:
128,148,11796,6,0,P|208:152|264:180,1,140
340,236,12654,1,0,0:0:0:0:
414,300,13082,6,0,P|366:318|278:314,1,140
195,261,13939,1,0,0:0:0:0:
234,179,14368,6,0,P|282:163|370:167,2,140
139,154,15653,6,0,P|142:220|199:274,1,140
281,308,16510,1,0,0:0:0:0:
367,261,16939,6,0,P|415:212|419:144,2,140
272,235,18225,5,0,0:0:0:0:
352,183,18653,1,0,0:0:0:0:
412,107,19082,1,0,0:0:0:0:
440,199,19510,5,0,0:0:0:0:
504,123,19939,1,0,0:0:0:0:
440,51,20368,1,0,0:0:0:0:
342,52,20796,6,0,P|287:51|213:92,1,140
323,130,21439,6,0,P|274:156|231:229,1,140
370,195,22082,6,0,P|341:242|340:321,1,131.25
230,297,23367,6,0,L|183:153,1,140
314,250,24010,6,0,L|221:130,1,140
376,189,24653,6,0,L|248:108,1,140
170,69,25510,6,0,L|159:145,1,70
72,144,25939,2,0,L|78:67,1,70
170,42,26796,1,0,0:0:0:0:
159,138,27225,6,0,P|155:186|227:230,2,140
226,159,28510,2,0,P|245:95|213:60,1,105
104,150,29796,5,0,0:0:0:0:
169,223,30225,1,0,0:0:0:0:
185,241,30439,2,0,P|221:265|277:249,2,105
155,201,31939,5,0,0:0:0:0:
92,131,32368,1,0,0:0:0:0:
162,68,32796,1,0,0:0:0:0:
224,138,33225,5,0,0:0:0:0:
155,193,33653,2,0,P|110:182|92:127,1,105
118,51,34939,2,0,P|93:100|110:183,1,140
170,256,35796,1,0,0:0:0:0:
228,182,36225,2,0,P|253:133|236:50,1,140
166,119,37510,6,0,P|139:180|47:166,2,140
243,119,38796,2,0,P|270:180|353:172,1,140.699993344574
434,173,39867,2,0,L|467:241,1,70
379,277,40510,2,0,L|357:207,1,70
244,225,41368,6,0,L|204:205,5,35
184,189,42653,2,0,P|156:153|132:93,1,105
133,73,43510,1,0,0:0:0:0:
237,36,43939,6,0,L|253:67,5,35
265,99,45225,2,0,P|281:139|265:235,1,140
140,237,46510,2,0,P|124:197|140:101,1,140
238,95,47796,6,0,L|306:128,2,70
210,160,49082,2,0,L|298:216,1,105
166,215,50367,2,0,L|224:264,2,70
97,156,51653,6,0,L|116:117,5,35
125,103,52939,2,0,P|175:58|224:44,1,105
234,43,53796,1,0,0:0:0:0:
363,114,54225,6,0,L|344:153,5,35
335,167,55511,2,0,P|285:212|272:221,1,70
234,220,56367,2,0,L|196:195,2,35
171,143,57225,6,0,P|176:92|234:19,1,140
343,93,58082,2,0,P|338:144|280:217,2,140
269,0,59367,6,0,L|215:56,1,70
203,69,60010,1,0,0:0:0:0:
114,205,60653,2,0,L|255:239,1,140
272,218,61296,2,0,L|169:189,1,105
256,192,62153,12,0,64510,0:0:0:0:
108,208,64870,6,8,B|172:256|220:260|220:264,1,97.9999970092774
328,195,65233,2,8,B|264:147|216:143|216:139,1,97.9999970092774
68,120,65597,1,0,0:0:0:0:
186,232,65779,1,8,0:0:0:0:
159,59,65960,1,0,0:0:0:0:
115,240,66142,6,8,P|108:278|173:309,1,105.000004005432
354,236,66688,5,8,0:0:0:0:
144,208,66870,1,0,0:0:0:0:
315,115,67051,1,8,0:0:0:0:
265,319,67233,1,0,0:0:0:0:
198,107,67415,1,0,0:0:0:0:
387,103,67597,6,8,P|413:125|396:190,1,105.000004005432
396,200,68051,5,0,0:0:0:0:
393,212,68142,1,0,0:0:0:0:
341,341,68324,2,0,L|350:376,2,26.2500010013581
264,197,68688,5,0,0:0:0:0:
259,214,68779,1,0,0:0:0:0:
253,231,68870,1,0,0:0:0:0:
195,346,69051,2,0,L|204:381,2,26.2500010013581
124,191,69415,5,0,0:0:0:0:
116,213,69506,1,0,0:0:0:0:
110,235,69597,1,0,0:0:0:0:
45,352,69779,2,8,L|54:387,2,26.2500010013581
23,183,70142,1,8,0:0:0:0:
167,323,70324,1,0,0:0:0:0:
77,130,70506,6,8,P|114:94|177:102,1,105.000004005432
170,235,71051,5,8,0:0:0:0:
227,50,71233,1,0,0:0:0:0:
289,247,71415,1,8,0:0:0:0:
125,132,71597,1,8,0:0:0:0:
125,132,71779,1,0,0:0:0:0:
329,113,71960,6,8,P|358:165|321:213,1,105.000004005432
331,303,72506,5,8,0:0:0:0:
153,279,72688,1,0,0:0:0:0:
388,222,72870,1,8,0:0:0:0:
108,193,73051,1,8,0:0:0:0:
101,186,73415,5,0,0:0:0:0:
346,187,73597,1,8,0:0:0:0:
196,326,73779,5,0,0:0:0:0:
241,101,73960,1,0,0:0:0:0:
413,219,74142,2,8,P|414:278|363:298,1,105.000004005432
107,263,74688,2,8,P|106:204|157:184,1,105.000004005432
322,141,75233,5,0,0:0:0:0:
268,175,75415,1,8,0:0:0:0:
360,148,75597,5,0,0:0:0:0:
234,174,75779,1,8,0:0:0:0:
425,177,75960,5,0,0:0:0:0:
170,139,76142,1,8,0:0:0:0:
455,230,76324,5,0,0:0:0:0:
455,230,76415,1,0,0:0:0:0:
455,230,76506,2,8,B|378:253|331:240|330:244,1,97.9999970092774
233,165,76870,2,8,B|309:141|356:154|357:150,1,97.9999970092774
470,154,77233,1,0,0:0:0:0:
339,298,77415,1,8,0:0:0:0:
368,96,77597,1,0,0:0:0:0:
453,229,77779,6,8,P|460:271|397:310,1,105.000004005432
257,350,78324,5,8,0:0:0:0:
131,208,78506,1,0,0:0:0:0:
332,323,78688,1,8,0:0:0:0:
185,129,78870,1,8,0:0:0:0:
185,129,79051,1,0,0:0:0:0:
341,204,79233,6,8,P|350:256|303:297,1,105.000004005432
302,293,79688,5,0,0:0:0:0:
289,294,79779,1,0,0:0:0:0:
153,295,79961,2,0,L|123:315,2,26.2500010013581
262,173,80325,5,0,0:0:0:0:
244,174,80416,1,0,0:0:0:0:
226,174,80507,1,0,0:0:0:0:
98,159,80688,2,0,L|68:179,2,26.2500010013581
219,39,81052,5,0,0:0:0:0:
196,39,81143,1,0,0:0:0:0:
173,41,81234,1,0,0:0:0:0:
49,26,81416,2,8,L|20:46,2,26.2500010013581
173,48,81779,1,8,0:0:0:0:
0,41,81960,1,0,0:0:0:0:
186,121,82142,6,8,P|189:162|132:206,1,105.000004005432
45,306,82688,5,8,0:0:0:0:
300,203,82870,1,0,0:0:0:0:
77,194,83051,1,8,0:0:0:0:
173,349,83233,1,8,0:0:0:0:
213,134,83415,1,0,0:0:0:0:
279,302,83597,6,8,P|262:337|188:359,1,105.000004005432
421,307,84142,5,8,0:0:0:0:
336,147,84324,1,0,0:0:0:0:
439,293,84506,1,8,0:0:0:0:
276,75,84688,1,8,0:0:0:0:
262,70,85051,5,0,0:0:0:0:
258,287,85233,1,8,0:0:0:0:
362,216,85415,5,0,0:0:0:0:
141,161,85597,1,0,0:0:0:0:
227,30,85779,2,8,P|257:41|279:106,1,105.000004005432
265,300,86324,2,8,P|235:289|213:224,1,105.000004005432
221,72,86870,5,0,0:0:0:0:
203,132,87052,1,8,0:0:0:0:
254,55,87234,5,0,0:0:0:0:
178,152,87416,1,8,0:0:0:0:
319,36,87597,5,0,0:0:0:0:
108,166,87779,1,8,0:0:0:0:
370,63,87960,5,0,0:0:0:0:
39,130,88142,1,8,0:0:0:0:
39,130,88324,1,8,0:0:0:0:
392,256,90688,5,8,0:0:0:0:
392,256,90870,1,8,0:0:0:0:
120,108,92324,6,8,P|96:136|120:192,1,105.000004005432
240,284,92870,1,0,0:0:0:0:
176,148,93051,1,8,0:0:0:0:
172,296,93233,1,0,0:0:0:0:
248,132,93415,1,8,0:0:0:0:
322,317,93597,1,8,0:0:0:0:
322,317,93779,1,8,0:0:0:0:
356,72,96870,5,8,0:0:0:0:
356,72,97051,1,8,0:0:0:0:
368,288,98142,6,8,P|320:280|304:228,1,105.000004005432
312,84,98688,1,8,0:0:0:0:
160,84,98870,2,8,P|168:132|220:148,1,105.000004005432
364,148,99415,1,0,0:0:0:0:
216,164,99597,1,8,0:0:0:0:
360,224,99779,1,0,0:0:0:0:
216,256,99960,6,0,L|184:288,2,26.2500010013581
212,180,100324,2,0,L|172:180,2,26.2500010013581
220,100,100688,2,0,L|192:84,2,26.2500010013581
298,96,101051,2,0,L|330:64,2,26.2500010013581
302,172,101415,2,0,L|342:172,2,26.2500010013581
294,252,101779,2,0,L|322:268,2,26.2500010013581
217,271,102142,1,0,0:0:0:0:
131,171,102324,1,8,0:0:0:0:
131,171,102506,1,8,0:0:0:0:
178,108,102688,6,0,L|155:80,2,26.2500010013581
256,106,103051,2,0,L|255:73,2,26.2500010013581
335,110,103415,2,0,L|356:86,2,26.2500010013581
378,176,103779,1,0,0:0:0:0:
367,253,103960,2,8,P|354:280|288:260,1,105.000004005432
241,128,104506,1,0,0:0:0:0:
371,163,104688,1,8,0:0:0:0:
290,267,104870,1,0,0:0:0:0:
229,95,105051,1,8,0:0:0:0:
371,163,105233,1,8,0:0:0:0:
371,163,105415,1,8,0:0:0:0:
288,234,105597,5,0,0:0:0:0:
209,229,105779,2,0,L|199:261,2,26.2500010013581
131,214,106142,2,0,L|113:237,2,26.2500010013581
81,152,106506,2,0,L|49:167,2,26.2500010013581
139,98,106870,2,0,L|149:66,2,26.2500010013581
217,113,107233,2,0,L|235:90,2,26.2500010013581
267,175,107597,2,0,L|299:160,2,26.2500010013581
275,253,107960,2,0,L|319:268,2,26.2500010013581
213,302,108324,1,0,0:0:0:0:
119,188,108506,1,8,0:0:0:0:
119,188,108688,1,8,0:0:0:0:
165,124,108870,6,0,L|152:96,2,26.2500010013581
243,114,109233,2,0,P|288:107|336:140,1,105.000004005432
326,231,109779,2,8,P|359:264|405:237,1,105.000004005432
472,108,110324,1,8,0:0:0:0:
334,153,110506,2,8,P|301:186|328:232,1,105.000004005432
455,198,111051,1,0,0:0:0:0:
335,126,111233,5,8,0:0:0:0:
335,126,111324,1,8,0:0:0:0:
335,126,111415,2,0,P|258:115|209:128,1,97.9999970092774
110,192,111779,1,8,0:0:0:0:
241,251,111960,6,8,P|318:262|367:249,1,97.9999970092774
485,210,112506,5,8,0:0:0:0:
431,98,112688,1,0,0:0:0:0:
485,210,112870,1,8,0:0:0:0:
365,178,113051,1,0,0:0:0:0:
485,210,113233,1,8,0:0:0:0:
405,39,113415,1,0,0:0:0:0:
485,210,113597,1,8,0:0:0:0:
295,159,113778,1,0,0:0:0:0:
485,210,113960,1,8,0:0:0:0:
276,44,114142,5,8,0:0:0:0:
276,44,114233,1,8,0:0:0:0:
276,44,114324,2,8,P|195:70|174:90,1,97.9999970092774
93,192,114688,1,8,0:0:0:0:
229,209,114870,6,8,P|310:183|331:163,1,97.9999970092774
456,170,115415,5,8,0:0:0:0:
375,263,115597,1,0,0:0:0:0:
456,170,115779,1,8,0:0:0:0:
474,293,115960,1,0,0:0:0:0:
456,170,116142,1,8,0:0:0:0:
325,327,116324,1,0,0:0:0:0:
456,170,116506,1,8,0:0:0:0:
485,365,116687,1,0,0:0:0:0:
456,170,116869,1,8,0:0:0:0:
394,371,117051,5,8,0:0:0:0:
394,371,117142,1,8,0:0:0:0:
394,371,117233,2,8,P|320:350|264:280,1,154.000004699707
208,195,117779,1,0,0:0:0:0:
286,80,117960,1,0,0:0:0:0:
288,218,118142,1,8,0:0:0:0:
400,136,118323,1,0,0:0:0:0:
415,251,118506,6,8,P|377:286|263:311,1,154.000004699707
167,286,119051,1,8,0:0:0:0:
45,213,119233,1,0,0:0:0:0:
174,278,119415,1,8,0:0:0:0:
125,137,119597,1,0,0:0:0:0:
185,272,119779,1,0,0:0:0:0:
235,121,119960,1,0,0:0:0:0:
197,274,120142,6,8,P|233:297|285:300,1,77.0000023498536
395,290,120506,1,0,0:0:0:0:
323,189,120688,1,8,0:0:0:0:
266,302,120870,1,0,0:0:0:0:
395,290,121051,2,8,P|423:263|434:210,1,77.0000023498536
418,134,121415,6,8,B|349:184|333:280,1,154.000004699707
241,330,121960,1,8,0:0:0:0:
141,270,122142,1,0,0:0:0:0:
240,211,122324,1,8,0:0:0:0:
148,139,122506,1,0,0:0:0:0:
232,60,122688,1,8,0:0:0:0:
310,156,122870,5,8,0:0:0:0:
310,156,122960,1,8,0:0:0:0:
310,156,123051,2,8,P|312:208|297:263,1,97.9999970092774
190,350,123415,1,8,0:0:0:0:
99,233,123598,6,8,P|97:181|112:126,1,97.9999970092774
216,88,124143,5,8,0:0:0:0:
330,37,124324,1,0,0:0:0:0:
216,88,124507,1,8,0:0:0:0:
329,141,124687,1,0,0:0:0:0:
216,88,124870,1,8,0:0:0:0:
392,9,125051,1,0,0:0:0:0:
216,88,125233,1,8,0:0:0:0:
394,172,125414,1,0,0:0:0:0:
216,88,125596,1,8,0:0:0:0:
454,83,125778,5,8,0:0:0:0:
454,83,125869,1,8,0:0:0:0:
454,83,125960,2,8,P|429:129|389:169,1,97.9999970092774
267,236,126324,1,8,0:0:0:0:
232,104,126506,6,8,P|256:57|296:17,1,97.9999970092774
389,64,127051,5,8,0:0:0:0:
440,178,127233,1,0,0:0:0:0:
389,64,127415,1,8,0:0:0:0:
336,177,127596,1,0,0:0:0:0:
389,64,127778,1,8,0:0:0:0:
470,245,127960,1,0,0:0:0:0:
389,64,128142,1,8,0:0:0:0:
305,242,128323,1,0,0:0:0:0:
389,64,128505,1,8,0:0:0:0:
398,308,128688,5,8,0:0:0:0:
398,308,128778,1,8,0:0:0:0:
398,308,128870,2,8,P|460:285|488:205,1,154.000004699707
394,116,129415,1,0,0:0:0:0:
314,31,129597,1,0,0:0:0:0:
274,140,129779,1,8,0:0:0:0:
383,104,129960,1,0,0:0:0:0:
292,32,130142,6,8,P|251:22|116:39,1,154.000004699707
55,109,130688,1,8,0:0:0:0:
4,201,130870,1,0,0:0:0:0:
105,176,131051,1,8,0:0:0:0:
79,278,131233,1,0,0:0:0:0:
173,231,131415,1,0,0:0:0:0:
174,336,131597,1,0,0:0:0:0:
315,284,131779,6,8,P|355:241|362:199,1,77.0000023498536
356,109,132142,1,0,0:0:0:0:
284,32,132324,1,8,0:0:0:0:
178,28,132506,1,0,0:0:0:0:
111,109,132688,2,8,P|150:135|186:155,1,77.0000023498536
250,206,133051,2,8,P|202:235|78:228,1,175
128,261,134688,6,8,P|182:284|266:282,1,105.000004005432
426,242,135051,1,0,0:0:0:0:
266,93,135233,1,8,0:0:0:0:
223,306,135415,1,0,0:0:0:0:
426,242,135597,2,8,P|443:176|445:110,1,105.000004005432
250,59,135960,2,8,P|201:71|286:124,1,210.000008010865
442,190,136506,6,8,P|429:255|389:289,1,105.000004005432
223,285,136870,1,8,0:0:0:0:
46,189,137051,1,0,0:0:0:0:
246,177,137233,1,8,0:0:0:0:
66,83,137415,1,8,0:0:0:0:
263,51,137597,6,8,P|351:47|391:81,1,105.000004005432
475,191,137960,1,8,0:0:0:0:
430,384,138142,1,8,0:0:0:0:
449,186,138324,1,0,0:0:0:0:
299,326,138506,2,8,P|258:292|236:235,2,105.000004005432
363,205,139051,5,8,0:0:0:0:
434,85,139233,1,8,0:0:0:0:
441,241,139415,5,8,0:0:0:0:
351,62,139597,1,8,0:0:0:0:
362,273,139779,5,8,0:0:0:0:
465,51,139961,1,8,0:0:0:0:
437,316,140142,5,8,0:0:0:0:
389,22,140324,1,8,0:0:0:0:
277,80,140506,6,8,P|216:83|157:56,1,105.000004005432
18,132,140870,1,0,0:0:0:0:
249,209,141051,1,8,0:0:0:0:
44,278,141233,1,0,0:0:0:0:
160,60,141415,1,8,0:0:0:0:
177,291,141597,2,8,P|267:306|301:295,1,105.000004005432
390,203,141960,5,8,0:0:0:0:
147,166,142142,1,0,0:0:0:0:
367,69,142324,1,8,0:0:0:0:
224,268,142506,1,0,0:0:0:0:
395,171,142688,2,8,B|386:233|351:272|350:271,1,105.000004005432
195,185,143051,2,8,B|204:123|239:84|240:85,1,105.000004005432
447,55,143415,5,8,0:0:0:0:
389,167,143597,1,8,0:0:0:0:
312,66,143779,1,8,0:0:0:0:
312,66,143960,1,8,0:0:0:0:
453,106,144142,5,8,0:0:0:0:
334,235,144324,1,8,0:0:0:0:
268,72,144506,1,8,0:0:0:0:
268,72,144687,1,8,0:0:0:0:
420,167,144870,5,8,0:0:0:0:
205,303,145052,1,8,0:0:0:0:
175,51,145234,1,8,0:0:0:0:
175,51,145415,1,8,0:0:0:0:
420,167,145597,1,8,0:0:0:0:
205,303,145779,5,8,0:0:0:0:
173,271,145870,1,8,0:0:0:0:
141,241,145960,1,8,0:0:0:0:
111,209,146051,1,8,0:0:0:0:
79,177,146142,1,8,0:0:0:0:
47,145,146233,1,8,0:0:0:0:
18,111,146324,6,8,P|60:55|121:36,1,131.25000500679
277,83,146688,1,0,0:0:0:0:
406,276,146869,1,8,0:0:0:0:
415,43,147051,1,0,0:0:0:0:
272,226,147232,1,8,0:0:0:0:
494,162,147415,1,0,0:0:0:0:
277,83,147597,2,8,P|197:111|288:170,1,210.000008010865
418,247,148142,6,8,P|439:307|428:348,2,105.000004005432
214,159,148688,1,0,0:0:0:0:
433,111,148870,1,0,0:0:0:0:
366,311,149051,1,0,0:0:0:0:
315,125,149233,6,8,P|268:85|206:55,1,105.000004005432
88,45,149597,1,0,0:0:0:0:
27,211,149779,1,8,0:0:0:0:
197,142,149960,1,0,0:0:0:0:
162,316,150142,2,8,P|207:361|286:375,2,105.000004005432
138,190,150688,5,8,0:0:0:0:
92,49,150870,1,8,0:0:0:0:
43,175,151052,5,8,0:0:0:0:
170,48,151234,1,8,0:0:0:0:
176,259,151416,5,8,0:0:0:0:
35,37,151598,1,8,0:0:0:0:
52,284,151779,5,8,0:0:0:0:
197,18,151961,1,8,0:0:0:0:
255,111,152142,6,8,P|268:160|230:220,1,105.000004005432
186,332,152506,1,0,0:0:0:0:
289,167,152688,2,8,P|364:141|296:197,1,210.000008010865
179,255,153233,2,8,P|165:198|209:139,1,105.000004005432
283,107,153597,5,0,0:0:0:0:
413,19,153779,1,8,0:0:0:0:
501,149,153960,1,0,0:0:0:0:
371,238,154142,1,8,0:0:0:0:
283,107,154324,2,8,P|332:63|391:34,1,105.000004005432
501,149,154688,2,8,P|452:193|393:222,1,105.000004005432
303,305,155051,5,8,0:0:0:0:
178,333,155233,1,8,0:0:0:0:
208,207,155415,1,8,0:0:0:0:
208,207,155596,1,8,0:0:0:0:
268,341,155778,5,8,0:0:0:0:
90,334,155960,1,8,0:0:0:0:
173,177,156142,1,8,0:0:0:0:
173,177,156323,1,8,0:0:0:0:
200,340,156506,5,8,0:0:0:0:
0,276,156688,1,8,0:0:0:0:
18,250,156779,1,8,0:0:0:0:
35,222,156870,1,8,0:0:0:0:
161,128,157051,5,8,0:0:0:0:
153,158,157142,1,8,0:0:0:0:
146,189,157233,1,8,0:0:0:0:
200,340,157415,1,8,0:0:0:0:
222,311,157506,1,8,0:0:0:0:
244,281,157597,1,8,0:0:0:0:
266,252,157688,1,8,0:0:0:0:
288,221,157779,1,8,0:0:0:0:
308,190,157870,1,8,0:0:0:0:
326,161,157960,6,8,P|363:95|367:72,1,97.9999970092774
238,86,158324,2,8,P|202:151|198:174,1,97.9999970092774
123,302,158688,1,0,0:0:0:0:
281,152,158870,1,8,0:0:0:0:
82,185,159051,1,0,0:0:0:0:
222,310,159233,6,8,P|276:329|331:306,1,105.000004005432
406,242,159779,6,8,P|415:184|390:118,1,97.9999970092774
310,27,160142,1,8,0:0:0:0:
231,236,160324,1,8,0:0:0:0:
120,47,160506,1,0,0:0:0:0:
69,148,160688,6,8,P|60:208|109:245,1,105.000004005432
98,245,161142,5,0,0:0:0:0:
108,252,161233,1,0,0:0:0:0:
231,317,161415,2,0,L|246:349,2,26.2500010013581
198,158,161779,5,0,0:0:0:0:
212,167,161870,1,0,0:0:0:0:
228,176,161961,1,0,0:0:0:0:
346,227,162142,2,0,L|361:259,2,26.2500010013581
301,62,162506,5,0,0:0:0:0:
320,75,162597,1,0,0:0:0:0:
340,87,162688,1,0,0:0:0:0:
464,136,162870,2,8,L|479:168,2,26.2500010013581
352,39,163233,1,8,0:0:0:0:
512,25,163415,1,0,0:0:0:0:
459,165,163597,6,8,P|464:112|418:80,1,105.000004005432
245,56,164142,5,8,0:0:0:0:
390,143,164324,1,0,0:0:0:0:
148,154,164506,1,8,0:0:0:0:
364,125,164688,1,8,0:0:0:0:
139,49,164870,1,0,0:0:0:0:
272,219,165051,6,8,P|322:234|367:207,1,105.000004005432
439,124,165597,5,8,0:0:0:0:
427,280,165779,1,0,0:0:0:0:
359,76,165960,1,8,0:0:0:0:
321,336,166142,1,8,0:0:0:0:
306,327,166506,5,0,0:0:0:0:
478,146,166688,1,8,0:0:0:0:
480,294,166869,5,0,0:0:0:0:
247,148,167051,1,0,0:0:0:0:
260,313,167234,2,8,P|288:326|350:296,1,105.000004005432
478,149,167779,2,8,P|449:135|387:165,1,105.000004005432
284,252,168325,5,0,0:0:0:0:
314,196,168507,1,8,0:0:0:0:
296,287,168689,5,0,0:0:0:0:
310,164,168871,1,8,0:0:0:0:
328,346,169052,5,0,0:0:0:0:
271,105,169234,1,8,0:0:0:0:
404,384,169415,5,8,0:0:0:0:
404,384,169506,1,8,0:0:0:0:
404,384,169597,2,8,P|423:325|431:259,1,97.9999970092774
360,159,169960,2,8,P|341:218|333:284,1,97.9999970092774
251,201,170324,1,0,0:0:0:0:
448,153,170506,1,8,0:0:0:0:
283,316,170688,1,0,0:0:0:0:
439,358,170870,6,8,P|465:311|446:262,1,105.000004005432
340,140,171415,6,8,P|287:167|256:230,1,97.9999970092774
199,311,171779,1,0,0:0:0:0:
211,100,171960,1,8,0:0:0:0:
342,256,172142,1,8,0:0:0:0:
114,238,172324,6,8,P|97:192|130:154,1,105.000004005432
143,149,172779,5,0,0:0:0:0:
154,144,172870,1,0,0:0:0:0:
287,102,173052,2,0,L|307:73,2,26.2500010013581
227,253,173416,5,0,0:0:0:0:
242,246,173507,1,0,0:0:0:0:
259,240,173598,1,0,0:0:0:0:
384,210,173779,2,0,L|404:181,2,26.2500010013581
311,365,174143,5,0,0:0:0:0:
332,355,174234,1,0,0:0:0:0:
354,347,174325,1,0,0:0:0:0:
485,320,174507,2,8,L|505:291,2,26.2500010013581
350,359,174870,1,8,0:0:0:0:
383,225,175051,1,0,0:0:0:0:
279,273,175233,6,8,P|246:276|204:224,1,105.000004005432
226,64,175779,5,8,0:0:0:0:
120,221,175960,1,0,0:0:0:0:
293,141,176142,1,8,0:0:0:0:
190,288,176324,1,8,0:0:0:0:
340,248,176506,1,0,0:0:0:0:
392,88,176688,6,8,P|366:65|295:76,1,105.000004005432
163,113,177233,5,8,0:0:0:0:
301,135,177415,1,0,0:0:0:0:
82,174,177596,1,8,0:0:0:0:
411,154,177779,1,8,0:0:0:0:
399,143,178142,5,0,0:0:0:0:
157,208,178324,1,8,0:0:0:0:
286,302,178506,5,0,0:0:0:0:
280,49,178688,1,0,0:0:0:0:
437,132,178870,2,8,P|422:181|376:201,1,105.000004005432
188,238,179415,2,8,P|200:189|246:167,1,105.000004005432
352,128,179961,5,0,0:0:0:0:
289,126,180143,1,8,0:0:0:0:
377,156,180325,5,0,0:0:0:0:
263,106,180507,1,8,0:0:0:0:
412,213,180688,5,0,0:0:0:0:
231,43,180870,1,8,0:0:0:0:
392,284,181051,5,8,0:0:0:0:
392,284,181142,1,8,0:0:0:0:
392,284,181233,2,8,P|376:236|344:180,1,97.9999970092774
245,92,181597,1,0,0:0:0:0:
204,224,181779,6,8,P|220:272|252:328,1,97.9999970092774
362,284,182324,5,8,0:0:0:0:
449,195,182506,1,0,0:0:0:0:
362,284,182688,1,8,0:0:0:0:
351,160,182869,1,0,0:0:0:0:
362,284,183051,1,8,0:0:0:0:
499,143,183233,1,0,0:0:0:0:
362,284,183415,1,8,0:0:0:0:
344,88,183596,1,0,0:0:0:0:
362,284,183778,1,8,0:0:0:0:
454,58,183961,5,8,0:0:0:0:
454,58,184051,1,8,0:0:0:0:
454,58,184142,2,8,P|399:38|330:29,1,97.9999970092774
217,68,184506,1,8,0:0:0:0:
298,172,184688,6,8,P|353:192|422:201,1,97.9999970092774
463,308,185233,5,8,0:0:0:0:
349,359,185415,1,0,0:0:0:0:
463,308,185597,1,8,0:0:0:0:
350,255,185778,1,0,0:0:0:0:
463,308,185960,1,8,0:0:0:0:
286,384,186142,1,0,0:0:0:0:
463,308,186324,1,8,0:0:0:0:
284,224,186505,1,0,0:0:0:0:
463,308,186687,1,8,0:0:0:0:
219,317,186870,5,8,0:0:0:0:
219,317,186960,1,8,0:0:0:0:
219,317,187051,2,8,P|128:300|72:248,1,154.000004699707
45,151,187597,1,0,0:0:0:0:
96,51,187779,1,0,0:0:0:0:
157,148,187960,1,8,0:0:0:0:
213,46,188142,1,0,0:0:0:0:
283,137,188324,6,8,B|325:198|400:256|418:250,1,154.000004699707
468,153,188870,1,8,0:0:0:0:
359,114,189051,1,0,0:0:0:0:
385,226,189233,1,8,0:0:0:0:
412,113,189415,1,0,0:0:0:0:
302,149,189597,1,0,0:0:0:0:
385,226,189779,1,0,0:0:0:0:
412,113,189960,6,8,P|357:106|319:108,1,77.0000023498536
220,123,190324,1,0,0:0:0:0:
319,181,190506,1,8,0:0:0:0:
210,141,190688,1,0,0:0:0:0:
240,252,190870,2,8,B|264:306|291:327|291:328,1,77.0000023498536
393,317,191233,6,8,P|417:283|425:163,1,154.000004699707
370,67,191779,1,8,0:0:0:0:
259,65,191960,1,0,0:0:0:0:
257,178,192142,1,8,0:0:0:0:
369,180,192324,1,0,0:0:0:0:
370,67,192506,1,8,0:0:0:0:
308,170,192688,5,8,0:0:0:0:
308,170,192779,1,8,0:0:0:0:
308,170,192870,2,8,P|287:257|264:289,1,97.9999970092774
172,360,193233,1,8,0:0:0:0:
155,213,193415,6,8,P|176:126|199:94,1,97.9999970092774
273,81,193960,5,8,0:0:0:0:
397,93,194142,1,0,0:0:0:0:
273,81,194324,1,8,0:0:0:0:
344,183,194505,1,0,0:0:0:0:
273,81,194687,1,8,0:0:0:0:
468,100,194869,1,0,0:0:0:0:
273,81,195051,1,8,0:0:0:0:
386,243,195232,1,0,0:0:0:0:
273,81,195414,1,8,0:0:0:0:
467,210,195597,5,8,0:0:0:0:
467,210,195687,1,8,0:0:0:0:
467,210,195779,2,8,P|422:284|393:307,1,97.9999970092774
284,327,196142,1,0,0:0:0:0:
314,198,196324,6,8,P|359:124|388:101,1,97.9999970092774
465,92,196870,5,8,0:0:0:0:
431,212,197052,1,0,0:0:0:0:
465,92,197234,1,8,0:0:0:0:
352,144,197415,1,0,0:0:0:0:
465,92,197597,1,8,0:0:0:0:
413,275,197779,1,0,0:0:0:0:
465,92,197961,1,8,0:0:0:0:
285,175,198142,1,0,0:0:0:0:
465,92,198324,1,8,0:0:0:0:
304,260,198507,5,8,0:0:0:0:
304,260,198597,1,8,0:0:0:0:
304,260,198688,2,8,P|244:271|164:209,1,154.000004699707
245,164,199233,1,0,0:0:0:0:
134,130,199415,1,0,0:0:0:0:
236,80,199597,1,8,0:0:0:0:
345,124,199779,1,0,0:0:0:0:
245,164,199960,6,8,P|197:189|137:284,1,154.000004699707
256,263,200506,1,8,0:0:0:0:
149,217,200688,1,0,0:0:0:0:
259,184,200870,1,8,0:0:0:0:
153,139,201051,1,0,0:0:0:0:
262,100,201233,1,0,0:0:0:0:
154,56,201415,1,0,0:0:0:0:
265,24,201597,6,8,P|310:26|354:52,1,77.0000023498536
419,121,201960,1,0,0:0:0:0:
374,227,202142,1,8,0:0:0:0:
299,138,202324,1,0,0:0:0:0:
419,121,202506,2,8,P|457:168|463:187,1,77.0000023498536
440,286,202870,6,8,P|396:294|256:278,1,175
242,273,203870,1,8,0:0:0:0:
217,264,203960,1,8,0:0:0:0:
192,255,204051,1,8,0:0:0:0:
166,246,204142,1,8,0:0:0:0:
140,238,204233,1,8,0:0:0:0:
115,229,204324,1,8,0:0:0:0:
90,219,204415,1,8,0:0:0:0:
61,207,204506,6,8,P|69:161|126:113,1,105.000004005432
260,111,204870,1,0,0:0:0:0:
358,259,205051,1,8,0:0:0:0:
167,173,205233,1,0,0:0:0:0:
360,161,205415,2,8,P|407:182|431:240,1,105.000004005432
321,310,205779,2,8,P|238:317|302:245,1,210.000008010865
389,188,206324,6,8,P|361:139|291:113,1,105.000004005432
151,51,206688,1,8,0:0:0:0:
68,109,206870,1,0,0:0:0:0:
264,205,207051,1,8,0:0:0:0:
269,123,207233,1,8,0:0:0:0:
113,180,207415,6,8,P|110:228|169:290,1,105.000004005432
271,296,207779,1,8,0:0:0:0:
48,227,207960,1,8,0:0:0:0:
143,319,208142,1,0,0:0:0:0:
202,109,208324,2,8,P|149:76|91:70,2,105.000004005432
306,217,208870,5,8,0:0:0:0:
436,317,209051,1,8,0:0:0:0:
399,141,209233,1,8,0:0:0:0:
309,323,209415,1,8,0:0:0:0:
507,210,209597,1,8,0:0:0:0:
283,196,209779,1,8,0:0:0:0:
460,343,209960,1,8,0:0:0:0:
397,90,210142,1,8,0:0:0:0:
290,314,210324,6,8,P|262:341|198:368,1,105.000004005432
38,285,210688,1,0,0:0:0:0:
88,101,210870,1,8,0:0:0:0:
188,324,211051,1,8,0:0:0:0:
232,209,211233,1,8,0:0:0:0:
276,87,211415,2,8,P|245:54|183:32,1,105.000004005432
76,143,211779,5,8,0:0:0:0:
304,146,211960,1,0,0:0:0:0:
169,251,212142,1,8,0:0:0:0:
175,38,212324,1,0,0:0:0:0:
266,247,212506,2,8,P|322:282|392:289,1,105.000004005432
463,203,212870,2,8,P|407:168|337:161,1,105.000004005432
199,85,213233,5,8,0:0:0:0:
109,167,213415,1,8,0:0:0:0:
223,214,213597,1,8,0:0:0:0:
223,214,213778,1,8,0:0:0:0:
151,91,213960,5,8,0:0:0:0:
58,234,214142,1,8,0:0:0:0:
227,256,214324,1,8,0:0:0:0:
227,256,214505,1,8,0:0:0:0:
101,138,214688,5,8,0:0:0:0:
28,372,214870,1,8,0:0:0:0:
271,336,215052,1,8,0:0:0:0:
271,336,215233,1,8,0:0:0:0:
101,138,215415,1,0,0:0:0:0:
28,372,215597,5,8,0:0:0:0:
70,365,215687,1,8,0:0:0:0:
112,359,215778,1,8,0:0:0:0:
154,352,215869,1,8,0:0:0:0:
196,346,215960,1,8,0:0:0:0:
238,340,216051,1,8,0:0:0:0:
277,329,216142,6,8,P|343:307|391:274,1,105.000004005432
501,196,216506,1,8,0:0:0:0:
281,226,216688,1,0,0:0:0:0:
459,94,216870,1,0,0:0:0:0:
414,327,217051,1,8,0:0:0:0:
341,108,217233,1,0,0:0:0:0:
414,327,217415,2,8,P|463:377|449:281,1,210.000008010865
269,130,217960,6,8,P|202:140|151:175,1,105.000004005432
380,191,218324,1,8,0:0:0:0:
182,62,218506,1,0,0:0:0:0:
440,112,218688,1,8,0:0:0:0:
181,187,218870,1,8,0:0:0:0:
361,270,219051,6,8,P|414:295|491:291,1,105.000004005432
251,179,219415,1,0,0:0:0:0:
346,374,219597,1,8,0:0:0:0:
387,135,219779,1,0,0:0:0:0:
257,332,219960,2,8,P|187:347|122:343,2,105.000004005432
345,129,220506,5,8,0:0:0:0:
228,242,220687,1,8,0:0:0:0:
409,205,220869,1,8,0:0:0:0:
240,157,221051,1,8,0:0:0:0:
348,342,221233,1,8,0:0:0:0:
364,97,221415,1,8,0:0:0:0:
183,278,221596,1,8,0:0:0:0:
464,218,221778,1,8,0:0:0:0:
225,139,221960,6,8,P|169:124|86:125,1,105.000004005432
311,239,222324,1,0,0:0:0:0:
213,330,222506,1,8,0:0:0:0:
298,82,222688,1,0,0:0:0:0:
141,179,222870,1,8,0:0:0:0:
351,278,223051,2,8,B|421:283|473:229|473:229,1,105.000004005432
286,150,223415,5,8,0:0:0:0:
447,247,223597,1,0,0:0:0:0:
286,150,223779,1,8,0:0:0:0:
447,247,223960,1,0,0:0:0:0:
286,150,224142,2,8,P|229:198|226:246,1,105.000004005432
447,247,224506,2,8,P|504:199|507:151,1,105.000004005432
358,31,224870,5,8,0:0:0:0:
280,131,225052,1,8,0:0:0:0:
403,157,225234,1,8,0:0:0:0:
403,157,225415,1,8,0:0:0:0:
309,45,225597,5,8,0:0:0:0:
240,209,225779,1,8,0:0:0:0:
417,200,225961,1,8,0:0:0:0:
417,200,226142,1,8,0:0:0:0:
267,103,226325,5,8,0:0:0:0:
234,354,226507,1,8,0:0:0:0:
475,273,226689,1,8,0:0:0:0:
475,273,226870,1,8,0:0:0:0:
282,116,227051,6,8,P|221:167|207:205,1,105.000004005432
296,197,227415,1,8,0:0:0:0:
253,270,227597,1,0,0:0:0:0:
179,300,227779,6,8,P|139:292|166:159,1,210
176,229,228506,1,8,0:0:0:0:
273,40,228688,1,8,0:0:0:0:
332,211,228869,6,8,P|326:288|300:356,2,140
261,80,229960,6,8,P|323:63|363:181,1,210
308,134,230688,1,8,0:0:0:0:
376,290,230869,1,8,0:0:0:0:
460,142,231051,6,8,P|419:94|329:70,2,140
405,330,231960,1,8,0:0:0:0:
365,146,232142,6,8,P|332:86|244:65,1,140
269,132,232688,1,8,0:0:0:0:
429,175,232869,1,0,0:0:0:0:
328,54,233051,1,8,0:0:0:0:
299,268,233233,6,8,P|347:279|424:236,2,140
135,154,234324,6,8,P|161:78|265:111,1,210
201,136,235051,1,8,0:0:0:0:
368,80,235233,1,8,0:0:0:0:
215,162,235415,6,8,P|160:183|76:167,1,140
143,101,235960,2,8,P|209:81|298:111,1,140
394,62,236506,6,8,P|439:109|342:204,1,210
364,133,237233,1,8,0:0:0:0:
453,283,237415,1,8,0:0:0:0:
279,268,237597,6,8,P|241:243|213:133,2,140
478,174,238688,6,8,P|473:96|360:100,1,210
418,139,239415,1,8,0:0:0:0:
203,109,239597,1,8,0:0:0:0:
303,243,239779,6,8,P|359:267|438:257,2,140
148,157,240869,6,8,P|132:104|265:73,1,210
205,111,241597,1,8,0:0:0:0:
378,51,241779,1,8,0:0:0:0:
242,181,241960,6,8,P|177:212|91:195,2,140
388,212,243051,6,8,P|424:160|312:96,1,210
353,152,243779,1,8,0:0:0:0:
194,30,243960,1,8,0:0:0:0:
219,201,244142,6,8,P|255:270|320:329,2,140
219,201,245233,5,8,0:0:0:0:
219,201,245597,5,8,0:0:0:0:
219,193,245779,1,8,0:0:0:0:
219,186,245960,1,8,0:0:0:0:
219,179,246142,1,8,0:0:0:0:
409,60,246324,5,8,0:0:0:0:
409,60,246688,5,8,0:0:0:0:
409,66,246869,1,8,0:0:0:0:
409,72,247051,1,8,0:0:0:0:
409,78,247233,1,8,0:0:0:0:
169,76,247415,5,8,0:0:0:0:
169,76,247779,5,8,0:0:0:0:
177,76,247961,1,8,0:0:0:0:
184,76,248142,1,8,0:0:0:0:
191,76,248324,1,8,0:0:0:0:
310,266,248506,5,8,0:0:0:0:
310,266,248870,5,8,0:0:0:0:
304,266,249051,1,8,0:0:0:0:
298,266,249233,1,8,0:0:0:0:
290,266,249415,2,8,L|214:266,1,70
143,262,249960,5,8,0:0:0:0:
150,112,250142,1,8,0:0:0:0:
143,262,250324,5,8,0:0:0:0:
150,112,250506,1,8,0:0:0:0:
336,154,250688,5,8,0:0:0:0:
336,154,251051,5,8,0:0:0:0:
156,189,251233,1,8,0:0:0:0:
336,154,251415,5,8,0:0:0:0:
156,189,251597,1,8,0:0:0:0:
245,318,251779,5,8,0:0:0:0:
245,318,252142,5,8,0:0:0:0:
246,117,252324,1,8,0:0:0:0:
245,318,252506,5,8,0:0:0:0:
246,117,252688,1,8,0:0:0:0:
93,220,252869,5,8,0:0:0:0:
93,220,253233,1,8,0:0:0:0:
93,220,253597,1,8,0:0:0:0:
93,220,253960,5,8,0:0:0:0:
99,203,254050,1,0,0:0:0:0:
105,187,254141,1,0,0:0:0:0:
111,171,254232,1,0,0:0:0:0:
118,154,254323,1,0,0:0:0:0:
124,138,254414,1,0,0:0:0:0:
130,122,254505,1,0,0:0:0:0:
137,105,254596,1,0,0:0:0:0:
143,89,254687,1,0,0:0:0:0:
149,73,254778,1,0,0:0:0:0:
155,56,254869,1,0,0:0:0:0:
162,40,254959,1,0,0:0:0:0:
179,39,255051,5,8,0:0:0:0:
186,54,255142,1,0,0:0:0:0:
193,69,255233,1,0,0:0:0:0:
199,85,255324,1,0,0:0:0:0:
205,101,255415,1,0,0:0:0:0:
211,117,255506,1,0,0:0:0:0:
217,133,255597,1,0,0:0:0:0:
223,149,255688,1,0,0:0:0:0:
229,165,255779,1,0,0:0:0:0:
235,181,255869,1,0,0:0:0:0:
241,197,255960,1,0,0:0:0:0:
247,213,256051,1,0,0:0:0:0:
261,222,256142,5,8,0:0:0:0:
263,204,256233,1,0,0:0:0:0:
265,186,256324,1,0,0:0:0:0:
267,168,256415,1,0,0:0:0:0:
269,150,256506,1,0,0:0:0:0:
271,132,256597,1,0,0:0:0:0:
273,114,256688,1,0,0:0:0:0:
275,96,256779,1,0,0:0:0:0:
277,78,256869,1,0,0:0:0:0:
280,60,256960,1,0,0:0:0:0:
282,42,257051,1,0,0:0:0:0:
284,24,257142,1,0,0:0:0:0:
301,23,257233,5,8,0:0:0:0:
308,38,257323,1,0,0:0:0:0:
314,54,257414,1,0,0:0:0:0:
321,69,257505,1,0,0:0:0:0:
328,84,257596,1,0,0:0:0:0:
334,100,257687,1,0,0:0:0:0:
341,115,257778,1,0,0:0:0:0:
348,131,257869,1,0,0:0:0:0:
354,147,257960,1,0,0:0:0:0:
360,163,258051,1,0,0:0:0:0:
366,179,258142,1,0,0:0:0:0:
372,195,258233,1,0,0:0:0:0:
378,211,258324,5,8,0:0:0:0:
378,211,258688,5,8,0:0:0:0:
371,211,258869,1,8,0:0:0:0:
364,211,259051,1,8,0:0:0:0:
357,211,259233,1,8,0:0:0:0:
122,284,259415,5,8,0:0:0:0:
122,284,259779,5,8,0:0:0:0:
129,284,259960,1,8,0:0:0:0:
136,284,260142,1,8,0:0:0:0:
143,284,260324,1,8,0:0:0:0:
390,303,260506,5,8,0:0:0:0:
390,303,260870,5,8,0:0:0:0:
390,296,261051,1,8,0:0:0:0:
390,289,261233,1,8,0:0:0:0:
390,282,261415,1,8,0:0:0:0:
194,106,261597,5,8,0:0:0:0:
194,106,261961,5,8,0:0:0:0:
194,113,262142,1,8,0:0:0:0:
194,120,262324,1,8,0:0:0:0:
194,127,262506,2,8,L|194:210,1,70
198,274,263051,5,8,0:0:0:0:
348,281,263233,1,8,0:0:0:0:
198,274,263415,5,8,0:0:0:0:
348,281,263597,1,8,0:0:0:0:
246,372,263778,5,8,0:0:0:0:
246,372,264142,5,8,0:0:0:0:
211,192,264324,1,8,0:0:0:0:
246,372,264506,5,8,0:0:0:0:
211,192,264688,1,8,0:0:0:0:
61,266,264869,5,8,0:0:0:0:
61,266,265233,5,8,0:0:0:0:
262,267,265415,1,8,0:0:0:0:
61,266,265597,5,8,0:0:0:0:
262,267,265779,1,8,0:0:0:0:
159,114,265960,5,8,0:0:0:0:
159,114,266324,1,8,0:0:0:0:
159,114,266688,1,8,0:0:0:0:
159,114,267051,5,8,0:0:0:0:
159,131,267142,1,0,0:0:0:0:
159,148,267233,1,0,0:0:0:0:
159,165,267323,1,0,0:0:0:0:
160,182,267414,1,0,0:0:0:0:
160,199,267505,1,0,0:0:0:0:
160,216,267596,1,0,0:0:0:0:
161,233,267687,1,0,0:0:0:0:
163,250,267778,1,0,0:0:0:0:
164,267,267869,1,0,0:0:0:0:
166,284,267960,1,0,0:0:0:0:
168,301,268051,1,0,0:0:0:0:
184,307,268142,5,8,0:0:0:0:
193,292,268233,1,0,0:0:0:0:
202,277,268323,1,0,0:0:0:0:
211,262,268414,1,0,0:0:0:0:
220,247,268505,1,0,0:0:0:0:
228,231,268596,1,0,0:0:0:0:
238,217,268687,1,0,0:0:0:0:
248,202,268778,1,0,0:0:0:0:
258,187,268869,1,0,0:0:0:0:
268,172,268960,1,0,0:0:0:0:
278,158,269051,1,0,0:0:0:0:
288,143,269142,1,0,0:0:0:0:
297,128,269233,5,8,0:0:0:0:
301,144,269323,1,0,0:0:0:0:
304,161,269414,1,0,0:0:0:0:
308,177,269505,1,0,0:0:0:0:
312,193,269596,1,0,0:0:0:0:
315,210,269687,1,0,0:0:0:0:
319,226,269778,1,0,0:0:0:0:
323,242,269869,1,0,0:0:0:0:
326,259,269960,1,0,0:0:0:0:
329,276,270051,1,0,0:0:0:0:
333,293,270142,1,0,0:0:0:0:
337,309,270233,1,0,0:0:0:0:
342,325,270323,5,8,0:0:0:0:
346,307,270414,1,0,0:0:0:0:
349,289,270505,1,0,0:0:0:0:
352,271,270596,1,0,0:0:0:0:
356,254,270687,1,0,0:0:0:0:
360,237,270778,1,0,0:0:0:0:
364,220,270869,1,0,0:0:0:0:
368,203,270960,1,0,0:0:0:0:
372,186,271051,1,0,0:0:0:0:
376,169,271142,1,0,0:0:0:0:
380,152,271233,1,0,0:0:0:0:
384,135,271323,1,0,0:0:0:0:
386,121,271415,6,8,P|323:97|251:153,1,157.500006008148
331,172,272142,1,0,0:0:0:0:
412,204,272324,1,0,0:0:0:0:
411,292,272506,6,8,P|364:319|305:335,2,105.000004005432
465,119,273597,6,8,P|441:85|326:109,1,157.500006008148
393,143,274324,1,0,0:0:0:0:
365,214,274506,1,0,0:0:0:0:
309,273,274688,6,8,P|252:278|199:256,2,105.000004005432
380,178,275779,6,8,P|385:114|375:55,2,105.000004005432
265,178,276869,6,8,P|237:120|199:73,2,105.000004005432
148,204,277960,6,8,P|95:167|38:146,2,105.000004005432
143,328,279051,5,8,0:0:0:0:
143,308,279141,1,8,0:0:0:0:
143,289,279232,1,8,0:0:0:0:
144,270,279323,1,8,0:0:0:0:
144,251,279414,1,8,0:0:0:0:
145,232,279505,1,8,0:0:0:0:
145,213,279596,1,8,0:0:0:0:
146,194,279687,1,8,0:0:0:0:
146,175,279778,1,8,0:0:0:0:
147,156,279869,1,8,0:0:0:0:
147,137,279960,1,8,0:0:0:0:
147,118,280051,1,8,0:0:0:0:
147,102,280142,6,0,P|201:78|260:81,1,105.000004005432
393,192,280505,2,0,P|339:216|280:213,1,105.000004005432
123,191,280869,1,0,0:0:0:0:
336,111,281051,1,0,0:0:0:0:
129,216,281232,1,8,0:0:0:0:
325,89,281414,1,0,0:0:0:0:
136,238,281596,6,0,P|201:293|239:302,1,105.000004005432
395,284,281960,1,8,0:0:0:0:
408,267,282051,1,0,0:0:0:0:
418,248,282142,1,0,0:0:0:0:
419,227,282232,1,0,0:0:0:0:
415,206,282323,2,0,B|394:149|394:149|357:177|353:124|353:124|307:115,1,157.500006008148
115,147,283051,5,0,0:0:0:0:
338,216,283232,1,0,0:0:0:0:
159,361,283414,1,8,0:0:0:0:
115,147,283596,2,0,B|148:116|148:116|170:124|176:104|176:104|208:94,1,105.000004005432
397,144,284142,1,8,0:0:0:0:
181,200,284323,1,0,0:0:0:0:
357,58,284505,5,0,0:0:0:0:
387,83,284596,1,0,0:0:0:0:
404,118,284687,1,0,0:0:0:0:
419,156,284778,1,0,0:0:0:0:
417,200,284869,5,8,0:0:0:0:
398,240,284960,1,0,0:0:0:0:
368,273,285051,1,0,0:0:0:0:
326,289,285142,1,0,0:0:0:0:
276,289,285232,5,0,0:0:0:0:
235,259,285323,1,0,0:0:0:0:
257,214,285414,1,0,0:0:0:0:
306,222,285505,1,0,0:0:0:0:
319,269,285596,6,8,B|299:291|299:291|288:312|260:310|260:310|222:319,1,105.000004005432
223,321,286051,1,0,0:0:0:0:
212,322,286142,1,0,0:0:0:0:
201,323,286232,1,0,0:0:0:0:
185,325,286323,5,0,0:0:0:0:
169,325,286414,1,0,0:0:0:0:
153,323,286505,1,0,0:0:0:0:
137,318,286596,1,0,0:0:0:0:
119,308,286687,6,0,L|71:295,3,26.2500010013581
38,194,287051,2,0,L|82:184,3,26.2500010013581
118,41,287414,6,0,L|178:46,1,52.5000020027161
198,125,287596,2,0,L|267:125,1,52.5000020027161
280,45,287778,2,0,L|333:42,1,52.5000020027161
370,118,287960,2,0,L|426:112,1,52.5000020027161
504,106,288142,6,0,P|553:117|511:185,1,157.500006008148
262,341,288869,6,0,B|300:345|300:345|335:294,1,70.0000026702882
269,258,289111,2,0,B|249:239|249:239|197:249,1,70.0000026702882
181,231,289323,5,0,0:0:0:0:
184,194,289414,1,0,0:0:0:0:
196,159,289505,1,0,0:0:0:0:
222,133,289596,2,0,B|256:117|256:117|266:128|275:113|275:113|311:113,2,70.0000026702882
123,133,290278,2,0,B|93:119|93:119|70:122|39:115,2,70.0000026702882
203,197,291051,6,0,L|213:257,1,52.5000020027161
276,173,291414,2,8,L|271:99,1,52.5000020027161
376,56,291778,6,0,L|456:44,1,47.2500001802444
321,125,291960,2,0,L|244:132,1,47.2500001802444
411,168,292142,2,0,L|477:160,1,47.2500001802444
340,239,292324,2,0,L|258:248,1,47.2500001802444
446,241,292505,5,0,0:0:0:0:
484,258,292596,1,0,0:0:0:0:
500,297,292687,1,0,0:0:0:0:
485,337,292778,1,0,0:0:0:0:
450,362,292869,1,0,0:0:0:0:
407,362,292960,1,0,0:0:0:0:
364,354,293051,1,0,0:0:0:0:
323,340,293142,1,0,0:0:0:0:
284,322,293232,6,0,L|232:300,5,46.6666666666667
194,368,293596,2,0,L|142:346,5,46.6666666666667
198,238,293960,2,0,L|146:216,5,46.6666666666667
123,307,294323,2,0,L|71:285,5,46.6666666666667
81,289,294687,6,0,B|31:272|31:272|68:227|68:227|10:220|10:220|69:190|69:190|52:121,1,280
174,40,295414,5,8,0:0:0:0:
181,88,295505,1,0,0:0:0:0:
189,136,295596,1,0,0:0:0:0:
199,184,295687,1,0,0:0:0:0:
211,231,295778,5,8,0:0:0:0:
228,185,295869,1,0,0:0:0:0:
244,138,295960,1,0,0:0:0:0:
260,91,296051,1,0,0:0:0:0:
275,44,296142,6,8,L|269:11,1,26.2500010013581
295,46,296232,2,0,L|307:6,1,26.2500010013581
321,58,296323,2,0,L|351:26,1,26.2500010013581
334,72,296414,2,0,L|368:60,1,26.2500010013581
334,94,296505,6,8,L|288:114,1,26.2500010013581
346,117,296596,2,0,L|321:142,1,26.2500010013581
365,131,296686,2,0,L|348:166,1,26.2500010013581
391,143,296778,2,0,L|392:176,1,26.2500010013581
416,145,296869,5,8,0:0:0:0:
449,138,296960,1,0,0:0:0:0:
480,125,297051,1,0,0:0:0:0:
501,98,297142,1,0,0:0:0:0:
504,64,297232,1,8,0:0:0:0:
487,33,297323,1,0,0:0:0:0:
455,20,297414,1,0,0:0:0:0:
421,15,297505,1,0,0:0:0:0:
386,16,297596,6,8,B|341:16|341:16|332:3|300:5|300:5|261:12,1,105.000004005432
86,108,298323,5,8,0:0:0:0:
83,118,298414,1,0,0:0:0:0:
80,128,298505,1,0,0:0:0:0:
77,138,298596,1,0,0:0:0:0:
78,161,298687,5,8,0:0:0:0:
87,190,298778,1,0,0:0:0:0:
103,216,298869,1,0,0:0:0:0:
126,236,298960,1,0,0:0:0:0:
163,248,299051,5,8,0:0:0:0:
209,241,299142,1,0,0:0:0:0:
252,223,299232,1,0,0:0:0:0:
287,191,299323,1,0,0:0:0:0:
296,146,299414,2,8,B|300:85|300:85|310:72|375:91|375:91|420:106,1,140
395,105,299687,1,0,0:0:0:0:
413,134,299778,5,8,0:0:0:0:
395,194,299869,1,0,0:0:0:0:
359,246,299960,1,0,0:0:0:0:
307,282,300051,1,0,0:0:0:0:
248,279,300142,5,8,0:0:0:0:
202,230,300232,1,0,0:0:0:0:
169,172,300323,1,0,0:0:0:0:
148,109,300414,1,0,0:0:0:0:
112,56,300505,6,8,P|92:108|100:188,1,105.000004005432
133,289,300869,1,0,0:0:0:0:
218,196,301051,6,8,P|238:144|230:64,1,105.000004005432
156,128,301596,1,0,0:0:0:0:
51,329,301778,1,8,0:0:0:0:
268,256,301960,1,8,0:0:0:0:
297,236,302051,1,8,0:0:0:0:
316,206,302142,1,8,0:0:0:0:
322,171,302232,1,8,0:0:0:0:
311,137,302323,1,8,0:0:0:0:
225,172,302505,5,8,0:0:0:0:
225,172,302596,1,8,0:0:0:0:
225,172,302687,1,8,0:0:0:0:
251,293,302869,5,8,0:0:0:0:
217,304,302960,1,8,0:0:0:0:
182,300,303051,1,8,0:0:0:0:
153,279,303142,1,8,0:0:0:0:
141,246,303232,1,8,0:0:0:0:
140,211,303323,1,8,0:0:0:0:
142,182,303414,6,0,P|155:119|180:77,1,105.000004005432
281,40,303778,1,8,0:0:0:0:
261,223,303960,1,0,0:0:0:0:
82,142,304142,5,0,0:0:0:0:
297,133,304323,1,0,0:0:0:0:
155,254,304505,1,8,0:0:0:0:
211,55,304687,1,0,0:0:0:0:
313,205,304869,5,0,0:0:0:0:
81,209,305051,1,0,0:0:0:0:
308,113,305232,1,8,0:0:0:0:
219,297,305414,1,0,0:0:0:0:
130,161,305596,5,0,0:0:0:0:
382,159,305778,1,0,0:0:0:0:
194,301,305960,1,8,0:0:0:0:
239,103,306142,6,0,L|263:27,1,70
326,229,306687,1,8,0:0:0:0:
129,233,306869,1,0,0:0:0:0:
291,311,307051,5,0,0:0:0:0:
223,127,307232,1,0,0:0:0:0:
93,267,307414,1,8,0:0:0:0:
300,201,307596,1,0,0:0:0:0:
113,102,307778,5,0,0:0:0:0:
192,279,307960,1,0,0:0:0:0:
314,136,308142,1,8,0:0:0:0:
79,202,308323,1,0,0:0:0:0:
262,326,308505,5,0,0:0:0:0:
267,73,308687,1,0,0:0:0:0:
84,180,308869,1,8,0:0:0:0:
320,250,309051,6,0,L|388:268,1,70
209,87,309596,1,8,0:0:0:0:
178,289,309778,1,0,0:0:0:0:
318,119,309960,5,0,0:0:0:0:
134,253,310142,1,0,0:0:0:0:
225,58,310323,1,8,0:0:0:0:
247,288,310505,1,0,0:0:0:0:
94,142,310687,5,0,0:0:0:0:
336,171,310869,1,0,0:0:0:0:
167,287,311051,1,8,0:0:0:0:
290,56,311232,1,0,0:0:0:0:
343,284,311414,5,0,0:0:0:0:
126,169,311596,1,0,0:0:0:0:
364,89,311778,1,8,0:0:0:0:
364,285,311960,6,0,L|366:355,1,70
464,245,312505,1,0,0:0:0:0:
443,130,312687,2,0,L|426:52,2,70
344,81,313596,2,8,L|334:54,4,17.5
281,212,314142,5,8,0:0:0:0:
281,212,314232,1,8,0:0:0:0:
281,212,314323,1,8,0:0:0:0:
137,261,314505,5,8,0:0:0:0:
97,248,314595,1,8,0:0:0:0:
69,217,314686,1,8,0:0:0:0:
60,177,314777,1,8,0:0:0:0:
73,137,314868,1,8,0:0:0:0:
105,110,314959,1,8,0:0:0:0:
141,99,315051,6,0,P|205:97|247:108,1,105.000004005432
408,190,315414,1,8,0:0:0:0:
188,202,315596,1,0,0:0:0:0:
318,69,315778,5,0,0:0:0:0:
325,278,315960,1,0,0:0:0:0:
215,134,316142,1,8,0:0:0:0:
458,119,316323,1,0,0:0:0:0:
315,265,316505,5,0,0:0:0:0:
384,45,316687,1,0,0:0:0:0:
491,204,316869,1,8,0:0:0:0:
261,130,317051,1,0,0:0:0:0:
448,72,317232,5,0,0:0:0:0:
417,303,317414,1,0,0:0:0:0:
276,93,317596,1,8,0:0:0:0:
279,293,317778,6,0,B|274:364|274:363,1,70
162,136,318323,1,8,0:0:0:0:
377,214,318505,1,0,0:0:0:0:
319,57,318687,5,0,0:0:0:0:
267,254,318869,1,0,0:0:0:0:
408,74,319051,1,8,0:0:0:0:
187,187,319232,1,0,0:0:0:0:
394,280,319414,5,0,0:0:0:0:
225,54,319596,1,0,0:0:0:0:
190,272,319778,1,8,0:0:0:0:
388,107,319960,1,0,0:0:0:0:
193,97,320142,5,0,0:0:0:0:
368,270,320323,1,0,0:0:0:0:
344,46,320505,1,8,0:0:0:0:
150,171,320687,6,0,L|82:207,1,70
174,281,321232,1,8,0:0:0:0:
161,67,321414,1,0,0:0:0:0:
339,154,321596,5,0,0:0:0:0:
102,235,321778,1,0,0:0:0:0:
224,58,321960,1,8,0:0:0:0:
268,276,322142,1,0,0:0:0:0:
107,143,322323,5,0,0:0:0:0:
362,143,322505,1,0,0:0:0:0:
223,300,322687,1,8,0:0:0:0:
296,52,322869,1,0,0:0:0:0:
351,309,323051,5,0,0:0:0:0:
167,96,323232,1,0,0:0:0:0:
392,103,323414,1,8,0:0:0:0:
228,264,323596,6,0,L|176:324,1,70
142,217,324142,1,0,0:0:0:0:
58,165,324323,2,0,L|36:233,2,70
141,158,325414,2,0,L|179:87,2,70
386,47,326323,5,8,0:0:0:0:
388,322,326505,1,8,0:0:0:0:
240,209,326687,6,0,P|192:192|150:152,1,87.5
303,119,327051,2,8,P|351:136|393:176,1,87.5
461,313,327414,1,0,0:0:0:0:
241,244,327596,1,0,0:0:0:0:
380,80,327778,1,8,0:0:0:0:
461,313,327960,2,8,P|389:360|306:341,1,157.500006008148
127,263,328687,1,0,0:0:0:0:
297,209,328869,5,0,0:0:0:0:
310,209,328960,1,0,0:0:0:0:
323,209,329051,1,0,0:0:0:0:
336,210,329142,1,0,0:0:0:0:
348,210,329232,2,8,P|384:222|418:272,1,87.5
499,117,329596,5,0,0:0:0:0:
280,195,329778,1,0,0:0:0:0:
429,319,329960,1,0,0:0:0:0:
413,90,330142,2,0,P|384:47|343:38,1,87.5
282,181,330505,2,8,P|310:223|351:232,1,87.5
330,304,330869,2,0,P|383:293|401:192,1,157.500006008148
306,35,331596,1,8,0:0:0:0:
203,197,331778,5,0,0:0:0:0:
203,210,331869,1,0,0:0:0:0:
203,223,331960,1,0,0:0:0:0:
203,236,332051,1,0,0:0:0:0:
203,249,332142,2,8,P|226:279|280:313,1,87.5
468,278,332505,5,0,0:0:0:0:
245,218,332687,1,0,0:0:0:0:
463,172,332869,2,0,P|484:219|478:274,2,87.5
300,64,333414,1,0,0:0:0:0:
342,256,333596,1,0,0:0:0:0:
184,60,333778,6,8,P|166:110|186:175,1,105.000004005432
267,321,334323,1,0,0:0:0:0:
356,171,334505,2,8,P|374:121|354:56,1,105.000004005432
414,249,335051,1,8,0:0:0:0:
216,300,335232,1,8,0:0:0:0:
302,150,335414,6,0,P|348:135|389:160,1,87.5
484,318,335778,1,8,0:0:0:0:
294,230,335960,2,0,P|289:222|399:177,1,175
440,303,336505,1,8,0:0:0:0:
212,218,336687,2,0,P|209:166|308:71,1,175
402,289,337232,1,8,0:0:0:0:
140,202,337414,2,0,P|146:129|225:30,1,175
367,156,337960,1,8,0:0:0:0:
213,261,338142,1,8,0:0:0:0:
434,231,338323,6,0,P|467:199|488:135,1,87.5
321,68,338687,2,0,P|288:100|267:164,1,87.5
255,332,339051,1,0,0:0:0:0:
417,207,339232,1,0,0:0:0:0:
171,230,339414,1,8,0:0:0:0:
423,317,339596,2,0,P|464:296|494:228,1,105.000004005432
361,90,340142,1,8,0:0:0:0:
295,283,340323,1,0,0:0:0:0:
467,248,340505,5,0,0:0:0:0:
470,235,340596,1,0,0:0:0:0:
472,222,340687,1,0,0:0:0:0:
474,209,340778,1,0,0:0:0:0:
475,196,340869,1,8,0:0:0:0:
343,43,341051,2,0,P|311:78|317:188,2,157.500006008148
386,128,342323,1,8,0:0:0:0:
177,264,342505,2,0,P|136:217|165:109,1,175
230,180,343051,1,8,0:0:0:0:
230,180,343414,5,0,0:0:0:0:
241,198,343505,1,0,0:0:0:0:
256,213,343596,1,0,0:0:0:0:
273,225,343687,1,0,0:0:0:0:
290,238,343778,2,8,P|328:211|338:152,1,87.5
312,53,344142,5,0,0:0:0:0:
121,224,344323,1,0,0:0:0:0:
368,234,344505,1,0,0:0:0:0:
186,97,344687,2,0,P|149:73|78:59,1,105.000004005432
318,60,345232,1,0,0:0:0:0:
210,227,345414,2,0,P|176:262|131:291,2,87.5
397,131,345960,5,0,0:0:0:0:
183,174,346142,1,0,0:0:0:0:
394,228,346323,1,0,0:0:0:0:
193,286,346505,1,0,0:0:0:0:
286,54,346687,1,0,0:0:0:0:
446,236,346869,1,0,0:0:0:0:
259,165,347051,5,0,0:0:0:0:
225,156,347142,1,0,0:0:0:0:
190,152,347232,1,0,0:0:0:0:
155,157,347323,1,0,0:0:0:0:
121,166,347414,1,0,0:0:0:0:
94,188,347505,1,0,0:0:0:0:
72,215,347596,1,0,0:0:0:0:
113,47,347778,5,0,0:0:0:0:
207,261,347960,1,0,0:0:0:0:
335,69,348142,1,0,0:0:0:0:
207,283,348323,1,0,0:0:0:0:
214,102,348505,5,0,0:0:0:0:
237,76,348596,1,0,0:0:0:0:
269,62,348687,1,0,0:0:0:0:
303,56,348778,1,0,0:0:0:0:
337,64,348869,1,0,0:0:0:0:
367,80,348960,1,0,0:0:0:0:
391,104,349051,1,0,0:0:0:0:
296,142,349232,5,0,0:0:0:0:
512,46,349414,1,0,0:0:0:0:
452,245,349596,1,0,0:0:0:0:
427,270,349687,1,0,0:0:0:0:
392,273,349778,1,0,0:0:0:0:
358,263,349869,1,0,0:0:0:0:
339,233,349960,1,8,0:0:0:0:
256,192,350142,12,0,352869,0:0:0:0:
