osu file format v14

[General]
AudioFilename: audio.mp3
AudioLeadIn: 0
PreviewTime: 91759
Countdown: 0
SampleSet: Normal
StackLeniency: 0.7
Mode: 1
LetterboxInBreaks: 0
WidescreenStoryboard: 1

[Editor]
DistanceSpacing: 2.5
BeatDivisor: 4
GridSize: 32
TimelineZoom: 2.799999

[Metadata]
Title:Coming Home
TitleUnicode:Coming Home
Artist:Avenged Sevenfold
ArtistUnicode:Avenged Sevenfold
Creator:frukoyurdakul
Version:Return
Source:
Tags:hail to the king a7x metal core marathon
BeatmapID:1330403
BeatmapSetID:630190

[Difficulty]
HPDrainRate:5
CircleSize:2
OverallDifficulty:6
ApproachRate:10
SliderMultiplier:1.4
SliderTickRate:1

[Events]
//Background and Video events
0,0,"BG.jpg",0,0
//Break Periods
//Storyboard Layer 0 (Background)
//Storyboard Layer 1 (Fail)
//Storyboard Layer 2 (Pass)
//Storyboard Layer 3 (Foreground)
//Storyboard Sound Samples

[TimingPoints]
164,337.078651685393,4,1,2,60,1,0
164,-125,4,1,2,60,0,0
21737,-117.647058823529,4,1,2,60,0,0
21905,-117.647058823529,4,1,1,60,0,0
32270,-114.942528735632,4,1,1,60,0,0
32523,-111.111111111111,4,1,1,60,0,0
32818,-111.111111111111,4,1,3,60,0,0
33113,-111.111111111111,4,1,1,60,0,0
33492,-111.111111111111,4,1,3,60,0,0
33787,-111.111111111111,4,1,1,60,0,0
34166,-111.111111111111,4,1,3,60,0,0
34461,-111.111111111111,4,1,1,60,0,0
34840,-111.111111111111,4,1,3,60,0,0
34967,-111.111111111111,4,1,1,60,0,0
35515,-111.111111111111,4,1,3,60,0,0
35810,-111.111111111111,4,1,1,60,0,0
36189,-111.111111111111,4,1,3,60,0,0
36484,-111.111111111111,4,1,1,60,0,0
36863,-111.111111111111,4,1,3,60,0,0
37158,-111.111111111111,4,1,1,60,0,0
37537,-111.111111111111,4,1,3,60,0,0
37663,-111.111111111111,4,1,1,60,0,0
38211,-111.111111111111,4,1,3,60,0,0
38506,-111.111111111111,4,1,1,60,0,0
38885,-111.111111111111,4,1,3,60,0,0
39180,-111.111111111111,4,1,1,60,0,0
39560,-111.111111111111,4,1,3,60,0,0
39855,-111.111111111111,4,1,1,60,0,0
40234,-111.111111111111,4,1,3,60,0,0
40360,-111.111111111111,4,1,1,60,0,0
40613,338.983050847458,4,1,1,60,1,0
40613,-109.89010989011,4,1,1,60,0,0
40697,-109.89010989011,4,1,5,60,0,0
41079,-109.89010989011,4,1,1,60,0,0
41206,-109.89010989011,4,1,5,60,0,0
41587,-109.89010989011,4,1,1,60,0,0
41714,-109.89010989011,4,1,5,60,0,0
42096,-109.89010989011,4,1,1,60,0,0
42223,-109.89010989011,4,1,5,60,0,0
42307,-111.111111111111,4,1,5,60,0,0
42601,-111.111111111111,4,1,1,60,0,0
42731,-111.111111111111,4,1,5,60,0,0
42943,-111.111111111111,4,1,1,60,0,0
43304,337.078651685393,4,1,1,60,1,0
43304,-105.263157894737,4,1,1,60,0,0
43598,-105.263157894737,4,1,3,60,0,0
43893,-105.263157894737,4,1,1,60,0,0
44273,-105.263157894737,4,1,3,60,0,0
44568,-105.263157894737,4,1,1,60,0,0
44947,-105.263157894737,4,1,3,60,0,0
45242,-105.263157894737,4,1,1,60,0,0
45621,-105.263157894737,4,1,3,60,0,0
45916,-105.263157894737,4,1,1,60,0,0
46295,-105.263157894737,4,1,3,60,0,0
46590,-105.263157894737,4,1,1,60,0,0
46969,-105.263157894737,4,1,3,60,0,0
47264,-105.263157894737,4,1,1,60,0,0
47643,-105.263157894737,4,1,3,60,0,0
47938,-105.263157894737,4,1,1,60,0,0
48318,-105.263157894737,4,1,3,60,0,0
48612,-105.263157894737,4,1,1,60,0,0
48697,338.983050847458,4,1,1,60,1,0
48697,-104.166666666667,4,1,1,60,0,0
48993,-104.166666666667,4,1,3,60,0,0
49290,-104.166666666667,4,1,1,60,0,0
49671,-104.166666666667,4,1,3,60,0,0
49968,-104.166666666667,4,1,1,60,0,0
50349,-104.166666666667,4,1,3,60,0,0
50646,-104.166666666667,4,1,1,60,0,0
51027,-104.166666666667,4,1,3,60,0,0
51154,-104.166666666667,4,1,1,80,0,0
51324,-104.166666666667,4,1,6,80,0,0
51394,337.078651685393,4,1,6,80,1,0
54259,-100,4,1,6,80,0,0
85691,-100,4,1,3,80,0,0
85860,-100,4,1,4,80,0,0
86028,-100,4,1,8,80,0,0
86197,-100,4,1,3,80,0,0
86365,-100,4,1,6,80,0,0
89610,-100,4,1,4,80,0,0
89905,-100,4,1,6,80,0,0
90115,-100,4,1,8,80,0,0
90410,-100,4,1,3,80,0,0
90621,-100,4,1,8,80,0,0
90916,-100,4,1,6,80,0,0
91674,-95.2380952380952,4,1,6,80,0,0
91843,-90.9090909090909,4,1,6,80,0,1
100523,-90.9090909090909,4,1,1,80,0,1
100691,-90.9090909090909,4,1,6,80,0,1
101534,-90.9090909090909,4,1,1,80,0,1
101702,-90.9090909090909,4,1,6,80,0,1
111309,-90.9090909090909,4,1,1,80,0,1
111478,-90.9090909090909,4,1,6,80,0,1
112320,-90.9090909090909,4,1,1,80,0,1
112489,-90.9090909090909,4,1,6,80,0,1
112826,-93.0232558139535,4,1,8,80,0,1
112995,-95.2380952380952,4,1,3,80,0,1
113247,-97.5609756097561,4,1,3,80,0,1
113332,-100,4,1,6,80,0,1
113416,-100,4,1,6,80,0,0
116028,-100,4,1,4,80,0,0
116197,-100,4,1,8,80,0,0
116534,-100,4,1,4,80,0,0
116702,-100,4,1,8,80,0,0
117040,-100,4,1,4,80,0,0
117208,-100,4,1,3,80,0,0
117714,-100,4,1,6,80,0,0
128837,-100,4,1,4,80,0,0
129006,-100,4,1,8,80,0,0
129174,-100,4,1,3,80,0,0
129343,-100,4,1,6,80,0,0
139624,-100,4,1,8,80,0,0
139792,-100,4,1,4,80,0,0
139961,-100,4,1,6,80,0,0
140129,-100,4,1,3,80,0,0
140298,-100,4,1,6,80,0,0
143542,-100,4,1,4,80,0,0
143837,-100,4,1,6,80,0,0
144047,-100,4,1,8,80,0,0
144343,-100,4,1,6,80,0,0
144554,-100,4,1,3,80,0,0
144849,-100,4,1,6,80,0,0
145607,-95.2380952380952,4,1,6,80,0,0
145776,-90.9090909090909,4,1,6,80,0,1
154455,-90.9090909090909,4,1,1,80,0,1
154624,-90.9090909090909,4,1,6,80,0,1
155467,-90.9090909090909,4,1,1,80,0,1
155635,-90.9090909090909,4,1,6,80,0,1
165242,-90.9090909090909,4,1,1,80,0,1
165410,-90.9090909090909,4,1,6,80,0,1
166253,-90.9090909090909,4,1,1,80,0,1
166422,-90.9090909090909,4,1,6,80,0,1
166759,-93.0232558139535,4,1,6,80,0,1
166927,-95.2380952380952,4,1,6,80,0,1
167096,-97.5609756097561,4,1,6,80,0,1
167349,-100,4,1,6,80,0,0
168739,-100,4,1,8,80,0,0
168823,-100,4,1,3,80,0,0
168992,-100,4,1,6,80,0,0
169076,-100,4,1,8,80,0,0
169160,-100,4,1,3,80,0,0
169329,-100,4,1,6,80,0,0
169413,-100,4,1,8,80,0,0
169497,-100,4,1,3,80,0,0
169666,-100,4,1,6,80,0,0
169835,-100,4,1,8,80,0,0
169961,-100,4,1,6,80,0,0
171225,-100,4,1,8,80,0,0
171562,-100,4,1,6,80,0,0
171674,-100,4,1,8,80,0,0
171899,-100,4,1,3,80,0,0
172011,-100,4,1,6,80,0,0
172124,-100,4,1,8,80,0,0
172349,-100,4,1,3,80,0,0
172679,-100,4,1,6,80,0,0
174006,-100,4,1,4,80,0,0
174259,-100,4,1,8,80,0,0
174469,-100,4,1,3,80,0,0
174708,-100,4,1,4,80,0,0
174820,-100,4,1,8,80,0,0
174933,-100,4,1,3,80,0,0
175045,-100,4,1,4,80,0,0
175158,-100,4,1,8,80,0,0
175270,-100,4,1,3,80,0,0
175382,-100,4,1,6,80,0,0
183444,-100,4,1,0,80,0,0
221450,-90.9090909090909,4,1,6,80,0,1
231646,-90.9090909090909,4,1,4,80,0,1
231815,-90.9090909090909,4,1,8,80,0,1
231983,-90.9090909090909,4,1,6,80,0,1
248416,-90.9090909090909,4,1,0,80,0,1
252798,-91.743119266055,4,1,0,80,0,1
252882,-92.5925925925926,4,1,0,80,0,1
252967,-93.4579439252336,4,1,0,80,0,1
253051,-94.3396226415094,4,1,0,80,0,1
253135,-95.2380952380952,4,1,0,80,0,1
253219,-96.1538461538461,4,1,0,80,0,1
253304,-97.0873786407767,4,1,0,80,0,1
253388,-98.0392156862745,4,1,0,80,0,1
253472,-99.009900990099,4,1,0,80,0,1
253556,-100,4,1,6,80,0,1
253641,-100,4,1,6,80,0,0
253725,-100,4,1,0,80,0,0
261983,-100,4,1,6,80,0,0
264062,-100,4,1,4,80,0,0
264174,-100,4,1,6,80,0,0
282714,-100,4,1,4,80,0,0
282840,-100,4,1,8,80,0,0
282924,-100,4,1,3,80,0,0
283219,-100,4,1,6,80,0,0
285242,-100,4,1,8,80,0,0
285579,-100,4,1,6,80,0,0
289160,-100,4,1,4,80,0,0
289455,-100,4,1,6,80,0,0
289666,-100,4,1,8,80,0,0
289961,-100,4,1,6,80,0,0
290172,-100,4,1,3,80,0,0
290467,-100,4,1,6,80,0,0
291225,-95.2380952380952,4,1,6,80,0,0
291393,-90.9090909090909,4,1,6,80,0,1
300073,-90.9090909090909,4,1,1,80,0,1
300242,-90.9090909090909,4,1,6,80,0,1
301085,-90.9090909090909,4,1,1,80,0,1
301253,-90.9090909090909,4,1,6,80,0,1
308837,-90.9090909090909,4,1,4,80,0,1
309006,-90.9090909090909,4,1,8,80,0,1
309174,-90.9090909090909,4,1,6,80,0,1
310860,-90.9090909090909,4,1,1,80,0,1
311028,-90.9090909090909,4,1,6,80,0,1
311871,-90.9090909090909,4,1,1,80,0,1
312040,-90.9090909090909,4,1,6,80,0,1
312461,-93.0232558139535,4,1,6,80,0,1
312629,-95.2380952380952,4,1,6,80,0,1
312798,-97.5609756097561,4,1,6,80,0,1
312967,-100,4,1,6,80,0,0
326618,-100,4,1,6,70,0,0
329315,-100,4,1,6,60,0,0
332011,-100,4,1,6,50,0,0
334708,-100,4,1,6,40,0,0
337236,-100,4,1,6,30,0,0
339933,-100,4,1,6,20,0,0
342629,-100,4,1,6,10,0,0

[HitObjects]
160,96,164,5,0,0:0:0:0:
160,96,332,1,0,0:0:0:0:
352,96,501,1,8,0:0:0:0:
160,96,838,1,0,0:0:0:0:
352,96,1006,1,8,0:0:0:0:
160,96,1175,1,0,0:0:0:0:
352,96,1343,1,8,0:0:0:0:
160,96,1680,1,0,0:0:0:0:
352,96,1849,1,8,0:0:0:0:
160,96,2186,1,0,0:0:0:0:
160,96,2355,1,0,0:0:0:0:
352,96,2523,1,8,0:0:0:0:
160,96,2860,1,0,0:0:0:0:
160,96,3029,1,0,0:0:0:0:
352,96,3197,1,8,0:0:0:0:
160,96,3534,1,0,0:0:0:0:
352,96,3703,1,8,0:0:0:0:
160,96,3871,1,0,0:0:0:0:
352,96,4040,1,8,0:0:0:0:
160,96,4377,1,0,0:0:0:0:
352,96,4546,1,8,0:0:0:0:
160,96,4714,1,0,0:0:0:0:
160,96,4883,1,0,0:0:0:0:
352,96,5220,1,8,0:0:0:0:
160,96,5388,1,0,0:0:0:0:
160,96,5557,1,0,0:0:0:0:
160,96,5725,1,0,0:0:0:0:
352,96,5894,1,8,0:0:0:0:
160,96,6231,1,0,0:0:0:0:
352,96,6399,1,8,0:0:0:0:
160,96,6568,1,0,0:0:0:0:
352,96,6737,1,8,0:0:0:0:
160,96,7074,1,0,0:0:0:0:
352,96,7242,1,8,0:0:0:0:
160,96,7411,1,0,0:0:0:0:
160,96,7748,1,0,0:0:0:0:
352,96,7916,1,8,0:0:0:0:
160,96,8085,1,0,0:0:0:0:
352,96,8253,1,8,0:0:0:0:
160,96,8590,1,0,0:0:0:0:
352,96,8759,1,8,0:0:0:0:
160,96,9096,1,0,0:0:0:0:
352,96,9265,1,8,0:0:0:0:
160,96,9602,1,0,0:0:0:0:
352,96,9770,1,8,0:0:0:0:
160,96,10107,1,0,0:0:0:0:
352,96,10276,1,8,0:0:0:0:
160,96,10444,1,0,0:0:0:0:
352,96,10613,1,8,0:0:0:0:
160,96,10950,1,0,0:0:0:0:
352,96,11287,1,8,0:0:0:0:
160,96,11456,1,0,0:0:0:0:
352,96,11624,1,8,0:0:0:0:
352,96,11793,1,8,0:0:0:0:
352,96,12130,1,8,0:0:0:0:
160,96,12298,1,0,0:0:0:0:
160,96,12467,1,0,0:0:0:0:
352,96,12635,1,8,0:0:0:0:
160,96,12972,1,0,0:0:0:0:
160,96,13141,1,0,0:0:0:0:
352,96,13310,1,8,0:0:0:0:
160,96,13478,1,0,0:0:0:0:
352,96,13647,1,8,0:0:0:0:
352,96,13984,1,8,0:0:0:0:
160,96,14152,1,0,0:0:0:0:
352,96,14321,1,8,0:0:0:0:
160,96,14489,1,0,0:0:0:0:
352,96,14826,1,8,0:0:0:0:
160,96,14995,1,0,0:0:0:0:
352,96,15163,1,8,0:0:0:0:
160,96,15501,1,0,0:0:0:0:
160,96,15838,1,0,0:0:0:0:
352,96,16006,1,8,0:0:0:0:
160,96,16175,1,0,0:0:0:0:
160,96,16343,1,0,0:0:0:0:
352,96,16680,1,8,0:0:0:0:
160,96,16849,1,0,0:0:0:0:
352,96,17017,1,8,0:0:0:0:
352,96,17186,1,8,0:0:0:0:
160,96,17355,1,0,0:0:0:0:
352,96,17523,1,8,0:0:0:0:
160,96,17860,1,0,0:0:0:0:
352,96,18029,1,8,0:0:0:0:
160,96,18197,1,0,0:0:0:0:
352,96,18366,1,8,0:0:0:0:
352,96,18534,1,8,0:0:0:0:
160,96,18703,1,0,0:0:0:0:
352,96,19040,1,8,0:0:0:0:
160,96,19377,1,0,0:0:0:0:
352,96,19546,1,8,0:0:0:0:
160,96,19714,1,0,0:0:0:0:
160,96,19883,1,0,0:0:0:0:
352,96,20051,1,8,0:0:0:0:
160,96,20388,1,0,0:0:0:0:
352,96,20557,1,8,0:0:0:0:
160,96,20894,1,0,0:0:0:0:
352,96,21062,1,8,0:0:0:0:
160,96,21231,1,0,0:0:0:0:
352,96,21399,1,8,0:0:0:0:
352,96,21568,1,8,0:0:0:0:
160,96,21737,1,0,0:0:0:0:
352,96,22074,1,8,0:0:0:0:
352,96,22748,1,8,0:0:0:0:
352,96,23422,1,8,0:0:0:0:
352,96,24096,1,8,0:0:0:0:
352,96,24770,1,8,0:0:0:0:
352,96,25444,1,8,0:0:0:0:
352,96,26119,1,8,0:0:0:0:
352,96,26793,1,8,0:0:0:0:
352,96,27467,1,8,0:0:0:0:
352,96,28141,1,8,0:0:0:0:
352,96,28815,1,8,0:0:0:0:
352,96,29489,1,8,0:0:0:0:
352,96,30163,1,8,0:0:0:0:
352,96,30838,1,8,0:0:0:0:
352,96,31512,1,8,0:0:0:0:
352,96,32186,1,8,0:0:0:0:
160,96,32355,1,0,0:0:0:0:
160,96,32523,1,0,0:0:0:0:
352,96,32692,1,8,0:0:0:0:
352,96,32776,1,8,0:0:0:0:
352,96,32860,1,8,0:0:0:0:
352,96,33197,1,8,0:0:0:0:
352,96,33281,1,8,0:0:0:0:
352,96,33366,1,8,0:0:0:0:
352,96,33450,1,8,0:0:0:0:
352,96,33534,1,8,0:0:0:0:
352,96,33871,1,8,0:0:0:0:
352,96,33956,1,8,0:0:0:0:
352,96,34040,1,8,0:0:0:0:
352,96,34124,1,8,0:0:0:0:
352,96,34208,1,8,0:0:0:0:
352,96,34546,1,8,0:0:0:0:
352,96,34630,1,8,0:0:0:0:
352,96,34714,1,8,0:0:0:0:
352,96,34798,1,8,0:0:0:0:
352,96,34883,1,8,0:0:0:0:
160,96,35051,1,0,0:0:0:0:
160,96,35220,1,0,0:0:0:0:
352,96,35304,1,8,0:0:0:0:
352,96,35388,1,8,0:0:0:0:
352,96,35472,1,8,0:0:0:0:
352,96,35557,1,8,0:0:0:0:
352,96,35894,1,8,0:0:0:0:
352,96,35978,1,8,0:0:0:0:
352,96,36062,1,8,0:0:0:0:
352,96,36147,1,8,0:0:0:0:
352,96,36231,1,8,0:0:0:0:
352,96,36568,1,8,0:0:0:0:
352,96,36652,1,8,0:0:0:0:
352,96,36737,1,8,0:0:0:0:
352,96,36821,1,8,0:0:0:0:
352,96,36905,1,8,0:0:0:0:
352,96,37242,1,8,0:0:0:0:
352,96,37326,1,8,0:0:0:0:
352,96,37411,1,8,0:0:0:0:
352,96,37495,1,8,0:0:0:0:
352,96,37579,1,8,0:0:0:0:
160,96,37748,1,0,0:0:0:0:
160,96,37916,1,0,0:0:0:0:
352,96,38085,1,8,0:0:0:0:
352,96,38169,1,8,0:0:0:0:
352,96,38253,1,8,0:0:0:0:
352,96,38590,1,8,0:0:0:0:
352,96,38675,1,8,0:0:0:0:
352,96,38759,1,8,0:0:0:0:
352,96,38843,1,8,0:0:0:0:
352,96,38928,1,8,0:0:0:0:
352,96,39265,1,8,0:0:0:0:
352,96,39349,1,8,0:0:0:0:
352,96,39433,1,8,0:0:0:0:
352,96,39517,1,8,0:0:0:0:
352,96,39602,1,8,0:0:0:0:
352,96,39939,1,8,0:0:0:0:
352,96,40023,1,8,0:0:0:0:
352,96,40107,1,8,0:0:0:0:
352,96,40192,1,8,0:0:0:0:
352,96,40276,1,8,0:0:0:0:
160,96,40444,1,0,0:0:0:0:
352,96,40613,1,8,0:0:0:0:
160,96,40782,1,0,0:0:0:0:
160,96,40867,1,0,0:0:0:0:
160,96,40951,1,0,0:0:0:0:
160,96,41036,1,0,0:0:0:0:
352,96,41121,1,8,0:0:0:0:
160,96,41290,1,0,0:0:0:0:
160,96,41375,1,0,0:0:0:0:
160,96,41460,1,0,0:0:0:0:
160,96,41545,1,0,0:0:0:0:
352,96,41629,1,8,0:0:0:0:
160,96,41799,1,0,0:0:0:0:
160,96,41884,1,0,0:0:0:0:
160,96,41968,1,0,0:0:0:0:
160,96,42053,1,0,0:0:0:0:
352,96,42138,1,8,0:0:0:0:
160,96,42307,1,0,0:0:0:0:
160,96,42392,1,0,0:0:0:0:
160,96,42477,1,0,0:0:0:0:
160,96,42562,1,0,0:0:0:0:
352,96,42646,1,8,0:0:0:0:
160,96,42816,1,0,0:0:0:0:
160,96,42901,1,0,0:0:0:0:
352,96,42985,1,8,0:0:0:0:
352,96,43155,1,8,0:0:0:0:
160,96,43304,1,0,0:0:0:0:
352,96,43472,1,8,0:0:0:0:
352,96,43556,1,8,0:0:0:0:
352,96,43641,1,8,0:0:0:0:
352,96,43978,1,8,0:0:0:0:
352,96,44062,1,8,0:0:0:0:
352,96,44146,1,8,0:0:0:0:
352,96,44230,1,8,0:0:0:0:
352,96,44315,1,8,0:0:0:0:
160,96,44652,1,0,0:0:0:0:
352,96,44820,1,8,0:0:0:0:
352,96,44905,1,8,0:0:0:0:
352,96,44989,1,8,0:0:0:0:
352,96,45326,1,8,0:0:0:0:
352,96,45410,1,8,0:0:0:0:
352,96,45495,1,8,0:0:0:0:
352,96,45579,1,8,0:0:0:0:
352,96,45663,1,8,0:0:0:0:
160,96,46000,1,0,0:0:0:0:
352,96,46084,1,8,0:0:0:0:
352,96,46169,1,8,0:0:0:0:
352,96,46253,1,8,0:0:0:0:
352,96,46337,1,8,0:0:0:0:
352,96,46674,1,8,0:0:0:0:
352,96,46759,1,8,0:0:0:0:
352,96,46843,1,8,0:0:0:0:
352,96,46927,1,8,0:0:0:0:
352,96,47011,1,8,0:0:0:0:
160,96,47348,1,0,0:0:0:0:
352,96,47517,1,8,0:0:0:0:
352,96,47601,1,8,0:0:0:0:
352,96,47686,1,8,0:0:0:0:
352,96,48023,1,8,0:0:0:0:
352,96,48107,1,8,0:0:0:0:
352,96,48191,1,8,0:0:0:0:
352,96,48275,1,8,0:0:0:0:
352,96,48360,1,8,0:0:0:0:
160,96,48697,1,0,0:0:0:0:
352,96,48781,1,8,0:0:0:0:
352,96,48866,1,8,0:0:0:0:
352,96,48951,1,8,0:0:0:0:
352,96,49035,1,8,0:0:0:0:
352,96,49374,1,8,0:0:0:0:
352,96,49459,1,8,0:0:0:0:
352,96,49544,1,8,0:0:0:0:
352,96,49629,1,8,0:0:0:0:
352,96,49713,1,8,0:0:0:0:
160,96,50052,1,0,0:0:0:0:
352,96,50222,1,8,0:0:0:0:
352,96,50307,1,8,0:0:0:0:
352,96,50391,1,8,0:0:0:0:
352,96,50730,1,8,0:0:0:0:
352,96,50815,1,8,0:0:0:0:
352,96,50900,1,8,0:0:0:0:
352,96,50984,1,8,0:0:0:0:
352,96,51069,1,8,0:0:0:0:
160,96,51239,1,0,0:0:0:0:
352,288,51394,1,12,0:0:0:0:
160,288,54090,1,4,0:0:0:0:
352,96,54427,1,8,0:0:0:0:
160,96,54764,1,0,0:0:0:0:
160,96,54933,1,0,0:0:0:0:
160,96,55017,1,0,0:0:0:0:
352,96,55101,1,8,0:0:0:0:
160,96,55270,1,0,0:0:0:0:
160,96,55607,1,0,0:0:0:0:
352,96,55776,1,8,0:0:0:0:
160,96,55944,1,0,0:0:0:0:
160,96,56028,1,0,0:0:0:0:
160,96,56113,1,0,0:0:0:0:
160,96,56281,1,0,0:0:0:0:
352,96,56450,1,8,0:0:0:0:
352,96,56618,1,8,0:0:0:0:
160,288,56787,1,4,0:0:0:0:
352,96,57124,1,8,0:0:0:0:
160,96,57461,1,0,0:0:0:0:
160,96,57629,1,0,0:0:0:0:
160,96,57714,1,0,0:0:0:0:
352,96,57798,1,8,0:0:0:0:
160,96,57967,1,0,0:0:0:0:
160,96,58304,1,0,0:0:0:0:
352,96,58472,1,8,0:0:0:0:
160,96,58641,1,0,0:0:0:0:
352,96,58725,1,8,0:0:0:0:
160,96,58809,1,0,0:0:0:0:
160,96,58978,1,0,0:0:0:0:
160,96,59062,1,0,0:0:0:0:
352,96,59146,1,8,0:0:0:0:
352,288,59315,1,12,0:0:0:0:
160,288,59483,1,4,0:0:0:0:
352,96,59820,1,8,0:0:0:0:
160,96,59989,1,0,0:0:0:0:
160,96,60073,1,0,0:0:0:0:
160,96,60158,1,0,0:0:0:0:
160,96,60326,1,0,0:0:0:0:
352,96,60495,1,8,0:0:0:0:
160,96,60663,1,0,0:0:0:0:
160,96,61000,1,0,0:0:0:0:
160,96,61085,1,0,0:0:0:0:
352,96,61169,1,8,0:0:0:0:
160,96,61337,1,0,0:0:0:0:
352,96,61506,1,8,0:0:0:0:
352,96,61590,1,8,0:0:0:0:
352,96,61674,1,8,0:0:0:0:
352,96,61843,1,8,0:0:0:0:
352,96,62011,1,8,0:0:0:0:
352,288,62180,1,12,0:0:0:0:
352,96,62517,1,8,0:0:0:0:
160,288,62686,1,4,0:0:0:0:
160,96,63023,1,0,0:0:0:0:
352,288,63191,1,12,0:0:0:0:
160,96,63697,1,0,0:0:0:0:
352,96,63865,1,8,0:0:0:0:
160,96,64202,1,0,0:0:0:0:
160,96,64287,1,0,0:0:0:0:
160,96,64371,1,0,0:0:0:0:
160,96,64455,1,0,0:0:0:0:
352,96,64540,1,8,0:0:0:0:
160,96,64708,1,0,0:0:0:0:
160,288,64877,1,4,0:0:0:0:
352,96,65214,1,8,0:0:0:0:
160,96,65551,1,0,0:0:0:0:
160,96,65719,1,0,0:0:0:0:
160,96,65804,1,0,0:0:0:0:
352,96,65888,1,8,0:0:0:0:
160,96,66056,1,0,0:0:0:0:
160,96,66393,1,0,0:0:0:0:
352,96,66562,1,8,0:0:0:0:
160,96,66731,1,0,0:0:0:0:
160,96,66815,1,0,0:0:0:0:
160,96,66899,1,0,0:0:0:0:
160,96,67068,1,0,0:0:0:0:
352,96,67236,1,8,0:0:0:0:
160,96,67405,1,0,0:0:0:0:
160,96,67489,1,0,0:0:0:0:
160,96,67573,1,0,0:0:0:0:
352,96,67910,1,8,0:0:0:0:
160,96,68247,1,0,0:0:0:0:
160,96,68416,1,0,0:0:0:0:
160,96,68500,1,0,0:0:0:0:
352,96,68585,1,8,0:0:0:0:
160,96,68753,1,0,0:0:0:0:
160,96,69090,1,0,0:0:0:0:
352,96,69259,1,8,0:0:0:0:
160,96,69427,1,0,0:0:0:0:
352,96,69511,1,8,0:0:0:0:
160,96,69596,1,0,0:0:0:0:
160,96,69764,1,0,0:0:0:0:
352,96,69933,1,8,0:0:0:0:
352,96,70101,1,8,0:0:0:0:
352,96,70186,1,8,0:0:0:0:
160,96,70270,1,0,0:0:0:0:
352,96,70607,1,8,0:0:0:0:
160,96,70944,1,0,0:0:0:0:
160,96,71113,1,0,0:0:0:0:
160,96,71197,1,0,0:0:0:0:
352,96,71281,1,8,0:0:0:0:
160,96,71450,1,0,0:0:0:0:
160,96,71787,1,0,0:0:0:0:
352,96,71955,1,8,0:0:0:0:
160,96,72124,1,0,0:0:0:0:
160,96,72208,1,0,0:0:0:0:
352,96,72292,1,8,0:0:0:0:
352,96,72377,1,8,0:0:0:0:
160,96,72461,1,0,0:0:0:0:
352,96,72629,1,8,0:0:0:0:
352,96,72798,1,8,0:0:0:0:
160,288,72967,1,4,0:0:0:0:
352,96,73304,1,8,0:0:0:0:
160,288,73472,1,4,0:0:0:0:
160,96,73809,1,0,0:0:0:0:
352,288,73978,1,12,0:0:0:0:
160,96,74483,1,0,0:0:0:0:
352,96,74652,1,8,0:0:0:0:
160,96,74989,1,0,0:0:0:0:
160,96,75158,1,0,0:0:0:0:
352,96,75326,1,8,0:0:0:0:
352,96,75495,1,8,0:0:0:0:
160,288,75663,1,4,0:0:0:0:
352,96,76000,1,8,0:0:0:0:
160,96,76169,1,0,0:0:0:0:
160,96,76253,1,0,0:0:0:0:
160,96,76337,1,0,0:0:0:0:
160,96,76506,1,0,0:0:0:0:
352,96,76674,1,8,0:0:0:0:
160,96,76843,1,0,0:0:0:0:
160,96,77180,1,0,0:0:0:0:
352,96,77349,1,8,0:0:0:0:
160,96,77517,1,0,0:0:0:0:
352,96,77601,1,8,0:0:0:0:
160,96,77686,1,0,0:0:0:0:
160,96,77854,1,0,0:0:0:0:
352,96,78023,1,8,0:0:0:0:
160,96,78107,1,0,0:0:0:0:
352,96,78191,1,8,0:0:0:0:
352,96,78276,1,8,0:0:0:0:
160,96,78360,1,0,0:0:0:0:
352,96,78697,1,8,0:0:0:0:
160,96,78865,1,0,0:0:0:0:
160,96,79034,1,0,0:0:0:0:
160,96,79202,1,0,0:0:0:0:
160,96,79287,1,0,0:0:0:0:
352,96,79371,1,8,0:0:0:0:
160,96,79540,1,0,0:0:0:0:
160,96,79877,1,0,0:0:0:0:
352,96,80045,1,8,0:0:0:0:
352,96,80214,1,8,0:0:0:0:
160,96,80298,1,0,0:0:0:0:
160,96,80382,1,0,0:0:0:0:
160,96,80551,1,0,0:0:0:0:
352,96,80719,1,8,0:0:0:0:
352,96,80888,1,8,0:0:0:0:
352,96,80972,1,8,0:0:0:0:
160,96,81056,1,0,0:0:0:0:
352,96,81393,1,8,0:0:0:0:
160,96,81731,1,0,0:0:0:0:
160,96,81815,1,0,0:0:0:0:
160,96,81899,1,0,0:0:0:0:
160,96,81983,1,0,0:0:0:0:
352,96,82068,1,8,0:0:0:0:
160,96,82236,1,0,0:0:0:0:
160,96,82573,1,0,0:0:0:0:
352,96,82742,1,8,0:0:0:0:
160,96,82910,1,0,0:0:0:0:
352,96,83079,1,8,0:0:0:0:
160,96,83247,1,0,0:0:0:0:
160,96,83332,1,0,0:0:0:0:
352,96,83416,1,8,0:0:0:0:
160,96,83585,1,0,0:0:0:0:
352,288,83753,1,12,0:0:0:0:
352,96,84090,1,8,0:0:0:0:
160,288,84259,1,4,0:0:0:0:
160,96,84596,1,0,0:0:0:0:
352,288,84764,1,12,0:0:0:0:
160,96,85270,1,0,0:0:0:0:
352,96,85438,1,8,0:0:0:0:
160,96,85607,1,0,0:0:0:0:
160,96,85776,1,0,0:0:0:0:
352,96,85944,1,8,0:0:0:0:
160,96,86113,1,0,0:0:0:0:
160,96,86281,1,0,0:0:0:0:
160,288,86450,1,4,0:0:0:0:
352,96,86787,1,8,0:0:0:0:
160,96,86955,1,0,0:0:0:0:
160,96,87292,1,0,0:0:0:0:
352,96,87461,1,8,0:0:0:0:
160,96,87967,1,0,0:0:0:0:
352,96,88135,1,8,0:0:0:0:
160,96,88472,1,0,0:0:0:0:
160,96,88641,1,0,0:0:0:0:
352,96,88809,1,8,0:0:0:0:
160,96,88978,1,0,0:0:0:0:
160,96,89062,1,0,0:0:0:0:
352,96,89146,1,8,0:0:0:0:
352,96,89315,1,8,0:0:0:0:
160,96,89483,1,0,0:0:0:0:
160,96,89568,1,0,0:0:0:0:
352,96,89652,1,8,0:0:0:0:
352,96,89820,1,8,0:0:0:0:
160,96,89989,1,0,0:0:0:0:
160,96,90073,1,0,0:0:0:0:
160,96,90158,1,0,0:0:0:0:
160,96,90326,1,0,0:0:0:0:
160,96,90495,1,0,0:0:0:0:
160,96,90579,1,0,0:0:0:0:
160,96,90663,1,0,0:0:0:0:
160,96,90832,1,0,0:0:0:0:
160,96,91000,1,0,0:0:0:0:
160,96,91085,1,0,0:0:0:0:
352,96,91169,1,8,0:0:0:0:
160,96,91337,1,0,0:0:0:0:
352,96,91506,1,8,0:0:0:0:
160,96,91674,1,0,0:0:0:0:
160,288,91843,1,4,0:0:0:0:
352,96,92180,1,8,0:0:0:0:
160,288,92349,1,4,0:0:0:0:
160,96,92686,1,0,0:0:0:0:
352,288,92854,1,12,0:0:0:0:
160,96,93360,1,0,0:0:0:0:
160,96,93444,1,0,0:0:0:0:
352,96,93528,1,8,0:0:0:0:
160,96,93865,1,0,0:0:0:0:
160,96,94034,1,0,0:0:0:0:
160,96,94118,1,0,0:0:0:0:
352,96,94202,1,8,0:0:0:0:
160,96,94371,1,0,0:0:0:0:
352,288,94540,1,12,0:0:0:0:
352,96,94877,1,8,0:0:0:0:
160,288,95045,1,4,0:0:0:0:
160,96,95382,1,0,0:0:0:0:
352,288,95551,1,12,0:0:0:0:
160,96,96056,1,0,0:0:0:0:
160,96,96141,1,0,0:0:0:0:
352,96,96225,1,8,0:0:0:0:
160,96,96393,1,0,0:0:0:0:
160,96,96562,1,0,0:0:0:0:
160,96,96646,1,0,0:0:0:0:
160,96,96731,1,0,0:0:0:0:
352,96,96899,1,8,0:0:0:0:
160,96,97068,1,0,0:0:0:0:
352,288,97236,1,12,0:0:0:0:
352,96,97573,1,8,0:0:0:0:
160,288,97742,1,4,0:0:0:0:
160,96,98079,1,0,0:0:0:0:
352,288,98247,1,12,0:0:0:0:
160,96,98753,1,0,0:0:0:0:
160,96,98837,1,0,0:0:0:0:
352,96,98922,1,8,0:0:0:0:
160,96,99090,1,0,0:0:0:0:
160,96,99259,1,0,0:0:0:0:
160,96,99427,1,0,0:0:0:0:
160,96,99511,1,0,0:0:0:0:
352,96,99596,1,8,0:0:0:0:
160,96,99764,1,0,0:0:0:0:
352,96,99933,1,8,0:0:0:0:
160,96,100101,1,0,0:0:0:0:
160,96,100270,1,0,0:0:0:0:
352,96,100438,1,8,0:0:0:0:
352,96,100607,1,8,0:0:0:0:
160,96,100776,1,0,0:0:0:0:
160,96,100860,1,0,0:0:0:0:
352,96,100944,1,8,0:0:0:0:
160,96,101113,1,0,0:0:0:0:
160,96,101281,1,0,0:0:0:0:
352,96,101450,1,8,0:0:0:0:
352,96,101618,1,8,0:0:0:0:
160,96,101787,1,0,0:0:0:0:
160,96,101871,1,0,0:0:0:0:
352,96,101955,1,8,0:0:0:0:
352,96,102124,1,8,0:0:0:0:
352,96,102292,1,8,0:0:0:0:
352,96,102461,1,8,0:0:0:0:
160,288,102629,1,4,0:0:0:0:
352,96,102967,1,8,0:0:0:0:
160,288,103135,1,4,0:0:0:0:
160,96,103472,1,0,0:0:0:0:
352,288,103641,1,12,0:0:0:0:
160,96,104146,1,0,0:0:0:0:
160,96,104231,1,0,0:0:0:0:
352,96,104315,1,8,0:0:0:0:
160,96,104483,1,0,0:0:0:0:
160,96,104652,1,0,0:0:0:0:
160,96,104820,1,0,0:0:0:0:
160,96,104905,1,0,0:0:0:0:
352,96,104989,1,8,0:0:0:0:
160,96,105158,1,0,0:0:0:0:
352,288,105326,1,12,0:0:0:0:
352,96,105663,1,8,0:0:0:0:
160,288,105832,1,4,0:0:0:0:
160,96,106169,1,0,0:0:0:0:
352,288,106337,1,12,0:0:0:0:
160,96,106843,1,0,0:0:0:0:
160,96,106927,1,0,0:0:0:0:
352,96,107011,1,8,0:0:0:0:
160,96,107180,1,0,0:0:0:0:
160,96,107349,1,0,0:0:0:0:
160,96,107433,1,0,0:0:0:0:
160,96,107517,1,0,0:0:0:0:
352,96,107686,1,8,0:0:0:0:
160,96,107854,1,0,0:0:0:0:
352,288,108023,1,12,0:0:0:0:
352,96,108360,1,8,0:0:0:0:
160,288,108528,1,4,0:0:0:0:
160,96,108865,1,0,0:0:0:0:
352,288,109034,1,12,0:0:0:0:
160,96,109540,1,0,0:0:0:0:
160,96,109624,1,0,0:0:0:0:
352,96,109708,1,8,0:0:0:0:
160,96,109877,1,0,0:0:0:0:
352,96,110045,1,8,0:0:0:0:
352,96,110129,1,8,0:0:0:0:
160,96,110214,1,0,0:0:0:0:
352,96,110382,1,8,0:0:0:0:
160,96,110551,1,0,0:0:0:0:
352,96,110719,1,8,0:0:0:0:
160,96,110888,1,0,0:0:0:0:
160,96,111056,1,0,0:0:0:0:
352,96,111225,1,8,0:0:0:0:
352,96,111393,1,8,0:0:0:0:
160,96,111562,1,0,0:0:0:0:
160,96,111646,1,0,0:0:0:0:
352,96,111731,1,8,0:0:0:0:
160,96,111899,1,0,0:0:0:0:
160,96,112068,1,0,0:0:0:0:
352,96,112236,1,8,0:0:0:0:
352,96,112405,1,8,0:0:0:0:
160,96,112573,1,0,0:0:0:0:
160,96,112658,1,0,0:0:0:0:
352,96,112742,1,8,0:0:0:0:
160,96,112910,1,0,0:0:0:0:
160,96,113079,1,0,0:0:0:0:
160,96,113247,1,0,0:0:0:0:
160,288,113416,1,4,0:0:0:0:
352,96,113753,1,8,0:0:0:0:
160,96,114090,1,0,0:0:0:0:
160,96,114259,1,0,0:0:0:0:
352,96,114427,1,8,0:0:0:0:
160,96,114596,1,0,0:0:0:0:
160,96,114933,1,0,0:0:0:0:
352,96,115101,1,8,0:0:0:0:
160,96,115438,1,0,0:0:0:0:
160,96,115607,1,0,0:0:0:0:
352,96,115776,1,8,0:0:0:0:
160,96,115944,1,0,0:0:0:0:
352,96,116113,1,8,0:0:0:0:
160,96,116281,1,0,0:0:0:0:
160,96,116365,1,0,0:0:0:0:
160,96,116450,1,0,0:0:0:0:
352,96,116618,1,8,0:0:0:0:
160,96,116787,1,0,0:0:0:0:
160,96,116955,1,0,0:0:0:0:
352,96,117124,1,8,0:0:0:0:
160,96,117292,1,0,0:0:0:0:
160,96,117377,1,0,0:0:0:0:
160,96,117461,1,0,0:0:0:0:
160,96,117629,1,0,0:0:0:0:
160,96,117798,1,0,0:0:0:0:
160,96,117967,1,0,0:0:0:0:
352,288,118135,1,12,0:0:0:0:
160,96,118304,1,0,0:0:0:0:
352,288,118472,1,12,0:0:0:0:
160,96,118641,1,0,0:0:0:0:
160,288,118809,1,4,0:0:0:0:
352,96,119146,1,8,0:0:0:0:
160,96,119483,1,0,0:0:0:0:
160,96,119652,1,0,0:0:0:0:
160,96,119736,1,0,0:0:0:0:
352,96,119820,1,8,0:0:0:0:
160,96,119989,1,0,0:0:0:0:
160,96,120326,1,0,0:0:0:0:
160,96,120410,1,0,0:0:0:0:
352,96,120495,1,8,0:0:0:0:
160,96,120663,1,0,0:0:0:0:
160,96,120747,1,0,0:0:0:0:
160,96,120832,1,0,0:0:0:0:
160,96,121000,1,0,0:0:0:0:
352,96,121169,1,8,0:0:0:0:
160,96,121337,1,0,0:0:0:0:
160,96,121506,1,0,0:0:0:0:
352,96,121843,1,8,0:0:0:0:
160,96,122180,1,0,0:0:0:0:
160,96,122264,1,0,0:0:0:0:
160,96,122349,1,0,0:0:0:0:
160,96,122433,1,0,0:0:0:0:
352,96,122517,1,8,0:0:0:0:
160,96,122686,1,0,0:0:0:0:
160,96,123023,1,0,0:0:0:0:
160,96,123107,1,0,0:0:0:0:
352,96,123191,1,8,0:0:0:0:
160,96,123360,1,0,0:0:0:0:
352,96,123444,1,8,0:0:0:0:
160,96,123528,1,0,0:0:0:0:
160,96,123697,1,0,0:0:0:0:
352,96,123865,1,8,0:0:0:0:
352,96,124034,1,8,0:0:0:0:
352,96,124118,1,8,0:0:0:0:
160,96,124202,1,0,0:0:0:0:
352,96,124540,1,8,0:0:0:0:
160,96,124708,1,0,0:0:0:0:
160,96,124792,1,0,0:0:0:0:
160,96,124877,1,0,0:0:0:0:
160,96,125045,1,0,0:0:0:0:
160,96,125129,1,0,0:0:0:0:
352,96,125214,1,8,0:0:0:0:
160,96,125382,1,0,0:0:0:0:
352,96,125719,1,8,0:0:0:0:
160,96,125888,1,0,0:0:0:0:
160,96,126056,1,0,0:0:0:0:
160,96,126141,1,0,0:0:0:0:
352,96,126225,1,8,0:0:0:0:
160,96,126393,1,0,0:0:0:0:
352,96,126562,1,8,0:0:0:0:
352,96,126646,1,8,0:0:0:0:
160,96,126731,1,0,0:0:0:0:
352,288,126899,1,12,0:0:0:0:
352,96,127236,1,8,0:0:0:0:
160,288,127405,1,4,0:0:0:0:
160,96,127742,1,0,0:0:0:0:
352,288,127910,1,12,0:0:0:0:
160,96,128079,1,0,0:0:0:0:
160,96,128416,1,0,0:0:0:0:
352,96,128585,1,8,0:0:0:0:
160,96,128753,1,0,0:0:0:0:
352,96,128922,1,8,0:0:0:0:
160,96,129090,1,0,0:0:0:0:
160,96,129259,1,0,0:0:0:0:
160,96,129427,1,0,0:0:0:0:
160,288,129596,1,4,0:0:0:0:
352,96,129933,1,8,0:0:0:0:
160,96,130101,1,0,0:0:0:0:
160,96,130186,1,0,0:0:0:0:
160,96,130270,1,0,0:0:0:0:
160,96,130438,1,0,0:0:0:0:
352,96,130607,1,8,0:0:0:0:
160,96,130776,1,0,0:0:0:0:
160,96,131113,1,0,0:0:0:0:
160,96,131197,1,0,0:0:0:0:
352,96,131281,1,8,0:0:0:0:
160,96,131450,1,0,0:0:0:0:
160,96,131618,1,0,0:0:0:0:
160,96,131702,1,0,0:0:0:0:
160,96,131787,1,0,0:0:0:0:
160,96,131871,1,0,0:0:0:0:
352,96,131955,1,8,0:0:0:0:
160,96,132124,1,0,0:0:0:0:
160,96,132292,1,0,0:0:0:0:
352,96,132629,1,8,0:0:0:0:
160,96,132798,1,0,0:0:0:0:
160,96,132882,1,0,0:0:0:0:
160,96,132967,1,0,0:0:0:0:
160,96,133135,1,0,0:0:0:0:
352,96,133304,1,8,0:0:0:0:
160,96,133472,1,0,0:0:0:0:
160,96,133809,1,0,0:0:0:0:
160,96,133893,1,0,0:0:0:0:
352,96,133978,1,8,0:0:0:0:
160,96,134146,1,0,0:0:0:0:
352,96,134231,1,8,0:0:0:0:
160,96,134315,1,0,0:0:0:0:
160,96,134483,1,0,0:0:0:0:
352,96,134652,1,8,0:0:0:0:
352,96,134820,1,8,0:0:0:0:
352,96,134905,1,8,0:0:0:0:
160,96,134989,1,0,0:0:0:0:
352,96,135326,1,8,0:0:0:0:
160,96,135495,1,0,0:0:0:0:
160,96,135579,1,0,0:0:0:0:
160,96,135663,1,0,0:0:0:0:
160,96,135832,1,0,0:0:0:0:
352,96,136000,1,8,0:0:0:0:
160,96,136169,1,0,0:0:0:0:
352,96,136253,1,8,0:0:0:0:
160,96,136337,1,0,0:0:0:0:
160,96,136506,1,0,0:0:0:0:
352,96,136674,1,8,0:0:0:0:
160,96,136843,1,0,0:0:0:0:
160,96,136927,1,0,0:0:0:0:
160,96,137011,1,0,0:0:0:0:
352,96,137180,1,8,0:0:0:0:
352,96,137349,1,8,0:0:0:0:
352,96,137517,1,8,0:0:0:0:
160,288,137686,1,4,0:0:0:0:
352,96,138023,1,8,0:0:0:0:
160,288,138191,1,4,0:0:0:0:
160,96,138528,1,0,0:0:0:0:
352,288,138697,1,12,0:0:0:0:
160,96,138865,1,0,0:0:0:0:
160,96,139202,1,0,0:0:0:0:
352,96,139371,1,8,0:0:0:0:
160,96,139540,1,0,0:0:0:0:
160,96,139708,1,0,0:0:0:0:
352,96,139877,1,8,0:0:0:0:
352,96,140045,1,8,0:0:0:0:
160,96,140214,1,0,0:0:0:0:
160,288,140382,1,4,0:0:0:0:
352,96,140719,1,8,0:0:0:0:
160,96,140888,1,0,0:0:0:0:
160,96,141225,1,0,0:0:0:0:
352,96,141393,1,8,0:0:0:0:
160,96,141899,1,0,0:0:0:0:
352,96,142068,1,8,0:0:0:0:
160,96,142405,1,0,0:0:0:0:
160,96,142573,1,0,0:0:0:0:
352,96,142742,1,8,0:0:0:0:
160,96,142910,1,0,0:0:0:0:
160,96,142995,1,0,0:0:0:0:
352,96,143079,1,8,0:0:0:0:
352,96,143247,1,8,0:0:0:0:
160,96,143416,1,0,0:0:0:0:
160,96,143500,1,0,0:0:0:0:
352,96,143585,1,8,0:0:0:0:
352,96,143753,1,8,0:0:0:0:
160,96,143922,1,0,0:0:0:0:
160,96,144006,1,0,0:0:0:0:
160,96,144090,1,0,0:0:0:0:
160,96,144259,1,0,0:0:0:0:
160,96,144427,1,0,0:0:0:0:
160,96,144511,1,0,0:0:0:0:
160,96,144596,1,0,0:0:0:0:
160,96,144764,1,0,0:0:0:0:
160,96,144933,1,0,0:0:0:0:
160,96,145017,1,0,0:0:0:0:
352,96,145101,1,8,0:0:0:0:
160,96,145270,1,0,0:0:0:0:
352,96,145438,1,8,0:0:0:0:
160,96,145607,1,0,0:0:0:0:
160,288,145776,1,4,0:0:0:0:
352,96,146113,1,8,0:0:0:0:
160,288,146281,1,4,0:0:0:0:
160,96,146618,1,0,0:0:0:0:
352,288,146787,1,12,0:0:0:0:
160,96,147292,1,0,0:0:0:0:
160,96,147377,1,0,0:0:0:0:
352,96,147461,1,8,0:0:0:0:
160,96,147798,1,0,0:0:0:0:
160,96,147882,1,0,0:0:0:0:
160,96,147967,1,0,0:0:0:0:
160,96,148051,1,0,0:0:0:0:
352,96,148135,1,8,0:0:0:0:
160,96,148304,1,0,0:0:0:0:
352,288,148472,1,12,0:0:0:0:
352,96,148809,1,8,0:0:0:0:
160,288,148978,1,4,0:0:0:0:
160,96,149315,1,0,0:0:0:0:
352,288,149483,1,12,0:0:0:0:
160,96,149989,1,0,0:0:0:0:
160,96,150073,1,0,0:0:0:0:
352,96,150158,1,8,0:0:0:0:
160,96,150326,1,0,0:0:0:0:
160,96,150495,1,0,0:0:0:0:
160,96,150579,1,0,0:0:0:0:
160,96,150663,1,0,0:0:0:0:
160,96,150747,1,0,0:0:0:0:
352,96,150832,1,8,0:0:0:0:
160,96,151000,1,0,0:0:0:0:
352,288,151169,1,12,0:0:0:0:
352,96,151506,1,8,0:0:0:0:
160,288,151674,1,4,0:0:0:0:
160,96,152011,1,0,0:0:0:0:
352,288,152180,1,12,0:0:0:0:
160,96,152686,1,0,0:0:0:0:
160,96,152770,1,0,0:0:0:0:
352,96,152854,1,8,0:0:0:0:
160,96,153023,1,0,0:0:0:0:
160,96,153191,1,0,0:0:0:0:
160,96,153360,1,0,0:0:0:0:
160,96,153444,1,0,0:0:0:0:
352,96,153528,1,8,0:0:0:0:
352,96,153613,1,8,0:0:0:0:
160,96,153697,1,0,0:0:0:0:
352,96,153865,1,8,0:0:0:0:
160,96,154034,1,0,0:0:0:0:
160,96,154202,1,0,0:0:0:0:
352,96,154371,1,8,0:0:0:0:
352,96,154540,1,8,0:0:0:0:
160,96,154708,1,0,0:0:0:0:
160,96,154792,1,0,0:0:0:0:
352,96,154877,1,8,0:0:0:0:
160,96,155045,1,0,0:0:0:0:
160,96,155214,1,0,0:0:0:0:
352,96,155382,1,8,0:0:0:0:
352,96,155551,1,8,0:0:0:0:
160,96,155719,1,0,0:0:0:0:
160,96,155804,1,0,0:0:0:0:
352,96,155888,1,8,0:0:0:0:
352,96,156056,1,8,0:0:0:0:
352,96,156225,1,8,0:0:0:0:
352,96,156393,1,8,0:0:0:0:
160,288,156562,1,4,0:0:0:0:
352,96,156899,1,8,0:0:0:0:
160,288,157068,1,4,0:0:0:0:
160,96,157405,1,0,0:0:0:0:
352,288,157573,1,12,0:0:0:0:
160,96,158079,1,0,0:0:0:0:
160,96,158163,1,0,0:0:0:0:
352,96,158247,1,8,0:0:0:0:
160,96,158416,1,0,0:0:0:0:
160,96,158585,1,0,0:0:0:0:
160,96,158669,1,0,0:0:0:0:
160,96,158753,1,0,0:0:0:0:
160,96,158837,1,0,0:0:0:0:
352,96,158922,1,8,0:0:0:0:
160,96,159090,1,0,0:0:0:0:
352,288,159259,1,12,0:0:0:0:
352,96,159596,1,8,0:0:0:0:
160,288,159764,1,4,0:0:0:0:
160,96,160101,1,0,0:0:0:0:
352,288,160270,1,12,0:0:0:0:
160,96,160776,1,0,0:0:0:0:
160,96,160860,1,0,0:0:0:0:
352,96,160944,1,8,0:0:0:0:
160,96,161113,1,0,0:0:0:0:
160,96,161281,1,0,0:0:0:0:
160,96,161365,1,0,0:0:0:0:
160,96,161450,1,0,0:0:0:0:
160,96,161534,1,0,0:0:0:0:
352,96,161618,1,8,0:0:0:0:
160,96,161787,1,0,0:0:0:0:
352,288,161955,1,12,0:0:0:0:
352,96,162292,1,8,0:0:0:0:
160,288,162461,1,4,0:0:0:0:
160,96,162798,1,0,0:0:0:0:
352,288,162967,1,12,0:0:0:0:
160,96,163472,1,0,0:0:0:0:
160,96,163556,1,0,0:0:0:0:
352,96,163641,1,8,0:0:0:0:
160,96,163809,1,0,0:0:0:0:
352,96,163978,1,8,0:0:0:0:
352,96,164062,1,8,0:0:0:0:
160,96,164146,1,0,0:0:0:0:
160,96,164231,1,0,0:0:0:0:
352,96,164315,1,8,0:0:0:0:
160,96,164483,1,0,0:0:0:0:
160,96,164568,1,0,0:0:0:0:
352,96,164652,1,8,0:0:0:0:
160,96,164820,1,0,0:0:0:0:
160,96,164989,1,0,0:0:0:0:
352,96,165158,1,8,0:0:0:0:
352,96,165326,1,8,0:0:0:0:
160,96,165495,1,0,0:0:0:0:
160,96,165579,1,0,0:0:0:0:
352,96,165663,1,8,0:0:0:0:
160,96,165832,1,0,0:0:0:0:
160,96,166000,1,0,0:0:0:0:
352,96,166169,1,8,0:0:0:0:
352,96,166337,1,8,0:0:0:0:
160,96,166506,1,0,0:0:0:0:
160,96,166590,1,0,0:0:0:0:
352,96,166674,1,8,0:0:0:0:
160,96,166843,1,0,0:0:0:0:
352,96,167011,1,8,0:0:0:0:
160,96,167180,1,0,0:0:0:0:
352,288,167349,1,12,0:0:0:0:
160,96,167517,1,0,0:0:0:0:
160,96,167686,1,0,0:0:0:0:
352,288,167854,1,12,0:0:0:0:
160,96,168023,1,0,0:0:0:0:
160,96,168191,1,0,0:0:0:0:
352,288,168360,1,12,0:0:0:0:
352,96,168697,1,8,0:0:0:0:
160,96,168781,1,0,0:0:0:0:
160,96,168865,1,0,0:0:0:0:
160,96,168950,1,0,0:0:0:0:
352,96,169034,1,8,0:0:0:0:
160,96,169118,1,0,0:0:0:0:
160,96,169202,1,0,0:0:0:0:
160,96,169287,1,0,0:0:0:0:
352,96,169371,1,8,0:0:0:0:
160,96,169455,1,0,0:0:0:0:
160,96,169540,1,0,0:0:0:0:
160,96,169624,1,0,0:0:0:0:
352,96,169708,1,8,0:0:0:0:
352,96,169792,1,8,0:0:0:0:
160,96,169877,1,0,0:0:0:0:
352,288,170045,1,12,0:0:0:0:
160,96,170214,1,0,0:0:0:0:
160,96,170382,1,0,0:0:0:0:
352,288,170551,1,12,0:0:0:0:
160,96,170719,1,0,0:0:0:0:
160,96,170888,1,0,0:0:0:0:
352,288,171056,1,12,0:0:0:0:
160,96,171393,1,0,0:0:0:0:
160,96,171450,1,0,0:0:0:0:
160,96,171506,1,0,0:0:0:0:
352,96,171618,1,8,0:0:0:0:
160,96,171731,1,0,0:0:0:0:
160,96,171843,1,0,0:0:0:0:
160,96,171955,1,0,0:0:0:0:
352,96,172068,1,8,0:0:0:0:
160,96,172180,1,0,0:0:0:0:
160,96,172292,1,0,0:0:0:0:
160,96,172405,1,0,0:0:0:0:
160,96,172517,1,0,0:0:0:0:
160,96,172629,1,0,0:0:0:0:
352,288,172742,1,12,0:0:0:0:
160,96,172910,1,0,0:0:0:0:
160,96,173079,1,0,0:0:0:0:
352,288,173247,1,12,0:0:0:0:
160,96,173416,1,0,0:0:0:0:
160,96,173585,1,0,0:0:0:0:
352,288,173753,1,12,0:0:0:0:
352,96,174090,1,8,0:0:0:0:
352,96,174118,1,8,0:0:0:0:
160,96,174315,1,0,0:0:0:0:
160,96,174343,1,0,0:0:0:0:
160,96,174540,1,0,0:0:0:0:
160,96,174652,1,0,0:0:0:0:
352,96,174764,1,8,0:0:0:0:
160,96,174877,1,0,0:0:0:0:
160,96,174989,1,0,0:0:0:0:
352,96,175101,1,8,0:0:0:0:
160,96,175214,1,0,0:0:0:0:
160,96,175326,1,0,0:0:0:0:
352,288,175438,1,12,0:0:0:0:
160,96,175776,1,0,0:0:0:0:
160,96,175944,1,0,0:0:0:0:
160,96,176113,1,0,0:0:0:0:
160,96,176281,1,0,0:0:0:0:
160,96,176450,1,0,0:0:0:0:
160,96,176618,1,0,0:0:0:0:
352,96,176787,1,8,0:0:0:0:
352,96,176955,1,8,0:0:0:0:
352,96,177124,1,8,0:0:0:0:
352,96,177292,1,8,0:0:0:0:
352,96,177461,1,8,0:0:0:0:
352,96,177629,1,8,0:0:0:0:
352,96,177798,1,8,0:0:0:0:
352,96,177967,1,8,0:0:0:0:
160,288,178135,1,4,0:0:0:0:
352,96,178472,1,8,0:0:0:0:
160,96,178556,1,0,0:0:0:0:
160,96,178641,1,0,0:0:0:0:
160,96,178978,1,0,0:0:0:0:
160,96,179062,1,0,0:0:0:0:
352,96,179146,1,8,0:0:0:0:
160,96,179315,1,0,0:0:0:0:
160,96,179652,1,0,0:0:0:0:
160,96,179736,1,0,0:0:0:0:
352,96,179820,1,8,0:0:0:0:
160,96,179989,1,0,0:0:0:0:
160,96,180158,1,0,0:0:0:0:
160,96,180326,1,0,0:0:0:0:
160,96,180410,1,0,0:0:0:0:
352,96,180495,1,8,0:0:0:0:
160,96,180663,1,0,0:0:0:0:
160,96,180832,1,0,0:0:0:0:
352,96,181169,1,8,0:0:0:0:
160,96,181253,1,0,0:0:0:0:
160,96,181337,1,0,0:0:0:0:
160,96,181674,1,0,0:0:0:0:
160,96,181759,1,0,0:0:0:0:
352,96,181843,1,8,0:0:0:0:
160,96,182011,1,0,0:0:0:0:
160,96,182349,1,0,0:0:0:0:
160,96,182433,1,0,0:0:0:0:
352,96,182517,1,8,0:0:0:0:
160,96,182686,1,0,0:0:0:0:
160,96,182770,1,0,0:0:0:0:
160,96,182854,1,0,0:0:0:0:
352,96,182938,1,8,0:0:0:0:
160,96,183023,1,0,0:0:0:0:
352,96,183191,1,8,0:0:0:0:
160,96,183360,1,0,0:0:0:0:
352,96,183528,1,8,0:0:0:0:
160,96,183697,1,0,0:0:0:0:
160,96,183865,1,0,0:0:0:0:
352,96,184034,1,8,0:0:0:0:
160,96,184202,1,0,0:0:0:0:
160,96,184371,1,0,0:0:0:0:
352,96,184540,1,8,0:0:0:0:
160,96,184708,1,0,0:0:0:0:
160,96,184877,1,0,0:0:0:0:
352,96,185045,1,8,0:0:0:0:
160,96,185214,1,0,0:0:0:0:
160,96,185382,1,0,0:0:0:0:
352,96,185551,1,8,0:0:0:0:
160,96,185719,1,0,0:0:0:0:
352,96,185888,1,8,0:0:0:0:
352,96,186056,1,8,0:0:0:0:
160,96,186225,1,0,0:0:0:0:
352,96,186562,1,8,0:0:0:0:
160,96,186731,1,0,0:0:0:0:
160,96,187068,1,0,0:0:0:0:
256,192,187236,2,0,L|192:192,10,35
160,96,188247,1,0,0:0:0:0:
160,96,188360,1,0,0:0:0:0:
352,96,188472,1,8,0:0:0:0:
160,96,188585,1,0,0:0:0:0:
352,96,188697,1,8,0:0:0:0:
352,96,188809,1,8,0:0:0:0:
480,192,188922,2,0,L|120:192,1,358.75
256,192,189933,2,0,L|192:192,16,35
352,96,191618,1,8,0:0:0:0:
160,96,191702,1,0,0:0:0:0:
352,96,191787,1,8,0:0:0:0:
352,96,191871,1,8,0:0:0:0:
160,96,191955,1,0,0:0:0:0:
160,96,192040,1,0,0:0:0:0:
352,96,192124,1,8,0:0:0:0:
160,96,192208,1,0,0:0:0:0:
352,96,192292,1,8,0:0:0:0:
352,96,192377,1,8,0:0:0:0:
160,96,192461,1,0,0:0:0:0:
160,96,192545,1,0,0:0:0:0:
352,96,192629,1,8,0:0:0:0:
160,96,192714,1,0,0:0:0:0:
352,96,192798,1,8,0:0:0:0:
352,96,192882,1,8,0:0:0:0:
160,96,192967,1,0,0:0:0:0:
160,96,193051,1,0,0:0:0:0:
352,96,193135,1,8,0:0:0:0:
160,96,193219,1,0,0:0:0:0:
352,96,193304,1,8,0:0:0:0:
352,96,193388,1,8,0:0:0:0:
160,96,193472,1,0,0:0:0:0:
160,96,193556,1,0,0:0:0:0:
352,96,193641,1,8,0:0:0:0:
160,96,193725,1,0,0:0:0:0:
352,96,193809,1,8,0:0:0:0:
352,96,193893,1,8,0:0:0:0:
160,96,193978,1,0,0:0:0:0:
160,96,194062,1,0,0:0:0:0:
352,96,194146,1,8,0:0:0:0:
160,96,194231,1,0,0:0:0:0:
352,96,194315,1,8,0:0:0:0:
352,96,194399,1,8,0:0:0:0:
352,96,194483,1,8,0:0:0:0:
160,96,194568,1,0,0:0:0:0:
160,96,194652,1,0,0:0:0:0:
160,96,194736,1,0,0:0:0:0:
352,96,194820,1,8,0:0:0:0:
352,96,194905,1,8,0:0:0:0:
160,96,194989,1,0,0:0:0:0:
160,96,195073,1,0,0:0:0:0:
160,96,195158,1,0,0:0:0:0:
160,96,195242,1,0,0:0:0:0:
352,96,195326,1,8,0:0:0:0:
352,96,195410,1,8,0:0:0:0:
352,96,195495,1,8,0:0:0:0:
160,96,195579,1,0,0:0:0:0:
352,96,195663,1,8,0:0:0:0:
160,96,195747,1,0,0:0:0:0:
352,96,195832,1,8,0:0:0:0:
352,96,195916,1,8,0:0:0:0:
160,96,196000,1,0,0:0:0:0:
160,96,196085,1,0,0:0:0:0:
160,96,196169,1,0,0:0:0:0:
352,96,196253,1,8,0:0:0:0:
352,96,196337,1,8,0:0:0:0:
352,96,196422,1,8,0:0:0:0:
160,96,196506,1,0,0:0:0:0:
160,96,196590,1,0,0:0:0:0:
352,96,196674,1,8,0:0:0:0:
352,96,196759,1,8,0:0:0:0:
160,96,196843,1,0,0:0:0:0:
160,96,196927,1,0,0:0:0:0:
352,96,197011,1,8,0:0:0:0:
160,96,197096,1,0,0:0:0:0:
160,96,197180,1,0,0:0:0:0:
352,96,197264,1,8,0:0:0:0:
160,96,197349,1,0,0:0:0:0:
160,96,197433,1,0,0:0:0:0:
352,96,197517,1,8,0:0:0:0:
160,96,197601,1,0,0:0:0:0:
160,96,197686,1,0,0:0:0:0:
352,96,197770,1,8,0:0:0:0:
160,96,197854,1,0,0:0:0:0:
160,96,197938,1,0,0:0:0:0:
352,96,198023,1,8,0:0:0:0:
160,96,198079,1,0,0:0:0:0:
352,96,198135,1,8,0:0:0:0:
352,96,198191,1,8,0:0:0:0:
160,96,198276,1,0,0:0:0:0:
352,96,198360,1,8,0:0:0:0:
160,96,198444,1,0,0:0:0:0:
352,96,198528,1,8,0:0:0:0:
352,96,198585,1,8,0:0:0:0:
160,96,198641,1,0,0:0:0:0:
352,96,198697,1,8,0:0:0:0:
160,96,198781,1,0,0:0:0:0:
352,96,198865,1,8,0:0:0:0:
160,96,198950,1,0,0:0:0:0:
352,96,199034,1,8,0:0:0:0:
160,96,199090,1,0,0:0:0:0:
160,96,199146,1,0,0:0:0:0:
352,96,199202,1,8,0:0:0:0:
160,96,199287,1,0,0:0:0:0:
352,96,199371,1,8,0:0:0:0:
352,96,199455,1,8,0:0:0:0:
352,96,199540,1,8,0:0:0:0:
160,96,199624,1,0,0:0:0:0:
160,96,199708,1,0,0:0:0:0:
160,96,199877,1,0,0:0:0:0:
352,96,200045,1,8,0:0:0:0:
160,96,200214,1,0,0:0:0:0:
160,96,200382,1,0,0:0:0:0:
352,96,200551,1,8,0:0:0:0:
160,96,200719,1,0,0:0:0:0:
160,96,200888,1,0,0:0:0:0:
352,96,201056,1,8,0:0:0:0:
160,96,201225,1,0,0:0:0:0:
160,96,201393,1,0,0:0:0:0:
352,96,201562,1,8,0:0:0:0:
160,96,201731,1,0,0:0:0:0:
160,96,201899,1,0,0:0:0:0:
352,96,202068,1,8,0:0:0:0:
160,96,202236,1,0,0:0:0:0:
160,96,202405,1,0,0:0:0:0:
160,96,202573,1,0,0:0:0:0:
352,96,202742,1,8,0:0:0:0:
160,96,202910,1,0,0:0:0:0:
160,96,203079,1,0,0:0:0:0:
352,96,203247,1,8,0:0:0:0:
160,96,203416,1,0,0:0:0:0:
160,96,203585,1,0,0:0:0:0:
352,96,203753,1,8,0:0:0:0:
352,96,203922,1,8,0:0:0:0:
160,96,204090,1,0,0:0:0:0:
352,96,204259,1,8,0:0:0:0:
352,96,204427,1,8,0:0:0:0:
160,96,204596,1,0,0:0:0:0:
352,96,204764,1,8,0:0:0:0:
352,96,204933,1,8,0:0:0:0:
256,192,205101,2,0,L|221:192,12,35
160,96,206450,1,0,0:0:0:0:
160,96,206534,1,0,0:0:0:0:
160,96,206618,1,0,0:0:0:0:
160,96,206702,1,0,0:0:0:0:
352,96,206787,1,8,0:0:0:0:
160,96,206871,1,0,0:0:0:0:
352,96,206955,1,8,0:0:0:0:
160,96,207040,1,0,0:0:0:0:
160,96,207124,1,0,0:0:0:0:
352,96,207208,1,8,0:0:0:0:
352,96,207292,1,8,0:0:0:0:
352,96,207377,1,8,0:0:0:0:
160,96,207461,1,0,0:0:0:0:
352,96,207545,1,8,0:0:0:0:
352,96,207629,1,8,0:0:0:0:
352,96,207714,1,8,0:0:0:0:
160,96,207798,1,0,0:0:0:0:
352,96,207882,1,8,0:0:0:0:
352,96,207967,1,8,0:0:0:0:
160,96,208051,1,0,0:0:0:0:
352,96,208135,1,8,0:0:0:0:
352,96,208219,1,8,0:0:0:0:
352,96,208304,1,8,0:0:0:0:
352,96,208388,1,8,0:0:0:0:
160,96,208472,1,0,0:0:0:0:
160,96,208556,1,0,0:0:0:0:
160,96,208641,1,0,0:0:0:0:
160,96,208725,1,0,0:0:0:0:
352,96,208809,1,8,0:0:0:0:
352,96,208978,1,8,0:0:0:0:
256,192,209146,2,0,L|192:192,14,35
160,96,210495,1,0,0:0:0:0:
160,96,210663,1,0,0:0:0:0:
352,96,210832,1,8,0:0:0:0:
160,96,211000,1,0,0:0:0:0:
160,96,211169,1,0,0:0:0:0:
352,96,211337,1,8,0:0:0:0:
160,96,211506,1,0,0:0:0:0:
160,96,211674,1,0,0:0:0:0:
352,96,211843,1,8,0:0:0:0:
160,96,212011,1,0,0:0:0:0:
160,96,212180,1,0,0:0:0:0:
352,96,212349,1,8,0:0:0:0:
160,96,212517,1,0,0:0:0:0:
160,96,212686,1,0,0:0:0:0:
352,96,212854,1,8,0:0:0:0:
160,96,213023,1,0,0:0:0:0:
160,96,213191,1,0,0:0:0:0:
160,96,213360,1,0,0:0:0:0:
352,96,213528,1,8,0:0:0:0:
160,96,213697,1,0,0:0:0:0:
160,96,213865,1,0,0:0:0:0:
352,96,214034,1,8,0:0:0:0:
160,96,214202,1,0,0:0:0:0:
160,96,214371,1,0,0:0:0:0:
352,96,214540,1,8,0:0:0:0:
160,96,214708,1,0,0:0:0:0:
160,96,214877,1,0,0:0:0:0:
352,96,215045,1,8,0:0:0:0:
160,96,215214,1,0,0:0:0:0:
352,96,215382,1,8,0:0:0:0:
160,96,215551,1,0,0:0:0:0:
352,96,215719,1,8,0:0:0:0:
256,192,215888,2,0,L|192:192,28,35
352,96,218585,1,8,0:0:0:0:
160,96,218669,1,0,0:0:0:0:
160,96,218753,1,0,0:0:0:0:
352,96,218837,1,8,0:0:0:0:
160,96,218922,1,0,0:0:0:0:
160,96,219006,1,0,0:0:0:0:
352,96,219090,1,8,0:0:0:0:
160,96,219174,1,0,0:0:0:0:
160,96,219259,1,0,0:0:0:0:
352,96,219343,1,8,0:0:0:0:
352,96,219427,1,8,0:0:0:0:
160,96,219511,1,0,0:0:0:0:
352,96,219596,1,8,0:0:0:0:
160,96,219680,1,0,0:0:0:0:
160,96,219764,1,0,0:0:0:0:
352,96,219849,1,8,0:0:0:0:
352,96,219933,1,8,0:0:0:0:
160,96,220017,1,0,0:0:0:0:
352,96,220101,1,8,0:0:0:0:
352,96,220186,1,8,0:0:0:0:
160,96,220270,1,0,0:0:0:0:
352,96,220354,1,8,0:0:0:0:
160,96,220438,1,0,0:0:0:0:
160,96,220523,1,0,0:0:0:0:
352,96,220607,1,8,0:0:0:0:
160,96,220691,1,0,0:0:0:0:
352,96,220776,1,8,0:0:0:0:
352,96,220860,1,8,0:0:0:0:
160,96,220944,1,0,0:0:0:0:
160,96,221000,1,0,0:0:0:0:
160,96,221056,1,0,0:0:0:0:
352,96,221113,1,8,0:0:0:0:
352,96,221169,1,8,0:0:0:0:
352,96,221225,1,8,0:0:0:0:
160,96,221281,1,0,0:0:0:0:
352,96,221618,1,8,0:0:0:0:
160,96,221787,1,0,0:0:0:0:
160,96,222124,1,0,0:0:0:0:
160,96,222208,1,0,0:0:0:0:
352,96,222292,1,8,0:0:0:0:
160,96,222461,1,0,0:0:0:0:
160,96,222798,1,0,0:0:0:0:
160,96,222882,1,0,0:0:0:0:
352,96,222967,1,8,0:0:0:0:
160,96,223304,1,0,0:0:0:0:
160,96,223472,1,0,0:0:0:0:
160,96,223556,1,0,0:0:0:0:
352,96,223641,1,8,0:0:0:0:
160,96,223809,1,0,0:0:0:0:
352,96,223893,1,8,0:0:0:0:
160,96,223978,1,0,0:0:0:0:
352,96,224315,1,8,0:0:0:0:
160,96,224483,1,0,0:0:0:0:
160,96,224820,1,0,0:0:0:0:
160,96,224905,1,0,0:0:0:0:
352,96,224989,1,8,0:0:0:0:
160,96,225158,1,0,0:0:0:0:
160,96,225495,1,0,0:0:0:0:
160,96,225579,1,0,0:0:0:0:
352,96,225663,1,8,0:0:0:0:
160,96,225832,1,0,0:0:0:0:
160,96,225916,1,0,0:0:0:0:
160,96,226000,1,0,0:0:0:0:
160,96,226169,1,0,0:0:0:0:
352,96,226337,1,8,0:0:0:0:
160,96,226506,1,0,0:0:0:0:
160,288,226674,1,4,0:0:0:0:
352,96,227011,1,8,0:0:0:0:
160,96,227180,1,0,0:0:0:0:
160,96,227517,1,0,0:0:0:0:
160,96,227601,1,0,0:0:0:0:
352,96,227686,1,8,0:0:0:0:
160,96,227854,1,0,0:0:0:0:
160,96,227938,1,0,0:0:0:0:
160,96,228023,1,0,0:0:0:0:
160,96,228191,1,0,0:0:0:0:
352,96,228360,1,8,0:0:0:0:
160,96,228697,1,0,0:0:0:0:
160,96,228865,1,0,0:0:0:0:
160,96,228950,1,0,0:0:0:0:
352,96,229034,1,8,0:0:0:0:
160,96,229202,1,0,0:0:0:0:
352,288,229371,1,12,0:0:0:0:
352,96,229708,1,8,0:0:0:0:
160,96,229877,1,0,0:0:0:0:
160,96,230214,1,0,0:0:0:0:
160,96,230298,1,0,0:0:0:0:
352,96,230382,1,8,0:0:0:0:
160,96,230551,1,0,0:0:0:0:
160,96,230635,1,0,0:0:0:0:
160,96,230719,1,0,0:0:0:0:
352,96,230888,1,8,0:0:0:0:
160,96,231225,1,0,0:0:0:0:
352,96,231393,1,8,0:0:0:0:
160,96,231562,1,0,0:0:0:0:
352,96,231731,1,8,0:0:0:0:
160,96,231899,1,0,0:0:0:0:
160,288,232068,1,4,0:0:0:0:
352,96,232405,1,8,0:0:0:0:
160,96,232573,1,0,0:0:0:0:
160,96,232910,1,0,0:0:0:0:
160,96,232995,1,0,0:0:0:0:
352,96,233079,1,8,0:0:0:0:
160,96,233247,1,0,0:0:0:0:
160,96,233332,1,0,0:0:0:0:
160,96,233416,1,0,0:0:0:0:
160,96,233585,1,0,0:0:0:0:
352,96,233753,1,8,0:0:0:0:
160,96,234090,1,0,0:0:0:0:
160,96,234259,1,0,0:0:0:0:
160,96,234343,1,0,0:0:0:0:
352,96,234427,1,8,0:0:0:0:
160,96,234596,1,0,0:0:0:0:
352,96,234680,1,8,0:0:0:0:
160,96,234764,1,0,0:0:0:0:
352,96,235101,1,8,0:0:0:0:
160,96,235270,1,0,0:0:0:0:
160,96,235607,1,0,0:0:0:0:
160,96,235691,1,0,0:0:0:0:
352,96,235776,1,8,0:0:0:0:
160,96,235944,1,0,0:0:0:0:
160,96,236281,1,0,0:0:0:0:
160,96,236365,1,0,0:0:0:0:
352,96,236450,1,8,0:0:0:0:
160,96,236618,1,0,0:0:0:0:
352,288,236787,1,12,0:0:0:0:
352,288,236955,1,12,0:0:0:0:
352,288,237124,1,12,0:0:0:0:
352,288,237292,1,12,0:0:0:0:
160,288,237461,1,4,0:0:0:0:
352,96,237798,1,8,0:0:0:0:
160,96,237967,1,0,0:0:0:0:
160,96,238304,1,0,0:0:0:0:
160,96,238388,1,0,0:0:0:0:
352,96,238472,1,8,0:0:0:0:
160,96,238641,1,0,0:0:0:0:
160,96,238809,1,0,0:0:0:0:
160,96,238978,1,0,0:0:0:0:
160,96,239062,1,0,0:0:0:0:
352,96,239146,1,8,0:0:0:0:
160,96,239483,1,0,0:0:0:0:
160,96,239568,1,0,0:0:0:0:
160,96,239652,1,0,0:0:0:0:
160,96,239736,1,0,0:0:0:0:
352,96,239820,1,8,0:0:0:0:
160,96,239989,1,0,0:0:0:0:
352,288,240158,1,12,0:0:0:0:
352,96,240495,1,8,0:0:0:0:
160,96,240663,1,0,0:0:0:0:
160,96,241000,1,0,0:0:0:0:
160,96,241085,1,0,0:0:0:0:
352,96,241169,1,8,0:0:0:0:
352,96,241253,1,8,0:0:0:0:
160,96,241337,1,0,0:0:0:0:
352,96,241506,1,8,0:0:0:0:
352,96,241674,1,8,0:0:0:0:
352,96,241843,1,8,0:0:0:0:
352,96,242011,1,8,0:0:0:0:
352,96,242180,1,8,0:0:0:0:
352,96,242349,1,8,0:0:0:0:
352,96,242517,1,8,0:0:0:0:
352,96,242686,1,8,0:0:0:0:
160,288,242854,1,4,0:0:0:0:
160,96,243191,1,0,0:0:0:0:
160,96,243360,1,0,0:0:0:0:
160,96,243444,1,0,0:0:0:0:
352,96,243528,1,8,0:0:0:0:
160,96,243865,1,0,0:0:0:0:
160,96,244034,1,0,0:0:0:0:
160,96,244118,1,0,0:0:0:0:
160,96,244202,1,0,0:0:0:0:
160,96,244540,1,0,0:0:0:0:
160,96,244708,1,0,0:0:0:0:
160,96,244792,1,0,0:0:0:0:
352,96,244877,1,8,0:0:0:0:
160,96,245045,1,0,0:0:0:0:
352,96,245214,1,8,0:0:0:0:
160,288,245382,1,4,0:0:0:0:
352,288,245551,1,12,0:0:0:0:
160,96,245888,1,0,0:0:0:0:
160,96,246056,1,0,0:0:0:0:
160,96,246141,1,0,0:0:0:0:
352,96,246225,1,8,0:0:0:0:
160,96,246562,1,0,0:0:0:0:
160,96,246731,1,0,0:0:0:0:
160,96,246815,1,0,0:0:0:0:
160,96,246899,1,0,0:0:0:0:
160,96,247236,1,0,0:0:0:0:
160,96,247405,1,0,0:0:0:0:
160,96,247489,1,0,0:0:0:0:
352,96,247573,1,8,0:0:0:0:
352,96,247742,1,8,0:0:0:0:
160,96,247910,1,0,0:0:0:0:
160,96,248079,1,0,0:0:0:0:
352,288,248247,1,12,0:0:0:0:
160,96,248585,1,0,0:0:0:0:
160,96,248753,1,0,0:0:0:0:
160,96,248922,1,0,0:0:0:0:
160,96,249090,1,0,0:0:0:0:
160,96,249259,1,0,0:0:0:0:
160,96,249427,1,0,0:0:0:0:
160,96,249596,1,0,0:0:0:0:
160,96,249764,1,0,0:0:0:0:
160,96,249933,1,0,0:0:0:0:
160,96,250101,1,0,0:0:0:0:
160,96,250270,1,0,0:0:0:0:
160,96,250438,1,0,0:0:0:0:
160,96,250607,1,0,0:0:0:0:
160,96,250776,1,0,0:0:0:0:
352,96,250944,1,8,0:0:0:0:
352,96,251113,1,8,0:0:0:0:
352,96,251281,1,8,0:0:0:0:
352,96,251450,1,8,0:0:0:0:
352,96,251618,1,8,0:0:0:0:
352,96,251787,1,8,0:0:0:0:
352,96,251955,1,8,0:0:0:0:
352,96,252124,1,8,0:0:0:0:
352,96,252292,1,8,0:0:0:0:
352,96,252377,1,8,0:0:0:0:
160,96,252461,1,0,0:0:0:0:
352,96,252545,1,8,0:0:0:0:
160,96,252629,1,0,0:0:0:0:
160,96,252714,1,0,0:0:0:0:
352,96,252798,1,8,0:0:0:0:
160,96,252882,1,0,0:0:0:0:
352,96,252967,1,8,0:0:0:0:
160,96,253051,1,0,0:0:0:0:
352,96,253135,1,8,0:0:0:0:
160,96,253219,1,0,0:0:0:0:
352,96,253304,1,8,0:0:0:0:
352,96,253388,1,8,0:0:0:0:
352,96,253472,1,8,0:0:0:0:
160,288,253641,1,4,0:0:0:0:
352,96,253978,1,8,0:0:0:0:
160,96,254146,1,0,0:0:0:0:
160,96,254231,1,0,0:0:0:0:
160,96,254315,1,0,0:0:0:0:
160,96,254483,1,0,0:0:0:0:
352,96,254652,1,8,0:0:0:0:
160,96,254820,1,0,0:0:0:0:
160,96,255158,1,0,0:0:0:0:
160,96,255242,1,0,0:0:0:0:
352,96,255326,1,8,0:0:0:0:
160,96,255495,1,0,0:0:0:0:
352,96,255663,1,8,0:0:0:0:
160,96,255832,1,0,0:0:0:0:
352,96,255916,1,8,0:0:0:0:
160,96,256085,1,0,0:0:0:0:
352,96,256169,1,8,0:0:0:0:
352,96,256337,1,8,0:0:0:0:
352,96,256590,1,8,0:0:0:0:
160,96,256674,1,0,0:0:0:0:
160,96,256759,1,0,0:0:0:0:
352,96,256843,1,8,0:0:0:0:
352,96,256927,1,8,0:0:0:0:
160,96,257011,1,0,0:0:0:0:
160,96,257180,1,0,0:0:0:0:
352,96,257349,1,8,0:0:0:0:
352,96,257517,1,8,0:0:0:0:
160,96,257601,1,0,0:0:0:0:
352,96,257686,1,8,0:0:0:0:
160,96,257854,1,0,0:0:0:0:
352,288,258023,1,12,0:0:0:0:
160,96,258360,1,0,0:0:0:0:
352,96,258556,1,8,0:0:0:0:
352,96,258781,1,8,0:0:0:0:
352,96,259034,1,8,0:0:0:0:
352,96,259371,1,8,0:0:0:0:
352,96,259455,1,8,0:0:0:0:
160,96,259540,1,0,0:0:0:0:
160,96,259624,1,0,0:0:0:0:
352,96,259708,1,8,0:0:0:0:
160,96,259877,1,0,0:0:0:0:
352,96,260045,1,8,0:0:0:0:
352,96,260129,1,8,0:0:0:0:
160,96,260214,1,0,0:0:0:0:
160,96,260298,1,0,0:0:0:0:
352,96,260382,1,8,0:0:0:0:
160,96,260579,1,0,0:0:0:0:
352,96,260832,1,8,0:0:0:0:
352,96,260888,1,8,0:0:0:0:
160,96,261056,1,0,0:0:0:0:
352,96,261225,1,8,0:0:0:0:
352,96,261393,1,8,0:0:0:0:
352,96,261562,1,8,0:0:0:0:
352,96,261646,1,8,0:0:0:0:
160,96,261731,1,0,0:0:0:0:
160,96,261815,1,0,0:0:0:0:
352,96,261899,1,8,0:0:0:0:
352,96,262068,1,8,0:0:0:0:
160,288,262236,1,4,0:0:0:0:
160,96,262573,1,0,0:0:0:0:
352,96,262742,1,8,0:0:0:0:
160,96,263247,1,0,0:0:0:0:
352,96,263416,1,8,0:0:0:0:
160,96,263753,1,0,0:0:0:0:
160,96,263922,1,0,0:0:0:0:
160,96,263978,1,0,0:0:0:0:
160,96,264034,1,0,0:0:0:0:
352,96,264090,1,8,0:0:0:0:
160,96,264259,1,0,0:0:0:0:
160,288,264427,1,4,0:0:0:0:
352,96,264764,1,8,0:0:0:0:
160,96,264933,1,0,0:0:0:0:
160,96,265101,1,0,0:0:0:0:
160,96,265270,1,0,0:0:0:0:
160,96,265354,1,0,0:0:0:0:
352,96,265438,1,8,0:0:0:0:
160,96,265607,1,0,0:0:0:0:
160,96,265944,1,0,0:0:0:0:
352,96,266113,1,8,0:0:0:0:
160,96,266281,1,0,0:0:0:0:
160,96,266365,1,0,0:0:0:0:
160,96,266450,1,0,0:0:0:0:
160,96,266618,1,0,0:0:0:0:
352,96,266787,1,8,0:0:0:0:
160,96,266955,1,0,0:0:0:0:
160,96,267040,1,0,0:0:0:0:
160,96,267124,1,0,0:0:0:0:
352,96,267461,1,8,0:0:0:0:
160,96,267798,1,0,0:0:0:0:
160,96,267967,1,0,0:0:0:0:
160,96,268051,1,0,0:0:0:0:
352,96,268135,1,8,0:0:0:0:
160,96,268304,1,0,0:0:0:0:
160,96,268641,1,0,0:0:0:0:
352,96,268809,1,8,0:0:0:0:
160,96,268978,1,0,0:0:0:0:
352,96,269062,1,8,0:0:0:0:
160,96,269146,1,0,0:0:0:0:
160,96,269315,1,0,0:0:0:0:
352,96,269483,1,8,0:0:0:0:
352,96,269652,1,8,0:0:0:0:
352,96,269736,1,8,0:0:0:0:
160,96,269820,1,0,0:0:0:0:
352,96,270158,1,8,0:0:0:0:
160,96,270495,1,0,0:0:0:0:
160,96,270663,1,0,0:0:0:0:
160,96,270747,1,0,0:0:0:0:
352,96,270832,1,8,0:0:0:0:
160,96,271000,1,0,0:0:0:0:
160,96,271337,1,0,0:0:0:0:
352,96,271506,1,8,0:0:0:0:
160,96,271674,1,0,0:0:0:0:
160,96,271759,1,0,0:0:0:0:
352,96,271843,1,8,0:0:0:0:
352,96,271927,1,8,0:0:0:0:
160,96,272011,1,0,0:0:0:0:
352,96,272180,1,8,0:0:0:0:
352,96,272349,1,8,0:0:0:0:
160,288,272517,1,4,0:0:0:0:
352,96,272854,1,8,0:0:0:0:
160,288,273023,1,4,0:0:0:0:
160,96,273360,1,0,0:0:0:0:
352,288,273528,1,12,0:0:0:0:
160,96,274034,1,0,0:0:0:0:
160,96,274118,1,0,0:0:0:0:
352,96,274202,1,8,0:0:0:0:
160,96,274540,1,0,0:0:0:0:
160,96,274624,1,0,0:0:0:0:
160,96,274708,1,0,0:0:0:0:
160,96,274792,1,0,0:0:0:0:
352,96,274877,1,8,0:0:0:0:
160,96,275045,1,0,0:0:0:0:
160,288,275214,1,4,0:0:0:0:
352,96,275551,1,8,0:0:0:0:
160,96,275719,1,0,0:0:0:0:
160,96,275804,1,0,0:0:0:0:
160,96,275888,1,0,0:0:0:0:
160,96,276056,1,0,0:0:0:0:
352,96,276225,1,8,0:0:0:0:
160,96,276393,1,0,0:0:0:0:
160,96,276731,1,0,0:0:0:0:
352,96,276899,1,8,0:0:0:0:
160,96,277068,1,0,0:0:0:0:
352,96,277152,1,8,0:0:0:0:
160,96,277236,1,0,0:0:0:0:
160,96,277405,1,0,0:0:0:0:
352,96,277573,1,8,0:0:0:0:
160,96,277658,1,0,0:0:0:0:
352,96,277742,1,8,0:0:0:0:
352,96,277826,1,8,0:0:0:0:
160,96,277910,1,0,0:0:0:0:
352,96,278247,1,8,0:0:0:0:
160,96,278416,1,0,0:0:0:0:
160,96,278585,1,0,0:0:0:0:
160,96,278753,1,0,0:0:0:0:
160,96,278837,1,0,0:0:0:0:
352,96,278922,1,8,0:0:0:0:
160,96,279090,1,0,0:0:0:0:
160,96,279427,1,0,0:0:0:0:
352,96,279596,1,8,0:0:0:0:
352,96,279764,1,8,0:0:0:0:
160,96,279849,1,0,0:0:0:0:
160,96,279933,1,0,0:0:0:0:
160,96,280101,1,0,0:0:0:0:
352,96,280270,1,8,0:0:0:0:
352,96,280438,1,8,0:0:0:0:
352,96,280523,1,8,0:0:0:0:
160,96,280607,1,0,0:0:0:0:
352,96,280944,1,8,0:0:0:0:
160,96,281281,1,0,0:0:0:0:
160,96,281365,1,0,0:0:0:0:
160,96,281450,1,0,0:0:0:0:
160,96,281534,1,0,0:0:0:0:
352,96,281618,1,8,0:0:0:0:
160,96,281787,1,0,0:0:0:0:
352,96,282124,1,8,0:0:0:0:
160,96,282292,1,0,0:0:0:0:
160,96,282461,1,0,0:0:0:0:
352,96,282629,1,8,0:0:0:0:
352,96,282798,1,8,0:0:0:0:
160,96,282882,1,0,0:0:0:0:
160,96,282967,1,0,0:0:0:0:
160,96,283135,1,0,0:0:0:0:
352,288,283304,1,12,0:0:0:0:
352,96,283641,1,8,0:0:0:0:
160,288,283809,1,4,0:0:0:0:
160,96,284146,1,0,0:0:0:0:
352,288,284315,1,12,0:0:0:0:
160,96,284820,1,0,0:0:0:0:
352,96,284989,1,8,0:0:0:0:
160,96,285158,1,0,0:0:0:0:
160,96,285326,1,0,0:0:0:0:
160,96,285495,1,0,0:0:0:0:
352,96,285663,1,8,0:0:0:0:
160,96,285832,1,0,0:0:0:0:
160,288,286000,1,4,0:0:0:0:
352,96,286337,1,8,0:0:0:0:
160,96,286506,1,0,0:0:0:0:
160,96,286843,1,0,0:0:0:0:
352,96,287011,1,8,0:0:0:0:
160,96,287517,1,0,0:0:0:0:
352,96,287686,1,8,0:0:0:0:
160,96,288023,1,0,0:0:0:0:
160,96,288191,1,0,0:0:0:0:
352,96,288360,1,8,0:0:0:0:
160,96,288528,1,0,0:0:0:0:
160,96,288613,1,0,0:0:0:0:
352,96,288697,1,8,0:0:0:0:
352,96,288865,1,8,0:0:0:0:
160,96,289034,1,0,0:0:0:0:
160,96,289118,1,0,0:0:0:0:
352,96,289202,1,8,0:0:0:0:
352,96,289371,1,8,0:0:0:0:
160,96,289540,1,0,0:0:0:0:
160,96,289624,1,0,0:0:0:0:
160,96,289708,1,0,0:0:0:0:
160,96,289877,1,0,0:0:0:0:
160,96,290045,1,0,0:0:0:0:
160,96,290129,1,0,0:0:0:0:
160,96,290214,1,0,0:0:0:0:
160,96,290382,1,0,0:0:0:0:
160,96,290551,1,0,0:0:0:0:
160,96,290635,1,0,0:0:0:0:
352,96,290719,1,8,0:0:0:0:
352,96,290888,1,8,0:0:0:0:
352,96,291056,1,8,0:0:0:0:
352,96,291225,1,8,0:0:0:0:
160,288,291393,1,4,0:0:0:0:
352,96,291731,1,8,0:0:0:0:
160,288,291899,1,4,0:0:0:0:
160,96,292236,1,0,0:0:0:0:
352,288,292405,1,12,0:0:0:0:
160,96,292910,1,0,0:0:0:0:
160,96,292995,1,0,0:0:0:0:
352,96,293079,1,8,0:0:0:0:
160,96,293416,1,0,0:0:0:0:
160,96,293585,1,0,0:0:0:0:
160,96,293669,1,0,0:0:0:0:
352,96,293753,1,8,0:0:0:0:
160,96,293922,1,0,0:0:0:0:
352,288,294090,1,12,0:0:0:0:
352,96,294427,1,8,0:0:0:0:
160,288,294596,1,4,0:0:0:0:
160,96,294933,1,0,0:0:0:0:
352,288,295101,1,12,0:0:0:0:
160,96,295607,1,0,0:0:0:0:
160,96,295691,1,0,0:0:0:0:
352,96,295776,1,8,0:0:0:0:
160,96,295944,1,0,0:0:0:0:
160,96,296113,1,0,0:0:0:0:
160,96,296281,1,0,0:0:0:0:
160,96,296365,1,0,0:0:0:0:
352,96,296450,1,8,0:0:0:0:
160,96,296618,1,0,0:0:0:0:
352,288,296787,1,12,0:0:0:0:
352,96,297124,1,8,0:0:0:0:
160,288,297292,1,4,0:0:0:0:
160,96,297629,1,0,0:0:0:0:
352,288,297798,1,12,0:0:0:0:
160,96,298304,1,0,0:0:0:0:
160,96,298388,1,0,0:0:0:0:
352,96,298472,1,8,0:0:0:0:
160,96,298641,1,0,0:0:0:0:
160,96,298809,1,0,0:0:0:0:
160,96,298893,1,0,0:0:0:0:
160,96,298978,1,0,0:0:0:0:
352,96,299146,1,8,0:0:0:0:
160,96,299231,1,0,0:0:0:0:
160,96,299315,1,0,0:0:0:0:
160,96,299399,1,0,0:0:0:0:
352,96,299483,1,8,0:0:0:0:
160,96,299652,1,0,0:0:0:0:
160,96,299820,1,0,0:0:0:0:
352,96,299989,1,8,0:0:0:0:
352,96,300158,1,8,0:0:0:0:
160,96,300326,1,0,0:0:0:0:
160,96,300410,1,0,0:0:0:0:
352,96,300495,1,8,0:0:0:0:
160,96,300663,1,0,0:0:0:0:
160,96,300832,1,0,0:0:0:0:
352,96,301000,1,8,0:0:0:0:
352,96,301169,1,8,0:0:0:0:
160,96,301337,1,0,0:0:0:0:
160,96,301422,1,0,0:0:0:0:
352,96,301506,1,8,0:0:0:0:
352,96,301674,1,8,0:0:0:0:
352,96,301843,1,8,0:0:0:0:
352,96,302011,1,8,0:0:0:0:
160,288,302180,1,4,0:0:0:0:
352,96,302517,1,8,0:0:0:0:
160,288,302686,1,4,0:0:0:0:
160,96,303023,1,0,0:0:0:0:
352,288,303191,1,12,0:0:0:0:
160,96,303697,1,0,0:0:0:0:
160,96,303781,1,0,0:0:0:0:
352,96,303865,1,8,0:0:0:0:
160,96,304034,1,0,0:0:0:0:
160,96,304202,1,0,0:0:0:0:
160,96,304371,1,0,0:0:0:0:
160,96,304455,1,0,0:0:0:0:
352,96,304540,1,8,0:0:0:0:
160,96,304708,1,0,0:0:0:0:
352,288,304877,1,12,0:0:0:0:
352,96,305214,1,8,0:0:0:0:
160,288,305382,1,4,0:0:0:0:
160,96,305719,1,0,0:0:0:0:
352,288,305888,1,12,0:0:0:0:
160,96,306393,1,0,0:0:0:0:
160,96,306478,1,0,0:0:0:0:
352,96,306562,1,8,0:0:0:0:
160,96,306731,1,0,0:0:0:0:
160,96,306899,1,0,0:0:0:0:
160,96,306983,1,0,0:0:0:0:
160,96,307068,1,0,0:0:0:0:
160,96,307152,1,0,0:0:0:0:
352,96,307236,1,8,0:0:0:0:
160,96,307405,1,0,0:0:0:0:
352,288,307573,1,12,0:0:0:0:
352,96,307910,1,8,0:0:0:0:
160,288,308079,1,4,0:0:0:0:
160,96,308416,1,0,0:0:0:0:
352,288,308585,1,12,0:0:0:0:
160,96,308753,1,0,0:0:0:0:
352,96,308922,1,8,0:0:0:0:
160,96,309090,1,0,0:0:0:0:
160,96,309259,1,0,0:0:0:0:
160,96,309427,1,0,0:0:0:0:
352,96,309596,1,8,0:0:0:0:
352,96,309680,1,8,0:0:0:0:
160,96,309764,1,0,0:0:0:0:
160,96,309849,1,0,0:0:0:0:
352,96,309933,1,8,0:0:0:0:
160,96,310101,1,0,0:0:0:0:
352,96,310270,1,8,0:0:0:0:
160,96,310438,1,0,0:0:0:0:
160,96,310607,1,0,0:0:0:0:
352,96,310776,1,8,0:0:0:0:
352,96,310944,1,8,0:0:0:0:
160,96,311113,1,0,0:0:0:0:
160,96,311197,1,0,0:0:0:0:
352,96,311281,1,8,0:0:0:0:
160,96,311450,1,0,0:0:0:0:
160,96,311618,1,0,0:0:0:0:
352,96,311787,1,8,0:0:0:0:
352,96,311955,1,8,0:0:0:0:
160,96,312124,1,0,0:0:0:0:
160,96,312208,1,0,0:0:0:0:
352,96,312292,1,8,0:0:0:0:
160,96,312461,1,0,0:0:0:0:
352,96,312629,1,8,0:0:0:0:
160,96,312798,1,0,0:0:0:0:
160,288,312967,1,4,0:0:0:0:
352,96,313304,1,8,0:0:0:0:
160,96,313472,1,0,0:0:0:0:
160,96,313556,1,0,0:0:0:0:
160,96,313641,1,0,0:0:0:0:
160,96,313809,1,0,0:0:0:0:
352,96,313978,1,8,0:0:0:0:
160,96,314146,1,0,0:0:0:0:
160,96,314483,1,0,0:0:0:0:
160,96,314568,1,0,0:0:0:0:
352,96,314652,1,8,0:0:0:0:
160,96,314820,1,0,0:0:0:0:
352,96,314989,1,8,0:0:0:0:
352,96,315073,1,8,0:0:0:0:
160,96,315158,1,0,0:0:0:0:
160,96,315242,1,0,0:0:0:0:
352,96,315326,1,8,0:0:0:0:
160,96,315495,1,0,0:0:0:0:
160,96,315663,1,0,0:0:0:0:
352,96,316000,1,8,0:0:0:0:
160,96,316169,1,0,0:0:0:0:
160,96,316253,1,0,0:0:0:0:
160,96,316337,1,0,0:0:0:0:
160,96,316506,1,0,0:0:0:0:
160,96,316590,1,0,0:0:0:0:
352,96,316674,1,8,0:0:0:0:
160,96,316843,1,0,0:0:0:0:
160,96,317180,1,0,0:0:0:0:
160,96,317264,1,0,0:0:0:0:
352,96,317349,1,8,0:0:0:0:
352,96,317517,1,8,0:0:0:0:
352,96,317601,1,8,0:0:0:0:
160,96,317686,1,0,0:0:0:0:
160,96,317854,1,0,0:0:0:0:
160,96,317938,1,0,0:0:0:0:
352,96,318023,1,8,0:0:0:0:
352,96,318191,1,8,0:0:0:0:
160,288,318360,1,4,0:0:0:0:
352,96,318697,1,8,0:0:0:0:
160,96,318865,1,0,0:0:0:0:
160,96,318950,1,0,0:0:0:0:
160,96,319034,1,0,0:0:0:0:
160,96,319202,1,0,0:0:0:0:
352,96,319371,1,8,0:0:0:0:
160,96,319540,1,0,0:0:0:0:
160,96,319877,1,0,0:0:0:0:
160,96,319961,1,0,0:0:0:0:
352,96,320045,1,8,0:0:0:0:
160,96,320214,1,0,0:0:0:0:
352,96,320298,1,8,0:0:0:0:
160,96,320382,1,0,0:0:0:0:
160,96,320551,1,0,0:0:0:0:
352,96,320719,1,8,0:0:0:0:
352,96,320888,1,8,0:0:0:0:
352,96,320972,1,8,0:0:0:0:
160,96,321056,1,0,0:0:0:0:
352,96,321393,1,8,0:0:0:0:
160,96,321562,1,0,0:0:0:0:
160,96,321646,1,0,0:0:0:0:
160,96,321731,1,0,0:0:0:0:
160,96,321899,1,0,0:0:0:0:
352,96,322068,1,8,0:0:0:0:
160,96,322152,1,0,0:0:0:0:
160,96,322236,1,0,0:0:0:0:
352,288,322405,1,12,0:0:0:0:
160,96,322573,1,0,0:0:0:0:
352,96,322742,1,8,0:0:0:0:
160,96,323079,1,0,0:0:0:0:
160,96,323163,1,0,0:0:0:0:
160,96,323247,1,0,0:0:0:0:
160,96,323332,1,0,0:0:0:0:
352,96,323416,1,8,0:0:0:0:
160,96,323585,1,0,0:0:0:0:
160,288,323753,1,4,0:0:0:0:
352,96,324090,1,8,0:0:0:0:
160,96,324259,1,0,0:0:0:0:
160,96,324343,1,0,0:0:0:0:
160,96,324427,1,0,0:0:0:0:
160,96,324596,1,0,0:0:0:0:
352,96,324764,1,8,0:0:0:0:
160,96,324933,1,0,0:0:0:0:
160,96,325017,1,0,0:0:0:0:
160,96,325101,1,0,0:0:0:0:
160,96,325270,1,0,0:0:0:0:
352,96,325438,1,8,0:0:0:0:
160,96,325607,1,0,0:0:0:0:
352,96,325691,1,8,0:0:0:0:
160,96,325776,1,0,0:0:0:0:
160,96,325944,1,0,0:0:0:0:
352,96,326113,1,8,0:0:0:0:
160,96,326197,1,0,0:0:0:0:
352,96,326281,1,8,0:0:0:0:
352,96,326365,1,8,0:0:0:0:
160,96,326450,1,0,0:0:0:0:
352,96,326787,1,8,0:0:0:0:
160,96,326955,1,0,0:0:0:0:
160,96,327040,1,0,0:0:0:0:
160,96,327124,1,0,0:0:0:0:
160,96,327292,1,0,0:0:0:0:
352,96,327461,1,8,0:0:0:0:
160,96,327629,1,0,0:0:0:0:
160,96,327714,1,0,0:0:0:0:
160,96,327798,1,0,0:0:0:0:
160,96,327967,1,0,0:0:0:0:
160,96,328051,1,0,0:0:0:0:
352,96,328135,1,8,0:0:0:0:
160,96,328304,1,0,0:0:0:0:
352,96,328388,1,8,0:0:0:0:
160,96,328472,1,0,0:0:0:0:
160,96,328641,1,0,0:0:0:0:
352,96,328809,1,8,0:0:0:0:
352,96,328893,1,8,0:0:0:0:
352,96,328978,1,8,0:0:0:0:
352,96,329062,1,8,0:0:0:0:
160,96,329146,1,0,0:0:0:0:
352,96,329483,1,8,0:0:0:0:
160,96,329652,1,0,0:0:0:0:
160,96,329736,1,0,0:0:0:0:
160,96,329820,1,0,0:0:0:0:
160,96,329989,1,0,0:0:0:0:
160,96,330073,1,0,0:0:0:0:
352,96,330158,1,8,0:0:0:0:
160,96,330326,1,0,0:0:0:0:
160,96,330495,1,0,0:0:0:0:
160,96,330579,1,0,0:0:0:0:
160,96,330663,1,0,0:0:0:0:
160,96,330747,1,0,0:0:0:0:
352,96,330832,1,8,0:0:0:0:
160,96,331000,1,0,0:0:0:0:
352,96,331085,1,8,0:0:0:0:
160,96,331169,1,0,0:0:0:0:
352,96,331253,1,8,0:0:0:0:
160,96,331337,1,0,0:0:0:0:
160,96,331422,1,0,0:0:0:0:
352,96,331506,1,8,0:0:0:0:
160,96,331674,1,0,0:0:0:0:
160,96,331843,1,0,0:0:0:0:
352,96,332180,1,8,0:0:0:0:
352,96,332349,1,8,0:0:0:0:
352,96,332433,1,8,0:0:0:0:
160,96,332517,1,0,0:0:0:0:
160,96,332686,1,0,0:0:0:0:
160,96,332770,1,0,0:0:0:0:
352,96,332854,1,8,0:0:0:0:
160,96,333023,1,0,0:0:0:0:
160,96,333107,1,0,0:0:0:0:
160,96,333191,1,0,0:0:0:0:
352,96,333360,1,8,0:0:0:0:
160,96,333444,1,0,0:0:0:0:
352,96,333528,1,8,0:0:0:0:
160,96,333697,1,0,0:0:0:0:
352,96,333781,1,8,0:0:0:0:
160,96,333865,1,0,0:0:0:0:
352,96,333950,1,8,0:0:0:0:
160,96,334034,1,0,0:0:0:0:
352,96,334202,1,8,0:0:0:0:
160,288,334540,1,4,0:0:0:0:
256,192,334708,12,0,352068,0:0:0:0:
