osu file format v14

[General]
AudioFilename: audio.mp3
AudioLeadIn: 0
PreviewTime: 120044
Countdown: 0
SampleSet: Normal
StackLeniency: 0.7
Mode: 1
LetterboxInBreaks: 0
WidescreenStoryboard: 0

[Editor]
Bookmarks: 44,10044,20044,30044,40044,50044,60044,70044,80044,90044,100044,110044,120044,130044,140044,150044,170044,175044,195044,205044,215044,225044,240044,255044,262544,272544,282544,301597,311197,323997,346414,359197
DistanceSpacing: 1.3
BeatDivisor: 4
GridSize: 32
TimelineZoom: 2.899998

[Metadata]
Title:Blinded In Chains
TitleUnicode:Blinded In Chains
Artist:Avenged Sevenfold
ArtistUnicode:Avenged Sevenfold
Creator:gaston_2199
Version:Chaos
Source:
Tags:Heavy Metal Hard Rock A7X City of Evil Need for Speed Most Wanted NFSMW
BeatmapID:1138034
BeatmapSetID:536955

[Difficulty]
HPDrainRate:5
CircleSize:2
OverallDifficulty:6
ApproachRate:0
SliderMultiplier:1.4
SliderTickRate:1

[Events]
//Background and Video events
0,0,"BG Chaos.jpg",0,-83
//Break Periods
//Storyboard Layer 0 (Background)
//Storyboard Layer 1 (Fail)
//Storyboard Layer 2 (Pass)
//Storyboard Layer 3 (Foreground)
//Storyboard Sound Samples

[TimingPoints]
44,312.5,4,1,0,80,1,0
44,-111.111111111111,4,1,0,80,0,0
10356,-100,4,1,0,80,0,0
30200,-100,4,1,0,40,0,0
35044,-100,4,1,0,80,0,0
70044,-95.2380952380952,4,1,0,90,0,1
72700,-100,4,1,0,90,0,1
75044,-95.2380952380952,4,1,0,90,0,1
77700,-100,4,1,0,90,0,1
80044,-100,4,1,0,80,0,0
87544,-83.3333333333333,4,1,0,80,0,0
88012,-76.9230769230769,4,1,0,80,0,0
88481,-66.6666666666667,4,1,0,80,0,0
88794,-100,4,1,0,80,0,0
120044,-95.2380952380952,4,1,0,90,0,1
122700,-100,4,1,0,90,0,1
125044,-95.2380952380952,4,1,0,90,0,1
127700,-100,4,1,0,90,0,1
137544,-95.2380952380952,4,1,0,90,0,1
140044,-95.2380952380952,4,1,0,80,0,0
140356,-100,4,1,0,80,0,0
169419,-102.040816326531,4,1,0,80,0,0
169575,-104.166666666667,4,1,0,80,0,0
169653,-105.263157894737,4,1,0,80,0,0
169731,-106.382978723404,4,1,0,80,0,0
169887,-108.695652173913,4,1,0,80,0,0
170044,-111.111111111111,4,1,0,80,0,0
172544,307.692307692308,4,1,0,80,1,0
172544,-113.636363636364,4,1,0,80,0,0
173774,317.460317460317,4,1,0,80,1,0
173774,-109.89010989011,4,1,0,80,0,0
175044,312.5,4,1,0,80,1,0
175044,-111.111111111111,4,1,0,80,0,0
195981,-105.263157894737,4,1,0,80,0,0
215200,-100,4,1,0,80,0,0
262544,-95.2380952380952,4,1,0,90,0,1
265200,-100,4,1,0,90,0,1
267544,-95.2380952380952,4,1,0,90,0,1
270200,-100,4,1,0,90,0,1
280044,-95.2380952380952,4,1,0,90,0,1
282544,-95.2380952380952,4,1,0,90,0,0
282700,-100,4,1,0,80,0,0
286294,317.460317460317,4,1,0,80,1,0
286294,-98.0392156862745,4,1,0,80,0,0
291997,400,4,1,0,80,1,0
301597,-66.6666666666667,4,1,0,80,0,0
304130,-68.9655172413793,4,1,0,80,0,0
304263,-71.4285714285714,4,1,0,80,0,0
304397,-74.0740740740741,4,1,0,80,0,0
304530,-76.9230769230769,4,1,0,80,0,0
304663,-80,4,1,0,80,0,0
304797,-83.3333333333333,4,1,0,80,0,0
323097,-84.7457627118644,4,1,0,80,0,0
323197,-86.2068965517241,4,1,0,80,0,0
323297,-87.719298245614,4,1,0,80,0,0
323397,-89.2857142857143,4,1,0,80,0,0
323497,-90.9090909090909,4,1,0,80,0,0
323597,-92.5925925925926,4,1,0,80,0,0
323697,-94.3396226415094,4,1,0,80,0,0
323797,-96.1538461538461,4,1,0,80,0,0
323997,-100,4,1,0,80,0,1
342397,410.958904109589,4,1,0,80,1,1
342397,-96.1538461538461,4,1,0,80,0,1
343218,400,4,1,0,80,1,1
344618,-98.0392156862745,4,1,0,80,0,1
344818,-96.1538461538461,4,1,0,80,0,1
345018,-94.3396226415094,4,1,0,80,0,1
345218,-92.5925925925926,4,1,0,80,0,1
345418,-90.9090909090909,4,1,0,80,0,1
345618,-89.2857142857143,4,1,0,80,0,1
345818,-87.719298245614,4,1,0,80,0,1
346018,-86.2068965517241,4,1,0,80,0,1
346218,-86.2068965517241,4,1,0,80,0,1
346418,394.736842105263,4,1,0,80,1,0
346418,-84.7457627118644,4,1,0,80,0,0
347997,400,4,1,0,80,1,0
347997,-83.3333333333333,4,1,0,80,0,0
359197,-83.3333333333333,4,1,0,75,0,0
360797,-83.3333333333333,4,1,0,70,0,0
362397,-83.3333333333333,4,1,0,65,0,0
363997,-83.3333333333333,4,1,0,60,0,0
364797,405.405405405405,4,1,0,60,1,0
364797,-81.9672131147541,4,1,0,60,0,0
365607,400,4,1,0,55,1,0
365607,-83.3333333333333,4,1,0,55,0,0
367207,-83.3333333333333,4,1,0,50,0,0
368807,-83.3333333333333,4,1,0,45,0,0
370407,-83.3333333333333,4,1,0,40,0,0
372007,-83.3333333333333,4,1,0,35,0,0
373607,-83.3333333333333,4,1,0,30,0,0
375207,-83.3333333333333,4,1,0,25,0,0
376807,-83.3333333333333,4,1,0,20,0,0
378407,-83.3333333333333,4,1,0,15,0,0
380007,-83.3333333333333,4,1,0,10,0,0

[HitObjects]
256,192,44,5,8,0:0:0:0:
256,192,148,1,0,0:0:0:0:
256,192,252,1,0,0:0:0:0:
256,192,356,1,8,0:0:0:0:
256,192,460,1,0,0:0:0:0:
256,192,564,1,0,0:0:0:0:
256,192,669,1,8,0:0:0:0:
256,192,981,1,8,0:0:0:0:
256,192,1085,1,8,0:0:0:0:
256,192,1189,1,0,0:0:0:0:
256,192,1294,1,8,0:0:0:0:
256,192,1398,1,0,0:0:0:0:
256,192,1502,1,0,0:0:0:0:
256,192,1606,1,8,0:0:0:0:
256,192,1919,1,8,0:0:0:0:
256,192,2023,1,8,0:0:0:0:
256,192,2127,1,8,0:0:0:0:
256,192,2231,1,8,0:0:0:0:
256,192,2544,1,8,0:0:0:0:
256,192,2648,1,0,0:0:0:0:
256,192,2752,1,0,0:0:0:0:
256,192,2856,1,8,0:0:0:0:
256,192,2960,1,0,0:0:0:0:
256,192,3064,1,0,0:0:0:0:
256,192,3169,1,8,0:0:0:0:
256,192,3481,1,8,0:0:0:0:
256,192,3585,1,8,0:0:0:0:
256,192,3689,1,0,0:0:0:0:
256,192,3794,1,8,0:0:0:0:
256,192,3898,1,0,0:0:0:0:
256,192,4002,1,0,0:0:0:0:
256,192,4106,1,8,0:0:0:0:
256,192,4419,1,8,0:0:0:0:
256,192,4523,1,8,0:0:0:0:
256,192,4627,1,8,0:0:0:0:
256,192,4731,1,8,0:0:0:0:
256,192,5044,5,8,0:0:0:0:
256,192,5148,1,0,0:0:0:0:
256,192,5252,1,0,0:0:0:0:
256,192,5356,1,8,0:0:0:0:
256,192,5460,1,0,0:0:0:0:
256,192,5564,1,0,0:0:0:0:
256,192,5669,1,8,0:0:0:0:
256,192,5773,1,0,0:0:0:0:
256,192,5877,1,0,0:0:0:0:
256,192,5981,1,8,0:0:0:0:
256,192,6085,1,8,0:0:0:0:
256,192,6189,1,0,0:0:0:0:
256,192,6294,1,8,0:0:0:0:
256,192,6398,1,0,0:0:0:0:
256,192,6502,1,0,0:0:0:0:
256,192,6606,1,8,0:0:0:0:
256,192,6710,1,0,0:0:0:0:
256,192,6814,1,0,0:0:0:0:
256,192,6919,1,8,0:0:0:0:
256,192,7023,1,8,0:0:0:0:
256,192,7127,1,8,0:0:0:0:
256,192,7231,1,8,0:0:0:0:
256,192,7335,1,0,0:0:0:0:
256,192,7439,1,0,0:0:0:0:
256,192,7544,1,8,0:0:0:0:
256,192,7648,1,0,0:0:0:0:
256,192,7752,1,0,0:0:0:0:
256,192,7856,1,8,0:0:0:0:
256,192,7960,1,0,0:0:0:0:
256,192,8064,1,0,0:0:0:0:
256,192,8169,1,8,0:0:0:0:
256,192,8273,1,0,0:0:0:0:
256,192,8377,1,0,0:0:0:0:
256,192,8481,1,8,0:0:0:0:
256,192,8585,5,8,0:0:0:0:
256,192,8689,1,0,0:0:0:0:
256,192,8794,1,8,0:0:0:0:
256,192,8898,1,0,0:0:0:0:
256,192,9002,1,0,0:0:0:0:
256,192,9106,1,8,0:0:0:0:
256,192,9210,1,0,0:0:0:0:
256,192,9314,1,0,0:0:0:0:
256,192,9419,1,8,0:0:0:0:
256,192,9523,1,8,0:0:0:0:
256,192,9627,1,8,0:0:0:0:
256,192,9731,1,8,0:0:0:0:
256,192,9835,1,0,0:0:0:0:
256,192,9939,1,0,0:0:0:0:
256,192,10044,1,12,0:0:0:0:
256,192,10356,1,8,0:0:0:0:
256,192,10512,1,0,0:0:0:0:
256,192,10669,1,8,0:0:0:0:
256,192,10825,1,0,0:0:0:0:
256,192,10981,1,8,0:0:0:0:
256,192,11059,1,0,0:0:0:0:
256,192,11137,1,0,0:0:0:0:
256,192,11215,1,0,0:0:0:0:
256,192,11294,1,8,0:0:0:0:
256,192,11450,1,0,0:0:0:0:
256,192,11606,1,8,0:0:0:0:
256,192,11684,1,8,0:0:0:0:
256,192,11762,1,0,0:0:0:0:
256,192,11840,1,0,0:0:0:0:
256,192,11919,1,8,0:0:0:0:
256,192,12075,1,0,0:0:0:0:
256,192,12231,1,8,0:0:0:0:
256,192,12309,1,0,0:0:0:0:
256,192,12387,1,8,0:0:0:0:
256,192,12465,1,0,0:0:0:0:
256,192,12544,1,8,0:0:0:0:
256,192,12700,1,0,0:0:0:0:
256,192,12856,1,8,0:0:0:0:
256,192,13012,1,0,0:0:0:0:
256,192,13090,1,0,0:0:0:0:
256,192,13169,1,8,0:0:0:0:
256,192,13325,1,0,0:0:0:0:
256,192,13481,1,8,0:0:0:0:
256,192,13637,1,0,0:0:0:0:
256,192,13715,1,0,0:0:0:0:
256,192,13794,1,8,0:0:0:0:
256,192,13950,1,0,0:0:0:0:
256,192,14106,1,8,0:0:0:0:
256,192,14262,1,0,0:0:0:0:
256,192,14340,1,0,0:0:0:0:
256,192,14419,1,8,0:0:0:0:
256,192,14575,1,0,0:0:0:0:
256,192,14731,1,8,0:0:0:0:
256,192,14809,1,8,0:0:0:0:
256,192,14887,1,0,0:0:0:0:
256,192,14965,1,0,0:0:0:0:
256,192,15044,1,8,0:0:0:0:
256,192,15200,1,0,0:0:0:0:
256,192,15356,1,8,0:0:0:0:
256,192,15434,1,0,0:0:0:0:
256,192,15512,1,0,0:0:0:0:
256,192,15590,1,0,0:0:0:0:
256,192,15669,1,8,0:0:0:0:
256,192,15825,1,0,0:0:0:0:
256,192,15981,1,8,0:0:0:0:
256,192,16059,1,8,0:0:0:0:
256,192,16137,1,0,0:0:0:0:
256,192,16215,1,0,0:0:0:0:
256,192,16294,1,8,0:0:0:0:
256,192,16450,1,0,0:0:0:0:
256,192,16606,1,8,0:0:0:0:
256,192,16684,1,0,0:0:0:0:
256,192,16762,1,0,0:0:0:0:
256,192,16840,1,0,0:0:0:0:
256,192,16919,1,8,0:0:0:0:
256,192,17075,1,0,0:0:0:0:
256,192,17231,1,8,0:0:0:0:
256,192,17309,1,8,0:0:0:0:
256,192,17387,1,8,0:0:0:0:
256,192,17465,1,0,0:0:0:0:
256,192,17544,1,8,0:0:0:0:
256,192,17700,1,0,0:0:0:0:
256,192,17856,1,8,0:0:0:0:
256,192,18012,1,0,0:0:0:0:
256,192,18090,1,0,0:0:0:0:
256,192,18169,1,8,0:0:0:0:
256,192,18325,1,0,0:0:0:0:
256,192,18481,1,8,0:0:0:0:
256,192,18637,1,0,0:0:0:0:
256,192,18715,1,0,0:0:0:0:
256,192,18794,1,8,0:0:0:0:
256,192,18950,1,0,0:0:0:0:
256,192,19106,1,8,0:0:0:0:
256,192,19262,1,0,0:0:0:0:
256,192,19340,1,0,0:0:0:0:
256,192,19419,1,8,0:0:0:0:
256,192,19497,1,0,0:0:0:0:
256,192,19575,1,8,0:0:0:0:
256,192,19653,1,8,0:0:0:0:
256,192,19731,1,0,0:0:0:0:
256,192,19809,1,0,0:0:0:0:
256,192,19887,1,8,0:0:0:0:
256,192,19965,1,8,0:0:0:0:
256,192,20044,1,0,0:0:0:0:
256,192,20200,1,8,0:0:0:0:
256,192,20356,1,0,0:0:0:0:
256,192,20434,1,0,0:0:0:0:
256,192,20512,1,8,0:0:0:0:
256,192,20669,1,0,0:0:0:0:
256,192,20825,1,8,0:0:0:0:
256,192,20981,1,0,0:0:0:0:
256,192,21059,1,0,0:0:0:0:
256,192,21137,1,8,0:0:0:0:
256,192,21215,1,8,0:0:0:0:
256,192,21294,1,0,0:0:0:0:
256,192,21450,1,8,0:0:0:0:
256,192,21606,1,0,0:0:0:0:
256,192,21684,1,0,0:0:0:0:
256,192,21762,1,8,0:0:0:0:
256,192,21919,1,0,0:0:0:0:
256,192,22075,1,8,0:0:0:0:
256,192,22231,1,0,0:0:0:0:
256,192,22309,1,8,0:0:0:0:
256,192,22387,1,8,0:0:0:0:
256,192,22465,1,8,0:0:0:0:
256,192,22544,1,0,0:0:0:0:
256,192,22700,1,8,0:0:0:0:
256,192,22856,1,0,0:0:0:0:
256,192,22934,1,0,0:0:0:0:
256,192,23012,1,8,0:0:0:0:
256,192,23169,1,0,0:0:0:0:
256,192,23325,1,8,0:0:0:0:
256,192,23481,1,0,0:0:0:0:
256,192,23559,1,8,0:0:0:0:
256,192,23637,1,8,0:0:0:0:
256,192,23715,1,8,0:0:0:0:
256,192,23794,1,0,0:0:0:0:
256,192,23950,1,8,0:0:0:0:
256,192,24106,1,0,0:0:0:0:
256,192,24184,1,0,0:0:0:0:
256,192,24262,1,8,0:0:0:0:
256,192,24419,1,0,0:0:0:0:
256,192,24575,1,8,0:0:0:0:
256,192,24731,1,0,0:0:0:0:
256,192,24809,1,0,0:0:0:0:
256,192,24887,1,8,0:0:0:0:
256,192,25044,1,4,0:0:0:0:
256,192,25200,1,8,0:0:0:0:
256,192,25356,1,0,0:0:0:0:
256,192,25434,1,0,0:0:0:0:
256,192,25512,1,8,0:0:0:0:
256,192,25669,1,8,0:0:0:0:
256,192,25825,1,8,0:0:0:0:
256,192,25981,1,8,0:0:0:0:
256,192,26059,1,0,0:0:0:0:
256,192,26137,1,8,0:0:0:0:
256,192,26294,1,4,0:0:0:0:
256,192,26450,1,8,0:0:0:0:
256,192,26606,1,0,0:0:0:0:
256,192,26684,1,0,0:0:0:0:
256,192,26762,1,8,0:0:0:0:
256,192,26919,1,8,0:0:0:0:
256,192,27075,1,8,0:0:0:0:
256,192,27231,1,8,0:0:0:0:
256,192,27309,1,0,0:0:0:0:
256,192,27387,1,8,0:0:0:0:
256,192,27544,1,4,0:0:0:0:
256,192,27700,1,8,0:0:0:0:
256,192,27856,1,0,0:0:0:0:
256,192,27934,1,0,0:0:0:0:
256,192,28012,1,8,0:0:0:0:
256,192,28169,1,0,0:0:0:0:
256,192,28325,1,8,0:0:0:0:
256,192,28481,1,8,0:0:0:0:
256,192,28559,1,0,0:0:0:0:
256,192,28637,1,8,0:0:0:0:
288,192,28715,1,8,0:0:0:0:
256,192,28794,1,0,0:0:0:0:
256,192,28872,1,0,0:0:0:0:
256,192,28950,1,8,0:0:0:0:
256,192,29028,1,8,0:0:0:0:
256,192,29106,1,8,0:0:0:0:
256,192,29184,1,8,0:0:0:0:
256,192,29262,1,0,0:0:0:0:
256,192,29340,1,0,0:0:0:0:
256,192,29419,1,8,0:0:0:0:
256,192,29497,1,8,0:0:0:0:
256,192,29575,1,0,0:0:0:0:
256,192,29653,1,0,0:0:0:0:
256,192,29731,1,0,0:0:0:0:
256,192,29809,1,0,0:0:0:0:
256,192,29887,1,0,0:0:0:0:
256,192,29965,1,0,0:0:0:0:
256,192,30044,1,8,0:0:0:0:
256,192,30200,12,0,34887,0:0:0:0:
256,192,35044,5,4,0:0:0:0:
256,192,35200,1,4,0:0:0:0:
256,192,35356,1,0,0:0:0:0:
256,192,35434,1,0,0:0:0:0:
256,192,35512,1,8,0:0:0:0:
256,192,35669,1,4,0:0:0:0:
256,192,35825,1,4,0:0:0:0:
256,192,35981,1,0,0:0:0:0:
256,192,36059,1,0,0:0:0:0:
256,192,36137,1,8,0:0:0:0:
256,192,36294,1,4,0:0:0:0:
256,192,36450,1,4,0:0:0:0:
256,192,36606,1,0,0:0:0:0:
256,192,36684,1,0,0:0:0:0:
256,192,36762,1,8,0:0:0:0:
256,192,36919,1,8,0:0:0:0:
256,192,37075,1,8,0:0:0:0:
256,192,37231,1,8,0:0:0:0:
256,192,37387,1,8,0:0:0:0:
256,192,37544,1,4,0:0:0:0:
256,192,37700,1,4,0:0:0:0:
256,192,37856,1,0,0:0:0:0:
256,192,37934,1,0,0:0:0:0:
256,192,38012,1,8,0:0:0:0:
256,192,38169,1,4,0:0:0:0:
256,192,38325,1,4,0:0:0:0:
256,192,38481,1,0,0:0:0:0:
256,192,38559,1,0,0:0:0:0:
256,192,38637,1,8,0:0:0:0:
256,192,38794,1,8,0:0:0:0:
256,192,38872,1,8,0:0:0:0:
256,192,38950,1,0,0:0:0:0:
256,192,39028,1,0,0:0:0:0:
256,192,39106,1,0,0:0:0:0:
256,192,39184,1,0,0:0:0:0:
256,192,39262,1,8,0:0:0:0:
256,192,39340,1,8,0:0:0:0:
256,192,39419,1,0,0:0:0:0:
256,192,39497,1,0,0:0:0:0:
256,192,39575,1,0,0:0:0:0:
256,192,39731,1,12,0:0:0:0:
256,192,40044,1,0,0:0:0:0:
256,192,40122,1,0,0:0:0:0:
256,192,40200,1,8,0:0:0:0:
256,192,40278,1,8,0:0:0:0:
256,192,40356,1,0,0:0:0:0:
256,192,40434,1,0,0:0:0:0:
256,192,40512,1,8,0:0:0:0:
256,192,40590,1,8,0:0:0:0:
256,192,40669,1,8,0:0:0:0:
256,192,40747,1,0,0:0:0:0:
256,192,40825,1,8,0:0:0:0:
256,192,40903,1,0,0:0:0:0:
256,192,40981,1,8,0:0:0:0:
256,192,41059,1,0,0:0:0:0:
256,192,41137,1,8,0:0:0:0:
256,192,41215,1,8,0:0:0:0:
256,192,41294,1,0,0:0:0:0:
256,192,41372,1,0,0:0:0:0:
256,192,41450,1,8,0:0:0:0:
256,192,41528,1,8,0:0:0:0:
256,192,41606,1,0,0:0:0:0:
256,192,41684,1,0,0:0:0:0:
256,192,41762,1,8,0:0:0:0:
256,192,41840,1,8,0:0:0:0:
256,192,41919,1,8,0:0:0:0:
256,192,41997,1,0,0:0:0:0:
256,192,42075,1,8,0:0:0:0:
256,192,42153,1,0,0:0:0:0:
256,192,42231,1,8,0:0:0:0:
256,192,42309,1,0,0:0:0:0:
256,192,42387,1,8,0:0:0:0:
256,192,42465,1,8,0:0:0:0:
256,192,42544,1,0,0:0:0:0:
256,192,42622,1,0,0:0:0:0:
256,192,42700,1,8,0:0:0:0:
256,192,42778,1,8,0:0:0:0:
256,192,42856,1,0,0:0:0:0:
256,192,42934,1,0,0:0:0:0:
256,192,43012,1,8,0:0:0:0:
256,192,43090,1,8,0:0:0:0:
256,192,43169,1,8,0:0:0:0:
256,192,43247,1,0,0:0:0:0:
256,192,43325,1,8,0:0:0:0:
256,192,43403,1,0,0:0:0:0:
256,192,43481,1,8,0:0:0:0:
256,192,43559,1,8,0:0:0:0:
256,192,43637,1,0,0:0:0:0:
256,192,43715,1,0,0:0:0:0:
256,192,43794,1,8,0:0:0:0:
256,192,43872,1,0,0:0:0:0:
256,192,43950,1,8,0:0:0:0:
256,192,44028,1,8,0:0:0:0:
256,192,44106,1,0,0:0:0:0:
256,192,44184,1,0,0:0:0:0:
256,192,44262,1,8,0:0:0:0:
256,192,44340,1,8,0:0:0:0:
256,192,44419,1,0,0:0:0:0:
256,192,44497,1,0,0:0:0:0:
256,192,44575,1,8,0:0:0:0:
256,192,44653,1,8,0:0:0:0:
256,192,44731,1,8,0:0:0:0:
256,192,44809,1,0,0:0:0:0:
256,192,44887,1,8,0:0:0:0:
256,192,44965,1,8,0:0:0:0:
256,192,45044,1,0,0:0:0:0:
256,192,45122,1,0,0:0:0:0:
256,192,45200,1,8,0:0:0:0:
256,192,45278,1,0,0:0:0:0:
256,192,45356,1,0,0:0:0:0:
256,192,45434,1,0,0:0:0:0:
256,192,45512,1,8,0:0:0:0:
256,192,45590,1,0,0:0:0:0:
256,192,45669,1,8,0:0:0:0:
256,192,45747,1,8,0:0:0:0:
256,192,45825,1,8,0:0:0:0:
256,192,45903,1,0,0:0:0:0:
256,192,45981,1,8,0:0:0:0:
256,192,46059,1,0,0:0:0:0:
256,192,46137,1,8,0:0:0:0:
256,192,46215,1,0,0:0:0:0:
256,192,46294,1,8,0:0:0:0:
256,192,46372,1,8,0:0:0:0:
256,192,46450,1,0,0:0:0:0:
256,192,46528,1,0,0:0:0:0:
256,192,46606,1,0,0:0:0:0:
256,192,46684,1,0,0:0:0:0:
256,192,46762,1,8,0:0:0:0:
256,192,46840,1,0,0:0:0:0:
256,192,46919,1,8,0:0:0:0:
256,192,46997,1,8,0:0:0:0:
256,192,47075,1,8,0:0:0:0:
256,192,47153,1,0,0:0:0:0:
256,192,47231,1,8,0:0:0:0:
256,192,47309,1,0,0:0:0:0:
256,192,47387,1,8,0:0:0:0:
256,192,47465,1,0,0:0:0:0:
256,192,47544,1,8,0:0:0:0:
256,192,47622,1,8,0:0:0:0:
256,192,47700,1,8,0:0:0:0:
256,192,47778,1,0,0:0:0:0:
256,192,47856,1,0,0:0:0:0:
256,192,47934,1,0,0:0:0:0:
256,192,48012,1,8,0:0:0:0:
256,192,48090,5,0,0:0:0:0:
256,192,48169,1,8,0:0:0:0:
256,192,48247,1,8,0:0:0:0:
256,192,48325,1,8,0:0:0:0:
256,192,48403,1,0,0:0:0:0:
256,192,48481,1,8,0:0:0:0:
256,192,48559,1,8,0:0:0:0:
256,192,48637,1,8,0:0:0:0:
256,192,48715,1,0,0:0:0:0:
256,192,48794,1,8,0:0:0:0:
256,192,48872,1,8,0:0:0:0:
256,192,48950,1,0,0:0:0:0:
256,192,49028,1,0,0:0:0:0:
256,192,49106,1,0,0:0:0:0:
256,192,49184,1,0,0:0:0:0:
256,192,49262,1,0,0:0:0:0:
256,192,49340,1,0,0:0:0:0:
256,192,49419,1,8,0:0:0:0:
256,192,49497,1,8,0:0:0:0:
256,192,49575,1,0,0:0:0:0:
256,192,49653,1,0,0:0:0:0:
256,192,49731,1,8,0:0:0:0:
256,192,49887,1,0,0:0:0:0:
256,192,49965,1,0,0:0:0:0:
256,192,50044,1,8,0:0:0:0:
256,192,50200,1,0,0:0:0:0:
256,192,50356,1,8,0:0:0:0:
256,192,50512,1,0,0:0:0:0:
256,192,50590,1,0,0:0:0:0:
256,192,50669,1,0,0:0:0:0:
256,192,50825,1,0,0:0:0:0:
256,192,50981,1,8,0:0:0:0:
256,192,51137,1,0,0:0:0:0:
256,192,51215,1,0,0:0:0:0:
256,192,51294,1,0,0:0:0:0:
256,192,51450,1,0,0:0:0:0:
256,192,51606,1,8,0:0:0:0:
256,192,51762,1,0,0:0:0:0:
256,192,51840,1,0,0:0:0:0:
256,192,51919,1,8,0:0:0:0:
256,192,52075,1,8,0:0:0:0:
256,192,52231,1,8,0:0:0:0:
256,192,52387,1,8,0:0:0:0:
256,192,52544,1,0,0:0:0:0:
256,192,52700,1,0,0:0:0:0:
256,192,52856,1,8,0:0:0:0:
256,192,53012,1,0,0:0:0:0:
256,192,53090,1,0,0:0:0:0:
256,192,53169,1,0,0:0:0:0:
256,192,53325,1,0,0:0:0:0:
256,192,53481,1,8,0:0:0:0:
256,192,53637,1,0,0:0:0:0:
256,192,53715,1,0,0:0:0:0:
256,192,53794,1,0,0:0:0:0:
256,192,53950,1,0,0:0:0:0:
256,192,54106,1,8,0:0:0:0:
256,192,54262,1,0,0:0:0:0:
256,192,54340,1,0,0:0:0:0:
256,192,54419,1,8,0:0:0:0:
256,192,54575,1,0,0:0:0:0:
256,192,54731,1,8,0:0:0:0:
256,192,54887,1,8,0:0:0:0:
256,192,55044,1,0,0:0:0:0:
256,192,55200,1,0,0:0:0:0:
256,192,55356,1,8,0:0:0:0:
256,192,55512,1,0,0:0:0:0:
256,192,55590,1,0,0:0:0:0:
256,192,55669,1,0,0:0:0:0:
256,192,55825,1,0,0:0:0:0:
256,192,55981,1,8,0:0:0:0:
256,192,56137,1,0,0:0:0:0:
256,192,56215,1,0,0:0:0:0:
256,192,56294,1,0,0:0:0:0:
256,192,56450,1,0,0:0:0:0:
256,192,56606,1,8,0:0:0:0:
256,192,56762,1,0,0:0:0:0:
256,192,56840,1,0,0:0:0:0:
256,192,56919,1,8,0:0:0:0:
256,192,57075,1,8,0:0:0:0:
256,192,57231,1,8,0:0:0:0:
256,192,57387,1,8,0:0:0:0:
256,192,57544,1,0,0:0:0:0:
256,192,57700,1,0,0:0:0:0:
256,192,57856,1,8,0:0:0:0:
256,192,58012,1,0,0:0:0:0:
256,192,58090,1,8,0:0:0:0:
256,192,58169,1,0,0:0:0:0:
256,192,58325,1,0,0:0:0:0:
256,192,58481,1,8,0:0:0:0:
256,192,58637,1,8,0:0:0:0:
256,192,58715,1,0,0:0:0:0:
256,192,58794,1,0,0:0:0:0:
256,192,58950,1,0,0:0:0:0:
256,192,59106,1,8,0:0:0:0:
256,192,59262,1,0,0:0:0:0:
256,192,59419,1,8,0:0:0:0:
256,192,59523,1,0,0:0:0:0:
256,192,59627,1,0,0:0:0:0:
256,192,59731,1,8,0:0:0:0:
256,192,59887,1,0,0:0:0:0:
256,192,60044,1,8,0:0:0:0:
256,192,60122,1,8,0:0:0:0:
256,192,60200,1,0,0:0:0:0:
256,192,60278,1,0,0:0:0:0:
256,192,60356,1,8,0:0:0:0:
256,192,60512,1,0,0:0:0:0:
256,192,60825,1,0,0:0:0:0:
256,192,60903,1,0,0:0:0:0:
256,192,60981,1,8,0:0:0:0:
256,192,61137,1,0,0:0:0:0:
256,192,61294,1,8,0:0:0:0:
256,192,61372,1,0,0:0:0:0:
256,192,61450,1,0,0:0:0:0:
256,192,61528,1,0,0:0:0:0:
256,192,61606,1,8,0:0:0:0:
256,192,61762,1,0,0:0:0:0:
256,192,61919,1,8,0:0:0:0:
256,192,61997,1,8,0:0:0:0:
256,192,62075,1,0,0:0:0:0:
256,192,62153,1,0,0:0:0:0:
256,192,62231,1,8,0:0:0:0:
256,192,62387,1,0,0:0:0:0:
256,192,62544,1,0,0:0:0:0:
256,192,62622,1,0,0:0:0:0:
256,192,62700,1,0,0:0:0:0:
256,192,62778,1,0,0:0:0:0:
256,192,62856,1,8,0:0:0:0:
256,192,63012,1,0,0:0:0:0:
256,192,63325,1,0,0:0:0:0:
256,192,63403,1,0,0:0:0:0:
256,192,63481,1,8,0:0:0:0:
256,192,63637,1,0,0:0:0:0:
256,192,63794,1,8,0:0:0:0:
256,192,63872,1,0,0:0:0:0:
256,192,63950,1,0,0:0:0:0:
256,192,64028,1,0,0:0:0:0:
256,192,64106,1,8,0:0:0:0:
256,192,64262,1,0,0:0:0:0:
256,192,64419,1,0,0:0:0:0:
256,192,64497,1,0,0:0:0:0:
256,192,64575,1,0,0:0:0:0:
256,192,64653,1,0,0:0:0:0:
256,192,64731,1,8,0:0:0:0:
256,192,64887,1,0,0:0:0:0:
256,192,65044,1,0,0:0:0:0:
256,192,65122,1,8,0:0:0:0:
256,192,65200,1,0,0:0:0:0:
256,192,65278,1,0,0:0:0:0:
256,192,65356,1,8,0:0:0:0:
256,192,65512,1,0,0:0:0:0:
256,192,65825,1,0,0:0:0:0:
256,192,65903,1,0,0:0:0:0:
256,192,65981,1,8,0:0:0:0:
256,192,66137,1,0,0:0:0:0:
256,192,66294,1,8,0:0:0:0:
256,192,66372,1,8,0:0:0:0:
256,192,66450,1,0,0:0:0:0:
256,192,66528,1,0,0:0:0:0:
256,192,66606,1,8,0:0:0:0:
256,192,66762,1,0,0:0:0:0:
256,192,66919,1,0,0:0:0:0:
256,192,66997,5,8,0:0:0:0:
256,192,67075,1,0,0:0:0:0:
256,192,67153,1,0,0:0:0:0:
256,192,67231,1,8,0:0:0:0:
256,192,67387,1,0,0:0:0:0:
256,192,67544,1,8,0:0:0:0:
256,192,67622,1,0,0:0:0:0:
256,192,67700,1,8,0:0:0:0:
256,192,67778,1,0,0:0:0:0:
256,192,67856,1,8,0:0:0:0:
256,192,68012,1,0,0:0:0:0:
256,192,68325,1,0,0:0:0:0:
256,192,68403,1,0,0:0:0:0:
256,192,68481,1,8,0:0:0:0:
256,192,68637,1,0,0:0:0:0:
256,192,68794,1,8,0:0:0:0:
256,192,68872,1,8,0:0:0:0:
256,192,68950,1,8,0:0:0:0:
256,192,69028,1,0,0:0:0:0:
256,192,69106,1,8,0:0:0:0:
256,192,69262,1,0,0:0:0:0:
256,192,69419,1,8,0:0:0:0:
256,192,69575,1,0,0:0:0:0:
256,192,69653,1,0,0:0:0:0:
256,192,69731,1,8,0:0:0:0:
256,192,69887,1,0,0:0:0:0:
256,192,70044,1,12,0:0:0:0:
256,192,70200,1,0,0:0:0:0:
256,192,70278,1,0,0:0:0:0:
256,192,70356,1,8,0:0:0:0:
256,192,70512,1,0,0:0:0:0:
256,192,70669,1,12,0:0:0:0:
256,192,70825,1,4,0:0:0:0:
256,192,70981,1,4,0:0:0:0:
256,192,71137,1,12,0:0:0:0:
256,192,71450,1,0,0:0:0:0:
256,192,71606,1,8,0:0:0:0:
256,192,71762,1,0,0:0:0:0:
256,192,71840,1,0,0:0:0:0:
256,192,71919,1,8,0:0:0:0:
256,192,72075,1,8,0:0:0:0:
256,192,72231,1,8,0:0:0:0:
256,192,72387,1,4,0:0:0:0:
256,192,72700,1,0,0:0:0:0:
256,192,72856,1,8,0:0:0:0:
256,192,73169,1,0,0:0:0:0:
256,192,73325,1,0,0:0:0:0:
256,192,73481,1,8,0:0:0:0:
256,192,73637,1,4,0:0:0:0:
256,192,73950,1,0,0:0:0:0:
256,192,74106,1,8,0:0:0:0:
256,192,74419,1,0,0:0:0:0:
256,192,74575,1,0,0:0:0:0:
256,192,74731,1,8,0:0:0:0:
256,192,74887,1,0,0:0:0:0:
256,192,75044,1,12,0:0:0:0:
256,192,75200,1,8,0:0:0:0:
256,192,75278,1,0,0:0:0:0:
256,192,75356,1,8,0:0:0:0:
256,192,75512,1,0,0:0:0:0:
256,192,75669,1,12,0:0:0:0:
256,192,75825,1,12,0:0:0:0:
256,192,75981,1,4,0:0:0:0:
256,192,76137,1,12,0:0:0:0:
256,192,76450,1,8,0:0:0:0:
256,192,76606,1,0,0:0:0:0:
256,192,76762,1,0,0:0:0:0:
256,192,76840,1,0,0:0:0:0:
256,192,76919,1,8,0:0:0:0:
256,192,77075,1,0,0:0:0:0:
256,192,77231,1,8,0:0:0:0:
256,192,77387,1,4,0:0:0:0:
256,192,77700,1,0,0:0:0:0:
256,192,77856,1,8,0:0:0:0:
256,192,78169,1,0,0:0:0:0:
256,192,78325,1,0,0:0:0:0:
256,192,78481,1,8,0:0:0:0:
256,192,78637,1,4,0:0:0:0:
256,192,78950,1,0,0:0:0:0:
256,192,79106,1,8,0:0:0:0:
256,192,79262,1,0,0:0:0:0:
256,192,79340,1,0,0:0:0:0:
256,192,79419,1,8,0:0:0:0:
256,192,79497,1,8,0:0:0:0:
256,192,79575,1,8,0:0:0:0:
256,192,79653,1,8,0:0:0:0:
256,192,79731,1,0,0:0:0:0:
256,192,79809,1,0,0:0:0:0:
256,192,79887,1,8,0:0:0:0:
256,192,80044,1,12,0:0:0:0:
256,192,80200,1,0,0:0:0:0:
256,192,80356,1,8,0:0:0:0:
256,192,80434,1,0,0:0:0:0:
256,192,80512,1,0,0:0:0:0:
256,192,80590,1,0,0:0:0:0:
256,192,80669,1,8,0:0:0:0:
256,192,80825,1,0,0:0:0:0:
256,192,80981,1,8,0:0:0:0:
256,192,81059,1,8,0:0:0:0:
256,192,81137,1,0,0:0:0:0:
256,192,81294,1,12,0:0:0:0:
256,192,81450,1,0,0:0:0:0:
256,192,81606,1,8,0:0:0:0:
256,192,81684,1,0,0:0:0:0:
256,192,81762,1,0,0:0:0:0:
256,192,81840,1,0,0:0:0:0:
256,192,81919,1,8,0:0:0:0:
256,192,82075,1,0,0:0:0:0:
256,192,82231,1,8,0:0:0:0:
256,192,82309,1,0,0:0:0:0:
256,192,82387,1,0,0:0:0:0:
256,192,82544,1,4,0:0:0:0:
256,192,82700,1,0,0:0:0:0:
256,192,82778,1,0,0:0:0:0:
256,192,82856,1,8,0:0:0:0:
256,192,83012,1,4,0:0:0:0:
256,192,83169,1,0,0:0:0:0:
256,192,83247,1,0,0:0:0:0:
256,192,83325,1,0,0:0:0:0:
256,192,83481,1,12,0:0:0:0:
256,192,83794,1,8,0:0:0:0:
256,192,83950,1,0,0:0:0:0:
256,192,84028,1,0,0:0:0:0:
256,192,84106,1,8,0:0:0:0:
256,192,84262,1,8,0:0:0:0:
256,192,84419,1,0,0:0:0:0:
256,192,84575,1,0,0:0:0:0:
256,192,84653,1,0,0:0:0:0:
256,192,84731,1,8,0:0:0:0:
256,192,84887,1,0,0:0:0:0:
256,192,85044,1,12,0:0:0:0:
256,192,85200,1,0,0:0:0:0:
256,192,85356,1,8,0:0:0:0:
256,192,85434,1,8,0:0:0:0:
256,192,85512,1,0,0:0:0:0:
256,192,85590,1,0,0:0:0:0:
256,192,85669,1,8,0:0:0:0:
256,192,85825,1,0,0:0:0:0:
256,192,85981,1,8,0:0:0:0:
256,192,86059,1,8,0:0:0:0:
256,192,86137,1,0,0:0:0:0:
256,192,86294,1,12,0:0:0:0:
256,192,86450,1,0,0:0:0:0:
256,192,86606,1,8,0:0:0:0:
256,192,86684,1,8,0:0:0:0:
256,192,86762,1,0,0:0:0:0:
256,192,86840,1,0,0:0:0:0:
256,192,86919,1,8,0:0:0:0:
256,192,87075,1,0,0:0:0:0:
256,192,87231,1,8,0:0:0:0:
256,192,87309,1,0,0:0:0:0:
256,192,87387,1,0,0:0:0:0:
256,192,87544,1,4,0:0:0:0:
256,192,88012,1,12,0:0:0:0:
256,192,88481,1,4,0:0:0:0:
256,192,88950,1,0,0:0:0:0:
256,192,89028,1,0,0:0:0:0:
256,192,89106,1,8,0:0:0:0:
256,192,89184,1,8,0:0:0:0:
256,192,89262,1,0,0:0:0:0:
256,192,89340,1,0,0:0:0:0:
256,192,89419,1,8,0:0:0:0:
256,192,89497,1,8,0:0:0:0:
256,192,89575,1,0,0:0:0:0:
256,192,89653,1,0,0:0:0:0:
256,192,89731,1,8,0:0:0:0:
256,192,89809,1,0,0:0:0:0:
256,192,89887,1,8,0:0:0:0:
256,192,89965,1,8,0:0:0:0:
256,192,90044,1,0,0:0:0:0:
256,192,90200,1,0,0:0:0:0:
256,192,90356,1,8,0:0:0:0:
256,192,90512,1,0,0:0:0:0:
256,192,90590,1,0,0:0:0:0:
256,192,90669,1,0,0:0:0:0:
256,192,90825,1,0,0:0:0:0:
256,192,90981,1,8,0:0:0:0:
256,192,91137,1,0,0:0:0:0:
256,192,91215,1,0,0:0:0:0:
256,192,91294,1,0,0:0:0:0:
256,192,91450,1,0,0:0:0:0:
256,192,91606,1,8,0:0:0:0:
256,192,91762,1,0,0:0:0:0:
256,192,91840,1,0,0:0:0:0:
256,192,91919,1,8,0:0:0:0:
256,192,92075,1,8,0:0:0:0:
256,192,92231,1,8,0:0:0:0:
256,192,92387,1,8,0:0:0:0:
256,192,92544,1,0,0:0:0:0:
256,192,92700,1,0,0:0:0:0:
256,192,92856,1,8,0:0:0:0:
256,192,93012,1,0,0:0:0:0:
256,192,93090,1,0,0:0:0:0:
256,192,93169,1,0,0:0:0:0:
256,192,93325,1,0,0:0:0:0:
256,192,93481,1,8,0:0:0:0:
256,192,93637,1,0,0:0:0:0:
256,192,93715,1,0,0:0:0:0:
256,192,93794,1,0,0:0:0:0:
256,192,93950,1,0,0:0:0:0:
256,192,94106,1,8,0:0:0:0:
256,192,94262,1,0,0:0:0:0:
256,192,94340,1,0,0:0:0:0:
256,192,94419,1,8,0:0:0:0:
256,192,94575,1,0,0:0:0:0:
256,192,94731,1,8,0:0:0:0:
256,192,94887,1,8,0:0:0:0:
256,192,95044,1,0,0:0:0:0:
256,192,95200,1,0,0:0:0:0:
256,192,95356,1,8,0:0:0:0:
256,192,95512,1,0,0:0:0:0:
256,192,95590,1,0,0:0:0:0:
256,192,95669,1,0,0:0:0:0:
256,192,95825,1,0,0:0:0:0:
256,192,95981,1,8,0:0:0:0:
256,192,96137,1,0,0:0:0:0:
256,192,96215,1,0,0:0:0:0:
256,192,96294,1,0,0:0:0:0:
256,192,96450,1,0,0:0:0:0:
256,192,96606,1,8,0:0:0:0:
256,192,96762,1,0,0:0:0:0:
256,192,96840,1,0,0:0:0:0:
256,192,96919,1,8,0:0:0:0:
256,192,97075,1,8,0:0:0:0:
256,192,97231,1,8,0:0:0:0:
256,192,97387,1,8,0:0:0:0:
256,192,97544,1,0,0:0:0:0:
256,192,97700,1,0,0:0:0:0:
256,192,97856,1,8,0:0:0:0:
256,192,98012,1,8,0:0:0:0:
256,192,98090,1,0,0:0:0:0:
256,192,98169,1,0,0:0:0:0:
256,192,98325,1,0,0:0:0:0:
256,192,98481,1,8,0:0:0:0:
256,192,98637,1,0,0:0:0:0:
256,192,98715,1,8,0:0:0:0:
256,192,98794,1,0,0:0:0:0:
256,192,98950,1,0,0:0:0:0:
256,192,99106,1,8,0:0:0:0:
256,192,99210,1,8,0:0:0:0:
256,192,99314,1,0,0:0:0:0:
256,192,99419,1,8,0:0:0:0:
256,192,99523,1,0,0:0:0:0:
256,192,99627,1,0,0:0:0:0:
256,192,99731,1,8,0:0:0:0:
256,192,99887,1,0,0:0:0:0:
256,192,100044,1,8,0:0:0:0:
256,192,100122,1,8,0:0:0:0:
256,192,100200,1,0,0:0:0:0:
256,192,100278,1,0,0:0:0:0:
256,192,100356,1,8,0:0:0:0:
256,192,100512,1,0,0:0:0:0:
256,192,100825,1,0,0:0:0:0:
256,192,100903,1,0,0:0:0:0:
256,192,100981,1,8,0:0:0:0:
256,192,101137,1,0,0:0:0:0:
256,192,101294,1,8,0:0:0:0:
256,192,101372,1,0,0:0:0:0:
256,192,101450,1,0,0:0:0:0:
256,192,101528,1,0,0:0:0:0:
256,192,101606,1,8,0:0:0:0:
256,192,101762,1,0,0:0:0:0:
256,192,101919,1,8,0:0:0:0:
256,192,101997,1,8,0:0:0:0:
256,192,102075,1,0,0:0:0:0:
256,192,102153,1,0,0:0:0:0:
256,192,102231,1,8,0:0:0:0:
256,192,102387,1,0,0:0:0:0:
256,192,102544,1,8,0:0:0:0:
256,192,102622,1,0,0:0:0:0:
256,192,102700,1,0,0:0:0:0:
256,192,102778,1,0,0:0:0:0:
256,192,102856,1,8,0:0:0:0:
256,192,103012,1,0,0:0:0:0:
256,192,103325,1,0,0:0:0:0:
256,192,103403,1,0,0:0:0:0:
256,192,103481,1,8,0:0:0:0:
256,192,103637,1,0,0:0:0:0:
256,192,103794,1,8,0:0:0:0:
256,192,103872,1,8,0:0:0:0:
256,192,103950,1,0,0:0:0:0:
256,192,104028,1,0,0:0:0:0:
256,192,104106,1,8,0:0:0:0:
256,192,104262,1,0,0:0:0:0:
256,192,104419,1,8,0:0:0:0:
256,192,104497,1,0,0:0:0:0:
256,192,104575,1,0,0:0:0:0:
256,192,104653,1,0,0:0:0:0:
256,192,104731,1,8,0:0:0:0:
256,192,104887,1,0,0:0:0:0:
256,192,105044,1,0,0:0:0:0:
256,192,105122,1,8,0:0:0:0:
256,192,105200,1,0,0:0:0:0:
256,192,105278,1,0,0:0:0:0:
256,192,105356,1,8,0:0:0:0:
256,192,105512,1,0,0:0:0:0:
256,192,105825,1,0,0:0:0:0:
256,192,105903,1,0,0:0:0:0:
256,192,105981,1,8,0:0:0:0:
256,192,106137,1,0,0:0:0:0:
256,192,106294,1,8,0:0:0:0:
256,192,106372,1,8,0:0:0:0:
256,192,106450,1,0,0:0:0:0:
256,192,106528,1,0,0:0:0:0:
256,192,106606,1,8,0:0:0:0:
256,192,106762,1,0,0:0:0:0:
256,192,106919,1,0,0:0:0:0:
256,192,106997,1,8,0:0:0:0:
256,192,107075,1,0,0:0:0:0:
256,192,107153,1,0,0:0:0:0:
256,192,107231,1,8,0:0:0:0:
256,192,107387,1,0,0:0:0:0:
256,192,107544,1,8,0:0:0:0:
256,192,107622,1,0,0:0:0:0:
256,192,107700,1,8,0:0:0:0:
256,192,107778,1,0,0:0:0:0:
256,192,107856,1,8,0:0:0:0:
256,192,108012,1,0,0:0:0:0:
256,192,108325,1,0,0:0:0:0:
256,192,108403,1,0,0:0:0:0:
256,192,108481,1,8,0:0:0:0:
256,192,108637,1,0,0:0:0:0:
256,192,108794,1,8,0:0:0:0:
256,192,108872,1,8,0:0:0:0:
256,192,108950,1,0,0:0:0:0:
256,192,109028,1,0,0:0:0:0:
256,192,109106,1,8,0:0:0:0:
256,192,109262,1,0,0:0:0:0:
256,192,109419,1,8,0:0:0:0:
256,192,109575,1,0,0:0:0:0:
256,192,109653,1,0,0:0:0:0:
256,192,109731,1,8,0:0:0:0:
256,192,109887,1,0,0:0:0:0:
256,192,109965,1,0,0:0:0:0:
256,192,110044,1,8,0:0:0:0:
256,192,110122,1,8,0:0:0:0:
256,192,110200,1,8,0:0:0:0:
256,192,110278,1,0,0:0:0:0:
256,192,110356,1,8,0:0:0:0:
256,192,110434,1,8,0:0:0:0:
256,192,110512,1,8,0:0:0:0:
256,192,110590,1,0,0:0:0:0:
256,192,110669,1,8,0:0:0:0:
256,192,110747,1,8,0:0:0:0:
256,192,110825,1,8,0:0:0:0:
256,192,110903,1,0,0:0:0:0:
256,192,110981,1,8,0:0:0:0:
256,192,111059,1,0,0:0:0:0:
256,192,111137,1,8,0:0:0:0:
256,192,111215,1,0,0:0:0:0:
256,192,111294,1,8,0:0:0:0:
256,192,111372,1,8,0:0:0:0:
256,192,111450,1,0,0:0:0:0:
256,192,111528,1,0,0:0:0:0:
256,192,111606,1,8,0:0:0:0:
256,192,111684,1,8,0:0:0:0:
256,192,111762,1,0,0:0:0:0:
256,192,111840,1,0,0:0:0:0:
256,192,111919,1,8,0:0:0:0:
256,192,111997,1,8,0:0:0:0:
256,192,112075,1,0,0:0:0:0:
256,192,112153,1,0,0:0:0:0:
256,192,112231,1,8,0:0:0:0:
256,192,112309,1,0,0:0:0:0:
256,192,112387,1,8,0:0:0:0:
256,192,112465,1,0,0:0:0:0:
256,192,112544,1,8,0:0:0:0:
256,192,112622,1,8,0:0:0:0:
256,192,112700,1,0,0:0:0:0:
256,192,112778,1,0,0:0:0:0:
256,192,112856,1,8,0:0:0:0:
256,192,112934,1,0,0:0:0:0:
256,192,113012,1,0,0:0:0:0:
256,192,113090,1,0,0:0:0:0:
256,192,113169,1,8,0:0:0:0:
256,192,113247,1,0,0:0:0:0:
256,192,113325,1,0,0:0:0:0:
256,192,113403,1,0,0:0:0:0:
256,192,113481,1,8,0:0:0:0:
256,192,113559,1,0,0:0:0:0:
256,192,113637,1,8,0:0:0:0:
256,192,113715,1,0,0:0:0:0:
256,192,113794,1,8,0:0:0:0:
256,192,113872,1,8,0:0:0:0:
256,192,113950,1,0,0:0:0:0:
256,192,114028,1,0,0:0:0:0:
256,192,114106,1,8,0:0:0:0:
256,192,114184,1,0,0:0:0:0:
256,192,114262,1,0,0:0:0:0:
256,192,114340,1,0,0:0:0:0:
256,192,114419,1,8,0:0:0:0:
256,192,114497,1,8,0:0:0:0:
256,192,114575,1,0,0:0:0:0:
256,192,114653,1,0,0:0:0:0:
256,192,114731,1,8,0:0:0:0:
256,192,114809,1,0,0:0:0:0:
256,192,114887,1,0,0:0:0:0:
256,192,114965,1,0,0:0:0:0:
256,192,115044,1,8,0:0:0:0:
256,192,115122,1,8,0:0:0:0:
256,192,115200,1,8,0:0:0:0:
256,192,115278,1,0,0:0:0:0:
256,192,115356,1,8,0:0:0:0:
256,192,115434,1,8,0:0:0:0:
256,192,115512,1,8,0:0:0:0:
256,192,115590,1,0,0:0:0:0:
256,192,115669,1,8,0:0:0:0:
256,192,115747,1,8,0:0:0:0:
256,192,115825,1,8,0:0:0:0:
256,192,115903,1,0,0:0:0:0:
256,192,115981,1,8,0:0:0:0:
256,192,116059,1,0,0:0:0:0:
256,192,116137,1,8,0:0:0:0:
256,192,116215,1,0,0:0:0:0:
256,192,116294,1,8,0:0:0:0:
256,192,116372,1,8,0:0:0:0:
256,192,116450,1,0,0:0:0:0:
256,192,116528,1,0,0:0:0:0:
256,192,116606,1,8,0:0:0:0:
256,192,116684,1,8,0:0:0:0:
256,192,116762,1,0,0:0:0:0:
256,192,116840,1,0,0:0:0:0:
256,192,116919,1,8,0:0:0:0:
256,192,116997,1,8,0:0:0:0:
256,192,117075,1,0,0:0:0:0:
256,192,117153,1,0,0:0:0:0:
256,192,117231,1,8,0:0:0:0:
256,192,117309,1,0,0:0:0:0:
256,192,117387,1,8,0:0:0:0:
256,192,117465,1,0,0:0:0:0:
256,192,117544,1,8,0:0:0:0:
256,192,117622,1,8,0:0:0:0:
256,192,117700,1,0,0:0:0:0:
256,192,117778,1,0,0:0:0:0:
256,192,117856,1,8,0:0:0:0:
256,192,117934,1,0,0:0:0:0:
256,192,118012,1,0,0:0:0:0:
256,192,118090,1,0,0:0:0:0:
256,192,118169,1,8,0:0:0:0:
256,192,118247,1,0,0:0:0:0:
256,192,118325,1,0,0:0:0:0:
256,192,118403,1,0,0:0:0:0:
256,192,118481,1,8,0:0:0:0:
256,192,118559,1,0,0:0:0:0:
256,192,118637,1,8,0:0:0:0:
256,192,118715,1,0,0:0:0:0:
256,192,118794,1,8,0:0:0:0:
256,192,118872,1,8,0:0:0:0:
256,192,118950,1,0,0:0:0:0:
256,192,119028,1,0,0:0:0:0:
256,192,119106,1,8,0:0:0:0:
256,192,119184,1,0,0:0:0:0:
256,192,119262,1,0,0:0:0:0:
256,192,119340,1,0,0:0:0:0:
256,192,119419,1,8,0:0:0:0:
256,192,119497,1,8,0:0:0:0:
256,192,119575,1,0,0:0:0:0:
256,192,119653,1,0,0:0:0:0:
256,192,119731,1,8,0:0:0:0:
256,192,119809,1,0,0:0:0:0:
256,192,119887,1,0,0:0:0:0:
256,192,120044,1,12,0:0:0:0:
256,192,120200,1,0,0:0:0:0:
256,192,120278,1,0,0:0:0:0:
256,192,120356,1,8,0:0:0:0:
256,192,120512,1,0,0:0:0:0:
256,192,120669,1,12,0:0:0:0:
256,192,120825,1,4,0:0:0:0:
256,192,120981,1,4,0:0:0:0:
256,192,121137,1,12,0:0:0:0:
256,192,121450,1,0,0:0:0:0:
256,192,121606,1,8,0:0:0:0:
256,192,121762,1,0,0:0:0:0:
256,192,121840,1,0,0:0:0:0:
256,192,121919,1,8,0:0:0:0:
256,192,122075,1,8,0:0:0:0:
256,192,122231,1,8,0:0:0:0:
256,192,122387,1,4,0:0:0:0:
256,192,122700,1,0,0:0:0:0:
256,192,122856,1,8,0:0:0:0:
256,192,123169,1,0,0:0:0:0:
256,192,123325,1,0,0:0:0:0:
256,192,123481,1,8,0:0:0:0:
256,192,123637,1,4,0:0:0:0:
256,192,123950,1,0,0:0:0:0:
256,192,124106,1,8,0:0:0:0:
256,192,124419,1,0,0:0:0:0:
256,192,124575,1,0,0:0:0:0:
256,192,124731,1,8,0:0:0:0:
256,192,124887,1,0,0:0:0:0:
256,192,125044,1,12,0:0:0:0:
256,192,125200,1,8,0:0:0:0:
256,192,125278,1,0,0:0:0:0:
256,192,125356,1,8,0:0:0:0:
256,192,125512,1,0,0:0:0:0:
256,192,125669,1,12,0:0:0:0:
256,192,125825,1,12,0:0:0:0:
256,192,125981,1,4,0:0:0:0:
256,192,126137,1,12,0:0:0:0:
256,192,126450,1,8,0:0:0:0:
256,192,126606,1,0,0:0:0:0:
256,192,126762,1,0,0:0:0:0:
256,192,126840,1,0,0:0:0:0:
256,192,126919,1,8,0:0:0:0:
256,192,127075,1,0,0:0:0:0:
256,192,127231,1,8,0:0:0:0:
256,192,127387,1,4,0:0:0:0:
256,192,127700,1,0,0:0:0:0:
256,192,127856,1,8,0:0:0:0:
256,192,128169,1,0,0:0:0:0:
256,192,128325,1,0,0:0:0:0:
256,192,128481,1,8,0:0:0:0:
256,192,128637,1,4,0:0:0:0:
256,192,128950,1,0,0:0:0:0:
256,192,129106,1,8,0:0:0:0:
256,192,129262,1,0,0:0:0:0:
256,192,129340,1,0,0:0:0:0:
256,192,129419,1,8,0:0:0:0:
256,192,129497,1,8,0:0:0:0:
256,192,129575,1,0,0:0:0:0:
256,192,129653,1,0,0:0:0:0:
256,192,129731,1,8,0:0:0:0:
256,192,129809,1,8,0:0:0:0:
256,192,129887,1,8,0:0:0:0:
256,192,130044,1,4,0:0:0:0:
256,192,130200,1,0,0:0:0:0:
256,192,130278,1,0,0:0:0:0:
256,192,130356,1,8,0:0:0:0:
256,192,130512,1,4,0:0:0:0:
256,192,130825,1,0,0:0:0:0:
256,192,130981,1,8,0:0:0:0:
256,192,131137,1,4,0:0:0:0:
256,192,131450,1,0,0:0:0:0:
256,192,131528,1,0,0:0:0:0:
256,192,131606,1,8,0:0:0:0:
256,192,131762,1,12,0:0:0:0:
256,192,132075,1,0,0:0:0:0:
256,192,132231,1,8,0:0:0:0:
256,192,132387,1,0,0:0:0:0:
256,192,132465,1,0,0:0:0:0:
256,192,132544,1,8,0:0:0:0:
256,192,132622,1,8,0:0:0:0:
256,192,132700,1,0,0:0:0:0:
256,192,132778,1,0,0:0:0:0:
256,192,132856,1,8,0:0:0:0:
256,192,132934,1,8,0:0:0:0:
256,192,133012,1,0,0:0:0:0:
256,192,133090,1,0,0:0:0:0:
256,192,133169,1,8,0:0:0:0:
256,192,133247,1,0,0:0:0:0:
256,192,133325,1,8,0:0:0:0:
256,192,133403,1,0,0:0:0:0:
256,192,133481,1,8,0:0:0:0:
256,192,133559,1,8,0:0:0:0:
256,192,133637,1,0,0:0:0:0:
256,192,133715,1,0,0:0:0:0:
256,192,133794,1,8,0:0:0:0:
256,192,133872,1,0,0:0:0:0:
256,192,133950,1,8,0:0:0:0:
256,192,134028,1,0,0:0:0:0:
256,192,134106,1,8,0:0:0:0:
256,192,134184,1,8,0:0:0:0:
256,192,134262,1,0,0:0:0:0:
256,192,134340,1,0,0:0:0:0:
256,192,134419,1,8,0:0:0:0:
256,192,134497,1,0,0:0:0:0:
256,192,134575,1,0,0:0:0:0:
256,192,134653,1,0,0:0:0:0:
256,192,134731,1,8,0:0:0:0:
256,192,134809,1,8,0:0:0:0:
256,192,134887,1,0,0:0:0:0:
256,192,135044,1,4,0:0:0:0:
256,192,135200,1,0,0:0:0:0:
256,192,135278,1,0,0:0:0:0:
256,192,135356,1,8,0:0:0:0:
256,192,135512,1,4,0:0:0:0:
256,192,135825,1,0,0:0:0:0:
256,192,135981,1,8,0:0:0:0:
256,192,136137,1,4,0:0:0:0:
256,192,136450,1,0,0:0:0:0:
256,192,136528,1,0,0:0:0:0:
256,192,136606,1,8,0:0:0:0:
256,192,136762,1,12,0:0:0:0:
256,192,137075,1,0,0:0:0:0:
256,192,137231,1,8,0:0:0:0:
256,192,137387,1,0,0:0:0:0:
256,192,137544,1,12,0:0:0:0:
256,192,137700,1,4,0:0:0:0:
256,192,137856,1,12,0:0:0:0:
256,192,138012,1,4,0:0:0:0:
256,192,138169,1,12,0:0:0:0:
256,192,138325,1,12,0:0:0:0:
256,192,138481,1,4,0:0:0:0:
256,192,138637,1,4,0:0:0:0:
256,192,138794,1,12,0:0:0:0:
256,192,138950,1,4,0:0:0:0:
256,192,139106,1,12,0:0:0:0:
256,192,139262,1,4,0:0:0:0:
256,192,139419,1,8,0:0:0:0:
256,192,139497,1,8,0:0:0:0:
256,192,139575,1,0,0:0:0:0:
256,192,139653,1,0,0:0:0:0:
256,192,139731,1,8,0:0:0:0:
256,192,139809,1,0,0:0:0:0:
256,192,139887,1,8,0:0:0:0:
256,192,139965,1,8,0:0:0:0:
256,192,140044,1,0,0:0:0:0:
256,192,140356,1,8,0:0:0:0:
256,192,140669,1,0,0:0:0:0:
256,192,140825,1,0,0:0:0:0:
256,192,140981,1,8,0:0:0:0:
256,192,141294,1,0,0:0:0:0:
256,192,141450,1,0,0:0:0:0:
256,192,141606,1,8,0:0:0:0:
256,192,141762,1,0,0:0:0:0:
256,192,141919,1,0,0:0:0:0:
256,192,142075,1,0,0:0:0:0:
256,192,142231,1,8,0:0:0:0:
256,192,142544,1,0,0:0:0:0:
256,192,142856,1,8,0:0:0:0:
256,192,143169,1,0,0:0:0:0:
256,192,143325,1,0,0:0:0:0:
256,192,143481,1,8,0:0:0:0:
256,192,143637,1,0,0:0:0:0:
256,192,143794,1,8,0:0:0:0:
256,192,143872,1,0,0:0:0:0:
256,192,143950,1,0,0:0:0:0:
256,192,144106,1,8,0:0:0:0:
256,192,144262,1,0,0:0:0:0:
256,192,144340,1,0,0:0:0:0:
256,192,144419,1,8,0:0:0:0:
256,192,144575,1,0,0:0:0:0:
256,192,144731,1,8,0:0:0:0:
256,192,144809,1,0,0:0:0:0:
256,192,144887,1,8,0:0:0:0:
256,192,145044,1,0,0:0:0:0:
256,192,145356,1,8,0:0:0:0:
256,192,145669,1,0,0:0:0:0:
256,192,145825,1,0,0:0:0:0:
256,192,145981,1,8,0:0:0:0:
256,192,146294,1,0,0:0:0:0:
256,192,146450,1,0,0:0:0:0:
256,192,146606,1,8,0:0:0:0:
256,192,146762,1,0,0:0:0:0:
256,192,146919,1,0,0:0:0:0:
256,192,147075,1,0,0:0:0:0:
256,192,147231,1,8,0:0:0:0:
256,192,147544,1,0,0:0:0:0:
256,192,147856,1,8,0:0:0:0:
256,192,148169,1,0,0:0:0:0:
256,192,148325,1,0,0:0:0:0:
256,192,148481,1,8,0:0:0:0:
256,192,148637,1,8,0:0:0:0:
256,192,148794,1,0,0:0:0:0:
256,192,148872,1,0,0:0:0:0:
256,192,148950,1,8,0:0:0:0:
256,192,149028,1,8,0:0:0:0:
256,192,149106,1,8,0:0:0:0:
256,192,149184,1,8,0:0:0:0:
256,192,149262,1,0,0:0:0:0:
256,192,149340,1,0,0:0:0:0:
256,192,149419,1,8,0:0:0:0:
256,192,149497,1,8,0:0:0:0:
256,192,149575,1,0,0:0:0:0:
256,192,149653,1,0,0:0:0:0:
256,192,149731,1,8,0:0:0:0:
256,192,149809,1,0,0:0:0:0:
256,192,149887,1,0,0:0:0:0:
256,192,150044,1,12,0:0:0:0:
256,192,150200,1,0,0:0:0:0:
256,192,150356,1,8,0:0:0:0:
256,192,150434,1,0,0:0:0:0:
256,192,150512,1,0,0:0:0:0:
256,192,150590,1,0,0:0:0:0:
256,192,150669,1,8,0:0:0:0:
256,192,150825,1,0,0:0:0:0:
256,192,150981,1,8,0:0:0:0:
256,192,151059,1,8,0:0:0:0:
256,192,151137,1,0,0:0:0:0:
256,192,151294,1,12,0:0:0:0:
256,192,151450,1,0,0:0:0:0:
256,192,151606,1,8,0:0:0:0:
256,192,151684,1,0,0:0:0:0:
256,192,151762,1,0,0:0:0:0:
256,192,151840,1,0,0:0:0:0:
256,192,151919,1,8,0:0:0:0:
256,192,152075,1,0,0:0:0:0:
256,192,152231,1,8,0:0:0:0:
256,192,152309,1,0,0:0:0:0:
256,192,152387,1,0,0:0:0:0:
256,192,152544,1,4,0:0:0:0:
256,192,152700,1,0,0:0:0:0:
256,192,152778,1,0,0:0:0:0:
256,192,152856,1,8,0:0:0:0:
256,192,153012,1,4,0:0:0:0:
256,192,153169,1,0,0:0:0:0:
256,192,153247,1,0,0:0:0:0:
256,192,153325,1,0,0:0:0:0:
256,192,153481,1,12,0:0:0:0:
256,192,153794,1,8,0:0:0:0:
256,192,153950,1,0,0:0:0:0:
256,192,154028,1,0,0:0:0:0:
256,192,154106,1,8,0:0:0:0:
256,192,154262,1,8,0:0:0:0:
256,192,154419,1,0,0:0:0:0:
256,192,154575,1,0,0:0:0:0:
256,192,154653,1,0,0:0:0:0:
256,192,154731,1,8,0:0:0:0:
256,192,154887,1,0,0:0:0:0:
256,192,155044,1,12,0:0:0:0:
256,192,155200,1,0,0:0:0:0:
256,192,155356,1,8,0:0:0:0:
256,192,155434,1,8,0:0:0:0:
256,192,155512,1,0,0:0:0:0:
256,192,155590,1,0,0:0:0:0:
256,192,155669,1,8,0:0:0:0:
256,192,155825,1,0,0:0:0:0:
256,192,155981,1,8,0:0:0:0:
256,192,156059,1,8,0:0:0:0:
256,192,156137,1,0,0:0:0:0:
256,192,156294,1,12,0:0:0:0:
256,192,156450,1,0,0:0:0:0:
256,192,156606,1,8,0:0:0:0:
256,192,156684,1,8,0:0:0:0:
256,192,156762,1,0,0:0:0:0:
256,192,156840,1,0,0:0:0:0:
256,192,156919,1,8,0:0:0:0:
256,192,157075,1,0,0:0:0:0:
256,192,157231,1,8,0:0:0:0:
256,192,157309,1,0,0:0:0:0:
256,192,157387,1,0,0:0:0:0:
256,192,157544,1,4,0:0:0:0:
256,192,157700,1,0,0:0:0:0:
256,192,157778,1,0,0:0:0:0:
256,192,157856,1,8,0:0:0:0:
256,192,158012,1,4,0:0:0:0:
256,192,158169,1,0,0:0:0:0:
256,192,158247,1,0,0:0:0:0:
256,192,158325,1,0,0:0:0:0:
256,192,158481,1,12,0:0:0:0:
256,192,158794,1,8,0:0:0:0:
256,192,158950,1,0,0:0:0:0:
256,192,159028,1,0,0:0:0:0:
256,192,159106,1,8,0:0:0:0:
256,192,159262,1,8,0:0:0:0:
256,192,159419,1,0,0:0:0:0:
256,192,159575,1,0,0:0:0:0:
256,192,159653,1,0,0:0:0:0:
256,192,159731,1,8,0:0:0:0:
256,192,159887,1,0,0:0:0:0:
256,192,160044,1,12,0:0:0:0:
256,192,160200,1,0,0:0:0:0:
256,192,160356,1,8,0:0:0:0:
256,192,160434,1,0,0:0:0:0:
256,192,160512,1,0,0:0:0:0:
256,192,160590,1,0,0:0:0:0:
256,192,160669,1,8,0:0:0:0:
256,192,160825,1,0,0:0:0:0:
256,192,160981,1,8,0:0:0:0:
256,192,161059,1,8,0:0:0:0:
256,192,161137,1,0,0:0:0:0:
256,192,161294,1,12,0:0:0:0:
256,192,161450,1,0,0:0:0:0:
256,192,161606,1,8,0:0:0:0:
256,192,161684,1,8,0:0:0:0:
256,192,161762,1,0,0:0:0:0:
256,192,161840,1,0,0:0:0:0:
256,192,161919,1,8,0:0:0:0:
256,192,162075,1,0,0:0:0:0:
256,192,162231,1,8,0:0:0:0:
256,192,162309,1,0,0:0:0:0:
256,192,162387,1,0,0:0:0:0:
256,192,162544,1,4,0:0:0:0:
256,192,162700,1,0,0:0:0:0:
256,192,162778,1,0,0:0:0:0:
256,192,162856,1,8,0:0:0:0:
256,192,163012,1,4,0:0:0:0:
256,192,163169,1,0,0:0:0:0:
256,192,163247,1,0,0:0:0:0:
256,192,163325,1,0,0:0:0:0:
256,192,163481,1,12,0:0:0:0:
256,192,163794,1,8,0:0:0:0:
256,192,163950,1,0,0:0:0:0:
256,192,164028,1,0,0:0:0:0:
256,192,164106,1,8,0:0:0:0:
256,192,164184,1,0,0:0:0:0:
256,192,164262,1,8,0:0:0:0:
256,192,164419,1,0,0:0:0:0:
256,192,164575,1,0,0:0:0:0:
256,192,164653,1,0,0:0:0:0:
256,192,164731,1,8,0:0:0:0:
256,192,164887,1,0,0:0:0:0:
256,192,165044,1,12,0:0:0:0:
256,192,165200,1,0,0:0:0:0:
256,192,165356,1,8,0:0:0:0:
256,192,165434,1,8,0:0:0:0:
256,192,165512,1,0,0:0:0:0:
256,192,165590,1,0,0:0:0:0:
256,192,165669,1,8,0:0:0:0:
256,192,165825,1,0,0:0:0:0:
256,192,165981,1,8,0:0:0:0:
256,192,166059,1,8,0:0:0:0:
256,192,166137,1,0,0:0:0:0:
256,192,166294,1,12,0:0:0:0:
256,192,166450,1,0,0:0:0:0:
256,192,166606,1,8,0:0:0:0:
256,192,166684,1,0,0:0:0:0:
256,192,166762,1,0,0:0:0:0:
256,192,166840,1,0,0:0:0:0:
256,192,166919,1,8,0:0:0:0:
256,192,167075,1,0,0:0:0:0:
256,192,167231,1,8,0:0:0:0:
256,192,167309,1,0,0:0:0:0:
256,192,167387,1,0,0:0:0:0:
256,192,167544,1,12,0:0:0:0:
256,192,167700,1,0,0:0:0:0:
256,192,167778,1,0,0:0:0:0:
256,192,167856,1,0,0:0:0:0:
256,192,168012,1,12,0:0:0:0:
256,192,168169,1,0,0:0:0:0:
256,192,168247,1,0,0:0:0:0:
256,192,168325,1,0,0:0:0:0:
256,192,168481,1,12,0:0:0:0:
256,192,168794,1,0,0:0:0:0:
256,192,168950,1,0,0:0:0:0:
256,192,169028,1,0,0:0:0:0:
256,192,169106,1,8,0:0:0:0:
256,192,169184,1,0,0:0:0:0:
256,192,169262,1,8,0:0:0:0:
256,192,169419,1,0,0:0:0:0:
256,192,169575,1,0,0:0:0:0:
256,192,169653,1,0,0:0:0:0:
256,192,169731,1,8,0:0:0:0:
256,192,169887,1,0,0:0:0:0:
256,192,170044,1,8,0:0:0:0:
256,192,170148,1,0,0:0:0:0:
256,192,170252,1,0,0:0:0:0:
256,192,170356,1,8,0:0:0:0:
256,192,170460,1,0,0:0:0:0:
256,192,170564,1,0,0:0:0:0:
256,192,170669,1,8,0:0:0:0:
256,192,170981,1,8,0:0:0:0:
256,192,171085,1,8,0:0:0:0:
256,192,171189,1,0,0:0:0:0:
256,192,171294,1,8,0:0:0:0:
256,192,171398,1,0,0:0:0:0:
256,192,171502,1,0,0:0:0:0:
256,192,171606,1,8,0:0:0:0:
256,192,171919,1,8,0:0:0:0:
256,192,172023,1,8,0:0:0:0:
256,192,172127,1,8,0:0:0:0:
256,192,172231,1,8,0:0:0:0:
256,192,172544,1,8,0:0:0:0:
256,192,172646,1,8,0:0:0:0:
256,192,172749,1,8,0:0:0:0:
256,192,172851,1,8,0:0:0:0:
256,192,172954,1,8,0:0:0:0:
256,192,173056,1,8,0:0:0:0:
256,192,173159,1,8,0:0:0:0:
256,192,173261,1,0,0:0:0:0:
256,192,173313,1,0,0:0:0:0:
256,192,173364,1,0,0:0:0:0:
256,192,173467,1,8,0:0:0:0:
256,192,173569,1,0,0:0:0:0:
256,192,173620,1,0,0:0:0:0:
256,192,173672,1,0,0:0:0:0:
256,192,173774,1,8,0:0:0:0:
256,192,173879,1,0,0:0:0:0:
256,192,173932,1,0,0:0:0:0:
256,192,173985,1,0,0:0:0:0:
256,192,174091,1,8,0:0:0:0:
256,192,174197,1,0,0:0:0:0:
256,192,174303,1,0,0:0:0:0:
256,192,174408,1,8,0:0:0:0:
288,192,174461,1,8,0:0:0:0:
256,192,174514,1,0,0:0:0:0:
256,192,174620,1,0,0:0:0:0:
256,192,174726,1,8,0:0:0:0:
256,192,175043,5,0,0:0:0:0:
256,192,175148,1,0,0:0:0:0:
256,192,175252,1,0,0:0:0:0:
256,192,175356,1,0,0:0:0:0:
256,192,175460,1,0,0:0:0:0:
256,192,175564,1,0,0:0:0:0:
256,192,175669,1,8,0:0:0:0:
256,192,175981,1,0,0:0:0:0:
256,192,176085,1,0,0:0:0:0:
256,192,176189,1,0,0:0:0:0:
256,192,176294,1,0,0:0:0:0:
256,192,176398,1,0,0:0:0:0:
256,192,176502,1,0,0:0:0:0:
256,192,176606,1,8,0:0:0:0:
256,192,176919,1,8,0:0:0:0:
256,192,177023,1,0,0:0:0:0:
256,192,177127,1,0,0:0:0:0:
256,192,177231,1,8,0:0:0:0:
256,192,177544,1,0,0:0:0:0:
256,192,177648,1,0,0:0:0:0:
256,192,177752,1,0,0:0:0:0:
256,192,177856,1,0,0:0:0:0:
256,192,177960,1,0,0:0:0:0:
256,192,178064,1,0,0:0:0:0:
256,192,178169,1,8,0:0:0:0:
256,192,178481,1,0,0:0:0:0:
256,192,178585,1,0,0:0:0:0:
256,192,178689,1,0,0:0:0:0:
256,192,178794,1,0,0:0:0:0:
256,192,178898,1,0,0:0:0:0:
256,192,179002,1,0,0:0:0:0:
256,192,179106,1,8,0:0:0:0:
256,192,179419,1,8,0:0:0:0:
256,192,179523,1,0,0:0:0:0:
256,192,179627,1,0,0:0:0:0:
256,192,179731,1,8,0:0:0:0:
256,192,180044,1,8,0:0:0:0:
256,192,180148,1,0,0:0:0:0:
256,192,180252,1,0,0:0:0:0:
256,192,180356,1,0,0:0:0:0:
256,192,180460,1,0,0:0:0:0:
256,192,180564,1,0,0:0:0:0:
256,192,180669,1,8,0:0:0:0:
256,192,180981,1,8,0:0:0:0:
256,192,181085,1,0,0:0:0:0:
256,192,181189,1,0,0:0:0:0:
256,192,181294,1,8,0:0:0:0:
256,192,181398,1,0,0:0:0:0:
256,192,181502,1,0,0:0:0:0:
256,192,181606,1,8,0:0:0:0:
256,192,181919,1,8,0:0:0:0:
256,192,182023,1,0,0:0:0:0:
256,192,182127,1,0,0:0:0:0:
256,192,182231,1,8,0:0:0:0:
256,192,182544,1,8,0:0:0:0:
256,192,182648,1,0,0:0:0:0:
256,192,182752,1,0,0:0:0:0:
256,192,182856,1,0,0:0:0:0:
256,192,182960,1,0,0:0:0:0:
256,192,183064,1,0,0:0:0:0:
256,192,183169,1,8,0:0:0:0:
256,192,183481,1,8,0:0:0:0:
256,192,183585,1,0,0:0:0:0:
256,192,183689,1,0,0:0:0:0:
256,192,183794,1,0,0:0:0:0:
256,192,183898,1,0,0:0:0:0:
256,192,184002,1,0,0:0:0:0:
256,192,184106,1,8,0:0:0:0:
256,192,184419,1,8,0:0:0:0:
256,192,184523,1,0,0:0:0:0:
256,192,184627,1,0,0:0:0:0:
256,192,184731,1,8,0:0:0:0:
256,192,185044,1,0,0:0:0:0:
256,192,185148,1,0,0:0:0:0:
256,192,185252,1,0,0:0:0:0:
256,192,185356,1,0,0:0:0:0:
256,192,185460,1,0,0:0:0:0:
256,192,185564,1,0,0:0:0:0:
256,192,185669,1,8,0:0:0:0:
256,192,185981,1,0,0:0:0:0:
256,192,186085,1,0,0:0:0:0:
256,192,186189,1,0,0:0:0:0:
256,192,186294,1,0,0:0:0:0:
256,192,186398,1,0,0:0:0:0:
256,192,186502,1,0,0:0:0:0:
256,192,186606,1,8,0:0:0:0:
256,192,186919,1,8,0:0:0:0:
256,192,187023,1,0,0:0:0:0:
256,192,187127,1,0,0:0:0:0:
256,192,187231,1,8,0:0:0:0:
256,192,187544,1,0,0:0:0:0:
256,192,187648,1,0,0:0:0:0:
256,192,187752,1,0,0:0:0:0:
256,192,187856,1,0,0:0:0:0:
256,192,187960,1,0,0:0:0:0:
256,192,188064,1,0,0:0:0:0:
256,192,188169,1,8,0:0:0:0:
256,192,188481,1,8,0:0:0:0:
256,192,188585,1,0,0:0:0:0:
256,192,188689,1,0,0:0:0:0:
256,192,188794,1,8,0:0:0:0:
256,192,188898,1,0,0:0:0:0:
256,192,189002,1,0,0:0:0:0:
256,192,189106,1,8,0:0:0:0:
256,192,189419,1,8,0:0:0:0:
256,192,189523,1,0,0:0:0:0:
256,192,189627,1,0,0:0:0:0:
256,192,189731,1,8,0:0:0:0:
256,192,190044,1,0,0:0:0:0:
256,192,190148,1,0,0:0:0:0:
256,192,190252,1,0,0:0:0:0:
256,192,190356,1,0,0:0:0:0:
256,192,190460,1,0,0:0:0:0:
256,192,190564,1,0,0:0:0:0:
256,192,190669,1,8,0:0:0:0:
256,192,190981,1,0,0:0:0:0:
256,192,191085,1,0,0:0:0:0:
256,192,191189,1,0,0:0:0:0:
256,192,191294,1,0,0:0:0:0:
256,192,191398,1,0,0:0:0:0:
256,192,191502,1,0,0:0:0:0:
256,192,191606,1,8,0:0:0:0:
256,192,191919,1,8,0:0:0:0:
256,192,192023,1,0,0:0:0:0:
256,192,192127,1,0,0:0:0:0:
256,192,192231,1,8,0:0:0:0:
256,192,192544,1,8,0:0:0:0:
256,192,192648,1,0,0:0:0:0:
256,192,192752,1,0,0:0:0:0:
256,192,192856,1,0,0:0:0:0:
256,192,192960,1,0,0:0:0:0:
256,192,193064,1,0,0:0:0:0:
256,192,193169,1,8,0:0:0:0:
256,192,193273,1,0,0:0:0:0:
256,192,193377,1,0,0:0:0:0:
256,192,193481,1,8,0:0:0:0:
256,192,193585,1,0,0:0:0:0:
256,192,193689,1,0,0:0:0:0:
256,192,193794,1,8,0:0:0:0:
256,192,193898,1,0,0:0:0:0:
256,192,194002,1,0,0:0:0:0:
256,192,194106,1,0,0:0:0:0:
256,192,194210,1,0,0:0:0:0:
256,192,194314,1,0,0:0:0:0:
256,192,194419,1,8,0:0:0:0:
256,192,194523,1,8,0:0:0:0:
256,192,194627,1,8,0:0:0:0:
256,192,194731,1,8,0:0:0:0:
256,192,194835,1,8,0:0:0:0:
256,192,194939,1,8,0:0:0:0:
256,192,195044,1,0,0:0:0:0:
256,192,195981,1,0,0:0:0:0:
256,192,196294,1,8,0:0:0:0:
256,192,196606,1,0,0:0:0:0:
256,192,196919,1,8,0:0:0:0:
256,192,197231,1,8,0:0:0:0:
256,192,197309,1,0,0:0:0:0:
256,192,197387,1,8,0:0:0:0:
256,192,197465,1,0,0:0:0:0:
256,192,197544,1,8,0:0:0:0:
256,192,198481,1,0,0:0:0:0:
256,192,198794,1,8,0:0:0:0:
256,192,198950,1,0,0:0:0:0:
256,192,199262,1,0,0:0:0:0:
256,192,199419,1,8,0:0:0:0:
256,192,199575,1,0,0:0:0:0:
256,192,199731,1,8,0:0:0:0:
256,192,199887,1,8,0:0:0:0:
256,192,200044,1,4,0:0:0:0:
256,192,200512,1,0,0:0:0:0:
256,192,200669,1,8,0:0:0:0:
256,192,200981,1,8,0:0:0:0:
256,192,201137,1,8,0:0:0:0:
256,192,201294,1,4,0:0:0:0:
256,192,201762,1,0,0:0:0:0:
256,192,201919,1,8,0:0:0:0:
256,192,202231,1,8,0:0:0:0:
256,192,202387,1,8,0:0:0:0:
256,192,202544,1,4,0:0:0:0:
256,192,203012,1,0,0:0:0:0:
256,192,203169,1,8,0:0:0:0:
256,192,203325,1,0,0:0:0:0:
256,192,203637,1,0,0:0:0:0:
256,192,203794,1,8,0:0:0:0:
256,192,203950,1,0,0:0:0:0:
256,192,204106,1,0,0:0:0:0:
256,192,204184,1,0,0:0:0:0:
256,192,204262,1,8,0:0:0:0:
256,192,204340,1,0,0:0:0:0:
256,192,204419,1,8,0:0:0:0:
256,192,204575,1,8,0:0:0:0:
256,192,204653,1,0,0:0:0:0:
256,192,204731,1,8,0:0:0:0:
256,192,204809,1,0,0:0:0:0:
256,192,204887,1,8,0:0:0:0:
256,192,205044,1,4,0:0:0:0:
256,192,205200,1,0,0:0:0:0:
256,192,205356,1,8,0:0:0:0:
256,192,205512,1,0,0:0:0:0:
256,192,205669,1,0,0:0:0:0:
256,192,205747,1,0,0:0:0:0:
256,192,205825,1,0,0:0:0:0:
256,192,205981,1,8,0:0:0:0:
256,192,206137,1,0,0:0:0:0:
256,192,206294,1,0,0:0:0:0:
256,192,206372,1,8,0:0:0:0:
256,192,206450,1,0,0:0:0:0:
256,192,206606,1,8,0:0:0:0:
256,192,206762,1,0,0:0:0:0:
256,192,206919,1,8,0:0:0:0:
256,192,206997,1,8,0:0:0:0:
256,192,207075,1,8,0:0:0:0:
256,192,207231,1,8,0:0:0:0:
256,192,207387,1,0,0:0:0:0:
256,192,207544,1,8,0:0:0:0:
256,192,207622,1,8,0:0:0:0:
256,192,207700,1,8,0:0:0:0:
256,192,207856,1,8,0:0:0:0:
256,192,208012,1,0,0:0:0:0:
256,192,208169,1,0,0:0:0:0:
256,192,208247,1,0,0:0:0:0:
256,192,208325,1,0,0:0:0:0:
256,192,208481,1,8,0:0:0:0:
256,192,208637,1,0,0:0:0:0:
256,192,208794,1,0,0:0:0:0:
256,192,208872,1,8,0:0:0:0:
256,192,208950,1,0,0:0:0:0:
256,192,209106,1,8,0:0:0:0:
256,192,209262,1,0,0:0:0:0:
256,192,209419,1,8,0:0:0:0:
256,192,209497,1,8,0:0:0:0:
256,192,209575,1,8,0:0:0:0:
256,192,209731,1,8,0:0:0:0:
256,192,209887,1,0,0:0:0:0:
256,192,210044,1,4,0:0:0:0:
256,192,210200,1,4,0:0:0:0:
256,192,210356,1,8,0:0:0:0:
256,192,210512,1,0,0:0:0:0:
256,192,210590,1,0,0:0:0:0:
256,192,210669,1,8,0:0:0:0:
256,192,210825,1,0,0:0:0:0:
256,192,210981,1,8,0:0:0:0:
256,192,211137,1,0,0:0:0:0:
256,192,211294,1,4,0:0:0:0:
256,192,211450,1,4,0:0:0:0:
256,192,211606,1,8,0:0:0:0:
256,192,211762,1,0,0:0:0:0:
256,192,211840,1,0,0:0:0:0:
256,192,211919,1,8,0:0:0:0:
256,192,212075,1,0,0:0:0:0:
256,192,212231,1,8,0:0:0:0:
256,192,212387,1,0,0:0:0:0:
256,192,212544,1,4,0:0:0:0:
256,192,212700,1,8,0:0:0:0:
256,192,212856,1,0,0:0:0:0:
256,192,212934,1,0,0:0:0:0:
256,192,213012,1,8,0:0:0:0:
256,192,213169,1,0,0:0:0:0:
256,192,213325,1,8,0:0:0:0:
256,192,213481,1,0,0:0:0:0:
256,192,213559,1,0,0:0:0:0:
256,192,213637,1,8,0:0:0:0:
256,192,213794,1,0,0:0:0:0:
256,192,213950,1,8,0:0:0:0:
256,192,214106,1,0,0:0:0:0:
256,192,214184,1,0,0:0:0:0:
256,192,214262,1,8,0:0:0:0:
256,192,214419,1,0,0:0:0:0:
256,192,214497,1,8,0:0:0:0:
256,192,214575,1,8,0:0:0:0:
256,192,214653,1,8,0:0:0:0:
256,192,214731,1,0,0:0:0:0:
256,192,214809,1,8,0:0:0:0:
256,192,214887,1,8,0:0:0:0:
256,192,214965,1,8,0:0:0:0:
256,192,215044,1,0,0:0:0:0:
256,192,215200,1,8,0:0:0:0:
256,192,215356,1,0,0:0:0:0:
256,192,215434,1,0,0:0:0:0:
256,192,215512,1,8,0:0:0:0:
256,192,215669,1,0,0:0:0:0:
256,192,215825,1,8,0:0:0:0:
256,192,215981,1,0,0:0:0:0:
256,192,216059,1,0,0:0:0:0:
256,192,216137,1,8,0:0:0:0:
256,192,216215,1,8,0:0:0:0:
256,192,216294,1,0,0:0:0:0:
256,192,216450,1,8,0:0:0:0:
256,192,216606,1,0,0:0:0:0:
256,192,216684,1,0,0:0:0:0:
256,192,216762,1,8,0:0:0:0:
256,192,216919,1,0,0:0:0:0:
256,192,217075,1,8,0:0:0:0:
256,192,217231,1,0,0:0:0:0:
256,192,217309,1,8,0:0:0:0:
256,192,217387,1,8,0:0:0:0:
256,192,217465,1,8,0:0:0:0:
256,192,217544,1,0,0:0:0:0:
256,192,217700,1,8,0:0:0:0:
256,192,217856,1,0,0:0:0:0:
256,192,217934,1,0,0:0:0:0:
256,192,218012,1,8,0:0:0:0:
256,192,218169,1,0,0:0:0:0:
256,192,218325,1,8,0:0:0:0:
256,192,218481,1,0,0:0:0:0:
256,192,218559,1,8,0:0:0:0:
256,192,218637,1,8,0:0:0:0:
256,192,218715,1,8,0:0:0:0:
256,192,218794,1,0,0:0:0:0:
256,192,218950,1,8,0:0:0:0:
256,192,219106,1,0,0:0:0:0:
256,192,219184,1,0,0:0:0:0:
256,192,219262,1,8,0:0:0:0:
256,192,219419,1,0,0:0:0:0:
256,192,219575,1,8,0:0:0:0:
256,192,219731,1,0,0:0:0:0:
256,192,219809,1,0,0:0:0:0:
256,192,219887,1,8,0:0:0:0:
256,192,220044,1,4,0:0:0:0:
256,192,220200,1,8,0:0:0:0:
256,192,220356,1,0,0:0:0:0:
256,192,220434,1,0,0:0:0:0:
256,192,220512,1,8,0:0:0:0:
256,192,220669,1,8,0:0:0:0:
256,192,220825,1,8,0:0:0:0:
256,192,220981,1,8,0:0:0:0:
256,192,221059,1,0,0:0:0:0:
256,192,221137,1,8,0:0:0:0:
256,192,221294,1,4,0:0:0:0:
256,192,221450,1,8,0:0:0:0:
256,192,221606,1,0,0:0:0:0:
256,192,221684,1,0,0:0:0:0:
256,192,221762,1,8,0:0:0:0:
256,192,221919,1,8,0:0:0:0:
256,192,222075,1,8,0:0:0:0:
256,192,222231,1,8,0:0:0:0:
256,192,222309,1,0,0:0:0:0:
256,192,222387,1,8,0:0:0:0:
256,192,222544,1,4,0:0:0:0:
256,192,222700,1,8,0:0:0:0:
256,192,222856,1,0,0:0:0:0:
256,192,222934,1,0,0:0:0:0:
256,192,223012,1,8,0:0:0:0:
256,192,223169,1,0,0:0:0:0:
256,192,223325,1,8,0:0:0:0:
256,192,223481,1,8,0:0:0:0:
256,192,223559,1,0,0:0:0:0:
256,192,223637,1,8,0:0:0:0:
288,192,223715,1,8,0:0:0:0:
256,192,223794,1,0,0:0:0:0:
256,192,223872,1,0,0:0:0:0:
256,192,223950,1,8,0:0:0:0:
256,192,224028,1,8,0:0:0:0:
256,192,224106,1,8,0:0:0:0:
256,192,224184,1,8,0:0:0:0:
256,192,224262,1,0,0:0:0:0:
256,192,224340,1,0,0:0:0:0:
256,192,224419,1,8,0:0:0:0:
256,192,224497,1,8,0:0:0:0:
256,192,224575,1,0,0:0:0:0:
256,192,224653,1,0,0:0:0:0:
256,192,224731,1,0,0:0:0:0:
256,192,224809,1,0,0:0:0:0:
256,192,224887,1,0,0:0:0:0:
256,192,224965,1,0,0:0:0:0:
256,192,225044,1,8,0:0:0:0:
256,192,225200,1,0,0:0:0:0:
256,192,225356,1,8,0:0:0:0:
256,192,225512,1,0,0:0:0:0:
256,192,225669,1,8,0:0:0:0:
256,192,225825,1,0,0:0:0:0:
256,192,225981,1,8,0:0:0:0:
256,192,226059,1,0,0:0:0:0:
256,192,226137,1,0,0:0:0:0:
256,192,226215,1,0,0:0:0:0:
256,192,226294,1,8,0:0:0:0:
256,192,226450,1,0,0:0:0:0:
256,192,226606,1,8,0:0:0:0:
256,192,226762,1,8,0:0:0:0:
256,192,226840,1,8,0:0:0:0:
256,192,226919,1,8,0:0:0:0:
256,192,227075,1,0,0:0:0:0:
256,192,227231,1,8,0:0:0:0:
256,192,227387,1,0,0:0:0:0:
256,192,227465,1,0,0:0:0:0:
256,192,227544,1,8,0:0:0:0:
256,192,227622,1,8,0:0:0:0:
256,192,227700,1,0,0:0:0:0:
256,192,227856,1,8,0:0:0:0:
256,192,228012,1,0,0:0:0:0:
256,192,228090,1,0,0:0:0:0:
256,192,228169,1,8,0:0:0:0:
256,192,228325,1,0,0:0:0:0:
256,192,228481,1,8,0:0:0:0:
256,192,228637,1,0,0:0:0:0:
256,192,228715,1,0,0:0:0:0:
256,192,228794,1,8,0:0:0:0:
256,192,228872,1,0,0:0:0:0:
256,192,228950,1,0,0:0:0:0:
256,192,229028,1,0,0:0:0:0:
256,192,229106,1,8,0:0:0:0:
256,192,229262,1,0,0:0:0:0:
256,192,229340,1,0,0:0:0:0:
256,192,229419,1,8,0:0:0:0:
256,192,229575,1,0,0:0:0:0:
256,192,229731,1,8,0:0:0:0:
256,192,229887,1,0,0:0:0:0:
256,192,229965,1,0,0:0:0:0:
256,192,230044,1,8,0:0:0:0:
256,192,230122,1,8,0:0:0:0:
256,192,230200,1,0,0:0:0:0:
256,192,230356,1,8,0:0:0:0:
256,192,230512,1,0,0:0:0:0:
256,192,230669,1,8,0:0:0:0:
256,192,230747,1,8,0:0:0:0:
256,192,230825,1,0,0:0:0:0:
256,192,230981,1,8,0:0:0:0:
256,192,231137,1,0,0:0:0:0:
256,192,231215,1,0,0:0:0:0:
256,192,231294,1,8,0:0:0:0:
256,192,231450,1,0,0:0:0:0:
256,192,231606,1,8,0:0:0:0:
256,192,231684,1,8,0:0:0:0:
256,192,231762,1,0,0:0:0:0:
256,192,231919,1,8,0:0:0:0:
256,192,231997,1,8,0:0:0:0:
256,192,232075,1,0,0:0:0:0:
256,192,232153,1,0,0:0:0:0:
256,192,232231,1,8,0:0:0:0:
256,192,232387,1,0,0:0:0:0:
256,192,232544,1,8,0:0:0:0:
256,192,232622,1,8,0:0:0:0:
256,192,232700,1,0,0:0:0:0:
256,192,232856,1,8,0:0:0:0:
256,192,233012,1,0,0:0:0:0:
256,192,233090,1,0,0:0:0:0:
256,192,233169,1,8,0:0:0:0:
256,192,233247,1,8,0:0:0:0:
256,192,233325,1,0,0:0:0:0:
256,192,233481,1,8,0:0:0:0:
256,192,233637,1,0,0:0:0:0:
256,192,233794,1,8,0:0:0:0:
256,192,233872,1,0,0:0:0:0:
256,192,233950,1,0,0:0:0:0:
256,192,234028,1,0,0:0:0:0:
256,192,234106,1,8,0:0:0:0:
256,192,234262,1,0,0:0:0:0:
256,192,234419,1,8,0:0:0:0:
256,192,234497,1,8,0:0:0:0:
256,192,234575,1,0,0:0:0:0:
256,192,234731,1,8,0:0:0:0:
256,192,234887,1,0,0:0:0:0:
256,192,234965,1,0,0:0:0:0:
256,192,235044,1,8,0:0:0:0:
256,192,235122,1,0,0:0:0:0:
256,192,235200,1,0,0:0:0:0:
256,192,235356,1,8,0:0:0:0:
256,192,235512,1,0,0:0:0:0:
256,192,235669,1,8,0:0:0:0:
256,192,235747,1,8,0:0:0:0:
256,192,235825,1,0,0:0:0:0:
256,192,235981,1,8,0:0:0:0:
256,192,236137,1,0,0:0:0:0:
256,192,236215,1,0,0:0:0:0:
256,192,236294,1,8,0:0:0:0:
256,192,236372,1,0,0:0:0:0:
256,192,236450,1,0,0:0:0:0:
256,192,236606,1,8,0:0:0:0:
256,192,236762,1,0,0:0:0:0:
256,192,236919,1,8,0:0:0:0:
256,192,236997,1,8,0:0:0:0:
256,192,237075,1,0,0:0:0:0:
256,192,237231,1,8,0:0:0:0:
256,192,237387,1,0,0:0:0:0:
256,192,237465,1,0,0:0:0:0:
256,192,237544,1,8,0:0:0:0:
256,192,237622,1,8,0:0:0:0:
256,192,237700,1,0,0:0:0:0:
256,192,237778,1,0,0:0:0:0:
256,192,237856,1,8,0:0:0:0:
256,192,237934,1,0,0:0:0:0:
256,192,238012,1,0,0:0:0:0:
256,192,238090,1,0,0:0:0:0:
256,192,238169,1,8,0:0:0:0:
256,192,238247,1,8,0:0:0:0:
256,192,238325,1,0,0:0:0:0:
256,192,238403,1,0,0:0:0:0:
256,192,238481,1,8,0:0:0:0:
256,192,238559,1,0,0:0:0:0:
256,192,238637,1,0,0:0:0:0:
256,192,238715,1,0,0:0:0:0:
256,192,238794,1,8,0:0:0:0:
256,192,238872,1,8,0:0:0:0:
256,192,238950,1,0,0:0:0:0:
256,192,239028,1,0,0:0:0:0:
256,192,239106,1,8,0:0:0:0:
256,192,239184,1,0,0:0:0:0:
256,192,239262,1,0,0:0:0:0:
256,192,239340,1,0,0:0:0:0:
256,192,239419,1,8,0:0:0:0:
256,192,239497,1,8,0:0:0:0:
256,192,239575,1,0,0:0:0:0:
256,192,239653,1,0,0:0:0:0:
256,192,239731,1,8,0:0:0:0:
256,192,239809,1,8,0:0:0:0:
256,192,239887,1,0,0:0:0:0:
256,192,239965,1,0,0:0:0:0:
256,192,240044,1,8,0:0:0:0:
256,192,240200,1,0,0:0:0:0:
256,192,240356,1,8,0:0:0:0:
256,192,240512,1,0,0:0:0:0:
256,192,240669,1,8,0:0:0:0:
256,192,240825,1,0,0:0:0:0:
256,192,240981,1,8,0:0:0:0:
256,192,241059,1,0,0:0:0:0:
256,192,241137,1,0,0:0:0:0:
256,192,241215,1,0,0:0:0:0:
256,192,241294,1,8,0:0:0:0:
256,192,241450,1,0,0:0:0:0:
256,192,241606,1,8,0:0:0:0:
256,192,241762,1,8,0:0:0:0:
256,192,241840,1,8,0:0:0:0:
256,192,241919,1,8,0:0:0:0:
256,192,242075,1,0,0:0:0:0:
256,192,242231,1,8,0:0:0:0:
256,192,242387,1,0,0:0:0:0:
256,192,242465,1,8,0:0:0:0:
256,192,242544,1,8,0:0:0:0:
256,192,242622,1,8,0:0:0:0:
256,192,242700,1,0,0:0:0:0:
256,192,242856,1,8,0:0:0:0:
256,192,243012,1,0,0:0:0:0:
256,192,243090,1,0,0:0:0:0:
256,192,243169,1,8,0:0:0:0:
256,192,243325,1,0,0:0:0:0:
256,192,243481,1,8,0:0:0:0:
256,192,243559,1,0,0:0:0:0:
256,192,243637,1,0,0:0:0:0:
256,192,243715,1,0,0:0:0:0:
256,192,243794,1,8,0:0:0:0:
256,192,243872,1,8,0:0:0:0:
256,192,243950,1,0,0:0:0:0:
256,192,244106,1,8,0:0:0:0:
256,192,244262,1,8,0:0:0:0:
256,192,244340,1,8,0:0:0:0:
256,192,244419,1,8,0:0:0:0:
256,192,244575,1,0,0:0:0:0:
256,192,244731,1,8,0:0:0:0:
256,192,244887,1,0,0:0:0:0:
256,192,244965,1,0,0:0:0:0:
256,192,245044,1,8,0:0:0:0:
256,192,245122,1,8,0:0:0:0:
256,192,245200,1,0,0:0:0:0:
256,192,245356,1,8,0:0:0:0:
256,192,245512,1,0,0:0:0:0:
256,192,245669,1,8,0:0:0:0:
256,192,245747,1,8,0:0:0:0:
256,192,245825,1,0,0:0:0:0:
256,192,245981,1,8,0:0:0:0:
256,192,246137,1,0,0:0:0:0:
256,192,246215,1,0,0:0:0:0:
256,192,246294,1,8,0:0:0:0:
256,192,246450,1,0,0:0:0:0:
256,192,246606,1,8,0:0:0:0:
256,192,246684,1,8,0:0:0:0:
256,192,246762,1,0,0:0:0:0:
256,192,246840,1,0,0:0:0:0:
256,192,246919,1,8,0:0:0:0:
256,192,246997,1,8,0:0:0:0:
256,192,247075,1,0,0:0:0:0:
256,192,247153,1,0,0:0:0:0:
256,192,247231,1,8,0:0:0:0:
256,192,247387,1,0,0:0:0:0:
256,192,247544,1,8,0:0:0:0:
256,192,247622,1,8,0:0:0:0:
256,192,247700,1,0,0:0:0:0:
256,192,247856,1,8,0:0:0:0:
256,192,248012,1,0,0:0:0:0:
256,192,248090,1,0,0:0:0:0:
256,192,248169,1,8,0:0:0:0:
256,192,248247,1,8,0:0:0:0:
256,192,248325,1,0,0:0:0:0:
256,192,248481,1,8,0:0:0:0:
256,192,248637,1,0,0:0:0:0:
256,192,248794,1,8,0:0:0:0:
256,192,248872,1,0,0:0:0:0:
256,192,248950,1,0,0:0:0:0:
256,192,249028,1,0,0:0:0:0:
256,192,249106,1,8,0:0:0:0:
256,192,249262,1,0,0:0:0:0:
256,192,249419,1,8,0:0:0:0:
256,192,249497,1,8,0:0:0:0:
256,192,249575,1,0,0:0:0:0:
256,192,249731,1,8,0:0:0:0:
256,192,249887,1,0,0:0:0:0:
256,192,249965,1,0,0:0:0:0:
256,192,250044,1,8,0:0:0:0:
256,192,250122,1,8,0:0:0:0:
256,192,250200,1,0,0:0:0:0:
256,192,250356,1,8,0:0:0:0:
256,192,250512,1,0,0:0:0:0:
256,192,250669,5,8,0:0:0:0:
256,192,250747,1,8,0:0:0:0:
256,192,250825,1,0,0:0:0:0:
256,192,250981,1,8,0:0:0:0:
256,192,251137,1,0,0:0:0:0:
256,192,251215,1,0,0:0:0:0:
256,192,251294,1,8,0:0:0:0:
256,192,251372,1,0,0:0:0:0:
256,192,251450,1,0,0:0:0:0:
256,192,251606,1,8,0:0:0:0:
256,192,251762,1,0,0:0:0:0:
256,192,251919,1,8,0:0:0:0:
256,192,251997,1,8,0:0:0:0:
256,192,252075,1,0,0:0:0:0:
256,192,252231,1,8,0:0:0:0:
256,192,252387,5,0,0:0:0:0:
256,192,252465,1,0,0:0:0:0:
256,192,252544,1,8,0:0:0:0:
256,192,252700,1,0,0:0:0:0:
256,192,252856,1,8,0:0:0:0:
256,192,253012,1,0,0:0:0:0:
256,192,253090,1,0,0:0:0:0:
256,192,253169,1,8,0:0:0:0:
256,192,253325,1,0,0:0:0:0:
256,192,253481,1,8,0:0:0:0:
256,192,253637,1,0,0:0:0:0:
256,192,253715,1,0,0:0:0:0:
256,192,253794,1,8,0:0:0:0:
256,192,253950,1,0,0:0:0:0:
256,192,254028,1,0,0:0:0:0:
256,192,254106,1,8,0:0:0:0:
256,192,254262,5,0,0:0:0:0:
256,192,254340,1,0,0:0:0:0:
256,192,254419,1,8,0:0:0:0:
256,192,254497,1,8,0:0:0:0:
256,192,254575,1,0,0:0:0:0:
256,192,254653,1,0,0:0:0:0:
256,192,254731,1,8,0:0:0:0:
256,192,254809,1,0,0:0:0:0:
256,192,254887,1,0,0:0:0:0:
256,192,254965,1,0,0:0:0:0:
256,192,255044,1,8,0:0:0:0:
256,192,257387,1,4,0:0:0:0:
256,192,257700,1,0,0:0:0:0:
256,192,257856,1,8,0:0:0:0:
256,192,258169,1,0,0:0:0:0:
256,192,258325,1,8,0:0:0:0:
256,192,258481,1,8,0:0:0:0:
256,192,258637,1,4,0:0:0:0:
256,192,258950,1,0,0:0:0:0:
256,192,259106,1,8,0:0:0:0:
256,192,259419,1,0,0:0:0:0:
256,192,259575,1,0,0:0:0:0:
256,192,259731,1,8,0:0:0:0:
256,192,259887,1,0,0:0:0:0:
256,192,259965,1,0,0:0:0:0:
256,192,260044,1,8,0:0:0:0:
256,192,260122,1,8,0:0:0:0:
256,192,260200,1,0,0:0:0:0:
256,192,260278,1,0,0:0:0:0:
256,192,260356,1,8,0:0:0:0:
256,192,260434,1,0,0:0:0:0:
256,192,260512,1,0,0:0:0:0:
256,192,260590,1,0,0:0:0:0:
256,192,260669,1,8,0:0:0:0:
256,192,260747,1,8,0:0:0:0:
256,192,260825,1,0,0:0:0:0:
256,192,260903,1,0,0:0:0:0:
256,192,260981,1,8,0:0:0:0:
256,192,261059,1,0,0:0:0:0:
256,192,261137,1,8,0:0:0:0:
256,192,261215,1,0,0:0:0:0:
256,192,261294,1,8,0:0:0:0:
256,192,261372,1,8,0:0:0:0:
256,192,261450,1,8,0:0:0:0:
256,192,261528,1,0,0:0:0:0:
256,192,261606,1,8,0:0:0:0:
256,192,261684,1,8,0:0:0:0:
256,192,261762,1,0,0:0:0:0:
256,192,261840,1,0,0:0:0:0:
256,192,261919,1,8,0:0:0:0:
256,192,261997,1,8,0:0:0:0:
256,192,262075,1,8,0:0:0:0:
256,192,262153,1,0,0:0:0:0:
256,192,262231,1,8,0:0:0:0:
256,192,262309,1,8,0:0:0:0:
256,192,262387,1,0,0:0:0:0:
256,192,262544,1,12,0:0:0:0:
256,192,262700,1,0,0:0:0:0:
256,192,262778,1,0,0:0:0:0:
256,192,262856,1,8,0:0:0:0:
256,192,263012,1,0,0:0:0:0:
256,192,263169,1,12,0:0:0:0:
256,192,263325,1,4,0:0:0:0:
256,192,263481,1,4,0:0:0:0:
256,192,263637,1,12,0:0:0:0:
256,192,263950,1,0,0:0:0:0:
256,192,264106,1,8,0:0:0:0:
256,192,264262,1,0,0:0:0:0:
256,192,264340,1,0,0:0:0:0:
256,192,264419,1,8,0:0:0:0:
256,192,264575,1,8,0:0:0:0:
256,192,264731,1,8,0:0:0:0:
256,192,264887,1,4,0:0:0:0:
256,192,265200,1,0,0:0:0:0:
256,192,265356,1,8,0:0:0:0:
256,192,265669,1,0,0:0:0:0:
256,192,265825,1,0,0:0:0:0:
256,192,265981,1,8,0:0:0:0:
256,192,266137,1,4,0:0:0:0:
256,192,266450,1,0,0:0:0:0:
256,192,266606,1,8,0:0:0:0:
256,192,266919,1,0,0:0:0:0:
256,192,267075,1,0,0:0:0:0:
256,192,267231,1,8,0:0:0:0:
256,192,267387,1,0,0:0:0:0:
256,192,267544,1,12,0:0:0:0:
256,192,267700,1,8,0:0:0:0:
256,192,267778,1,0,0:0:0:0:
256,192,267856,1,8,0:0:0:0:
256,192,268012,1,0,0:0:0:0:
256,192,268169,1,12,0:0:0:0:
256,192,268325,1,12,0:0:0:0:
256,192,268481,1,4,0:0:0:0:
256,192,268637,1,12,0:0:0:0:
256,192,268950,1,8,0:0:0:0:
256,192,269106,1,0,0:0:0:0:
256,192,269262,1,0,0:0:0:0:
256,192,269340,1,0,0:0:0:0:
256,192,269419,1,8,0:0:0:0:
256,192,269575,1,0,0:0:0:0:
256,192,269731,1,8,0:0:0:0:
256,192,269887,1,4,0:0:0:0:
256,192,270200,1,0,0:0:0:0:
256,192,270356,1,8,0:0:0:0:
256,192,270669,1,0,0:0:0:0:
256,192,270825,1,0,0:0:0:0:
256,192,270981,1,8,0:0:0:0:
256,192,271137,1,4,0:0:0:0:
256,192,271450,1,0,0:0:0:0:
256,192,271606,1,8,0:0:0:0:
256,192,271762,1,0,0:0:0:0:
256,192,271840,1,0,0:0:0:0:
256,192,271919,1,8,0:0:0:0:
256,192,271997,1,8,0:0:0:0:
256,192,272075,1,8,0:0:0:0:
256,192,272153,1,8,0:0:0:0:
256,192,272231,1,0,0:0:0:0:
256,192,272309,1,0,0:0:0:0:
256,192,272387,1,8,0:0:0:0:
256,192,272544,1,4,0:0:0:0:
256,192,272700,1,0,0:0:0:0:
256,192,272778,1,0,0:0:0:0:
256,192,272856,1,8,0:0:0:0:
256,192,273012,1,4,0:0:0:0:
256,192,273325,1,0,0:0:0:0:
256,192,273481,1,8,0:0:0:0:
256,192,273637,1,4,0:0:0:0:
256,192,273950,1,0,0:0:0:0:
256,192,274028,1,0,0:0:0:0:
256,192,274106,1,8,0:0:0:0:
256,192,274262,1,12,0:0:0:0:
256,192,274575,1,0,0:0:0:0:
256,192,274731,1,8,0:0:0:0:
256,192,274887,1,0,0:0:0:0:
256,192,274965,1,0,0:0:0:0:
256,192,275044,1,8,0:0:0:0:
256,192,275122,1,8,0:0:0:0:
256,192,275200,1,0,0:0:0:0:
256,192,275278,1,0,0:0:0:0:
256,192,275356,1,8,0:0:0:0:
256,192,275434,1,0,0:0:0:0:
256,192,275512,1,0,0:0:0:0:
256,192,275590,1,0,0:0:0:0:
256,192,275669,1,8,0:0:0:0:
256,192,275747,1,0,0:0:0:0:
256,192,275825,1,8,0:0:0:0:
256,192,275903,1,0,0:0:0:0:
256,192,275981,1,8,0:0:0:0:
256,192,276059,1,8,0:0:0:0:
256,192,276137,1,0,0:0:0:0:
256,192,276215,1,0,0:0:0:0:
256,192,276294,1,8,0:0:0:0:
256,192,276372,1,0,0:0:0:0:
256,192,276450,1,8,0:0:0:0:
256,192,276528,1,0,0:0:0:0:
256,192,276606,1,8,0:0:0:0:
256,192,276684,1,8,0:0:0:0:
256,192,276762,1,0,0:0:0:0:
256,192,276840,1,0,0:0:0:0:
256,192,276919,1,8,0:0:0:0:
256,192,276997,1,0,0:0:0:0:
256,192,277075,1,0,0:0:0:0:
256,192,277153,1,0,0:0:0:0:
256,192,277231,1,8,0:0:0:0:
256,192,277309,1,8,0:0:0:0:
256,192,277387,1,0,0:0:0:0:
256,192,277544,1,4,0:0:0:0:
256,192,277700,1,0,0:0:0:0:
256,192,277778,1,0,0:0:0:0:
256,192,277856,1,8,0:0:0:0:
256,192,278012,1,4,0:0:0:0:
256,192,278325,1,0,0:0:0:0:
256,192,278481,1,8,0:0:0:0:
256,192,278637,1,4,0:0:0:0:
256,192,278950,1,0,0:0:0:0:
256,192,279028,1,0,0:0:0:0:
256,192,279106,1,8,0:0:0:0:
256,192,279262,1,12,0:0:0:0:
256,192,279575,1,0,0:0:0:0:
256,192,279731,1,8,0:0:0:0:
256,192,279887,1,0,0:0:0:0:
256,192,280044,1,12,0:0:0:0:
256,192,280200,1,4,0:0:0:0:
256,192,280356,1,12,0:0:0:0:
256,192,280512,1,4,0:0:0:0:
256,192,280669,1,12,0:0:0:0:
256,192,280825,1,12,0:0:0:0:
256,192,280981,1,4,0:0:0:0:
256,192,281137,1,4,0:0:0:0:
256,192,281294,1,12,0:0:0:0:
256,192,281450,1,4,0:0:0:0:
256,192,281606,1,12,0:0:0:0:
256,192,281762,1,4,0:0:0:0:
256,192,281919,1,8,0:0:0:0:
256,192,282075,1,0,0:0:0:0:
256,192,282153,1,0,0:0:0:0:
256,192,282231,1,8,0:0:0:0:
256,192,282387,1,0,0:0:0:0:
256,192,282544,1,12,0:0:0:0:
256,192,282700,1,0,0:0:0:0:
256,192,282856,1,0,0:0:0:0:
256,192,283012,1,8,0:0:0:0:
256,192,283169,1,0,0:0:0:0:
256,192,283325,1,8,0:0:0:0:
256,192,283481,1,0,0:0:0:0:
256,192,283637,1,0,0:0:0:0:
256,192,283794,1,8,0:0:0:0:
256,192,283950,1,0,0:0:0:0:
256,192,284106,1,0,0:0:0:0:
256,192,284262,1,8,0:0:0:0:
256,192,284419,1,0,0:0:0:0:
256,192,284575,1,8,0:0:0:0:
256,192,284731,1,0,0:0:0:0:
256,192,284887,1,0,0:0:0:0:
256,192,285044,1,8,0:0:0:0:
256,192,285122,1,8,0:0:0:0:
256,192,285200,1,8,0:0:0:0:
256,192,285278,1,8,0:0:0:0:
256,192,285356,1,0,0:0:0:0:
256,192,285434,1,0,0:0:0:0:
256,192,285512,1,0,0:0:0:0:
256,192,285590,1,0,0:0:0:0:
256,192,285669,1,8,0:0:0:0:
256,192,285747,1,8,0:0:0:0:
256,192,285825,1,8,0:0:0:0:
256,192,285903,1,8,0:0:0:0:
256,192,285981,1,0,0:0:0:0:
256,192,286059,1,0,0:0:0:0:
256,192,286137,1,0,0:0:0:0:
256,192,286215,1,0,0:0:0:0:
256,192,286294,1,8,0:0:0:0:
256,192,286373,1,0,0:0:0:0:
256,192,286452,1,8,0:0:0:0:
256,192,286532,1,8,0:0:0:0:
256,192,286611,1,0,0:0:0:0:
256,192,286690,1,0,0:0:0:0:
256,192,286770,1,8,0:0:0:0:
256,192,286849,1,0,0:0:0:0:
256,192,286928,1,8,0:0:0:0:
256,192,287008,1,8,0:0:0:0:
256,192,287087,1,0,0:0:0:0:
256,192,287167,1,0,0:0:0:0:
256,192,287246,1,8,0:0:0:0:
256,192,287325,1,8,0:0:0:0:
256,192,287405,1,0,0:0:0:0:
256,192,287484,1,0,0:0:0:0:
256,192,287563,1,8,0:0:0:0:
256,192,288040,1,0,0:0:0:0:
256,192,288119,1,0,0:0:0:0:
256,192,288198,1,0,0:0:0:0:
256,192,288833,1,12,0:0:0:0:
256,192,288992,12,0,301397,0:0:0:0:
256,192,301597,5,8,0:0:0:0:
256,192,301663,1,8,0:0:0:0:
256,192,301730,1,8,0:0:0:0:
256,192,301797,1,8,0:0:0:0:
256,192,301863,1,8,0:0:0:0:
256,192,301930,1,8,0:0:0:0:
256,192,301997,1,0,0:0:0:0:
256,192,302063,1,0,0:0:0:0:
256,192,302130,1,0,0:0:0:0:
256,192,302197,1,0,0:0:0:0:
256,192,302263,1,0,0:0:0:0:
256,192,302330,1,0,0:0:0:0:
256,192,302397,1,8,0:0:0:0:
256,192,302463,1,8,0:0:0:0:
256,192,302530,1,8,0:0:0:0:
256,192,302597,1,8,0:0:0:0:
256,192,302663,1,8,0:0:0:0:
256,192,302730,1,8,0:0:0:0:
256,192,302797,1,0,0:0:0:0:
256,192,302863,1,0,0:0:0:0:
256,192,302930,1,0,0:0:0:0:
256,192,302997,1,0,0:0:0:0:
256,192,303063,1,0,0:0:0:0:
256,192,303130,1,0,0:0:0:0:
256,192,303197,1,8,0:0:0:0:
256,192,303263,1,8,0:0:0:0:
256,192,303330,1,0,0:0:0:0:
256,192,303397,1,0,0:0:0:0:
256,192,303463,1,8,0:0:0:0:
256,192,303530,1,8,0:0:0:0:
256,192,303597,1,8,0:0:0:0:
256,192,303663,1,8,0:0:0:0:
256,192,303730,1,0,0:0:0:0:
256,192,303797,1,0,0:0:0:0:
256,192,303863,1,0,0:0:0:0:
256,192,303930,1,0,0:0:0:0:
256,192,303997,1,8,0:0:0:0:
256,192,304130,1,0,0:0:0:0:
256,192,304263,1,0,0:0:0:0:
256,192,304397,1,0,0:0:0:0:
256,192,304530,1,0,0:0:0:0:
256,192,304663,1,0,0:0:0:0:
256,192,304797,1,12,0:0:0:0:
256,192,305197,1,0,0:0:0:0:
256,192,305397,1,0,0:0:0:0:
256,192,305597,1,8,0:0:0:0:
256,192,305997,1,8,0:0:0:0:
256,192,306197,1,0,0:0:0:0:
256,192,306397,1,0,0:0:0:0:
256,192,306597,1,8,0:0:0:0:
256,192,306997,1,0,0:0:0:0:
256,192,307197,1,8,0:0:0:0:
256,192,307497,1,8,0:0:0:0:
256,192,307597,1,0,0:0:0:0:
256,192,307797,1,0,0:0:0:0:
256,192,307997,1,8,0:0:0:0:
256,192,308397,1,0,0:0:0:0:
256,192,308597,1,0,0:0:0:0:
256,192,308797,1,8,0:0:0:0:
256,192,309197,1,0,0:0:0:0:
256,192,309397,1,0,0:0:0:0:
256,192,309597,1,8,0:0:0:0:
256,192,309897,1,8,0:0:0:0:
256,192,309997,1,0,0:0:0:0:
256,192,310197,1,0,0:0:0:0:
256,192,310397,1,8,0:0:0:0:
256,192,310597,1,0,0:0:0:0:
256,192,310797,1,0,0:0:0:0:
256,192,310897,1,0,0:0:0:0:
256,192,310997,1,0,0:0:0:0:
256,192,311097,1,0,0:0:0:0:
256,192,311197,1,0,0:0:0:0:
256,192,311397,1,0,0:0:0:0:
256,192,311497,1,0,0:0:0:0:
256,192,311597,1,8,0:0:0:0:
256,192,311797,1,0,0:0:0:0:
256,192,311897,1,0,0:0:0:0:
256,192,311997,1,8,0:0:0:0:
256,192,312197,1,0,0:0:0:0:
256,192,312297,1,0,0:0:0:0:
256,192,312397,1,0,0:0:0:0:
256,192,312497,1,0,0:0:0:0:
256,192,312597,1,8,0:0:0:0:
256,192,312797,1,0,0:0:0:0:
256,192,312897,1,0,0:0:0:0:
256,192,312997,1,8,0:0:0:0:
256,192,313197,1,0,0:0:0:0:
256,192,313397,1,0,0:0:0:0:
256,192,313497,1,0,0:0:0:0:
256,192,313597,1,8,0:0:0:0:
256,192,313797,1,0,0:0:0:0:
256,192,313897,1,0,0:0:0:0:
256,192,313997,1,8,0:0:0:0:
256,192,314097,1,0,0:0:0:0:
256,192,314197,1,8,0:0:0:0:
256,192,314297,1,8,0:0:0:0:
256,192,314397,1,0,0:0:0:0:
256,192,314597,1,0,0:0:0:0:
256,192,314697,1,0,0:0:0:0:
256,192,314797,1,8,0:0:0:0:
256,192,314997,1,0,0:0:0:0:
256,192,315097,1,0,0:0:0:0:
256,192,315197,1,8,0:0:0:0:
256,192,315397,1,0,0:0:0:0:
256,192,315497,1,8,0:0:0:0:
256,192,315597,1,0,0:0:0:0:
256,192,315797,1,8,0:0:0:0:
256,192,315997,1,0,0:0:0:0:
256,192,316097,1,0,0:0:0:0:
256,192,316197,1,8,0:0:0:0:
256,192,316397,1,0,0:0:0:0:
256,192,316597,1,8,0:0:0:0:
256,192,316697,1,0,0:0:0:0:
256,192,316797,1,8,0:0:0:0:
256,192,316997,1,8,0:0:0:0:
256,192,317197,1,0,0:0:0:0:
256,192,317297,1,0,0:0:0:0:
256,192,317397,1,0,0:0:0:0:
256,192,317497,1,0,0:0:0:0:
256,192,317597,1,0,0:0:0:0:
256,192,317797,1,0,0:0:0:0:
256,192,317897,1,0,0:0:0:0:
256,192,317997,1,8,0:0:0:0:
256,192,318197,1,0,0:0:0:0:
256,192,318297,1,0,0:0:0:0:
256,192,318397,1,8,0:0:0:0:
256,192,318597,1,0,0:0:0:0:
256,192,318697,1,0,0:0:0:0:
256,192,318797,1,0,0:0:0:0:
256,192,318897,1,0,0:0:0:0:
256,192,318997,1,8,0:0:0:0:
256,192,319197,1,0,0:0:0:0:
256,192,319297,1,0,0:0:0:0:
256,192,319397,1,8,0:0:0:0:
256,192,319597,1,0,0:0:0:0:
256,192,319797,1,0,0:0:0:0:
256,192,319897,1,0,0:0:0:0:
256,192,319997,1,8,0:0:0:0:
256,192,320197,1,0,0:0:0:0:
256,192,320297,1,8,0:0:0:0:
256,192,320397,1,8,0:0:0:0:
256,192,320497,1,0,0:0:0:0:
256,192,320597,1,8,0:0:0:0:
256,192,320697,1,8,0:0:0:0:
256,192,320797,1,0,0:0:0:0:
256,192,320997,1,0,0:0:0:0:
256,192,321097,1,0,0:0:0:0:
256,192,321197,1,8,0:0:0:0:
256,192,321397,1,0,0:0:0:0:
256,192,321497,1,0,0:0:0:0:
256,192,321597,1,8,0:0:0:0:
256,192,321797,1,0,0:0:0:0:
256,192,321897,1,0,0:0:0:0:
256,192,321997,1,0,0:0:0:0:
256,192,322097,1,0,0:0:0:0:
256,192,322197,1,8,0:0:0:0:
256,192,322397,1,0,0:0:0:0:
256,192,322497,1,0,0:0:0:0:
256,192,322597,1,8,0:0:0:0:
256,192,322797,1,8,0:0:0:0:
256,192,322997,1,0,0:0:0:0:
256,192,323097,1,0,0:0:0:0:
256,192,323197,1,8,0:0:0:0:
256,192,323297,1,8,0:0:0:0:
256,192,323397,1,0,0:0:0:0:
256,192,323497,1,0,0:0:0:0:
256,192,323597,1,8,0:0:0:0:
256,192,323697,1,8,0:0:0:0:
256,192,323797,1,0,0:0:0:0:
256,192,323997,1,12,0:0:0:0:
256,192,324397,1,8,0:0:0:0:
256,192,324597,1,0,0:0:0:0:
256,192,324797,1,8,0:0:0:0:
256,192,325197,1,8,0:0:0:0:
256,192,325397,1,0,0:0:0:0:
256,192,325797,1,8,0:0:0:0:
256,192,326197,1,0,0:0:0:0:
256,192,326397,1,8,0:0:0:0:
256,192,326597,1,0,0:0:0:0:
256,192,326797,1,8,0:0:0:0:
256,192,326997,1,8,0:0:0:0:
256,192,327197,1,4,0:0:0:0:
256,192,327597,1,0,0:0:0:0:
256,192,327797,1,0,0:0:0:0:
256,192,327997,1,8,0:0:0:0:
256,192,328397,1,8,0:0:0:0:
256,192,328597,1,0,0:0:0:0:
256,192,328997,1,8,0:0:0:0:
256,192,329397,1,0,0:0:0:0:
256,192,329597,1,8,0:0:0:0:
256,192,329797,1,0,0:0:0:0:
256,192,329997,1,8,0:0:0:0:
256,192,330197,1,8,0:0:0:0:
256,192,330397,1,4,0:0:0:0:
256,192,330997,1,0,0:0:0:0:
256,192,331197,1,8,0:0:0:0:
256,192,331597,1,8,0:0:0:0:
256,192,331797,1,0,0:0:0:0:
256,192,332197,1,8,0:0:0:0:
256,192,332597,1,0,0:0:0:0:
256,192,332797,1,8,0:0:0:0:
256,192,332997,1,8,0:0:0:0:
256,192,333197,1,0,0:0:0:0:
256,192,333397,1,8,0:0:0:0:
256,192,333597,1,4,0:0:0:0:
256,192,334197,1,0,0:0:0:0:
256,192,334397,1,8,0:0:0:0:
256,192,334797,1,0,0:0:0:0:
256,192,334997,1,8,0:0:0:0:
256,192,335397,1,8,0:0:0:0:
256,192,335797,1,0,0:0:0:0:
256,192,335997,1,8,0:0:0:0:
256,192,336197,1,8,0:0:0:0:
256,192,336397,1,0,0:0:0:0:
256,192,336597,1,8,0:0:0:0:
256,192,336797,1,4,0:0:0:0:
256,192,337397,1,0,0:0:0:0:
256,192,337597,1,8,0:0:0:0:
256,192,337797,1,0,0:0:0:0:
256,192,337997,1,8,0:0:0:0:
256,192,338197,1,0,0:0:0:0:
256,192,338597,1,8,0:0:0:0:
256,192,338997,1,0,0:0:0:0:
256,192,339197,1,8,0:0:0:0:
256,192,339397,1,0,0:0:0:0:
256,192,339597,1,8,0:0:0:0:
256,192,339797,1,8,0:0:0:0:
256,192,339997,1,4,0:0:0:0:
256,192,340397,1,0,0:0:0:0:
256,192,340597,1,0,0:0:0:0:
256,192,340797,1,8,0:0:0:0:
256,192,340997,1,0,0:0:0:0:
256,192,341397,1,0,0:0:0:0:
256,192,341597,1,0,0:0:0:0:
256,192,341797,1,8,0:0:0:0:
256,192,341997,1,0,0:0:0:0:
256,192,342197,1,0,0:0:0:0:
256,192,342397,1,8,0:0:0:0:
256,192,342602,1,0,0:0:0:0:
256,192,342807,1,8,0:0:0:0:
256,192,343013,1,8,0:0:0:0:
256,192,343218,1,4,0:0:0:0:
256,192,343418,1,4,0:0:0:0:
256,192,343618,1,4,0:0:0:0:
256,192,343818,1,4,0:0:0:0:
256,192,344018,1,4,0:0:0:0:
256,192,344218,1,4,0:0:0:0:
256,192,344418,1,4,0:0:0:0:
256,192,344618,1,4,0:0:0:0:
256,192,344818,1,12,0:0:0:0:
256,192,345018,1,12,0:0:0:0:
256,192,345218,1,12,0:0:0:0:
256,192,345418,1,12,0:0:0:0:
256,192,345618,1,12,0:0:0:0:
256,192,345818,1,12,0:0:0:0:
256,192,346018,1,12,0:0:0:0:
256,192,346218,1,12,0:0:0:0:
256,192,346418,1,4,0:0:0:0:
256,192,346615,1,0,0:0:0:0:
256,192,346714,1,0,0:0:0:0:
256,192,346812,1,8,0:0:0:0:
256,192,347010,1,0,0:0:0:0:
256,192,347108,1,0,0:0:0:0:
256,192,347207,1,8,0:0:0:0:
256,192,347404,1,0,0:0:0:0:
256,192,347503,1,0,0:0:0:0:
256,192,347602,1,0,0:0:0:0:
256,192,347700,1,0,0:0:0:0:
256,192,347799,1,8,0:0:0:0:
256,192,347996,1,0,0:0:0:0:
256,192,348097,1,0,0:0:0:0:
256,192,348197,1,8,0:0:0:0:
256,192,348397,1,0,0:0:0:0:
256,192,348597,1,0,0:0:0:0:
256,192,348697,1,0,0:0:0:0:
256,192,348797,1,8,0:0:0:0:
256,192,348997,1,0,0:0:0:0:
256,192,349097,1,0,0:0:0:0:
256,192,349197,1,8,0:0:0:0:
256,192,349297,1,0,0:0:0:0:
256,192,349397,1,8,0:0:0:0:
256,192,349497,1,8,0:0:0:0:
256,192,349597,1,0,0:0:0:0:
256,192,349797,1,0,0:0:0:0:
256,192,349897,1,0,0:0:0:0:
256,192,349997,1,8,0:0:0:0:
256,192,350197,1,0,0:0:0:0:
256,192,350297,1,0,0:0:0:0:
256,192,350397,1,8,0:0:0:0:
256,192,350597,1,0,0:0:0:0:
256,192,350697,1,0,0:0:0:0:
256,192,350797,1,0,0:0:0:0:
256,192,350897,1,0,0:0:0:0:
256,192,350997,1,8,0:0:0:0:
256,192,351197,1,0,0:0:0:0:
256,192,351297,1,0,0:0:0:0:
256,192,351397,1,8,0:0:0:0:
256,192,351597,1,0,0:0:0:0:
256,192,351797,1,0,0:0:0:0:
256,192,351897,1,0,0:0:0:0:
256,192,351997,1,8,0:0:0:0:
256,192,352197,1,0,0:0:0:0:
256,192,352297,1,8,0:0:0:0:
256,192,352397,1,8,0:0:0:0:
256,192,352497,1,0,0:0:0:0:
256,192,352597,1,8,0:0:0:0:
256,192,352697,1,8,0:0:0:0:
256,192,352797,1,0,0:0:0:0:
256,192,352997,1,0,0:0:0:0:
256,192,353097,1,0,0:0:0:0:
256,192,353197,1,8,0:0:0:0:
256,192,353397,1,0,0:0:0:0:
256,192,353497,1,0,0:0:0:0:
256,192,353597,1,8,0:0:0:0:
256,192,353797,1,0,0:0:0:0:
256,192,353897,1,0,0:0:0:0:
256,192,353997,1,0,0:0:0:0:
256,192,354097,1,0,0:0:0:0:
256,192,354197,1,8,0:0:0:0:
256,192,354397,1,0,0:0:0:0:
256,192,354497,1,0,0:0:0:0:
256,192,354597,1,8,0:0:0:0:
256,192,354797,1,0,0:0:0:0:
256,192,354997,1,0,0:0:0:0:
256,192,355097,1,0,0:0:0:0:
256,192,355197,1,8,0:0:0:0:
256,192,355397,1,0,0:0:0:0:
256,192,355497,1,0,0:0:0:0:
256,192,355597,1,8,0:0:0:0:
256,192,355697,1,0,0:0:0:0:
256,192,355797,1,8,0:0:0:0:
256,192,355897,1,8,0:0:0:0:
256,192,355997,1,0,0:0:0:0:
256,192,356197,1,0,0:0:0:0:
256,192,356297,1,0,0:0:0:0:
256,192,356397,1,8,0:0:0:0:
256,192,356597,1,0,0:0:0:0:
256,192,356697,1,0,0:0:0:0:
256,192,356797,1,8,0:0:0:0:
256,192,356997,1,0,0:0:0:0:
256,192,357097,1,8,0:0:0:0:
256,192,357197,1,0,0:0:0:0:
256,192,357397,1,8,0:0:0:0:
256,192,357597,1,0,0:0:0:0:
256,192,357697,1,0,0:0:0:0:
256,192,357797,1,8,0:0:0:0:
256,192,357997,1,8,0:0:0:0:
256,192,358197,1,0,0:0:0:0:
256,192,358297,1,8,0:0:0:0:
256,192,358397,1,8,0:0:0:0:
256,192,358497,1,0,0:0:0:0:
256,192,358597,1,8,0:0:0:0:
256,192,358697,1,8,0:0:0:0:
256,192,358797,1,8,0:0:0:0:
256,192,358897,1,0,0:0:0:0:
256,192,358997,1,8,0:0:0:0:
256,192,359097,1,8,0:0:0:0:
256,192,359197,1,0,0:0:0:0:
256,192,359397,1,0,0:0:0:0:
256,192,359597,1,8,0:0:0:0:
256,192,359797,1,0,0:0:0:0:
256,192,359897,1,0,0:0:0:0:
256,192,359997,1,8,0:0:0:0:
256,192,360197,1,0,0:0:0:0:
256,192,360397,1,8,0:0:0:0:
256,192,360597,1,8,0:0:0:0:
256,192,360797,1,0,0:0:0:0:
256,192,360997,1,8,0:0:0:0:
256,192,361197,1,8,0:0:0:0:
256,192,361397,1,0,0:0:0:0:
256,192,361597,1,8,0:0:0:0:
256,192,361697,1,0,0:0:0:0:
256,192,361797,1,8,0:0:0:0:
256,192,361997,1,8,0:0:0:0:
256,192,362197,1,8,0:0:0:0:
256,192,362397,1,0,0:0:0:0:
256,192,362597,1,0,0:0:0:0:
256,192,362797,1,8,0:0:0:0:
256,192,362997,1,0,0:0:0:0:
256,192,363097,1,0,0:0:0:0:
256,192,363197,1,8,0:0:0:0:
256,192,363397,1,0,0:0:0:0:
256,192,363597,1,8,0:0:0:0:
256,192,363797,1,8,0:0:0:0:
256,192,363897,1,8,0:0:0:0:
256,192,363997,1,0,0:0:0:0:
256,192,364197,1,8,0:0:0:0:
256,192,364397,1,8,0:0:0:0:
256,192,364597,1,0,0:0:0:0:
256,192,364697,1,0,0:0:0:0:
256,192,364797,1,8,0:0:0:0:
256,192,364999,1,8,0:0:0:0:
256,192,365202,1,8,0:0:0:0:
256,192,365303,1,0,0:0:0:0:
256,192,365405,1,8,0:0:0:0:
256,192,365506,1,8,0:0:0:0:
256,192,365607,1,0,0:0:0:0:
256,192,365807,1,0,0:0:0:0:
256,192,366007,1,8,0:0:0:0:
256,192,366207,1,0,0:0:0:0:
256,192,366307,1,0,0:0:0:0:
256,192,366407,1,8,0:0:0:0:
256,192,366607,1,0,0:0:0:0:
256,192,366807,1,8,0:0:0:0:
256,192,367007,1,8,0:0:0:0:
256,192,367207,1,0,0:0:0:0:
256,192,367407,1,8,0:0:0:0:
256,192,367607,1,8,0:0:0:0:
256,192,367807,1,0,0:0:0:0:
256,192,368007,1,8,0:0:0:0:
256,192,368107,1,0,0:0:0:0:
256,192,368207,1,8,0:0:0:0:
256,192,368407,1,8,0:0:0:0:
256,192,368607,1,8,0:0:0:0:
256,192,368807,1,0,0:0:0:0:
256,192,369007,1,0,0:0:0:0:
256,192,369207,1,8,0:0:0:0:
256,192,369407,1,0,0:0:0:0:
256,192,369507,1,0,0:0:0:0:
256,192,369607,1,8,0:0:0:0:
256,192,369807,1,0,0:0:0:0:
256,192,370007,1,8,0:0:0:0:
256,192,370207,1,8,0:0:0:0:
256,192,370307,1,8,0:0:0:0:
256,192,370407,1,0,0:0:0:0:
256,192,370607,5,8,0:0:0:0:
256,192,370807,1,8,0:0:0:0:
256,192,371007,1,0,0:0:0:0:
256,192,371107,1,0,0:0:0:0:
256,192,371207,1,8,0:0:0:0:
256,192,371407,1,8,0:0:0:0:
256,192,371607,1,8,0:0:0:0:
256,192,371707,1,0,0:0:0:0:
256,192,371807,1,8,0:0:0:0:
256,192,371907,1,8,0:0:0:0:
256,192,372007,1,4,0:0:0:0:
256,192,372207,12,0,381607,0:0:0:0:
