osu file format v14

[General]
AudioFilename: audio.mp3
AudioLeadIn: 0
PreviewTime: 132670
Countdown: 0
SampleSet: Normal
StackLeniency: 0.5
Mode: 0
LetterboxInBreaks: 0
WidescreenStoryboard: 0

[Editor]
Bookmarks: 35846,45777,85498,86740,94601,107843,159997,186069,187311,189380,189793,192276,194759,197247,199729,202211,204693,207175,209658,216278,229520,234485,242761,247726,251037,252692,254347,256002,268002,269243,308985,310226,346226,370225,370639,371466,372294,373121,373535,399190,415742,416569,417397
DistanceSpacing: 1.7
BeatDivisor: 8
GridSize: 8
TimelineZoom: 2.1

[Metadata]
Title:A Little Piece of Heaven
TitleUnicode:A Little Piece of Heaven
Artist:Avenged Sevenfold
ArtistUnicode:Avenged Sevenfold
Creator:rockstarrzz
Version:A Little Piece of Hell
Source:
Tags:rock english
BeatmapID:2147598
BeatmapSetID:1025001

[Difficulty]
HPDrainRate:5
CircleSize:4.2
OverallDifficulty:8
ApproachRate:9
SliderMultiplier:1.8
SliderTickRate:1

[Events]
//Background and Video events
0,0,"277936.jpg",0,0
//Break Periods
2,166016,166849
2,287652,288523
//Storyboard Layer 0 (Background)
//Storyboard Layer 1 (Fail)
//Storyboard Layer 2 (Pass)
//Storyboard Layer 3 (Foreground)
//Storyboard Layer 4 (Overlay)
//Storyboard Sound Samples

[TimingPoints]
12674,413.793103448276,4,1,0,35,1,0
12674,-100,4,1,0,35,0,0
14742,-83.3333333333333,4,1,0,35,0,0
14949,-83.3333333333333,4,1,0,5,0,0
15156,-83.3333333333333,4,1,0,35,0,0
15363,-83.3333333333333,4,1,0,5,0,0
15570,-83.3333333333333,4,1,0,35,0,0
15777,-83.3333333333333,4,1,0,5,0,0
15984,-100,4,1,0,35,0,0
19294,-71.4285714285714,4,1,0,35,0,0
19915,-100,4,1,0,35,0,0
20949,-83.3333333333333,4,1,0,35,0,0
21156,-83.3333333333333,4,1,0,5,0,0
21363,-83.3333333333333,4,1,0,35,0,0
21570,-83.3333333333333,4,1,0,5,0,0
21777,-83.3333333333333,4,1,0,35,0,0
21984,-83.3333333333333,4,1,0,5,0,0
22191,-100,4,1,0,35,0,0
25915,413.793103448276,6,1,0,25,1,0
30880,-111.111111111111,6,1,0,25,0,0
33363,-100,6,1,0,25,0,0
35846,-86.9565217391304,6,1,0,25,0,0
45777,-100,6,1,0,25,0,0
47639,-100,6,1,0,5,0,0
47846,-100,6,1,0,25,0,0
48466,-100,6,1,0,5,0,0
48673,-100,6,1,0,25,0,0
51777,-100,6,1,0,5,0,0
51983,-100,6,1,0,25,0,0
52604,-100,6,1,0,5,0,0
52811,-100,6,1,0,25,0,0
53225,-80,6,1,0,25,0,0
53639,-100,6,1,0,25,0,0
54466,-62.5,6,1,0,35,0,0
55708,-83.3333333333333,6,1,0,25,0,0
56328,-83.3333333333333,6,1,0,5,0,0
56535,-83.3333333333333,6,1,0,25,0,0
57156,-83.3333333333333,6,1,0,5,0,0
57363,-83.3333333333333,6,1,0,25,0,0
60673,-76.9230769230769,6,1,0,25,0,0
61708,-76.9230769230769,6,1,0,5,0,0
61915,-76.9230769230769,6,1,0,25,0,0
62535,-76.9230769230769,6,1,0,5,0,0
62742,-76.9230769230769,6,1,0,25,0,0
63156,-58.8235294117647,6,1,0,25,0,0
63363,-58.8235294117647,6,1,0,5,0,0
63570,-76.9230769230769,6,1,0,25,0,0
64190,-76.9230769230769,6,1,0,5,0,0
64397,-60.6060606060606,6,1,0,35,0,0
65639,-80,6,1,0,25,0,0
65846,-80,6,1,0,5,0,0
66052,-74.0740740740741,6,1,0,25,0,0
66466,-68.9655172413793,6,1,0,25,0,0
67294,-64.5161290322581,6,1,0,35,0,0
70604,-74.0740740740741,6,1,0,25,0,0
72259,-68.9655172413793,6,1,0,25,0,0
73087,-64.5161290322581,6,1,0,35,0,0
75570,413.793103448276,3,1,0,50,1,0
78052,413.793103448276,6,1,0,50,1,0
78052,-62.5,6,1,0,35,0,0
80534,413.793103448276,3,1,0,50,1,0
83016,413.793103448276,6,1,0,50,1,0
83016,-66.6666666666667,6,1,0,35,0,0
87153,-66.6666666666667,6,1,0,45,0,0
87981,413.793103448276,4,1,0,35,1,0
87981,-83.3333333333333,4,1,0,30,0,0
94601,-111.111111111111,4,1,0,35,0,0
100601,-111.111111111111,4,1,0,5,0,0
100808,-111.111111111111,4,1,0,35,0,0
101222,-83.3333333333333,4,1,0,35,0,0
102049,-100,4,1,0,35,0,0
102670,-100,4,1,0,5,0,0
102877,-100,4,1,0,35,0,0
104532,-83.3333333333333,4,1,0,35,0,0
105153,-100,4,1,0,35,0,0
107222,-100,4,1,0,5,0,0
107429,-100,4,1,0,35,0,0
107843,-133.333333333333,4,1,0,35,0,0
112808,-111.111111111111,4,1,0,35,0,0
121084,-80,4,1,0,40,0,0
124394,-80,4,1,0,45,0,0
126049,-100,4,1,0,35,0,0
126877,-111.111111111111,4,1,0,35,0,0
127705,-125,4,1,0,35,0,0
131015,-100,4,1,0,35,0,0
132670,414.050100062108,4,1,0,35,1,0
132670,-250,4,1,0,35,0,0
134326,-133.333333333333,4,1,0,40,0,1
139294,-117.647058823529,4,1,0,40,0,1
140951,-100,4,1,0,30,0,1
141986,-100,4,1,0,5,0,1
142193,-125,4,1,0,30,0,1
142607,-100,4,1,0,30,0,1
142814,-100,4,1,0,5,0,1
143021,-125,4,1,0,30,0,1
143435,-100,4,1,0,30,0,1
143642,-100,4,1,0,5,0,1
143849,-125,4,1,0,30,0,1
144263,-100,4,1,0,30,0,1
144470,-100,4,1,0,5,0,1
144677,-125,4,1,0,40,0,1
145091,-111.111111111111,4,1,0,40,0,1
145919,-125,4,1,0,40,0,1
146747,-100,4,1,0,50,0,1
147575,-133.333333333333,4,1,0,40,0,1
150888,-117.647058823529,4,1,0,40,0,1
154200,-90.9090909090909,4,1,0,50,0,1
160825,-125,4,1,0,40,0,1
165379,437.956204379562,4,1,0,25,1,0
166254,600,4,1,0,25,1,0
167449,413.793103448276,6,1,0,25,1,0
167449,-90.9090909090909,6,1,0,25,0,0
168276,-80,6,1,0,35,0,0
168483,-80,6,1,0,5,0,0
168690,-90.9090909090909,6,1,0,35,0,0
169104,-80,6,1,0,35,0,0
169311,-80,6,1,0,5,0,0
169517,-90.9090909090909,6,1,0,35,0,0
172414,-76.9230769230769,6,1,0,35,0,0
172621,-76.9230769230769,6,1,0,5,0,0
172828,-90.9090909090909,6,1,0,35,0,0
173242,-90.9090909090909,6,1,0,35,0,0
173655,-76.9230769230769,6,1,0,35,0,0
173862,-76.9230769230769,6,1,0,5,0,0
174069,-90.9090909090909,6,1,0,35,0,0
176138,-58.8235294117647,6,1,0,50,0,0
177380,-90.9090909090909,6,1,0,35,0,0
178207,-80,6,1,0,35,0,0
178414,-80,6,1,0,5,0,0
178621,-90.9090909090909,6,1,0,35,0,0
179035,-80,6,1,0,35,0,0
179242,-80,6,1,0,5,0,0
179449,-90.9090909090909,6,1,0,35,0,0
181104,-76.9230769230769,6,1,0,35,0,0
181517,-90.9090909090909,6,1,0,35,0,0
181931,-83.3333333333333,6,1,0,35,0,0
183173,-100,6,1,0,35,0,0
183380,-100,6,1,0,5,0,0
183586,-76.9230769230769,6,1,0,35,0,0
183793,-76.9230769230769,6,1,0,5,0,0
184000,-90.9090909090909,6,1,0,35,0,0
184828,-83.3333333333333,6,1,0,35,0,0
185862,-83.3333333333333,6,1,0,5,0,0
186069,-58.8235294117647,6,1,0,50,0,0
187311,-71.4285714285714,6,1,0,40,0,0
188966,-66.6666666666667,6,1,0,40,0,0
192276,-71.4285714285714,6,1,0,40,0,0
193104,-66.6666666666667,6,1,0,45,0,0
193931,-62.5,6,1,0,50,0,0
197247,413.793103448276,3,1,0,60,1,0
199729,413.793103448276,4,1,0,50,1,0
199729,-62.5,4,1,0,50,0,0
202211,413.793103448276,3,1,0,60,1,0
204693,413.793103448276,6,1,0,50,1,0
204693,-62.5,6,1,0,60,0,0
208830,-62.5,6,1,0,80,0,0
209658,413.793103448276,4,1,0,50,1,0
209658,-71.4285714285714,4,1,0,40,0,0
216278,-125,4,1,0,50,0,0
217106,-100,4,1,0,50,0,0
218968,-100,4,1,0,5,0,0
219175,-100,4,1,0,50,0,0
219589,-83.3333333333333,4,1,0,35,0,0
219795,-83.3333333333333,4,1,0,5,0,0
220002,-83.3333333333333,4,1,0,35,0,0
220416,-100,4,1,0,35,0,0
222071,-74.0740740740741,4,1,0,35,0,0
222278,-74.0740740740741,4,1,0,5,0,0
222485,-100,4,1,0,35,0,0
222899,-83.3333333333333,4,1,0,35,0,0
223726,-100,4,1,0,35,0,0
223933,-100,4,1,0,5,0,0
224140,-100,4,1,0,35,0,0
224554,-80,4,1,0,35,0,0
224761,-80,4,1,0,5,0,0
224968,-100,4,1,0,35,0,0
226002,-100,4,1,0,5,0,0
226209,-83.3333333333333,4,1,0,35,0,0
227244,-83.3333333333333,4,1,0,5,0,0
227451,-83.3333333333333,4,1,0,35,0,0
229520,-200,4,1,0,35,0,0
234485,-100,4,1,0,45,0,0
237589,-100,4,1,0,5,0,0
237795,-100,4,1,0,45,0,0
246899,-100,4,1,0,55,0,0
247726,-100,4,1,0,35,0,0
248554,-111.111111111111,4,1,0,35,0,0
249382,-125,4,1,0,35,0,0
252692,-100,4,1,0,50,0,0
254347,413.793103448276,4,1,0,50,1,0
254347,-250,4,1,0,20,0,0
256002,-133.333333333333,4,1,0,35,0,1
261795,-100,4,1,0,35,0,1
263657,-100,4,1,0,5,0,1
263864,-125,4,1,0,35,0,1
264278,-100,4,1,0,35,0,1
264484,-100,4,1,0,5,0,1
264691,-125,4,1,0,35,0,1
265105,-100,4,1,0,35,0,1
265312,-100,4,1,0,5,0,1
265519,-125,4,1,0,35,0,1
265933,-100,4,1,0,35,0,1
266140,-100,4,1,0,5,0,1
266347,-125,4,1,0,35,0,1
266760,-100,4,1,0,35,0,1
268415,-100,4,1,0,50,0,1
269243,-133.333333333333,4,1,0,35,0,1
274209,-111.111111111111,4,1,0,35,0,1
275864,-86.9565217391304,4,1,0,45,0,1
282484,-117.647058823529,4,1,0,35,0,1
285795,-105.263157894737,4,1,0,35,0,1
287036,416.666666666667,4,1,0,20,1,0
287869,418.118466898955,4,1,0,20,1,0
289123,413.793103448276,3,1,0,25,1,0
289123,-100,3,1,0,60,0,0
294088,-90.9090909090909,3,1,0,60,0,0
304019,-83.3333333333333,3,1,0,60,0,0
308985,-117.647058823529,3,1,0,25,0,0
310226,-166.666666666667,3,1,0,25,0,0
313950,-133.333333333333,3,1,0,25,0,0
315191,-117.647058823529,3,1,0,25,0,0
316433,-153.846153846154,3,1,0,25,0,0
317674,-117.647058823529,3,1,0,25,0,0
320157,-153.846153846154,3,1,0,25,0,0
322640,-117.647058823529,3,1,0,25,0,0
325123,-111.111111111111,3,1,0,25,0,0
328847,-100,3,1,0,30,0,0
330088,-142.857142857143,3,1,0,35,0,0
332571,-117.647058823529,3,1,0,35,0,0
333812,-105.263157894737,3,1,0,35,0,0
335054,-133.333333333333,3,1,0,35,0,0
337536,-117.647058823529,3,1,0,35,0,0
343743,-105.263157894737,3,1,0,35,0,0
344985,-100,3,1,0,35,0,0
346226,-86.9565217391304,3,1,0,45,0,0
347467,-60.6060606060606,3,1,0,55,0,0
348709,413.793103448276,5,1,0,45,1,0
350571,-66.6666666666667,5,1,0,45,0,0
356984,413.793103448276,4,1,0,45,1,0
356984,-80,4,1,0,35,0,0
359673,-80,4,1,0,5,0,0
359880,-80,4,1,0,35,0,0
360087,-80,4,1,0,5,0,0
360294,-80,4,1,0,35,0,0
368984,-74.0740740740741,4,1,0,45,0,0
369397,-68.9655172413793,4,1,0,45,0,0
369811,-64.5161290322581,4,1,0,45,0,0
370225,-66.6666666666667,4,1,0,45,0,0
371466,-50,4,1,0,55,0,0
372294,-50,4,1,0,65,0,0
373121,-50,4,1,0,75,0,0
373535,-100,4,1,0,45,0,0
385949,413.793103448276,4,1,0,45,1,0
385949,-100,4,1,0,25,0,0
386569,-117.647058823529,4,1,0,25,0,0
387604,-100,4,1,0,25,0,0
388224,-117.647058823529,4,1,0,25,0,0
392569,-100,4,1,0,25,0,0
393190,-117.647058823529,4,1,0,25,0,0
394224,-100,4,1,0,25,0,0
395052,-117.647058823529,4,1,0,40,0,0
405811,-100,4,1,0,40,0,0
406845,-117.647058823529,4,1,0,40,0,0
407259,-117.647058823529,4,1,0,5,0,0
407466,-117.647058823529,4,1,0,40,0,0
408086,-100,4,1,0,50,0,0
412017,-83.3333333333333,4,1,0,55,0,0
415742,-83.3333333333333,4,1,0,65,0,0
417397,-83.3333333333333,4,1,0,25,0,0
420293,-83.3333333333333,4,1,0,40,0,0
423190,-83.3333333333333,4,1,0,55,0,0
424017,-166.666666666667,4,1,0,40,0,0
425673,-133.333333333333,4,1,0,50,0,1
430638,-111.111111111111,4,1,0,40,0,1
432293,-74.0740740740741,4,1,0,50,0,1
437466,-74.0740740740741,4,1,0,5,0,1
437673,-74.0740740740741,4,1,0,50,0,1
438914,-90.9090909090909,4,1,0,50,0,1
440569,-100,4,1,0,50,0,1
443466,-80,4,1,0,50,0,1
443673,-80,4,1,0,5,0,1
443880,-90.9090909090909,4,1,0,50,0,1
445535,-74.0740740740741,4,1,0,50,0,1
452155,-100,4,1,0,50,0,1
455466,-80,4,1,0,50,0,1
459914,-80,4,1,0,5,0,0

[Colours]
Combo1 : 77,74,74
Combo2 : 164,0,13
Combo3 : 254,37,43
Combo4 : 0,0,0

[HitObjects]
65,135,12674,5,8,0:0:0:0:
146,24,12880,1,0,0:0:0:0:
188,135,13087,1,0,0:0:0:0:
228,163,13191,1,0,0:0:0:0:
275,176,13294,1,0,0:0:0:0:
323,171,13398,1,0,0:0:0:0:
366,149,13501,2,8,P|387:210|383:243,1,90
154,330,13915,1,0,0:0:0:0:
151,290,14019,1,0,0:0:0:0:
147,252,14122,1,0,0:0:0:0:
144,215,14225,1,0,0:0:0:0:
142,178,14329,2,0,P|201:159|254:175,1,90,8|0,0:0|0:0,0:0:0:0:
486,277,14742,6,0,L|472:108,1,161.999995056153,8|0,0:0|0:0,0:0:0:0:
398,52,15156,2,0,L|384:213,1,161.999995056153,8|0,0:0|0:0,0:0:0:0:
304,171,15570,2,0,L|287:1,1,161.999995056153,8|0,0:0|0:0,0:0:0:0:
85,84,15984,6,0,P|127:70|171:80,1,90,8|0,0:0|0:0,0:0:0:0:
144,211,16294,1,0,0:0:0:0:
137,230,16398,2,0,L|136:118,1,90
267,206,16811,1,8,0:0:0:0:
270,243,16914,1,0,0:0:0:0:
274,281,17017,1,0,0:0:0:0:
277,321,17121,1,0,0:0:0:0:
283,352,17225,2,0,L|387:365,1,90
488,267,17536,1,0,0:0:0:0:
492,242,17639,6,0,L|388:255,1,90,8|0,0:0|0:0,0:0:0:0:
177,217,18053,2,0,L|266:205,1,90,8|0,0:0|0:0,0:0:0:0:
460,68,18467,1,8,0:0:0:0:
420,96,18571,1,0,0:0:0:0:
373,109,18674,1,0,0:0:0:0:
325,104,18778,1,0,0:0:0:0:
282,82,18880,2,0,P|260:143|264:176,1,90,8|0,0:0|0:0,0:0:0:0:
154,134,19191,1,0,0:0:0:0:
134,119,19294,6,0,B|127:21|127:21|76:72,2,125.999996154785,8|8|8,0:0|0:0|0:0,0:0:0:0:
138,279,19915,1,0,0:0:0:0:
144,326,20018,1,0,0:0:0:0:
149,371,20122,2,0,L|244:365,1,90,8|0,0:0|0:0,0:0:0:0:
240,171,20536,1,0,0:0:0:0:
235,219,20640,1,0,0:0:0:0:
248,266,20743,1,0,0:0:0:0:
276,306,20847,1,0,0:0:0:0:
312,340,20949,6,0,L|486:353,1,161.999995056153,8|0,0:0|0:0,0:0:0:0:
491,222,21363,2,0,L|316:236,1,161.999995056153,8|0,0:0|0:0,0:0:0:0:
263,123,21777,2,0,L|438:134,1,161.999995056153,8|0,0:0|0:0,0:0:0:0:
471,28,22191,5,0,0:0:0:0:
434,31,22294,1,0,0:0:0:0:
396,35,22397,1,0,0:0:0:0:
356,38,22501,1,0,0:0:0:0:
309,44,22605,6,0,L|321:111,1,45,8|0,0:0|0:0,0:0:0:0:
235,120,22811,2,0,L|223:187,1,45,8|0,0:0|0:0,0:0:0:0:
141,188,23018,2,0,L|153:255,1,45,8|0,0:0|0:0,0:0:0:0:
23,354,23225,1,0,0:0:0:0:
23,354,23329,1,0,0:0:0:0:
23,354,23432,2,0,L|12:231,1,90,8|0,0:0|0:0,0:0:0:0:
33,43,23846,5,0,0:0:0:0:
73,71,23950,1,0,0:0:0:0:
120,84,24053,1,0,0:0:0:0:
168,79,24157,1,0,0:0:0:0:
211,57,24260,2,0,P|233:118|229:151,1,90,8|0,0:0|0:0,0:0:0:0:
110,367,24674,5,8,0:0:0:0:
112,334,24777,1,0,0:0:0:0:
114,301,24880,1,0,0:0:0:0:
116,268,24984,1,0,0:0:0:0:
150,228,25087,5,8,0:0:0:0:
196,209,25190,1,0,0:0:0:0:
246,206,25293,1,0,0:0:0:0:
293,220,25397,1,0,0:0:0:0:
335,246,25501,1,8,0:0:0:0:
383,260,25605,1,0,0:0:0:0:
432,257,25708,1,0,0:0:0:0:
478,238,25811,1,0,0:0:0:0:
505,190,25915,6,12,L|494:70,1,90
48,253,26742,2,12,L|41:343,1,90
61,26,27570,5,12,0:0:0:0:
61,26,27777,1,12,0:0:0:0:
257,302,28397,5,12,0:0:0:0:
257,302,28604,1,12,0:0:0:0:
398,52,29225,5,12,0:0:0:0:
398,52,29432,1,12,0:0:0:0:
49,252,30052,5,12,0:0:0:0:
49,252,30259,1,12,0:0:0:0:
285,70,30880,5,12,0:0:0:0:
285,70,31087,2,0,P|101:86|101:86,1,161.999995056153,12|0,0:0|0:0,0:0:0:0:
376,170,31708,1,12,0:0:0:0:
376,170,31915,2,0,P|192:186|192:186,1,161.999995056153,12|0,0:0|0:0,0:0:0:0:
462,276,32535,1,12,0:0:0:0:
462,276,32742,2,0,P|278:292|278:292,1,161.999995056153,12|0,0:0|0:0,0:0:0:0:
54,300,33363,5,12,0:0:0:0:
61,133,33570,2,0,B|28:172|28:172|57:314,1,180,12|0,0:0|0:0,0:0:0:0:
155,227,34190,1,12,0:0:0:0:
148,60,34397,2,0,B|181:99|181:99|152:241,1,180,12|0,0:0|0:0,0:0:0:0:
283,308,35018,1,12,0:0:0:0:
290,141,35225,2,0,B|257:180|257:180|286:322,1,180,12|0,0:0|0:0,0:0:0:0:
83,115,35846,6,0,P|72:74|75:52,1,51.7500009870529,8|0,0:0|0:0,0:0:0:0:
151,72,36052,2,0,B|183:47|183:47|156:232,1,207.000003948212,8|0,0:0|0:0,0:0:0:0:
429,269,36673,2,0,P|440:310|437:332,1,51.7500009870529,8|0,0:0|0:0,0:0:0:0:
361,312,36880,2,0,B|329:337|329:337|356:154,1,207.000003948212,8|0,0:0|0:0,0:0:0:0:
78,325,37501,6,0,L|67:267,1,51.7500009870529,8|0,0:0|0:0,0:0:0:0:
161,240,37708,2,0,L|172:182,1,51.7500009870529,8|0,0:0|0:0,0:0:0:0:
87,53,37915,1,12,0:0:0:0:
87,53,38121,1,12,0:0:0:0:
401,48,38328,6,0,L|317:59,1,51.7500009870529,8|0,0:0|0:0,0:0:0:0:
221,44,38535,2,0,B|291:69|290:147|290:147|334:115|403:142,1,207.000003948212,8|0,0:0|0:0,0:0:0:0:
86,317,39156,2,0,L|170:306,1,51.7500009870529,8|0,0:0|0:0,0:0:0:0:
261,320,39363,2,0,B|191:295|192:217|192:217|148:249|79:222,1,207.000003948212,8|0,0:0|0:0,0:0:0:0:
154,50,39983,6,0,P|106:34|77:41,1,51.7500009870529,8|0,0:0|0:0,0:0:0:0:
32,94,40190,2,0,P|80:110|109:103,1,51.7500009870529,8|0,0:0|0:0,0:0:0:0:
243,40,40397,1,12,0:0:0:0:
243,40,40604,1,12,0:0:0:0:
160,160,40811,6,0,L|168:211,1,51.7500009870529,8|0,0:0|0:0,0:0:0:0:
203,357,41018,2,0,B|210:269|210:269|237:239|237:239|245:143,1,207.000003948212,8|0,0:0|0:0,0:0:0:0:
448,48,41639,2,0,L|439:99,1,51.7500009870529,8|0,0:0|0:0,0:0:0:0:
405,245,41846,2,0,B|397:157|397:157|370:127|370:127|362:31,1,207.000003948212,8|0,0:0|0:0,0:0:0:0:
368,336,42466,6,0,P|304:312|296:296,1,51.7500009870529,8|0,0:0|0:0,0:0:0:0:
296,192,42673,2,0,P|272:181|246:182,1,51.7500009870529,8|0,0:0|0:0,0:0:0:0:
48,304,42880,1,12,0:0:0:0:
48,304,43087,1,12,0:0:0:0:
16,136,43294,6,0,P|72:152|96:144,1,51.7500009870529,12|0,0:0|0:0,0:0:0:0:
88,80,43501,2,0,P|144:32|128:120,1,207.000003948212,12|0,0:0|0:0,0:0:0:0:
320,256,44121,2,0,P|264:240|240:248,1,51.7500009870529,12|0,0:0|0:0,0:0:0:0:
248,312,44328,2,0,P|192:360|208:272,1,207.000003948212,12|0,0:0|0:0,0:0:0:0:
416,64,44949,5,12,0:0:0:0:
416,64,45156,1,12,0:0:0:0:
96,208,45363,1,12,0:0:0:0:
96,208,45570,1,12,0:0:0:0:
216,32,45777,6,0,P|256:80|264:144,1,90,8|0,0:0|0:0,0:0:0:0:
272,248,46190,1,8,0:0:0:0:
272,248,46397,1,8,0:0:0:0:
362,321,46604,2,0,L|368:232,1,90,8|0,0:0|0:0,0:0:0:0:
168,192,47018,2,0,L|162:102,1,90,8|0,0:0|0:0,0:0:0:0:
512,40,47432,2,0,P|448:64|368:32,1,135,8|0,0:0|0:0,0:0:0:0:
385,46,47846,2,0,L|376:152,1,90,8|0,0:0|0:0,0:0:0:0:
344,328,48259,6,0,P|279:310|217:334,1,135,8|0,0:0|0:0,0:0:0:0:
217,334,48673,2,0,L|209:244,1,90,8|0,0:0|0:0,0:0:0:0:
128,128,49087,2,0,B|32:136|32:136,1,90,8|0,0:0|0:0,0:0:0:0:
216,64,49501,2,0,B|312:72|305:71,1,90,8|0,0:0|0:0,0:0:0:0:
104,168,49915,2,0,B|8:176|8:176,1,90,8|0,0:0|0:0,0:0:0:0:
264,157,50328,1,0,0:0:0:0:
264,157,50535,1,8,0:0:0:0:
471,329,50742,1,14,0:0:0:0:
480,352,51156,5,8,0:0:0:0:
424,233,51363,1,8,0:0:0:0:
480,352,51570,2,0,L|328:344,1,135,8|0,0:0|0:0,0:0:0:0:
345,345,51983,2,0,P|359:296|350:248,1,90,8|0,0:0|0:0,0:0:0:0:
115,179,52397,2,0,L|267:187,1,135,8|0,0:0|0:0,0:0:0:0:
250,186,52811,2,0,P|235:234|253:293,1,90,8|0,0:0|0:0,0:0:0:0:
393,98,53225,6,0,B|332:64|332:64|487:30,1,225,8|0,0:0|0:0,0:0:0:0:
470,165,53846,1,8,0:0:0:0:
361,199,54052,1,8,0:0:0:0:
251,234,54259,1,8,0:0:0:0:
90,50,54466,6,0,P|145:86|127:205,1,144,10|0,0:0|0:0,0:0:0:0:
155,253,54777,1,10,0:0:0:0:
63,245,54880,2,0,P|88:184|209:181,1,144,10|0,0:0|0:0,0:0:0:0:
251,234,55190,1,10,0:0:0:0:
344,276,55294,2,0,L|332:74,1,144,10|0,0:0|0:0,0:0:0:0:
492,162,55708,5,8,0:0:0:0:
492,162,55915,1,8,0:0:0:0:
485,360,56121,2,0,L|292:347,1,161.999995056153,8|0,0:0|0:0,0:0:0:0:
323,349,56535,2,0,B|339:294|339:294|325:229,1,107.999996704102,8|0,0:0|0:0,0:0:0:0:
33,162,56949,2,0,L|226:175,1,161.999995056153,8|0,0:0|0:0,0:0:0:0:
195,173,57363,2,0,B|179:228|179:228|193:293,1,107.999996704102,8|0,0:0|0:0,0:0:0:0:
326,156,57777,1,0,0:0:0:0:
328,124,57880,1,0,0:0:0:0:
331,93,57983,1,0,0:0:0:0:
123,62,58190,6,0,L|115:191,2,107.999996704102,8|0|0,0:0|0:0|0:0,0:0:0:0:
266,225,58811,1,0,0:0:0:0:
114,283,59018,1,0,0:0:0:0:
82,285,59121,1,0,0:0:0:0:
51,288,59224,1,0,0:0:0:0:
223,98,59432,2,0,L|345:92,1,107.999996704102,8|0,0:0|0:0,0:0:0:0:
409,262,59846,1,0,0:0:0:0:
378,259,59949,1,0,0:0:0:0:
346,257,60052,1,0,0:0:0:0:
90,175,60260,2,0,L|197:169,1,107.999996704102,8|0,0:0|0:0,0:0:0:0:
403,79,60673,6,0,P|353:99|284:73,2,116.999994644165,8|0|0,0:0|0:0|0:0,0:0:0:0:
197,38,61294,1,0,0:0:0:0:
197,38,61501,2,0,L|208:216,1,175.499991966248,8|0,0:0|0:0,0:0:0:0:
207,213,61915,2,0,P|143:198|81:229,1,116.999994644165,8|0,0:0|0:0,0:0:0:0:
375,364,62328,2,0,L|364:186,1,175.499991966248,8|0,0:0|0:0,0:0:0:0:
365,189,62742,2,0,P|429:204|491:173,1,116.999994644165,8|0,0:0|0:0,0:0:0:0:
435,23,63156,6,0,P|447:109|462:91,1,229.500004377365,8|0,0:0|0:0,0:0:0:0:
304,21,63570,1,8,0:0:0:0:
304,21,63777,1,8,0:0:0:0:
103,67,63983,2,0,P|159:130|244:129,1,175.499991966248,8|0,0:0|0:0,0:0:0:0:
382,104,64397,6,0,P|327:140|329:249,1,148.500001416206,10|0,0:0|0:0,0:0:0:0:
344,296,64708,1,10,0:0:0:0:
416,352,64811,2,0,L|489:362,2,74.2500007081032,10|0|0,0:0|0:0|0:0,0:0:0:0:
152,320,65225,6,0,L|225:312,1,74.2500007081032,10|0,0:0|0:0,0:0:0:0:
314,213,65432,2,0,L|240:205,1,74.2500007081032,10|0,0:0|0:0,0:0:0:0:
185,70,65639,6,0,P|268:101|350:32,1,168.75,8|0,0:0|0:0,0:0:0:0:
256,6,66052,2,0,L|256:145,1,121.500000463486,8|0,0:0|0:0,0:0:0:0:
186,257,66466,2,0,B|149:171|149:171|104:161,1,130.500003982544,8|0,0:0|0:0,0:0:0:0:
318,257,66880,2,0,B|355:171|355:171|400:161,1,130.500003982544,8|0,0:0|0:0,0:0:0:0:
13,295,67294,6,0,P|119:326|150:359,1,139.500001064301,8|0,0:0|0:0,0:0:0:0:
491,293,67708,2,0,P|385:324|354:357,1,139.500001064301,8|0,0:0|0:0,0:0:0:0:
185,130,68121,6,8,B|256:150|256:150|354:120,2,139.500001064301
241,245,68742,1,8,0:0:0:0:
241,35,68949,1,8,0:0:0:0:
422,140,69156,1,8,0:0:0:0:
119,208,69363,6,8,B|99:279|99:279|129:377,2,139.500001064301
387,360,69983,1,8,0:0:0:0:
361,152,70190,1,8,0:0:0:0:
194,278,70397,1,8,0:0:0:0:
462,219,70604,6,0,B|495:190|495:190|460:125|491:25,1,182.250000695229,8|0,0:0|0:0,0:0:0:0:
483,55,71018,2,0,L|355:64,1,121.500000463486,8|0,0:0|0:0,0:0:0:0:
122,194,71432,2,0,B|89:223|89:223|124:288|93:388,1,182.250000695229,8|0,0:0|0:0,0:0:0:0:
101,358,71846,2,0,L|228:348,1,121.500000463486,8|0,0:0|0:0,0:0:0:0:
229,66,72259,6,0,P|139:99|129:172,1,130.500003982544
377,344,72673,2,0,P|467:311|474:245,1,130.500003982544,8|0,0:0|0:0,0:0:0:0:
212,143,73087,6,8,B|192:214|192:214|222:312,2,139.500001064301
97,199,73708,1,8,0:0:0:0:
307,198,73915,1,8,0:0:0:0:
202,380,74122,1,8,0:0:0:0:
172,34,74329,6,8,B|101:14|101:14|3:44,2,139.500001064301
20,302,74949,1,8,0:0:0:0:
228,276,75156,1,8,0:0:0:0:
102,109,75363,1,8,0:0:0:0:
106,333,75570,5,12,0:0:0:0:
149,318,75673,1,8,0:0:0:0:
194,324,75776,1,8,0:0:0:0:
232,345,75880,1,8,0:0:0:0:
271,358,75983,1,8,0:0:0:0:
315,353,76087,1,8,0:0:0:0:
354,331,76190,1,8,0:0:0:0:
379,294,76293,1,8,0:0:0:0:
356,260,76397,1,8,0:0:0:0:
353,214,76500,1,8,0:0:0:0:
371,173,76603,1,8,0:0:0:0:
403,142,76707,1,8,0:0:0:0:
449,173,76811,5,14,0:0:0:0:
407,207,76914,1,8,0:0:0:0:
353,214,77017,1,8,0:0:0:0:
306,186,77121,1,8,0:0:0:0:
281,140,77225,1,8,0:0:0:0:
246,96,77328,1,8,0:0:0:0:
194,77,77431,1,8,0:0:0:0:
139,88,77535,1,8,0:0:0:0:
98,126,77638,1,8,0:0:0:0:
84,180,77742,1,8,0:0:0:0:
100,233,77845,1,8,0:0:0:0:
142,270,77949,1,8,0:0:0:0:
194,291,78052,6,8,L|341:277,2,144
166,142,78672,1,8,0:0:0:0:
362,277,78879,1,8,0:0:0:0:
113,284,79086,1,8,0:0:0:0:
310,132,79293,1,8,0:0:0:0:
240,371,79500,1,8,0:0:0:0:
54,174,79707,2,8,L|35:10,2,144
74,336,80327,1,8,0:0:0:0:
189,244,80534,5,8,0:0:0:0:
186,202,80637,1,8,0:0:0:0:
182,160,80740,1,8,0:0:0:0:
179,118,80844,1,8,0:0:0:0:
175,76,80947,1,8,0:0:0:0:
212,56,81050,1,8,0:0:0:0:
254,53,81153,1,8,0:0:0:0:
294,63,81257,1,8,0:0:0:0:
326,86,81361,1,8,0:0:0:0:
366,96,81466,1,8,0:0:0:0:
407,92,81569,1,8,0:0:0:0:
445,73,81672,1,8,0:0:0:0:
408,48,81775,5,14,0:0:0:0:
361,78,81878,1,8,0:0:0:0:
331,124,81981,1,8,0:0:0:0:
328,181,82085,1,8,0:0:0:0:
328,241,82189,1,8,0:0:0:0:
286,204,82292,1,8,0:0:0:0:
232,188,82395,1,8,0:0:0:0:
177,200,82499,1,8,0:0:0:0:
124,217,82602,1,8,0:0:0:0:
67,206,82705,1,8,0:0:0:0:
24,171,82808,1,8,0:0:0:0:
1,121,82912,1,8,0:0:0:0:
16,64,83016,6,8,L|27:198,2,135.000005149842
158,224,83636,1,8,0:0:0:0:
227,70,83843,2,8,P|131:52|83:98,2,135.000005149842
158,224,84464,1,8,0:0:0:0:
48,358,84671,2,0,L|27:224,1,135.000005149842,8|0,0:0|0:0,0:0:0:0:
421,36,85084,2,0,L|401:169,1,135.000005149842,8|0,0:0|0:0,0:0:0:0:
350,354,85498,5,8,0:0:0:0:
350,354,85705,1,8,0:0:0:0:
158,224,85912,5,8,0:0:0:0:
158,224,86119,1,8,0:0:0:0:
435,103,86326,5,8,0:0:0:0:
435,103,86533,1,8,0:0:0:0:
89,30,86740,5,8,0:0:0:0:
89,30,86947,1,8,0:0:0:0:
129,325,87153,5,12,0:0:0:0:
308,47,87360,1,12,0:0:0:0:
386,288,87567,1,12,0:0:0:0:
55,143,87774,1,12,0:0:0:0:
340,173,87981,6,0,L|204:191,1,107.999996704102,8|0,0:0|0:0,0:0:0:0:
222,238,88291,1,0,0:0:0:0:
218,265,88394,1,0,0:0:0:0:
463,346,88601,1,0,0:0:0:0:
463,346,88808,2,8,L|472:220,2,107.999996704102
358,341,89429,1,0,0:0:0:0:
358,341,89636,6,0,P|286:323|229:353,1,107.999996704102,8|0,0:0|0:0,0:0:0:0:
154,349,90049,2,0,L|149:222,1,107.999996704102,8|0,0:0|0:0,0:0:0:0:
149,52,90463,1,8,0:0:0:0:
286,145,90670,1,8,0:0:0:0:
119,150,90877,1,8,0:0:0:0:
251,48,91084,1,8,0:0:0:0:
204,209,91291,1,8,0:0:0:0:
50,86,91498,5,0,0:0:0:0:
46,58,91601,1,0,0:0:0:0:
43,30,91704,1,0,0:0:0:0:
25,227,91912,1,0,0:0:0:0:
25,227,92118,2,8,B|85:218|85:218|141:236,2,107.999996704102
91,334,92739,1,0,0:0:0:0:
91,334,92946,6,0,L|216:329,1,107.999996704102,8|0,0:0|0:0,0:0:0:0:
362,325,93360,1,8,0:0:0:0:
362,325,93567,1,8,0:0:0:0:
443,226,93774,2,0,L|448:106,1,107.999996704102,8|0,0:0|0:0,0:0:0:0:
335,25,94187,2,0,L|344:135,1,107.999996704102,8|0,0:0|0:0,0:0:0:0:
362,325,94601,6,0,B|269:308|269:308|243:271|243:271|141:253,1,242.999992584229,12|0,0:0|0:0,0:0:0:0:
141,253,95429,2,0,L|137:148,1,80.9999975280763,8|0,0:0|0:0,0:0:0:0:
128,32,95843,1,8,0:0:0:0:
128,56,96256,6,0,P|178:116|177:8,1,242.999992584229,12|0,0:0|0:0,0:0:0:0:
32,80,97084,1,8,0:0:0:0:
32,104,97498,6,0,L|40:216,1,80.9999975280763,8|0,0:0|0:0,0:0:0:0:
48,296,97912,2,0,P|120:288|224:336,1,161.999995056153,8|0,0:0|0:0,0:0:0:0:
304,352,98532,1,0,0:0:0:0:
304,352,98739,2,0,L|312:176,1,161.999995056153,8|0,0:0|0:0,0:0:0:0:
296,24,99360,1,0,0:0:0:0:
216,64,99567,6,0,P|289:119|361:87,1,161.999995056153,8|0,0:0|0:0,0:0:0:0:
432,32,100187,1,0,0:0:0:0:
432,32,100394,2,0,L|424:184,1,121.499996292114,8|0,0:0|0:0,0:0:0:0:
425,153,100808,2,0,P|464:145|503:156,1,80.9999975280763,8|0,0:0|0:0,0:0:0:0:
424,352,101222,6,0,B|328:340|328:340|306:321|306:321|216:309,1,215.999993408203,12|0,0:0|0:0,0:0:0:0:
96,304,101843,5,0,0:0:0:0:
96,304,102049,2,0,L|88:192,1,90,8|0,0:0|0:0,0:0:0:0:
192,104,102463,2,0,L|184:248,1,135,8|0,0:0|0:0,0:0:0:0:
184,238,102877,2,0,B|283:211|259:291|392:232,1,180,8|0,0:0|0:0,0:0:0:0:
304,90,103498,1,0,0:0:0:0:
304,90,103705,2,0,L|309:179,1,90,8|0,0:0|0:0,0:0:0:0:
106,113,104118,2,0,P|147:96|191:103,1,90,8|0,0:0|0:0,0:0:0:0:
432,72,104532,6,0,B|392:32|392:32|408:200,1,215.999993408203,12|0,0:0|0:0,0:0:0:0:
416,320,105153,5,0,0:0:0:0:
416,320,105360,2,8,L|296:336,2,90
230,239,105981,1,0,0:0:0:0:
230,239,106187,2,8,L|319:244,2,90
344,96,106808,1,0,0:0:0:0:
272,32,107015,2,0,P|248:104|280:168,1,135,8|0,0:0|0:0,0:0:0:0:
268,156,107429,2,0,L|159:167,1,90,8|0,0:0|0:0,0:0:0:0:
24,200,107843,5,8,0:0:0:0:
28,251,108256,1,8,0:0:0:0:
32,302,108670,1,8,0:0:0:0:
37,353,109084,1,8,0:0:0:0:
320,64,109498,5,14,0:0:0:0:
316,115,109911,1,8,0:0:0:0:
312,166,110325,1,8,0:0:0:0:
307,217,110739,1,8,0:0:0:0:
32,80,111153,5,14,0:0:0:0:
100,50,111567,1,8,0:0:0:0:
175,50,111981,1,8,0:0:0:0:
243,79,112394,1,8,0:0:0:0:
128,240,112808,5,8,0:0:0:0:
128,240,113015,2,0,L|120:128,1,80.9999975280763,8|0,0:0|0:0,0:0:0:0:
184,304,113429,2,0,P|143:323|95:315,1,80.9999975280763,8|0,0:0|0:0,0:0:0:0:
32,96,113843,1,8,0:0:0:0:
32,96,114049,2,0,L|136:88,1,80.9999975280763,8|0,0:0|0:0,0:0:0:0:
280,80,114463,1,14,0:0:0:0:
256,70,114877,5,8,0:0:0:0:
256,70,115084,2,0,P|248:142|336:198,1,161.999995056153,8|0,0:0|0:0,0:0:0:0:
395,150,115705,2,0,L|384:70,1,80.9999975280763,8|0,0:0|0:0,0:0:0:0:
408,248,116118,5,8,0:0:0:0:
408,248,116325,1,8,0:0:0:0:
472,344,116532,2,0,L|384:352,1,80.9999975280763,8|0,0:0|0:0,0:0:0:0:
143,239,117153,5,8,0:0:0:0:
143,239,117360,2,8,P|124:292|90:221,2,161.999995056153
120,88,118394,1,8,0:0:0:0:
120,64,118808,5,8,0:0:0:0:
120,64,119015,2,0,L|232:72,1,80.9999975280763,8|0,0:0|0:0,0:0:0:0:
344,88,119429,1,8,0:0:0:0:
344,88,119636,1,8,0:0:0:0:
489,107,119843,5,8,0:0:0:0:
489,107,120049,2,0,L|484:189,1,80.9999975280763,8|0,0:0|0:0,0:0:0:0:
480,320,120463,1,8,0:0:0:0:
480,318,120670,2,0,P|434:308|386:328,1,80.9999975280763,8|0,0:0|0:0,0:0:0:0:
288,360,121084,6,0,L|276:239,1,112.5,8|0,0:0|0:0,0:0:0:0:
268,83,121498,5,8,0:0:0:0:
268,83,121705,1,8,0:0:0:0:
185,304,121912,5,8,0:0:0:0:
185,304,122118,1,8,0:0:0:0:
67,37,122325,5,8,0:0:0:0:
67,37,122532,1,8,0:0:0:0:
38,203,122739,6,0,L|194:216,1,112.5,8|0,0:0|0:0,0:0:0:0:
405,155,123153,2,0,L|249:168,1,112.5,8|0,0:0|0:0,0:0:0:0:
0,277,123567,6,0,L|156:290,1,112.5,8|0,0:0|0:0,0:0:0:0:
424,78,123981,2,0,L|268:91,1,112.5,8|0,0:0|0:0,0:0:0:0:
86,108,124394,5,8,0:0:0:0:
86,108,124601,1,8,0:0:0:0:
384,209,124808,1,8,0:0:0:0:
384,209,125015,1,8,0:0:0:0:
208,344,125222,5,8,0:0:0:0:
54,183,125429,1,8,0:0:0:0:
272,221,125636,1,8,0:0:0:0:
74,318,125843,1,8,0:0:0:0:
32,35,126049,6,0,P|125:32|285:131,1,270,8|0,0:0|0:0,0:0:0:0:
274,117,126877,6,0,P|183:138|72:245,1,242.999992584229,8|0,0:0|0:0,0:0:0:0:
75,238,127705,6,0,P|160:274|243:382,1,216,8|0,0:0|0:0,0:0:0:0:
237,367,128532,1,8,0:0:0:0:
340,342,128946,1,8,0:0:0:0:
438,314,129360,2,8,L|448:156,2,144
323,231,130601,1,8,0:0:0:0:
323,231,131015,6,0,L|210:244,1,90,8|0,0:0|0:0,0:0:0:0:
125,96,131429,2,0,L|238:109,1,90,8|0,0:0|0:0,0:0:0:0:
313,120,131843,1,8,0:0:0:0:
323,231,132049,1,8,0:0:0:0:
184,22,132256,1,8,0:0:0:0:
152,249,132463,1,8,0:0:0:0:
91,39,132670,6,0,B|82:144|82:144|46:179|46:179|37:283,1,252,4|0,0:0|0:0,0:0:0:0:
169,281,134326,6,8,P|104:264|38:276,2,135.000005149842
97,352,135568,1,8,0:0:0:0:
38,275,135982,2,8,L|31:127,1,135.000005149842
168,29,136810,2,8,L|161:163,1,135.000005149842
155,373,137638,5,8,0:0:0:0:
40,273,138052,1,8,0:0:0:0:
160,163,138466,2,8,P|214:129|285:130,1,135.000005149842
248,240,139294,5,8,0:0:0:0:
356,157,139708,5,8,0:0:0:0:
361,248,139915,1,8,0:0:0:0:
437,100,140122,5,12,0:0:0:0:
446,201,140329,1,12,0:0:0:0:
457,310,140536,1,12,0:0:0:0:
457,310,140743,1,12,0:0:0:0:
361,248,140951,6,0,B|314:216|314:216|154:239,1,180,8|0,0:0|0:0,0:0:0:0:
192,233,141572,1,0,0:0:0:0:
13,129,141779,2,0,L|175:109,1,135,8|0,0:0|0:0,0:0:0:0:
146,112,142193,2,0,P|138:53|154:17,1,72,8|0,0:0|0:0,0:0:0:0:
380,47,142607,2,0,L|218:67,1,135,8|0,0:0|0:0,0:0:0:0:
246,63,143021,2,0,P|253:121|241:154,1,72,8|0,0:0|0:0,0:0:0:0:
127,367,143435,6,0,B|110:305|110:305|119:217,1,135,8|0,0:0|0:0,0:0:0:0:
117,234,143849,2,0,L|34:241,1,72,8|0,0:0|0:0,0:0:0:0:
34,26,144263,2,0,B|51:88|51:88|42:176,1,135,8|0,0:0|0:0,0:0:0:0:
44,159,144677,2,0,L|136:151,1,72,8|0,0:0|0:0,0:0:0:0:
296,131,145091,6,0,P|318:185|335:91,1,242.999992584229,8|0,0:0|0:0,0:0:0:0:
230,35,145919,2,0,L|144:41,1,72,8|0,0:0|0:0,0:0:0:0:
42,117,146333,2,0,L|128:123,1,72,8|0,0:0|0:0,0:0:0:0:
321,97,146747,5,12,0:0:0:0:
125,219,146954,1,12,0:0:0:0:
357,233,147161,1,12,0:0:0:0:
178,85,147368,1,12,0:0:0:0:
233,342,147575,6,8,L|241:186,2,135.000005149842,14|8|8,0:0|0:0|0:0,0:0:0:0:
310,47,148817,1,8,0:0:0:0:
310,47,149232,2,8,P|381:31|457:57,2,135.000005149842
358,287,150474,1,8,0:0:0:0:
358,287,150888,6,8,B|380:236|380:236|380:124,1,153.000002918243
162,51,151716,2,8,B|140:102|140:102|140:199,1,153.000002918243
288,195,152544,2,8,P|186:183|124:210,1,153.000002918243
140,199,153165,1,8,0:0:0:0:
98,61,153372,1,8,0:0:0:0:
98,61,153579,1,8,0:0:0:0:
273,271,153786,1,8,0:0:0:0:
241,55,153993,1,8,0:0:0:0:
80,238,154200,6,8,B|159:244|159:244|190:263|190:263|277:271,1,198.000006042481
440,144,154821,1,0,0:0:0:0:
440,144,155028,2,8,B|360:150|360:150|329:169|329:169|242:177,1,198.000006042481
224,32,155649,1,0,0:0:0:0:
224,32,155856,2,8,P|242:98|287:21,1,198.000006042481
112,56,156477,1,0,0:0:0:0:
112,56,156684,2,8,P|144:152|240:208,1,198.000006042481
384,264,157305,1,0,0:0:0:0:
384,264,157513,6,8,B|304:270|304:270|273:289|273:289|186:297,1,198.000006042481
29,171,158134,1,0,0:0:0:0:
29,171,158341,2,8,B|108:177|108:177|139:196|139:196|226:204,1,198.000006042481
416,216,158962,5,0,0:0:0:0:
416,216,159169,2,0,L|408:72,1,99.0000030212403,8|0,0:0|0:0,0:0:0:0:
304,32,159583,2,0,L|298:130,1,99.0000030212403,8|0,0:0|0:0,0:0:0:0:
288,264,159997,1,12,0:0:0:0:
288,264,160204,1,12,0:0:0:0:
212,81,160411,1,12,0:0:0:0:
410,117,160618,1,12,0:0:0:0:
152,216,160825,6,8,B|136:176|136:176|136:56,2,144,12|8|0,0:0|0:0|0:0,0:0:0:0:
152,216,162067,1,8,0:0:0:0:
152,216,162481,2,8,B|288:168|296:288|448:208,1,288
360,22,163723,1,8,0:0:0:0:
360,22,164137,2,8,L|352:174,1,144
80,264,164965,5,8,0:0:0:0:
93,180,165172,1,8,0:0:0:0:
191,48,165379,1,8,0:0:0:0:
223,162,165597,1,8,0:0:0:0:
29,30,165816,1,12,0:0:0:0:
26,149,167449,6,0,L|35:17,1,99.0000030212403,8|0,0:0|0:0,0:0:0:0:
24,280,167862,1,8,0:0:0:0:
24,280,168069,1,8,0:0:0:0:
120,320,168276,2,0,P|202:309|286:348,1,168.75,8|0,0:0|0:0,0:0:0:0:
279,342,168690,2,0,B|301:316|301:316|302:224,1,99.0000030212403,8|0,0:0|0:0,0:0:0:0:
152,32,169104,2,0,P|141:114|180:198,1,168.75,8|0,0:0|0:0,0:0:0:0:
174,191,169517,2,0,B|148:213|148:213|56:214,1,99.0000030212403,8|0,0:0|0:0,0:0:0:0:
23,320,169931,6,0,P|88:336|136:312,1,99.0000030212403,8|0,0:0|0:0,0:0:0:0:
296,224,170345,1,8,0:0:0:0:
424,272,170552,1,8,0:0:0:0:
464,32,170759,1,8,0:0:0:0:
469,53,171173,6,0,L|461:189,1,99.0000030212403,8|0,0:0|0:0,0:0:0:0:
455,269,171586,1,0,0:0:0:0:
424,272,171690,1,0,0:0:0:0:
394,275,171793,1,0,0:0:0:0:
296,96,172000,1,8,0:0:0:0:
307,115,172414,6,0,P|369:104|305:76,1,175.499991966248,8|0,0:0|0:0,0:0:0:0:
216,88,172828,1,8,0:0:0:0:
216,88,173035,1,8,0:0:0:0:
216,240,173242,2,0,L|221:346,1,99.0000030212403,8|0,0:0|0:0,0:0:0:0:
44,235,173655,6,0,B|140:211|132:275|228:235,1,175.499991966248,8|0,0:0|0:0,0:0:0:0:
320,256,174069,2,0,P|306:181|282:155,1,99.0000030212403,8|0,0:0|0:0,0:0:0:0:
88,120,174483,1,0,0:0:0:0:
90,151,174587,1,0,0:0:0:0:
92,181,174690,1,0,0:0:0:0:
24,32,174897,2,0,L|122:25,1,99.0000030212403,8|0,0:0|0:0,0:0:0:0:
96,216,175311,1,8,0:0:0:0:
96,216,175517,1,8,0:0:0:0:
169,126,175724,2,0,P|215:110|316:157,1,148.50000453186,8|0,0:0|0:0,0:0:0:0:
395,228,176138,6,0,B|416:105|416:105|384:128,1,153.000002918243,10|0,0:0|0:0,0:0:0:0:
305,144,176449,1,10,0:0:0:0:
213,103,176552,2,0,P|199:41|239:99,1,153.000002918243,10|0,0:0|0:0,0:0:0:0:
305,144,176862,1,10,0:0:0:0:
285,233,176966,2,0,P|183:235|116:259,1,153.000002918243,10|0,0:0|0:0,0:0:0:0:
16,352,177380,6,0,L|24:232,1,99.0000030212403,8|0,0:0|0:0,0:0:0:0:
40,56,177793,1,8,0:0:0:0:
40,56,178000,1,8,0:0:0:0:
115,147,178207,6,0,B|179:153|179:153|208:179|208:179|288:186,1,168.75,8|0,0:0|0:0,0:0:0:0:
273,185,178621,2,0,L|265:313,1,99.0000030212403,8|0,0:0|0:0,0:0:0:0:
480,200,179035,6,0,B|474:136|474:136|447:106|447:106|440:26,1,168.75,8|0,0:0|0:0,0:0:0:0:
442,41,179449,2,0,L|326:46,1,99.0000030212403,8|0,0:0|0:0,0:0:0:0:
144,32,179862,2,0,P|224:96|232:120,1,99.0000030212403,8|0,0:0|0:0,0:0:0:0:
24,32,180276,1,8,0:0:0:0:
24,32,180483,1,8,0:0:0:0:
112,136,180690,2,0,L|104:256,1,99.0000030212403,8|0,0:0|0:0,0:0:0:0:
96,352,181104,6,0,P|34:341|98:313,1,175.499991966248,8|0,0:0|0:0,0:0:0:0:
192,256,181517,1,0,0:0:0:0:
189,286,181620,1,0,0:0:0:0:
186,317,181724,1,0,0:0:0:0:
288,328,181931,2,0,L|296:200,1,107.999996704102,8|0,0:0|0:0,0:0:0:0:
296,40,182345,2,0,B|328:24|328:24|432:56,1,107.999996704102,8|0,0:0|0:0,0:0:0:0:
216,160,182759,1,8,0:0:0:0:
192,64,182966,1,8,0:0:0:0:
330,144,183173,6,0,P|323:210|279:259,1,135,8|0,0:0|0:0,0:0:0:0:
279,259,183586,6,0,B|343:243|343:243|471:291,1,175.499991966248,8|0,0:0|0:0,0:0:0:0:
456,185,184000,2,0,L|463:81,2,99.0000030212403,8|0|0,0:0|0:0|0:0,0:0:0:0:
445,281,184621,1,8,0:0:0:0:
322,297,184828,2,0,L|170:305,1,107.999996704102,8|0,0:0|0:0,0:0:0:0:
351,299,185242,1,8,0:0:0:0:
351,299,185449,1,8,0:0:0:0:
506,131,185655,2,0,P|432:102|358:130,1,161.999995056153,8|0,0:0|0:0,0:0:0:0:
304,208,186069,6,0,B|272:168|272:168|256:48,1,153.000002918243,10|0,0:0|0:0,0:0:0:0:
338,17,186380,1,10,0:0:0:0:
258,67,186483,2,0,L|178:59,2,76.5000014591217,10|0|0,0:0|0:0|0:0,0:0:0:0:
192,186,186897,2,0,L|184:274,1,76.5000014591217,10|0,0:0|0:0,0:0:0:0:
89,317,187104,2,0,L|82:240,1,76.5000014591217,10|0,0:0|0:0,0:0:0:0:
0,120,187311,6,8,P|72:136|151:105,2,125.999996154785
64,32,187931,1,8,0:0:0:0:
64,32,188138,2,0,L|203:24,1,125.999996154785,8|0,0:0|0:0,0:0:0:0:
448,128,188552,2,0,L|305:119,1,125.999996154785,8|0,0:0|0:0,0:0:0:0:
136,280,188966,2,0,P|81:249|48:168,1,135.000005149842,8|0,0:0|0:0,0:0:0:0:
363,33,189380,2,0,P|417:63|448:146,1,135.000005149842,8|0,0:0|0:0,0:0:0:0:
360,360,189793,5,8,0:0:0:0:
376,256,190000,1,8,0:0:0:0:
272,304,190207,1,8,0:0:0:0:
256,200,190414,1,8,0:0:0:0:
160,256,190621,1,8,0:0:0:0:
176,152,190828,1,8,0:0:0:0:
72,200,191035,1,8,0:0:0:0:
56,96,191242,1,8,0:0:0:0:
288,32,191449,5,8,0:0:0:0:
160,64,191655,1,8,0:0:0:0:
296,216,191862,1,8,0:0:0:0:
160,256,192068,1,8,0:0:0:0:
114,163,192276,6,0,P|183:155|234:187,1,125.999996154785
462,106,192690,2,0,P|399:103|342:130,1,125.999996154785,8|0,0:0|0:0,0:0:0:0:
104,336,193104,6,0,B|64:304|64:304|48:160,1,135.000005149842,8|0,0:0|0:0,0:0:0:0:
303,52,193517,2,0,B|343:84|343:84|352:167,1,135.000005149842,8|0,0:0|0:0,0:0:0:0:
32,64,193931,6,0,P|128:64|160:152,1,144,8|0,0:0|0:0,0:0:0:0:
416,272,194345,2,0,P|362:316|293:303,1,144,8|0,0:0|0:0,0:0:0:0:
360,32,194759,5,8,0:0:0:0:
384,144,194966,1,8,0:0:0:0:
173,125,195173,1,8,0:0:0:0:
285,101,195380,1,8,0:0:0:0:
280,320,195586,5,8,0:0:0:0:
256,208,195793,1,8,0:0:0:0:
480,224,196000,1,8,0:0:0:0:
368,248,196207,1,8,0:0:0:0:
360,72,196414,5,8,0:0:0:0:
368,248,196621,1,8,0:0:0:0:
184,88,196828,1,8,0:0:0:0:
360,72,197035,1,8,0:0:0:0:
472,144,197247,5,8,0:0:0:0:
423,137,197350,1,8,0:0:0:0:
379,161,197453,1,8,0:0:0:0:
358,204,197557,1,8,0:0:0:0:
356,251,197660,1,8,0:0:0:0:
324,286,197764,1,8,0:0:0:0:
276,297,197867,1,8,0:0:0:0:
231,278,197970,1,8,0:0:0:0:
211,236,198074,1,8,0:0:0:0:
182,195,198177,1,8,0:0:0:0:
135,180,198280,1,8,0:0:0:0:
89,193,198384,1,8,0:0:0:0:
80,251,198488,5,14,0:0:0:0:
111,299,198591,1,8,0:0:0:0:
167,318,198694,1,8,0:0:0:0:
224,298,198798,1,8,0:0:0:0:
257,251,198902,1,8,0:0:0:0:
280,195,199006,1,8,0:0:0:0:
334,172,199109,1,8,0:0:0:0:
389,195,199213,1,8,0:0:0:0:
412,251,199316,1,8,0:0:0:0:
389,305,199419,1,8,0:0:0:0:
334,328,199523,1,8,0:0:0:0:
280,305,199626,1,8,0:0:0:0:
257,251,199729,6,8,L|240:64,2,144
392,145,200349,1,8,0:0:0:0:
303,31,200556,2,0,P|239:15|163:53,1,144,8|0,0:0|0:0,0:0:0:0:
77,192,200970,2,0,L|85:40,1,144,8|0,0:0|0:0,0:0:0:0:
150,286,201384,2,0,P|80:302|11:285,1,144,8|0,0:0|0:0,0:0:0:0:
181,138,201798,2,0,L|325:146,1,144,8|0,0:0|0:0,0:0:0:0:
24,80,202211,5,8,0:0:0:0:
57,39,202314,1,8,0:0:0:0:
106,26,202417,1,8,0:0:0:0:
154,44,202521,1,8,0:0:0:0:
182,87,202624,1,8,0:0:0:0:
181,138,202728,1,8,0:0:0:0:
150,178,202831,1,8,0:0:0:0:
101,194,202935,1,8,0:0:0:0:
61,220,203038,1,8,0:0:0:0:
44,268,203142,1,8,0:0:0:0:
60,316,203245,1,8,0:0:0:0:
102,346,203349,1,8,0:0:0:0:
138,300,203452,5,14,0:0:0:0:
177,262,203555,1,8,0:0:0:0:
230,253,203658,1,8,0:0:0:0:
280,276,203762,1,8,0:0:0:0:
321,309,203866,1,8,0:0:0:0:
371,332,203970,1,8,0:0:0:0:
424,323,204073,1,8,0:0:0:0:
463,285,204176,1,8,0:0:0:0:
468,226,204279,1,8,0:0:0:0:
451,170,204382,1,8,0:0:0:0:
410,137,204485,1,8,0:0:0:0:
355,131,204589,1,8,0:0:0:0:
315,165,204693,6,8,L|321:316,2,144
312,23,205313,1,8,0:0:0:0:
181,157,205520,2,0,P|276:181|345:132,1,144,8|0,0:0|0:0,0:0:0:0:
119,56,205934,2,0,B|82:85|82:85|81:188,1,144,8|0,0:0|0:0,0:0:0:0:
233,267,206348,2,0,P|138:243|69:292,1,144,8|0,0:0|0:0,0:0:0:0:
295,368,206762,2,0,B|331:338|331:338|332:235,1,144,8|0,0:0|0:0,0:0:0:0:
34,152,207175,5,8,0:0:0:0:
203,98,207382,1,8,0:0:0:0:
91,201,207589,1,8,0:0:0:0:
260,255,207796,1,8,0:0:0:0:
15,144,208003,5,8,0:0:0:0:
198,85,208210,1,8,0:0:0:0:
76,197,208417,1,8,0:0:0:0:
260,255,208624,1,8,0:0:0:0:
70,72,208830,5,12,0:0:0:0:
109,339,209037,1,12,0:0:0:0:
275,63,209244,1,12,0:0:0:0:
231,361,209451,1,12,0:0:0:0:
70,72,209658,5,8,0:0:0:0:
72,105,209761,1,0,0:0:0:0:
75,139,209864,1,0,0:0:0:0:
78,172,209968,1,0,0:0:0:0:
81,208,210071,2,0,B|144:195|144:195|225:219,2,125.999996154785,8|0|8,0:0|0:0|0:0,0:0:0:0:
107,343,210692,1,0,0:0:0:0:
251,311,210899,2,0,P|292:259|287:166,1,125.999996154785,8|0,0:0|0:0,0:0:0:0:
144,125,211313,5,8,0:0:0:0:
340,211,211520,1,8,0:0:0:0:
129,257,211726,1,8,0:0:0:0:
273,95,211933,1,8,0:0:0:0:
251,311,212140,1,8,0:0:0:0:
121,111,212347,5,8,0:0:0:0:
357,214,212554,1,8,0:0:0:0:
103,270,212760,1,8,0:0:0:0:
276,75,212967,1,8,0:0:0:0:
264,207,213175,6,0,L|260:248,3,41.9999987182618
276,75,213589,1,8,0:0:0:0:
206,152,213795,2,8,P|177:96|199:3,2,125.999996154785
405,105,214416,5,8,0:0:0:0:
209,191,214623,1,8,0:0:0:0:
420,237,214829,1,8,0:0:0:0:
276,75,215036,1,8,0:0:0:0:
298,291,215243,1,8,0:0:0:0:
512,118,215451,5,12,2:0:0:0:
388,23,215658,1,12,2:0:0:0:
298,147,215865,1,12,2:0:0:0:
417,237,216072,1,12,2:0:0:0:
246,28,216278,6,8,P|156:30|86:103,1,144
113,59,216899,1,8,0:0:0:0:
231,297,217106,2,8,B|224:225|224:225|206:202|206:202|195:75,1,180
246,28,217933,6,8,B|239:106|239:106|221:129|221:129|214:201,1,180
200,332,218554,1,8,0:0:0:0:
200,332,218761,2,0,P|264:295|329:298,1,135,8|0,0:0|0:0,0:0:0:0:
323,296,219175,2,0,L|333:197,1,90,8|0,0:0|0:0,0:0:0:0:
299,26,219589,6,0,B|359:80|359:80|446:26,1,161.999995056153,8|0,0:0|0:0,0:0:0:0:
428,37,220002,2,0,L|439:169,1,107.999996704102,8|0,0:0|0:0,0:0:0:0:
306,242,220416,6,8,B|413:210|375:291|514:231,2,180
214,273,221451,5,8,0:0:0:0:
295,328,221658,2,0,P|310:282|288:209,1,90,8|0,0:0|0:0,0:0:0:0:
210,47,222071,6,0,B|169:26|169:26|203:203,1,182.250000695229,8|0,0:0|0:0,0:0:0:0:
194,159,222485,2,0,P|125:153|88:171,1,90,8|0,0:0|0:0,0:0:0:0:
142,346,222899,6,0,L|151:238,2,107.999996704102,8|0|0,0:0|0:0|0:0,0:0:0:0:
26,295,223520,1,8,0:0:0:0:
26,295,223726,2,0,L|20:136,1,135,8|0,0:0|0:0,0:0:0:0:
20,160,224140,2,0,B|73:181|124:150,1,90,8|0,0:0|0:0,0:0:0:0:
243,54,224554,6,0,P|184:24|210:95,1,168.75,8|0,0:0|0:0,0:0:0:0:
196,94,224968,2,0,L|203:206,1,90,8|0,0:0|0:0,0:0:0:0:
211,354,225382,1,8,0:0:0:0:
220,336,225795,6,0,P|306:318|367:356,1,135,8|0,0:0|0:0,0:0:0:0:
346,336,226209,6,0,B|353:250|353:250|379:228|379:228|387:132,1,215.999993408203,8|0,0:0|0:0,0:0:0:0:
480,32,226830,1,8,0:0:0:0:
480,32,227037,2,0,L|496:200,1,161.999995056153,8|0,0:0|0:0,0:0:0:0:
495,193,227451,2,0,B|439:177|439:177|367:201,1,107.999996704102,8|0,0:0|0:0,0:0:0:0:
328,336,227864,2,0,L|480:344,2,107.999996704102,8|0|0,0:0|0:0|0:0,0:0:0:0:
160,320,228485,1,8,0:0:0:0:
160,320,228692,2,0,B|136:280|136:280|136:176,1,107.999996704102,8|0,0:0|0:0,0:0:0:0:
248,32,229106,2,0,B|272:72|272:72|272:176,1,107.999996704102,8|0,0:0|0:0,0:0:0:0:
242,347,229520,5,8,0:0:0:0:
252,275,229933,1,8,0:0:0:0:
262,204,230347,1,8,0:0:0:0:
272,133,230761,1,8,0:0:0:0:
477,239,231175,5,14,0:0:0:0:
410,287,231589,1,8,0:0:0:0:
330,301,232002,1,8,0:0:0:0:
252,275,232416,1,8,0:0:0:0:
48,48,232830,5,14,0:0:0:0:
52,137,233243,1,8,0:0:0:0:
57,227,233657,1,8,0:0:0:0:
62,317,234071,1,8,0:0:0:0:
320,144,234485,5,8,0:0:0:0:
320,144,234692,1,8,0:0:0:0:
184,224,234899,5,12,0:0:0:0:
376,256,235106,5,8,0:0:0:0:
376,256,235313,1,8,0:0:0:0:
152,88,235520,5,12,0:0:0:0:
272,80,235726,2,8,L|368:72,2,90
440,104,236554,5,8,0:0:0:0:
444,108,236761,2,8,P|443:63|423:23,2,90
384,288,237382,2,0,L|368:152,1,135,8|0,0:0|0:0,0:0:0:0:
368,153,237795,2,0,B|320:169|320:169|264:145,1,90,8|0,0:0|0:0,0:0:0:0:
192,40,238209,1,8,0:0:0:0:
192,40,238416,2,8,L|200:152,2,90
200,248,239037,1,8,0:0:0:0:
187,225,239451,6,0,P|104:205|36:273,1,180,8|0,0:0|0:0,0:0:0:0:
128,299,240071,1,8,0:0:0:0:
146,318,240485,1,8,0:0:0:0:
146,318,240692,2,0,L|268:327,1,90,8|0,0:0|0:0,0:0:0:0:
405,241,241106,2,8,L|396:131,2,90
386,56,241726,1,8,0:0:0:0:
386,56,241933,2,0,P|308:56|289:69,1,90,8|0,0:0|0:0,0:0:0:0:
224,172,242347,1,8,0:0:0:0:
224,172,242554,1,8,0:0:0:0:
75,39,242761,5,8,0:0:0:0:
56,200,242968,1,8,0:0:0:0:
157,71,243175,1,8,0:0:0:0:
176,232,243382,1,8,0:0:0:0:
274,61,243589,1,8,0:0:0:0:
255,222,243796,1,8,0:0:0:0:
356,93,244003,1,8,0:0:0:0:
375,254,244210,1,8,0:0:0:0:
200,124,244416,5,8,0:0:0:0:
447,196,244623,1,8,0:0:0:0:
204,198,244830,1,8,0:0:0:0:
451,126,245037,1,8,0:0:0:0:
291,318,245244,5,8,0:0:0:0:
363,71,245451,1,8,0:0:0:0:
365,314,245658,1,8,0:0:0:0:
293,67,245865,1,8,0:0:0:0:
497,282,246071,5,8,0:0:0:0:
497,282,246278,1,8,0:0:0:0:
164,103,246485,5,8,0:0:0:0:
164,103,246692,1,8,0:0:0:0:
345,298,246899,5,12,0:0:0:0:
263,10,247106,1,12,0:0:0:0:
160,293,247313,1,12,0:0:0:0:
407,123,247520,1,12,0:0:0:0:
72,168,247726,6,0,B|183:179|183:179|219:215|219:215|347:229,1,270,12|0,0:0|0:0,0:0:0:0:
326,226,248554,6,0,P|286:162|422:122,1,242.999992584229,12|0,0:0|0:0,0:0:0:0:
403,101,249382,6,0,B|425:92|345:122|345:122|266:96,2,144
472,32,250623,5,8,0:0:0:0:
472,32,251037,2,8,L|488:198,2,144
336,50,252278,1,8,0:0:0:0:
171,50,252692,6,0,P|211:89|216:163,1,90,8|0,0:0|0:0,0:0:0:0:
69,208,253106,2,0,P|85:166|118:137,1,90,8|0,0:0|0:0,0:0:0:0:
315,33,253520,5,8,0:0:0:0:
420,7,253726,1,8,0:0:0:0:
225,312,253933,5,8,0:0:0:0:
120,101,254140,1,8,0:0:0:0:
393,103,254347,6,0,B|439:234|331:213|388:352,1,252,12|0,0:0|0:0,0:0:0:0:
497,274,256002,6,8,P|454:243|358:257,2,135.000005149842
424,344,257243,1,8,0:0:0:0:
288,320,257657,2,8,L|278:173,1,135.000005149842
266,51,258484,1,8,0:0:0:0:
278,185,258898,6,8,B|211:204|211:204|128:176,2,135.000005149842
360,80,260140,1,8,0:0:0:0:
336,248,260553,1,8,0:0:0:0:
200,136,260967,2,8,P|120:112|64:144,1,135.000005149842
128,296,261588,5,8,0:0:0:0:
128,296,261795,2,8,L|136:168,1,90
144,64,262209,1,8,0:0:0:0:
40,240,262415,1,8,0:0:0:0:
320,88,262622,2,0,P|264:96|208:208,1,180,8|0,0:0|0:0,0:0:0:0:
312,192,263243,5,8,0:0:0:0:
312,192,263450,2,8,L|304:328,1,135,0|0,0:0|0:0,0:0:0:0:
304,326,263864,2,0,P|352:318|384:334,1,72,8|0,0:0|0:0,0:0:0:0:
488,176,264278,2,0,L|472:41,1,135,8|0,0:0|0:0,0:0:0:0:
472,41,264691,2,0,P|424:49|392:33,1,72,8|0,0:0|0:0,0:0:0:0:
152,48,265105,6,0,B|136:80|136:80|248:64,1,135,8|0,0:0|0:0,0:0:0:0:
234,65,265519,2,0,P|247:111|231:159,1,72,8|0,0:0|0:0,0:0:0:0:
40,248,265933,6,0,B|24:216|24:216|136:232,1,135,8|0,0:0|0:0,0:0:0:0:
122,231,266347,2,0,P|135:184|119:136,1,72,8|0,0:0|0:0,0:0:0:0:
178,319,266760,6,0,P|219:334|264:330,1,90,8|0,0:0|0:0,0:0:0:0:
122,231,267174,2,0,P|84:265|67:311,1,90,8|0,0:0|0:0,0:0:0:0:
234,223,267588,2,0,P|223:174|192:136,1,90,8|0,0:0|0:0,0:0:0:0:
178,319,268002,5,8,0:0:0:0:
178,319,268209,1,8,0:0:0:0:
128,170,268415,5,12,0:0:0:0:
383,167,268622,1,12,0:0:0:0:
178,319,268829,1,12,0:0:0:0:
254,75,269036,1,12,0:0:0:0:
350,321,269243,6,8,P|413:344|477:327,2,135.000005149842
424,120,270484,1,8,0:0:0:0:
424,120,270898,2,8,L|416:272,1,135.000005149842
256,352,271726,2,8,L|248:217,1,135.000005149842
240,64,272553,2,8,B|304:48|304:48|392:72,2,135.000005149842
120,112,273795,1,8,0:0:0:0:
32,160,274209,6,8,P|84:210|176:195,1,161.999995056153
272,128,274829,1,8,0:0:0:0:
296,32,275036,1,8,0:0:0:0:
160,64,275243,1,8,0:0:0:0:
360,144,275450,1,8,0:0:0:0:
192,256,275657,1,8,0:0:0:0:
472,320,275864,6,8,B|440:352|440:352|264:352,1,207.000003948212
64,280,276484,1,0,0:0:0:0:
64,280,276691,2,8,B|96:248|96:248|272:248,1,207.000003948212
456,240,277312,5,0,0:0:0:0:
456,240,277519,2,8,P|438:174|392:264,1,207.000003948212
496,120,278140,1,0,0:0:0:0:
496,120,278347,2,8,P|400:88|288:160,1,207.000003948212
160,320,278967,5,0,0:0:0:0:
160,320,279174,2,8,B|128:288|128:288|128:112,1,207.000003948212
272,32,279795,1,0,0:0:0:0:
272,32,280002,2,8,B|304:64|304:64|304:240,1,207.000003948212
168,336,280622,1,0,0:0:0:0:
168,336,280829,6,8,L|304:328,1,103.500001974106
456,320,281243,1,8,0:0:0:0:
456,320,281450,1,8,0:0:0:0:
184,216,281657,5,8,0:0:0:0:
352,136,281864,1,8,0:0:0:0:
280,304,282071,1,8,0:0:0:0:
160,40,282278,1,8,0:0:0:0:
184,216,282484,6,8,L|200:368,2,153.000002918243
160,40,283726,1,8,0:0:0:0:
160,40,284140,2,8,P|240:56|312:24,2,153.000002918243
24,32,285381,1,8,0:0:0:0:
24,32,285795,6,0,L|32:144,1,85.4999977169037,8|0,0:0|0:0,0:0:0:0:
120,272,286209,2,0,L|126:186,1,85.4999977169037,8|0,0:0|0:0,0:0:0:0:
160,62,286622,5,12,0:0:0:0:
334,174,286829,1,12,0:0:0:0:
126,186,287036,1,12,0:0:0:0:
287,54,287244,1,12,0:0:0:0:
234,256,287452,1,12,0:0:0:0:
234,256,289123,6,4,B|247:178|247:178|236:151|236:151|248:80,2,180,12|4|4,0:0|0:0|0:0,0:0:0:0:
480,208,290364,2,4,B|424:144|424:144|314:131,2,180,12|4|4,0:0|0:0|0:0,0:0:0:0:
152,296,291605,2,4,B|103:190|103:190|175:214,2,180,12|4|4,0:0|0:0|0:0,0:0:0:0:
160,32,292847,5,12,0:0:0:0:
40,352,293260,1,12,0:0:0:0:
472,128,293674,1,12,0:0:0:0:
56,80,294088,6,4,P|128:152|240:112,2,198.000006042481,12|4|4,0:0|0:0|0:0,0:0:0:0:
336,152,295329,2,4,B|344:208|384:240|384:240|336:272|328:352,2,198.000006042481,12|4|4,0:0|0:0|0:0,0:0:0:0:
72,232,296571,2,4,B|168:208|160:280|296:224,2,198.000006042481,12|4|4,0:0|0:0|0:0,0:0:0:0:
333,318,297812,5,12,0:0:0:0:
64,128,298226,1,12,0:0:0:0:
440,40,298640,1,8,0:0:0:0:
430,140,298847,1,8,0:0:0:0:
416,240,299054,6,4,B|340:233|340:233|318:207|318:207|230:199,2,198.000006042481,12|4|4,0:0|0:0|0:0,0:0:0:0:
160,112,300295,2,4,B|136:208|136:208|176:312,2,198.000006042481,12|4|4,0:0|0:0|0:0,0:0:0:0:
440,40,301536,2,4,B|383:124|383:124|343:36,2,198.000006042481,12|4|4,0:0|0:0|0:0,0:0:0:0:
136,40,302778,5,12,0:0:0:0:
136,56,303191,5,8,0:0:0:0:
279,230,303398,1,8,0:0:0:0:
60,172,303605,1,8,0:0:0:0:
271,90,303812,1,8,0:0:0:0:
64,320,304019,6,4,B|128:320|128:320|168:352|168:352|200:320|200:320|255:320,2,215.999993408203,12|4|4,0:0|0:0|0:0,0:0:0:0:
416,56,305260,2,4,B|360:32|360:32|416:192,2,215.999993408203,12|4|4,0:0|0:0|0:0,0:0:0:0:
152,240,306502,2,4,B|167:153|167:153|196:125|196:125|211:39,2,215.999993408203,12|4|4,0:0|0:0|0:0,0:0:0:0:
448,208,307743,5,8,0:0:0:0:
424,320,307950,1,8,0:0:0:0:
176,168,308157,1,8,0:0:0:0:
352,144,308364,1,8,0:0:0:0:
120,320,308571,1,8,0:0:0:0:
72,80,308778,1,8,0:0:0:0:
336,55,308985,6,0,P|260:133|272:192,1,153.000002918243,12|0,0:0|0:0,0:0:0:0:
424,258,309605,2,0,P|413:185|352:144,1,153.000002918243,8|0,0:0|0:0,0:0:0:0:
120,232,310226,6,8,B|232:200|208:280|344:224,1,215.999993408203
264,48,311467,2,0,L|272:168,1,107.999996704102,8|0,0:0|0:0,0:0:0:0:
271,155,312088,1,0,0:0:0:0:
56,160,312502,1,0,0:0:0:0:
56,160,312709,6,0,L|48:224,2,53.9999983520508
80,16,313329,1,8,0:0:0:0:
200,48,313536,1,8,0:0:0:0:
112,120,313743,1,8,0:0:0:0:
304,8,313950,6,0,B|297:-13|321:66|321:66|305:138,1,135.000005149842,8|0,0:0|0:0,0:0:0:0:
248,248,314571,1,0,0:0:0:0:
248,248,314778,2,0,L|328:256,1,67.5000025749208
464,320,315191,6,8,B|480:360|480:360|344:344,2,153.000002918243
400,144,316433,6,0,L|408:264,1,116.999994644165,8|0,0:0|0:0,0:0:0:0:
407,260,317054,1,0,0:0:0:0:
416,288,317467,1,0,0:0:0:0:
433,63,317674,6,0,P|396:57|359:66,2,76.5000014591217
400,144,318295,5,8,0:0:0:0:
255,231,318502,1,8,0:0:0:0:
256,14,318709,1,8,0:0:0:0:
293,319,318916,2,0,P|218:321|168:267,1,153.000002918243,8|0,0:0|0:0,0:0:0:0:
168,267,319536,1,0,0:0:0:0:
163,245,319950,5,0,0:0:0:0:
400,144,320157,2,0,P|413:202|422:126,1,233.999989288331,10|0,0:0|0:0,0:0:0:0:
308,194,321398,2,0,P|251:202|195:150,1,116.999994644165,8|0,0:0|0:0,0:0:0:0:
204,169,322019,1,0,0:0:0:0:
202,147,322433,5,0,0:0:0:0:
99,33,322640,2,0,L|14:21,2,76.5000014591217,8|0|0,0:0|0:0|0:0,0:0:0:0:
202,147,323260,1,8,0:0:0:0:
353,158,323467,1,8,0:0:0:0:
266,18,323674,1,8,0:0:0:0:
208,291,323881,2,0,P|117:335|50:311,1,153.000002918243,8|0,0:0|0:0,0:0:0:0:
70,323,324502,1,0,0:0:0:0:
50,348,324916,5,0,0:0:0:0:
115,82,325123,2,0,B|102:114|102:114|122:130|122:130|94:177|126:254,1,161.999995056153,10|0,0:0|0:0,0:0:0:0:
116,228,325743,1,8,0:0:0:0:
145,241,326157,1,0,0:0:0:0:
327,37,326364,2,0,B|386:62|386:62|511:30|511:30,1,161.999995056153,8|0,0:0|0:0,0:0:0:0:
480,37,326985,1,0,0:0:0:0:
485,71,327398,5,0,0:0:0:0:
280,123,327605,5,8,0:0:0:0:
358,136,327812,1,8,0:0:0:0:
491,207,328019,1,8,0:0:0:0:
413,220,328226,1,8,0:0:0:0:
275,282,328433,1,8,0:0:0:0:
353,295,328640,1,8,0:0:0:0:
492,359,328847,6,4,L|364:375,2,90
185,272,329467,2,4,L|311:285,2,90
54,48,330088,6,8,L|64:193,2,125.999996154785
5,249,331329,2,0,P|91:260|140:233,1,125.999996154785,8|0,0:0|0:0,0:0:0:0:
124,244,331950,2,0,L|120:369,1,125.999996154785
260,350,332571,6,0,L|268:273,2,76.5000014591217,8|0|0,0:0|0:0|0:0,0:0:0:0:
272,196,333191,1,8,0:0:0:0:
167,46,333398,1,8,0:0:0:0:
377,140,333605,1,8,0:0:0:0:
131,272,333812,6,0,B|188:278|188:278|208:297|208:297|324:310,1,170.999995433807,8|0,0:0|0:0,0:0:0:0:
293,306,334433,2,0,B|314:188|314:188|354:231,1,170.999995433807
476,357,335054,6,0,P|476:290|436:237,1,135.000005149842,8|0,0:0|0:0,0:0:0:0:
230,326,335881,1,8,0:0:0:0:
261,333,336295,2,0,L|410:322,1,135.000005149842,8|0,0:0|0:0,0:0:0:0:
395,323,336916,2,0,P|373:262|407:186,1,135.000005149842
240,33,337536,6,0,L|164:42,2,76.5000014591217,8|0|0,0:0|0:0|0:0,0:0:0:0:
27,32,338157,1,8,0:0:0:0:
216,117,338364,1,8,0:0:0:0:
59,247,338571,1,8,0:0:0:0:
293,340,338778,6,0,B|305:273|305:273|320:257|320:257|337:167,1,153.000002918243,8|0,0:0|0:0,0:0:0:0:
332,195,339398,2,0,P|254:198|215:132,1,153.000002918243
356,39,340019,2,0,P|350:107|461:26,1,306.000005836487,8|0,0:0|0:0,0:0:0:0:
276,108,341260,2,0,P|321:192|389:221,1,153.000002918243,8|0,0:0|0:0,0:0:0:0:
369,217,341881,2,0,L|356:373,1,153.000002918243
210,281,342502,2,0,L|108:296,2,76.5000014591217,8|0|0,0:0|0:0|0:0,0:0:0:0:
396,326,343123,1,8,0:0:0:0:
241,273,343329,1,8,0:0:0:0:
456,189,343536,1,8,0:0:0:0:
129,66,343743,6,0,P|213:108|277:41,1,170.999995433807,8|0,0:0|0:0,0:0:0:0:
268,68,344364,2,0,L|259:271,1,170.999995433807
38,197,344985,6,0,L|49:323,2,90,8|0|0,0:0|0:0|0:0,0:0:0:0:
38,197,345605,2,0,P|128:223|218:176,1,180
117,23,346226,6,0,L|123:140,1,103.500001974106,8|0,0:0|0:0,0:0:0:0:
304,215,346640,2,0,L|308:112,1,103.500001974106,8|0,0:0|0:0,0:0:0:0:
21,24,347054,2,0,L|27:141,1,103.500001974106,8|0,0:0|0:0,0:0:0:0:
386,297,347467,6,0,B|391:236|391:236|380:208|380:208|383:150,1,148.500001416206,12|0,0:0|0:0,0:0:0:0:
117,23,347881,2,0,B|120:80|120:80|109:108|109:108|114:169,1,148.500001416206,12|0,0:0|0:0,0:0:0:0:
467,274,348295,2,0,B|472:213|472:213|461:185|461:185|464:127,1,148.500001416206,12|0,0:0|0:0,0:0:0:0:
343,44,348709,5,4,0:0:0:0:
343,44,348915,1,4,0:0:0:0:
193,200,349122,5,12,0:0:0:0:
206,292,349329,1,12,0:0:0:0:
379,105,349536,1,12,0:0:0:0:
364,223,349743,1,12,0:0:0:0:
96,36,349950,1,12,0:0:0:0:
112,187,350157,1,12,0:0:0:0:
440,30,350364,1,12,0:0:0:0:
456,216,350571,6,0,L|464:296,1,67.5000025749208,12|0,0:0|0:0,0:0:0:0:
175,229,350777,1,8,0:0:0:0:
259,185,351191,5,8,0:0:0:0:
379,217,351398,1,8,0:0:0:0:
167,295,351605,1,8,0:0:0:0:
34,320,351812,1,8,0:0:0:0:
282,208,352019,1,8,0:0:0:0:
404,317,352226,1,8,0:0:0:0:
134,289,352433,1,8,0:0:0:0:
36,175,352640,6,0,L|27:93,1,67.5000025749208,12|0,0:0|0:0,0:0:0:0:
321,121,352847,1,8,0:0:0:0:
178,146,353260,5,8,0:0:0:0:
235,36,353467,1,8,0:0:0:0:
448,26,353674,1,8,0:0:0:0:
391,135,353881,1,8,0:0:0:0:
213,235,354088,1,8,0:0:0:0:
290,111,354295,1,8,0:0:0:0:
20,249,354502,1,8,0:0:0:0:
113,112,354709,6,0,L|166:38,1,67.5000025749208,12|0,0:0|0:0,0:0:0:0:
254,310,354915,1,8,0:0:0:0:
224,275,355329,5,8,0:0:0:0:
376,319,355536,1,8,0:0:0:0:
196,251,355743,1,8,0:0:0:0:
376,182,355950,1,8,0:0:0:0:
156,241,356157,1,8,0:0:0:0:
302,83,356364,1,8,0:0:0:0:
161,335,356571,1,12,0:0:0:0:
152,40,356778,1,12,0:0:0:0:
44,194,356984,5,8,0:0:0:0:
46,227,357087,1,0,0:0:0:0:
49,261,357190,1,0,0:0:0:0:
52,294,357294,1,0,0:0:0:0:
55,328,357397,2,0,P|140:344|186:317,1,112.5,8|0,0:0|0:0,0:0:0:0:
232,239,357811,5,8,0:0:0:0:
193,229,357914,1,0,0:0:0:0:
168,198,358017,1,0,0:0:0:0:
167,159,358121,1,0,0:0:0:0:
190,127,358224,1,0,0:0:0:0:
228,115,358328,1,0,0:0:0:0:
265,128,358431,1,0,0:0:0:0:
286,161,358535,1,0,0:0:0:0:
296,200,358639,2,0,P|322:234|392:256,1,112.5,8|0,0:0|0:0,0:0:0:0:
384,48,359052,5,8,0:0:0:0:
382,79,359155,1,0,0:0:0:0:
380,110,359258,1,0,0:0:0:0:
379,142,359362,1,0,0:0:0:0:
376,176,359466,2,0,L|200:200,1,168.75,8|0,0:0|0:0,0:0:0:0:
96,80,359880,2,0,L|288:96,1,168.75,8|0,0:0|0:0,0:0:0:0:
240,136,360294,5,8,0:0:0:0:
225,176,360397,1,0,0:0:0:0:
226,219,360500,1,0,0:0:0:0:
245,257,360604,1,0,0:0:0:0:
280,280,360708,2,0,L|152:296,1,112.5,8|0,0:0|0:0,0:0:0:0:
32,304,361121,5,8,0:0:0:0:
34,271,361224,1,0,0:0:0:0:
36,239,361327,1,0,0:0:0:0:
38,207,361431,1,0,0:0:0:0:
40,175,361534,1,0,0:0:0:0:
43,143,361638,1,0,0:0:0:0:
45,111,361741,1,0,0:0:0:0:
47,79,361845,1,0,0:0:0:0:
80,56,361949,5,8,0:0:0:0:
124,44,362052,1,0,0:0:0:0:
169,53,362155,1,0,0:0:0:0:
205,81,362259,1,0,0:0:0:0:
238,115,362363,1,8,0:0:0:0:
273,143,362467,1,0,0:0:0:0:
318,152,362570,1,0,0:0:0:0:
363,140,362673,1,0,0:0:0:0:
400,112,362777,6,0,L|424:256,1,112.5,8|0,0:0|0:0,0:0:0:0:
176,248,363190,2,0,P|222:227|288:240,1,112.5,8|0,0:0|0:0,0:0:0:0:
464,336,363604,5,8,0:0:0:0:
442,344,363707,1,0,0:0:0:0:
419,345,363810,1,0,0:0:0:0:
397,339,363914,1,0,0:0:0:0:
380,331,364018,1,0,0:0:0:0:
357,324,364122,1,0,0:0:0:0:
334,326,364225,1,0,0:0:0:0:
313,334,364328,1,0,0:0:0:0:
288,352,364432,5,8,0:0:0:0:
233,363,364535,1,0,0:0:0:0:
184,339,364638,1,0,0:0:0:0:
159,290,364742,1,0,0:0:0:0:
170,236,364845,1,0,0:0:0:0:
211,199,364949,1,0,0:0:0:0:
266,196,365052,1,0,0:0:0:0:
312,227,365156,1,0,0:0:0:0:
328,280,365259,6,0,P|424:288|464:256,1,112.5,8|0,0:0|0:0,0:0:0:0:
392,72,365673,2,0,L|384:216,1,112.5,8|0,0:0|0:0,0:0:0:0:
126,184,366087,2,0,L|120:72,1,112.5,8|0,0:0|0:0,0:0:0:0:
416,56,366501,2,0,L|408:200,1,112.5,8|0,0:0|0:0,0:0:0:0:
304,328,366915,5,8,0:0:0:0:
301,302,367018,1,0,0:0:0:0:
298,276,367121,1,0,0:0:0:0:
295,250,367225,1,0,0:0:0:0:
293,224,367328,1,0,0:0:0:0:
290,198,367432,1,0,0:0:0:0:
287,172,367535,1,0,0:0:0:0:
285,146,367639,1,0,0:0:0:0:
272,112,367742,5,8,0:0:0:0:
246,74,367845,1,0,0:0:0:0:
205,55,367948,1,0,0:0:0:0:
160,61,368052,1,0,0:0:0:0:
125,89,368155,1,0,0:0:0:0:
109,131,368259,1,0,0:0:0:0:
118,175,368362,1,0,0:0:0:0:
149,209,368466,1,0,0:0:0:0:
184,224,368570,6,0,P|144:320|152:352,1,112.5,8|0,0:0|0:0,0:0:0:0:
232,128,368984,2,0,P|176:122|112:150,1,121.500000463486,8|0,0:0|0:0,0:0:0:0:
344,128,369397,2,8,P|280:45|201:28,1,130.500003982544,0|0,0:0|0:0,0:0:0:0:
403,217,369811,2,0,P|435:172|440:73,1,139.500001064301,8|0,0:0|0:0,0:0:0:0:
304,216,370225,5,12,0:0:0:0:
314,258,370328,1,0,0:0:0:0:
341,293,370431,1,0,0:0:0:0:
379,314,370535,1,0,0:0:0:0:
408,272,370639,5,12,0:0:0:0:
364,260,370742,1,0,0:0:0:0:
319,269,370845,1,0,0:0:0:0:
283,297,370949,1,0,0:0:0:0:
250,331,371053,1,0,0:0:0:0:
215,359,371157,1,0,0:0:0:0:
170,368,371260,1,0,0:0:0:0:
125,356,371363,1,0,0:0:0:0:
96,328,371466,6,0,L|80:224,1,90,12|0,0:0|0:0,0:0:0:0:
120,56,371673,1,0,0:0:0:0:
169,31,371776,1,0,0:0:0:0:
222,31,371879,1,0,0:0:0:0:
270,54,371983,1,0,0:0:0:0:
302,97,372086,1,0,0:0:0:0:
312,149,372190,1,0,0:0:0:0:
296,200,372294,6,0,L|184:184,1,90,12|0,0:0|0:0,0:0:0:0:
66,70,372501,1,0,0:0:0:0:
75,129,372604,1,0,0:0:0:0:
125,163,372707,1,0,0:0:0:0:
184,150,372811,1,0,0:0:0:0:
215,97,372914,1,0,0:0:0:0:
197,39,373018,1,0,0:0:0:0:
144,81,373121,5,8,0:0:0:0:
139,152,373224,1,8,0:0:0:0:
136,224,373327,1,8,0:0:0:0:
132,297,373431,1,8,0:0:0:0:
128,368,373535,6,8,L|320:352,2,180
390,343,374777,1,8,0:0:0:0:
36,257,375190,1,8,0:0:0:0:
466,141,375604,5,8,0:0:0:0:
345,129,375811,1,8,0:0:0:0:
227,119,376018,1,8,0:0:0:0:
490,225,376432,5,8,0:0:0:0:
35,257,376846,5,8,0:0:0:0:
285,346,377259,1,8,0:0:0:0:
227,119,377673,1,8,0:0:0:0:
36,257,378087,1,8,0:0:0:0:
285,346,378501,1,8,0:0:0:0:
227,119,378915,5,8,0:0:0:0:
36,257,379121,1,8,0:0:0:0:
285,346,379328,1,8,0:0:0:0:
306,52,379742,5,8,0:0:0:0:
374,293,380156,5,8,0:0:0:0:
101,179,380570,1,8,0:0:0:0:
388,110,380984,1,8,0:0:0:0:
196,335,381397,1,8,0:0:0:0:
219,40,381811,1,8,0:0:0:0:
374,293,382225,5,8,0:0:0:0:
238,242,382432,1,8,0:0:0:0:
101,179,382639,1,8,0:0:0:0:
388,110,383052,5,8,0:0:0:0:
196,335,383466,5,8,0:0:0:0:
47,37,383880,1,8,0:0:0:0:
87,333,384294,1,8,0:0:0:0:
256,24,384708,1,8,0:0:0:0:
392,334,385121,5,8,0:0:0:0:
410,188,385328,1,8,0:0:0:0:
430,33,385535,1,8,0:0:0:0:
81,135,385949,6,0,B|160:144|160:144|182:162|182:162|276:171,1,180,12|0,0:0|0:0,0:0:0:0:
410,188,386569,1,8,0:0:0:0:
410,188,386776,2,0,B|434:220|434:220|306:236,1,153.000002918243,8|0,0:0|0:0,0:0:0:0:
24,245,387604,6,0,P|106:275|142:372,1,180,8|0,0:0|0:0,0:0:0:0:
143,356,388224,2,0,L|159:191,1,153.000002918243,8|0,0:0|0:0,0:0:0:0:
176,24,388845,1,8,0:0:0:0:
176,48,389259,6,0,P|208:104|232:32,1,153.000002918243,8|0,0:0|0:0,0:0:0:0:
56,32,389880,1,8,0:0:0:0:
56,32,390086,2,8,L|40:184,2,153.000002918243
136,128,391121,2,0,B|216:152|216:152|304:120,1,153.000002918243,8|0,0:0|0:0,0:0:0:0:
281,128,391742,2,0,P|256:192|312:272,1,153.000002918243,8|0,0:0|0:0,0:0:0:0:
456,40,392569,6,0,B|501:26|501:26|454:190,1,180,8|0,0:0|0:0,0:0:0:0:
429,288,393190,1,8,0:0:0:0:
429,288,393397,2,0,L|261:304,1,153.000002918243,8|0,0:0|0:0,0:0:0:0:
64,200,394224,6,0,P|96:112|143:223,1,270,8|0,0:0|0:0,0:0:0:0:
56,40,395052,2,0,P|157:33|207:58,1,153.000002918243,8|0,0:0|0:0,0:0:0:0:
272,272,395880,6,0,L|288:120,1,153.000002918243,8|0,0:0|0:0,0:0:0:0:
256,32,396500,1,8,0:0:0:0:
256,32,396707,2,8,B|344:8|320:72|424:32,2,153.000002918243
288,128,397742,2,0,P|200:157|136:117,1,153.000002918243,8|0,0:0|0:0,0:0:0:0:
64,72,398362,2,0,L|48:176,1,76.5000014591217,8|0,0:0|0:0,0:0:0:0:
184,288,398776,2,0,L|195:212,1,76.5000014591217,8|0,0:0|0:0,0:0:0:0:
228,17,399190,5,14,0:0:0:0:
325,380,399604,1,8,0:0:0:0:
72,123,400017,1,8,0:0:0:0:
428,183,400431,1,8,2:0:0:0:
105,344,400845,5,14,2:0:0:0:
384,72,401259,1,8,0:0:0:0:
80,240,401673,1,8,0:0:0:0:
400,304,402086,1,8,0:0:0:0:
160,56,402500,5,14,0:0:0:0:
256,256,402914,1,8,0:0:0:0:
352,56,403328,1,8,0:0:0:0:
256,328,403742,1,8,0:0:0:0:
120,177,404155,5,12,0:0:0:0:
256,192,404362,1,12,0:0:0:0:
399,207,404569,1,12,0:0:0:0:
188,41,404776,5,12,0:0:0:0:
256,192,404983,1,12,0:0:0:0:
326,350,405190,1,12,0:0:0:0:
376,48,405397,5,12,0:0:0:0:
128,352,405604,1,12,0:0:0:0:
58,267,405811,6,0,P|148:241|225:294,1,180,8|0,0:0|0:0,0:0:0:0:
128,352,406431,1,8,0:0:0:0:
72,88,406845,5,8,0:0:0:0:
72,88,407052,2,0,P|160:104|198:139,1,114.750002188683,8|0,0:0|0:0,0:0:0:0:
178,118,407466,2,0,L|192:24,2,76.5000014591217,8|0|0,0:0|0:0|0:0,0:0:0:0:
401,123,408086,6,0,P|438:127|491:164,1,90,8|0,0:0|0:0,0:0:0:0:
295,85,408500,2,0,P|317:54|368:24,1,90,8|0,0:0|0:0,0:0:0:0:
273,316,408914,1,8,0:0:0:0:
241,207,409121,6,0,B|347:176|326:262|454:195,1,180,8|0,0:0|0:0,0:0:0:0:
393,60,409742,1,8,0:0:0:0:
393,60,409949,2,0,P|375:158|386:178,1,90,8|0,0:0|0:0,0:0:0:0:
479,351,410362,2,8,P|403:286|380:285,1,90,0|0,0:0|0:0,0:0:0:0:
218,324,410776,5,8,0:0:0:0:
218,324,410983,1,8,0:0:0:0:
90,41,411190,1,8,0:0:0:0:
74,157,411397,2,0,P|165:126|203:23,1,180,8|0,0:0|0:0,0:0:0:0:
44,236,412017,2,0,L|62:367,1,107.999996704102,8|0,0:0|0:0,0:0:0:0:
267,127,412431,5,8,0:0:0:0:
267,127,412638,1,8,0:0:0:0:
164,273,412845,1,8,0:0:0:0:
164,273,413052,1,8,0:0:0:0:
392,124,413259,1,8,0:0:0:0:
392,124,413466,1,8,0:0:0:0:
57,221,413673,1,8,0:0:0:0:
57,221,413880,1,8,0:0:0:0:
457,219,414086,6,0,L|309:207,1,107.999996704102,8|0,0:0|0:0,0:0:0:0:
0,142,414500,2,0,L|148:130,1,107.999996704102,8|0,0:0|0:0,0:0:0:0:
374,111,414914,1,8,0:0:0:0:
379,110,415121,1,8,0:0:0:0:
75,315,415328,1,8,0:0:0:0:
70,314,415535,1,8,0:0:0:0:
367,278,415742,5,8,0:0:0:0:
161,97,415949,1,8,0:0:0:0:
257,354,416155,5,8,0:0:0:0:
255,32,416362,1,8,0:0:0:0:
138,309,416569,5,12,0:0:0:0:
373,74,416776,1,12,0:0:0:0:
50,191,416983,5,12,0:0:0:0:
461,192,417190,1,12,0:0:0:0:
50,191,417397,6,12,P|167:246|73:157,1,323.999990112305
396,143,418224,2,0,P|360:261|462:191,1,323.999990112305,12|0,0:0|0:0,0:0:0:0:
256,48,419052,2,0,L|256:264,2,215.999993408203,12|0|0,0:0|0:0|0:0,0:0:0:0:
112,336,420293,5,8,0:0:0:0:
400,192,420707,1,8,0:0:0:0:
112,48,421121,1,8,0:0:0:0:
400,192,421535,1,8,0:0:0:0:
112,336,421949,1,8,0:0:0:0:
440,352,422362,2,0,L|304:336,1,107.999996704102,8|0,0:0|0:0,0:0:0:0:
64,224,422776,2,0,L|200:208,1,107.999996704102,8|0,0:0|0:0,0:0:0:0:
400,176,423190,5,8,0:0:0:0:
136,289,423397,1,8,0:0:0:0:
281,43,423604,1,8,0:0:0:0:
309,327,423811,1,8,0:0:0:0:
64,152,424017,6,0,P|32:72|152:152,1,377.999988464356,14|0,0:0|0:0,0:0:0:0:
119,254,425673,6,8,P|181:230|248:238,2,135.000005149842
195,347,426914,1,8,0:0:0:0:
344,289,427328,2,8,B|354:136,1,135.000005149842
415,50,428155,1,8,0:0:0:0:
353,154,428569,2,8,P|421:177|491:147,2,135.000005149842
220,26,429811,2,8,B|228:160,1,135.000005149842
34,330,430638,6,8,B|113:301|113:301|156:320|184:333,2,161.999995056153
436,187,431880,5,8,0:0:0:0:
448,36,432086,1,8,0:0:0:0:
134,50,432293,2,0,B|117:109|117:109|139:160|139:160|123:209|123:209|146:298,1,243.000000926971,10|0,0:0|0:0,0:0:0:0:
258,342,432914,1,8,0:0:0:0:
435,186,433121,2,10,B|374:164|374:164|333:199|333:199|287:164|287:164|207:188,1,243.000000926971
56,203,433742,1,8,0:0:0:0:
150,73,433949,6,0,B|269:45|269:45|314:78|314:78|398:54,1,243.000000926971,10|0,0:0|0:0,0:0:0:0:
472,161,434569,1,8,0:0:0:0:
258,342,434776,2,0,B|213:250|213:250|212:166|212:166|258:233|258:233,1,243.000000926971,10|0,0:0|0:0,0:0:0:0:
367,329,435397,1,8,0:0:0:0:
33,318,435604,6,0,B|149:283|149:283|176:342|176:342|94:369,1,243.000000926971,10|0,0:0|0:0,0:0:0:0:
63,190,436224,1,8,0:0:0:0:
206,21,436431,2,0,B|192:73|192:73|214:102|214:102|201:142|201:142|226:183|226:183|214:253,1,243.000000926971,10|0,0:0|0:0,0:0:0:0:
41,190,437052,1,8,0:0:0:0:
303,55,437259,6,0,P|354:154|340:241,1,182.250000695229,8|0,0:0|0:0,0:0:0:0:
347,221,437673,2,0,B|409:200|409:200|485:232,1,121.500000463486,8|0,0:0|0:0,0:0:0:0:
258,349,438086,1,8,0:0:0:0:
232,152,438293,1,8,0:0:0:0:
440,328,438500,1,8,0:0:0:0:
136,104,438707,1,8,0:0:0:0:
460,221,438914,6,8,B|381:234|381:234|360:256|360:256|272:272,2,198.000006042481,14|8|8,0:0|0:0|0:0,0:0:0:0:
400,88,440155,1,8,0:0:0:0:
256,24,440569,2,8,B|264:71|264:71|254:105|254:105|275:134|275:134|289:213,2,180
304,304,441811,1,8,0:0:0:0:
110,199,442224,2,8,B|214:167|190:239|310:183,2,180
320,304,443466,6,0,P|360:256|376:136,1,168.75,8|0,0:0|0:0,0:0:0:0:
379,153,443880,6,0,B|323:121|323:121|328:40|328:40|384:16,1,198.000006042481,8|0,0:0|0:0,0:0:0:0:
480,88,444500,1,8,0:0:0:0:
464,216,444707,1,8,0:0:0:0:
152,304,444914,1,8,0:0:0:0:
124,86,445121,1,8,0:0:0:0:
432,216,445328,1,8,0:0:0:0:
32,312,445535,6,0,B|112:216|112:216|248:216,1,243.000000926971,10|0,0:0|0:0,0:0:0:0:
352,280,446155,1,8,0:0:0:0:
352,280,446362,2,0,B|344:192|344:192|376:136|376:136|352:32,1,243.000000926971,10|0,0:0|0:0,0:0:0:0:
80,128,446983,1,8,0:0:0:0:
80,128,447190,6,0,B|144:88|144:88|200:104|208:152|208:152|280:120|280:120,1,243.000000926971,10|0,0:0|0:0,0:0:0:0:
456,40,447811,1,8,0:0:0:0:
456,40,448017,2,0,B|440:96|440:96|480:120|480:120|440:272,1,243.000000926971,10|0,0:0|0:0,0:0:0:0:
328,344,448638,1,8,0:0:0:0:
328,344,448845,6,0,B|224:352|224:352|144:328|144:328|248:296,1,243.000000926971,10|0,0:0|0:0,0:0:0:0:
312,256,449466,1,8,0:0:0:0:
312,256,449673,2,0,P|272:160|376:24,1,243.000000926971,10|0,0:0|0:0,0:0:0:0:
406,157,450293,1,8,0:0:0:0:
406,157,450500,6,0,B|311:162|311:162|272:184|272:184|142:189,1,243.000000926971,10|0,0:0|0:0,0:0:0:0:
97,274,451121,1,8,0:0:0:0:
336,32,451328,1,8,0:0:0:0:
284,368,451535,1,8,0:0:0:0:
128,66,451742,1,8,0:0:0:0:
432,219,451949,1,8,0:0:0:0:
62,174,452155,6,8,P|168:203|205:288,2,180
88,289,453397,1,8,0:0:0:0:
247,359,453811,6,8,B|256:287|256:287|277:265|277:265|287:183,2,180
387,232,455052,1,8,0:0:0:0:
323,111,455466,6,0,L|200:122,1,112.5,8|0,0:0|0:0,0:0:0:0:
88,131,455880,1,8,0:0:0:0:
88,131,456086,1,8,0:0:0:0:
234,37,456293,1,8,0:0:0:0:
196,341,456500,1,8,0:0:0:0:
196,341,456707,1,8,0:0:0:0:
409,155,456914,1,8,0:0:0:0:
24,291,457121,5,14,0:0:0:0:
256,192,457224,12,4,460017,0:0:0:0:
