osu file format v14

[General]
AudioFilename: audio.mp3
AudioLeadIn: 0
PreviewTime: 161092
Countdown: 0
SampleSet: Normal
StackLeniency: 0.7
Mode: 1
LetterboxInBreaks: 0
WidescreenStoryboard: 1

[Editor]
Bookmarks: 4014,4825,8338,8473,8609,8879,9139,30215,38863,47647,60619,69269,80620,91430,100078,112916,123862,132511,141160,152511,161159,178456,186970,195619,204402,208727,226294
DistanceSpacing: 0.4
BeatDivisor: 4
GridSize: 16
TimelineZoom: 2.4

[Metadata]
Title:Ave Mujica
TitleUnicode:Ave Mujica
Artist:Ave Mujica
ArtistUnicode:Ave Mujica
Creator:iRedi
Version:2199's Inner Oni
Source:BanG Dream! It's MyGO!!!!!
Tags:gaston gaston_2199 kanpakyin kpy japanese metal anime alea jacta est バンドリ! ガールズバンドパーティ! bandori! gbp girls band party! garupa bushiroad 1st mini 上松範康 agematsu noriyasu 織田あすか asuka oda elements garden doloris mortis timoris amoris oblivionis 祐天寺 にゃむ yutenji nyamu 米澤茜 yonezawa akane 八幡海鈴 yahata umiri 岡田夢以 okada mei 若葉睦 wakaba mutsumi 渡瀬結月 watase yuzuki 三角初華 misumi uika 佐々木李子 sasaki riko rico 豊川祥子 togawa sakiko 高尾奏音 takao kanon
BeatmapID:4383392
BeatmapSetID:2068530

[Difficulty]
HPDrainRate:5.5
CircleSize:2
OverallDifficulty:6
ApproachRate:10
SliderMultiplier:1.4
SliderTickRate:1

[Events]
//Background and Video events
0,0,"BG.jpg",0,40
Video,-375,"output.mp4"
//Break Periods
//Storyboard Layer 0 (Background)
//Storyboard Layer 1 (Fail)
//Storyboard Layer 2 (Pass)
//Storyboard Layer 3 (Foreground)
//Storyboard Layer 4 (Overlay)
//Storyboard Sound Samples

[TimingPoints]
501,270.27027027027,4,1,0,70,1,0
501,-125,4,1,0,70,0,0
2653,270.27027027027,4,1,0,70,1,0
2653,-125,4,1,0,70,0,0
3999,-100,4,1,0,80,0,0
4815,270.27027027027,4,1,0,70,1,8
4825,270.27027027027,4,1,0,70,1,0
4960,-125,4,1,0,70,0,0
6977,270.27027027027,4,1,0,70,1,0
6977,-125,4,1,0,70,0,0
8863,-117.516629711752,4,1,0,70,0,0
9139,270.27027027027,4,1,0,70,1,0
9139,-110.107635,4,1,0,70,0,0
9404,-108.73383,4,1,0,70,0,0
9674,-107.3939,4,1,0,70,0,0
9809,-106.73622,4,1,0,70,0,0
9944,-106.08656,4,1,0,70,0,0
10215,-104.80602,4,1,0,70,0,0
10485,-103.560585,4,1,0,70,0,0
10755,-102.3444,4,1,0,70,0,0
11025,-101.15645,4,1,0,70,0,0
11566,-98.85724,4,1,0,70,0,0
12106,-96.6642,4,1,0,70,0,0
12242,-96.127144,4,1,0,70,0,0
12377,-95.5999,4,1,0,70,0,0
12647,-94.56255,4,1,0,70,0,0
12917,-93.547485,4,1,0,70,0,0
13188,-92.55035,4,1,0,70,0,0
13458,-91.5778,4,1,0,70,0,0
13998,-89.692764,4,1,0,70,0,0
14133,-89.233574,4,1,0,70,0,0
14269,-88.7757,4,1,0,70,0,0
14539,-87.880486,4,1,0,70,0,0
14809,-87.00314,4,1,0,70,0,0
15079,-86.14315,4,1,0,70,0,0
15350,-85.29689,4,1,0,70,0,0
15890,-83.65925,4,1,0,70,0,0
16717,-111.111111111111,4,1,0,70,0,0
17782,-111.13752,4,1,0,70,0,0
18052,-112.58211,4,1,0,70,0,0
18323,-114.070305,4,1,0,70,0,0
18593,-115.59266,4,1,0,70,0,0
18863,-117.1562,4,1,0,70,0,0
19133,-118.76262,4,1,0,70,0,0
19269,-119.58857,4,1,0,70,0,0
19404,-120.41991,4,1,0,70,0,0
19674,-122.11771,4,1,0,70,0,0
19809,-122.984695,4,1,0,70,0,0
19944,-123.86409,4,1,0,70,0,0
20215,-125.6679,4,1,0,70,0,0
20484,-127.51109,4,1,0,70,0,0
20755,-129.42351,4,1,0,70,0,0
20890,-130.39775,4,1,0,70,0,0
21030,279.06976744186,4,1,0,70,1,0
21030,-127.243935,4,1,0,70,0,0
21304,-129.27023,4,1,0,70,0,0
21583,-131.36212,4,1,0,70,0,0
21862,-133.52283,4,1,0,70,0,0
22146,265.78073089701,4,1,0,70,1,0
22146,-142.54358,4,1,0,70,0,0
22406,-144.84431,4,1,0,70,0,0
22672,-147.22969,4,1,0,70,0,0
22943,292.682926829268,4,1,0,70,1,8
22943,-135.9356,4,1,0,70,0,8
23084,-137.19647,4,1,0,70,0,8
23237,270.27027027027,4,1,0,70,1,0
23237,-149.98401,4,1,0,70,0,0
23502,-152.62695,4,1,0,70,0,0
23777,315.78947368421,4,1,0,70,1,8
23777,-132.96982,4,1,0,70,0,8
24092,310.880829015544,4,1,0,70,1,8
24092,-137.95638,4,1,0,70,0,8
24242,-139.42279,4,1,0,70,0,8
24402,310.880829015544,4,1,0,70,1,0
24402,-140.9207,4,1,0,70,0,0
24713,379.746835443038,4,1,0,70,1,8
24713,-117.90679,4,1,0,70,0,8
25087,-121.21145,4,1,0,70,0,8
25504,416.666666666667,4,1,0,70,1,8
25504,-113.87447,4,1,0,70,0,8
25707,-115.67354,4,1,0,70,0,8
25888,461.538461538462,4,1,0,70,1,0
25888,-105.842415,4,1,0,70,0,0
26349,521.739130434783,4,1,0,70,1,8
26349,-97.09745,4,1,0,70,0,8
26870,612.244897959184,4,1,0,70,1,8
26870,-86.358505,4,1,0,70,0,8
27467,-90.9090909090909,4,1,0,70,0,0
28070,600,4,1,0,70,1,0
29270,270.27027027027,4,1,0,70,1,0
29270,-90.9090909090909,4,1,0,70,0,0
29334,-92.096286911607,4,1,0,70,0,0
29402,-93.3333333333333,4,1,0,70,0,0
29469,-94.5851266139526,4,1,0,70,0,0
29537,-95.8904109589041,4,1,0,70,0,0
29604,-97.2122209649213,4,1,0,70,0,0
29672,-98.5915492957747,4,1,0,70,0,0
29739,-99.989419109089,4,1,0,70,0,0
29807,-101.449275362319,4,1,0,70,0,0
29875,-102.952391328031,4,1,0,70,0,0
29942,-104.477611940299,4,1,0,70,0,0
30010,-106.072510943989,4,1,0,70,0,0
30077,-107.692307692308,4,1,0,70,0,0
30210,-100,4,1,0,70,0,0
30351,270.27027027027,4,1,0,80,1,0
47783,-100,4,1,0,40,0,0
48725,-106.666666666667,4,1,0,40,0,0
49806,-114.285714285714,4,1,0,40,0,0
50887,-123.076923076923,4,1,0,40,0,0
51968,-133.333333333333,4,1,0,40,0,0
60616,-100,4,1,0,70,0,0
67106,-83.3333333333333,4,1,0,70,0,0
67643,-100,4,1,0,70,0,0
67824,-105.27850685331,4,1,0,70,0,0
68004,-111.111111111111,4,1,0,70,0,0
68184,-83.3333333333333,4,1,0,70,0,0
68522,-100,4,1,0,70,0,0
68589,-100.908721009087,4,1,0,70,0,0
68657,-101.848049281314,4,1,0,70,0,0
68725,-102.805029708443,4,1,0,70,0,0
68860,-104.759222754154,4,1,0,70,0,0
68995,-106.789148844553,4,1,0,70,0,0
69130,-108.899297423888,4,1,0,70,0,0
69268,-111.111111111111,3,1,0,50,0,8
69269,270.27027027027,3,1,0,50,1,0
69269,-111.111111111111,3,1,0,50,0,0
80620,270.27027027027,4,1,0,70,1,0
80755,-125,4,1,0,70,0,0
82174,-100,4,1,0,70,0,0
82917,-125,4,1,0,70,0,0
84268,-100,4,1,0,70,0,0
85147,-111.111111111111,4,1,0,70,0,0
85282,-100,4,1,0,70,0,0
85484,-111.111111111111,4,1,0,70,0,0
85890,-100,4,1,0,70,0,0
86228,-111.111111111111,4,1,0,70,0,0
86363,-100,4,1,0,70,0,0
86633,-111.111111111111,4,1,0,70,0,0
87106,281.69014084507,4,1,0,70,1,0
87106,-87.2235872235873,4,1,0,70,0,0
87290,-89.9393399393401,4,1,0,70,0,0
87478,-92.8455956816219,4,1,0,70,0,0
87666,-95.9459459459461,4,1,0,70,0,0
87854,-99.2605063718626,4,1,0,70,0,0
88041,-102.792707074344,4,1,0,70,0,0
88232,250,4,1,0,70,1,0
88232,-98.2800982800983,4,1,0,70,0,0
88291,-99.0242807536408,4,1,0,70,0,0
88354,-99.7920997920998,4,1,0,70,0,0
88416,-100.559445716335,4,1,0,70,0,0
88479,-101.351351351351,4,1,0,70,0,0
88541,-102.142959285816,4,1,0,70,0,0
88604,-102.960102960103,4,1,0,70,0,0
88666,-103.777142046693,4,1,0,70,0,0
88729,-104.62074978204,4,1,0,70,0,0
88791,-105.464465506089,4,1,0,70,0,0
88854,-106.335844040762,4,1,0,70,0,0
88916,-107.207564565756,4,1,0,70,0,0
88979,-108.108108108108,4,1,0,70,0,0
89232,250,4,1,0,70,1,8
89268,276.497695852535,4,1,0,50,1,0
89268,-50,4,1,0,50,0,0
90078,-111.111111111111,4,1,0,50,0,0
90581,307.692307692308,4,1,0,70,1,8
90581,-111.111111111111,4,1,0,70,0,0
90888,270.27027027027,4,1,0,70,1,8
90888,-111.111111111111,4,1,0,70,0,0
90949,-108.091908091908,4,1,0,70,0,0
91016,-105.273399494065,4,1,0,70,0,0
91084,-102.559241706161,4,1,0,70,0,0
91151,-100.018487705676,4,1,0,70,0,0
91219,-97.5653742110009,4,1,0,70,0,0
91287,-95.2297130786833,4,1,0,70,0,0
91430,270.27027027027,4,1,0,85,1,1
91430,-90.9090909090909,4,1,0,85,0,1
91565,-100,4,1,0,85,0,1
97913,-90.9090909090909,4,1,0,85,0,1
97981,-92.1129503407984,4,1,0,85,0,1
98048,-93.3307024467245,4,1,0,85,0,1
98116,-94.6,4,1,0,85,0,1
98183,-95.8848570849382,4,1,0,85,0,1
98318,-98.582742809504,4,1,0,85,0,1
98589,-104.484205875856,4,1,0,85,0,1
98859,-90.9090909090909,4,1,0,85,0,1
98994,-111.111111111111,4,1,0,85,0,1
99129,-108.110811081108,4,1,0,85,0,1
99197,-106.660088801184,4,1,0,85,0,1
99264,-105.268283182394,4,1,0,85,0,1
99399,-102.571401461239,4,1,0,85,0,1
99535,-99.9907501618722,4,1,0,85,0,1
99602,-98.7665600730927,4,1,0,85,0,1
99670,-97.554372349066,4,1,0,85,0,1
99737,-96.3887650468123,4,1,0,85,0,1
99805,-95.2339000969078,4,1,0,85,0,1
99872,-94.1227688289073,4,1,0,85,0,1
99940,-93.0212546252474,4,1,0,85,0,1
100075,-90.9090909090909,4,1,0,85,0,1
100213,-99.9907501618722,4,1,0,85,0,1
107643,-90.9090909090909,4,1,0,85,0,1
107778,-93.0212546252474,4,1,0,85,0,1
107913,-95.2339000969078,4,1,0,85,0,1
108048,-97.554372349066,4,1,0,85,0,1
108183,-99.9907501618722,4,1,0,85,0,1
108251,-101.264637002342,4,1,0,85,0,1
108318,-102.551940043639,4,1,0,85,0,1
108386,-103.892359442576,4,1,0,85,0,1
108454,-105.268283182394,4,1,0,85,0,1
108521,-106.660088801184,4,1,0,85,0,1
108589,-108.110811081108,4,1,0,85,0,1
108727,-90.9090909090908,4,1,0,85,0,0
108794,-100,4,1,0,70,0,0
109535,-125,4,1,0,70,0,0
109670,-121.953421195162,4,1,0,70,0,0
109805,-119.05181529785,4,1,0,70,0,0
109940,-116.285074883801,4,1,0,70,0,0
110075,-113.64401076716,4,1,0,70,0,0
110210,-111.120250041125,4,1,0,70,0,0
110345,-108.706147409076,4,1,0,70,0,0
110481,-106.377952755906,4,1,0,70,0,0
110616,-104.163454124904,4,1,0,70,0,0
110751,-102.039274924471,4,1,0,70,0,0
110886,-90.9090909090909,4,1,0,80,0,0
111066,-93.7472899141445,4,1,0,80,0,0
111246,-96.7684182257631,4,1,0,80,0,0
111426,-99.9907501618722,4,1,0,80,0,0
111607,-103.454876064695,4,1,0,80,0,0
111787,-107.146397066112,4,1,0,80,0,0
111967,-90.9090909090909,4,1,0,80,0,0
112102,-92.1039820854834,4,1,0,80,0,0
112237,-93.3307024467245,4,1,0,80,0,0
112372,-94.5905409459054,4,1,0,80,0,0
112440,-95.2380952380952,4,1,0,80,0,0
112508,-95.8945767866194,4,1,0,80,0,0
112643,-97.2250770811922,4,1,0,80,0,0
112778,-98.5930171964565,4,1,0,80,0,0
112913,-100,4,1,0,80,0,0
119670,-100.628345357226,4,1,0,80,0,0
119940,-101.9090266321,4,1,0,80,0,0
120210,-103.222726187634,4,1,0,80,0,0
120345,-103.892359442576,4,1,0,80,0,0
120481,-104.575795685402,4,1,0,80,0,0
120616,-105.263157894737,4,1,0,80,0,0
120751,-105.959615761615,4,1,0,80,0,0
121021,-107.380550312904,4,1,0,80,0,0
121156,-108.105405270264,4,1,0,80,0,0
121291,-108.840112766814,4,1,0,80,0,0
121426,-109.584875057023,4,1,0,80,0,0
121562,-110.345531567397,4,1,0,80,0,0
121700,-100,4,1,0,80,0,0
121902,-111.111111111111,4,1,0,80,0,0
122038,-100,4,1,0,80,0,0
122173,-111.0411,4,1,0,80,0,0
122370,-107.38665,4,1,0,80,0,0
122506,-105.63549,4,1,0,80,0,0
122573,-104.79363,4,1,0,80,0,0
122641,-103.952805,4,1,0,80,0,0
122771,270.27027027027,4,1,0,80,1,0
122771,-102.441864,4,1,0,80,0,0
122901,-100.85861,4,1,0,80,0,0
123036,-99.32356,4,1,0,80,0,0
123171,-97.83453,4,1,0,80,0,0
123238,-97.111984,4,1,0,80,0,0
123306,-96.389496,4,1,0,80,0,0
123426,279.06976744186,4,1,0,80,1,8
123426,-92.19025,4,1,0,80,0,8
123560,-90.82613,4,1,0,80,0,8
123630,-90.15434,4,1,0,80,0,8
123700,-89.49242,4,1,0,80,0,8
123862,270.27027027027,4,1,0,80,1,0
123862,-90.90909,4,1,0,80,0,0
123929,-111.111111111111,4,1,0,60,0,0
130954,-109.577922077922,4,1,0,50,0,0
131021,-108.108108108108,4,1,0,50,0,0
131089,-106.656132727632,4,1,0,50,0,0
131156,-105.263157894737,4,1,0,50,0,0
131224,-103.886110042324,4,1,0,50,0,0
131291,-102.564102564103,4,1,0,50,0,0
131424,-100,4,1,0,60,0,0
131562,-101.272931486335,4,1,0,60,0,0
131832,-103.898598041099,4,1,0,60,0,0
132237,-108.102707563193,4,1,0,60,0,0
132372,-109.580717034636,4,1,0,60,0,0
132508,-100,4,1,0,70,0,0
132578,-100,4,1,0,70,0,0
138989,-83.3333333333333,4,1,0,70,0,0
139526,-100,4,1,0,70,0,0
139707,-105.27850685331,4,1,0,70,0,0
139887,-111.111111111111,4,1,0,70,0,0
140067,-83.3333333333333,4,1,0,70,0,0
140405,-100,4,1,0,70,0,0
140472,-100.908721009087,4,1,0,70,0,0
140540,-101.848049281314,4,1,0,70,0,0
140608,-102.805029708443,4,1,0,70,0,0
140743,-104.759222754154,4,1,0,70,0,0
140878,-106.789148844553,4,1,0,70,0,0
141013,-108.899297423888,4,1,0,70,0,0
141159,270.27027027027,3,1,0,50,1,8
141160,270.27027027027,3,1,0,50,1,0
141160,-111.111111111111,3,1,0,50,0,0
152511,270.27027027027,4,1,0,70,1,0
152573,-125,4,1,0,70,0,0
153992,-100,4,1,0,70,0,0
154735,-125,4,1,0,70,0,0
156086,-100,4,1,0,70,0,0
156965,-111.111111111111,4,1,0,70,0,0
157100,-100,4,1,0,70,0,0
157302,-111.111111111111,4,1,0,70,0,0
157708,-100,4,1,0,70,0,0
158046,-111.111111111111,4,1,0,70,0,0
158181,-100,4,1,0,70,0,0
158451,-111.111111111111,4,1,0,70,0,0
158994,-90.909090909091,4,1,0,70,0,0
159174,-93.7472899141446,4,1,0,70,0,0
159354,-96.7684182257632,4,1,0,70,0,0
159535,-100.009251549635,4,1,0,70,0,0
159715,-103.454876064695,4,1,0,70,0,0
159895,-107.146397066112,4,1,0,70,0,0
160078,263.157894736842,4,1,0,70,1,0
160078,-90.909090909091,4,1,0,70,0,0
160123,-91.6073647351181,4,1,0,70,0,0
160190,-92.3059412702027,4,1,0,70,0,0
160258,-93.0259233769214,4,1,0,70,0,0
160325,-93.7463877008439,4,1,0,70,0,0
160393,-94.4891063730631,4,1,0,70,0,0
160460,-95.2325035227808,4,1,0,70,0,0
160528,-95.9990530303031,4,1,0,70,0,0
160596,-96.7780429594273,4,1,0,70,0,0
160663,-97.5580416215567,4,1,0,70,0,0
160731,-98.3626440266829,4,1,0,70,0,0
160798,-99.1685008559551,4,1,0,70,0,0
160866,-100,4,1,0,70,0,0
161130,263.157894736842,4,1,0,70,1,8
161169,246.913580246913,4,1,0,85,1,1
161169,-94.3396226415094,4,1,0,85,0,1
161415,240,4,1,0,85,1,9
161415,-112.612612612613,4,1,0,85,0,1
161525,285.714285714286,4,1,0,85,1,9
161525,-94.5945945948503,4,1,0,85,0,1
161810,270.27027027027,4,1,0,85,1,9
162215,270.27027027027,4,1,0,85,1,1
163296,270.27027027027,4,1,0,85,1,9
163306,270.27027027027,4,1,0,85,1,1
164002,265.486725663716,4,1,0,85,1,9
164002,-101.801801802398,4,1,0,85,0,1
164267,270.27027027027,4,1,0,85,1,9
164402,270.27027027027,4,1,0,85,1,1
165483,270.27027027027,4,1,0,85,1,1
167642,-90.9090909090909,4,1,0,85,0,1
167710,-92.1129503407984,4,1,0,85,0,1
167777,-93.3307024467245,4,1,0,85,0,1
167845,-94.6,4,1,0,85,0,1
167912,-95.8848570849382,4,1,0,85,0,1
168047,-98.582742809504,4,1,0,85,0,1
168318,-104.484205875856,4,1,0,85,0,1
168588,-90.9090909090909,4,1,0,85,0,1
168723,-111.111111111111,4,1,0,85,0,1
168858,-108.110811081108,4,1,0,85,0,1
168926,-106.660088801184,4,1,0,85,0,1
168993,-105.268283182394,4,1,0,85,0,1
169128,-102.571401461239,4,1,0,85,0,1
169264,-99.9907501618722,4,1,0,85,0,1
169331,-98.7665600730927,4,1,0,85,0,1
169399,-97.554372349066,4,1,0,85,0,1
169466,-96.3887650468123,4,1,0,85,0,1
169517,270.27027027027,4,1,0,85,1,9
169517,-95.2339000969078,4,1,0,85,0,1
169579,-94.1227688289073,4,1,0,85,0,1
169647,-93.0212546252474,4,1,0,85,0,1
169787,270.27027027027,4,1,0,85,1,9
169807,270.27027027027,4,1,0,85,1,1
169807,-90.9090909090909,4,1,0,85,0,1
169942,-99.9907501618722,4,1,0,85,0,1
177372,-90.9090909090909,4,1,0,85,0,1
177507,-93.0212546252474,4,1,0,85,0,1
177642,-95.2339000969078,4,1,0,85,0,1
177777,-97.554372349066,4,1,0,85,0,1
177912,-99.9907501618722,4,1,0,85,0,1
177980,-101.264637002342,4,1,0,85,0,1
178047,-102.551940043639,4,1,0,85,0,1
178115,-103.892359442576,4,1,0,85,0,1
178183,-105.268283182394,4,1,0,85,0,1
178250,-106.660088801184,4,1,0,85,0,1
178318,-108.110811081108,4,1,0,85,0,1
178455,-100,4,1,0,80,0,0
184939,-90.9090909090909,4,1,0,80,0,0
185074,-92.1039820854834,4,1,0,80,0,0
185209,-93.3307024467245,4,1,0,80,0,0
185344,-94.5905409459054,4,1,0,80,0,0
185615,-97.2250770811922,4,1,0,80,0,0
185750,-98.5930171964565,4,1,0,80,0,0
185885,-100,4,1,0,80,0,0
186020,-101.447721179625,4,1,0,80,0,0
186155,-102.937976060936,4,1,0,80,0,0
186425,-106.053811659193,4,1,0,80,0,0
186561,-107.695810564663,4,1,0,80,0,0
186696,-109.376806567233,4,1,0,80,0,0
186831,-111.111111111111,4,1,0,80,0,0
186949,270.27027027027,4,1,0,80,1,9
187084,270.27027027027,4,1,0,80,1,1
189381,310.880829015544,4,1,0,80,1,9
189381,-86.936936936749,4,1,0,80,0,9
189537,270.27027027027,4,1,0,80,1,9
190347,270.27027027027,4,1,0,80,1,1
191428,270.27027027027,4,1,0,80,1,1
204400,270.27027027027,4,1,0,80,1,9
204410,270.27027027027,4,1,0,80,1,0
204747,-125,4,1,0,80,0,0
205348,-100,4,1,0,80,0,0
206835,-125,4,1,0,80,0,0
207646,-100,4,1,0,80,0,0
208857,-142.857142857143,4,1,0,60,0,0
217375,-125,4,1,0,70,0,0
221695,-111.111111111111,4,1,0,80,0,0
221835,-125,4,1,0,70,0,0
222646,-111.111111111111,4,1,0,80,0,0
222983,-125,4,1,0,70,0,0
223119,-111.111111111111,4,1,0,80,0,0
223389,-125,4,1,0,70,0,0
223524,-111.111111111111,4,1,0,80,0,0
223859,-100,4,1,0,80,0,0
224129,-102.561669829222,4,1,0,80,0,0
224197,-103.227654698243,4,1,0,80,0,0
224264,-103.892359442576,4,1,0,80,0,0
224332,-104.575795685402,4,1,0,80,0,0
224399,-105.258033106134,4,1,0,80,0,0
224467,-105.959615761615,4,1,0,80,0,0
224535,-106.67061377541,4,1,0,80,0,0
224602,-107.380550312904,4,1,0,80,0,0
224670,-108.110811081108,4,1,0,80,0,0
224737,-108.840112766814,4,1,0,80,0,0
224805,-109.590429845904,4,1,0,80,0,0
224872,-110.339899969379,4,1,0,80,0,0
224940,-111.111111111111,4,1,0,80,0,0
226156,-100,4,1,0,80,0,0
226301,-100,4,1,0,85,0,1
232507,-90.9090909090909,4,1,0,85,0,1
232575,-92.1129503407984,4,1,0,85,0,1
232642,-93.3307024467245,4,1,0,85,0,1
232710,-94.6,4,1,0,85,0,1
232777,-95.8848570849382,4,1,0,85,0,1
232912,-98.582742809504,4,1,0,85,0,1
233183,-104.484205875856,4,1,0,85,0,1
233453,-90.9090909090909,4,1,0,85,0,1
233596,-111.111111111111,4,1,0,85,0,1
233731,-108.072521016915,4,1,0,85,0,1
233798,-106.625362246428,4,1,0,85,0,1
233866,-105.195701468994,4,1,0,85,0,1
234001,-102.468068760204,4,1,0,85,0,1
234130,257.510729613734,4,1,0,85,1,9
234130,-105.004160278422,4,1,0,85,0,9
234191,-103.758859387508,4,1,0,85,0,9
234255,-102.542749690447,4,1,0,85,0,9
234320,-101.336473565231,4,1,0,85,0,9
234384,-100.176166863706,4,1,0,85,0,9
234448,-99.0421304828309,4,1,0,85,0,9
234513,-97.916356506896,4,1,0,85,0,9
234645,257.510729613734,4,1,0,85,1,9
234666,270.27027027027,4,1,0,85,1,1
234666,-90.909090909091,4,1,0,85,0,1
234801,-99.9907501618722,4,1,0,85,0,1
235506,256.410256410257,4,1,0,85,1,9
235506,-105.405405406289,4,1,0,85,0,1
235762,270.27027027027,4,1,0,85,1,1
239005,270.27027027027,4,1,0,85,1,1
242237,-90.9090909090909,4,1,0,85,0,1
242372,-93.0212546252474,4,1,0,85,0,1
242507,-95.2339000969078,4,1,0,85,0,1
242642,-97.554372349066,4,1,0,85,0,1
242777,-99.9907501618722,4,1,0,85,0,1
242845,-101.264637002342,4,1,0,85,0,1
242912,-102.551940043639,4,1,0,85,0,1
242980,-103.892359442576,4,1,0,85,0,1
243048,-105.268283182394,4,1,0,85,0,1
243115,-106.660088801184,4,1,0,85,0,1
243183,-108.110811081108,4,1,0,85,0,1
243329,-90.9090909090909,4,1,0,85,0,0
243389,-100,4,1,0,70,0,0
244125,-125,4,1,0,70,0,0
244260,-121.953421195162,4,1,0,70,0,0
244395,-119.05181529785,4,1,0,70,0,0
244530,-116.285074883801,4,1,0,70,0,0
244665,-113.64401076716,4,1,0,70,0,0
244800,-111.120250041125,4,1,0,70,0,0
244935,-108.706147409076,4,1,0,70,0,0
245071,-106.377952755906,4,1,0,70,0,0
245206,-104.163454124904,4,1,0,70,0,0
245341,-102.039274924471,4,1,0,70,0,0
245476,-90.9090909090909,4,1,0,80,0,0
245656,-93.7472899141445,4,1,0,80,0,0
245836,-96.7684182257631,4,1,0,80,0,0
246016,-99.9907501618722,4,1,0,80,0,0
246197,-103.454876064695,4,1,0,80,0,0
246377,-107.146397066112,4,1,0,80,0,0
246557,-83.3333333333333,4,1,0,80,0,0
246632,-83.3333333333333,4,1,0,70,0,0

[HitObjects]
256,192,501,5,0,0:0:0:0:
256,192,771,1,8,0:0:0:0:
256,192,1041,1,8,0:0:0:0:
256,192,1311,1,8,0:0:0:0:
256,192,1717,1,0,0:0:0:0:
256,192,1987,1,0,0:0:0:0:
256,192,2122,1,8,0:0:0:0:
256,192,2392,1,0,0:0:0:0:
256,192,2653,1,0,0:0:0:0:
256,192,2923,1,8,0:0:0:0:
256,192,3193,1,8,0:0:0:0:
256,192,3463,1,8,0:0:0:0:
256,192,4004,1,0,0:0:0:0:
256,192,4139,1,0,0:0:0:0:
256,192,4274,1,0,0:0:0:0:
256,192,4409,1,0,0:0:0:0:
256,192,4545,1,0,0:0:0:0:
256,192,4680,1,0,0:0:0:0:
256,192,4825,1,0,0:0:0:0:
256,192,5095,1,8,0:0:0:0:
256,192,5365,1,8,0:0:0:0:
256,192,5635,1,8,0:0:0:0:
256,192,6041,1,0,0:0:0:0:
256,192,6176,1,8,0:0:0:0:
288,192,6446,1,8,0:0:0:0:
256,112,6716,1,0,0:0:0:0:
272,176,6977,1,0,0:0:0:0:
272,176,7247,1,8,0:0:0:0:
272,176,7517,1,0,0:0:0:0:
240,144,7787,1,0,0:0:0:0:
240,144,8598,1,0,0:0:0:0:
240,144,8868,1,0,0:0:0:0:
240,144,9139,1,12,0:0:0:0:
256,144,9409,1,0,0:0:0:0:
112,160,9679,1,0,0:0:0:0:
160,144,9814,1,0,0:0:0:0:
160,144,9949,1,8,0:0:0:0:
224,112,10220,1,4,0:0:0:0:
256,144,10490,1,8,0:0:0:0:
256,144,10760,1,0,0:0:0:0:
256,144,11030,1,8,0:0:0:0:
256,144,11571,1,0,0:0:0:0:
256,144,12111,1,0,0:0:0:0:
256,144,12247,1,0,0:0:0:0:
256,144,12382,1,12,0:0:0:0:
240,144,12652,1,0,0:0:0:0:
240,144,12922,1,8,0:0:0:0:
246,148,13193,1,8,0:0:0:0:
240,144,13463,1,0,0:0:0:0:
246,148,14003,1,0,0:0:0:0:
240,128,14138,1,0,0:0:0:0:
240,128,14274,1,8,0:0:0:0:
240,128,14544,1,4,0:0:0:0:
256,128,14814,1,8,0:0:0:0:
256,128,15084,1,0,0:0:0:0:
256,128,15355,1,8,0:0:0:0:
256,112,15895,1,0,0:0:0:0:
256,112,16436,1,0,0:0:0:0:
256,112,16571,1,0,0:0:0:0:
256,112,16706,1,12,0:0:0:0:
272,160,16976,1,0,0:0:0:0:
272,160,17246,1,8,0:0:0:0:
272,160,17517,1,8,0:0:0:0:
272,160,17787,1,4,0:0:0:0:
256,160,18057,1,8,0:0:0:0:
256,160,18328,1,0,0:0:0:0:
256,160,18598,1,0,0:0:0:0:
256,160,18868,1,12,0:0:0:0:
256,160,19138,1,8,0:0:0:0:
256,160,19274,1,8,0:0:0:0:
256,160,19409,1,0,0:0:0:0:
256,160,19679,1,0,0:0:0:0:
240,160,19814,1,0,0:0:0:0:
256,160,19949,1,8,0:0:0:0:
256,128,20220,1,8,0:0:0:0:
256,128,20489,1,0,0:0:0:0:
256,128,20760,1,8,0:0:0:0:
240,128,20895,1,8,0:0:0:0:
240,128,21030,1,4,0:0:0:0:
240,128,21309,1,8,0:0:0:0:
240,128,21588,1,0,0:0:0:0:
240,128,21867,1,0,0:0:0:0:
240,128,22146,1,8,0:0:0:0:
240,128,22411,1,8,0:0:0:0:
240,128,22677,1,0,0:0:0:0:
256,112,22943,1,0,0:0:0:0:
224,64,23089,1,0,0:0:0:0:
256,112,23237,1,12,0:0:0:0:
256,112,23507,1,8,0:0:0:0:
256,112,23777,1,0,0:0:0:0:
240,80,24092,1,0,0:0:0:0:
240,80,24247,1,8,0:0:0:0:
240,80,24402,1,0,0:0:0:0:
256,96,24713,1,0,0:0:0:0:
352,144,25092,1,8,0:0:0:0:
320,128,25504,1,0,0:0:0:0:
288,160,25712,1,0,0:0:0:0:
288,160,25888,1,12,0:0:0:0:
288,160,26349,1,4,0:0:0:0:
288,144,26870,1,12,0:0:0:0:
288,144,27482,1,12,0:0:0:0:
272,160,29270,1,8,0:0:0:0:
272,160,29337,1,0,0:0:0:0:
272,160,29405,1,0,0:0:0:0:
272,160,29472,1,0,0:0:0:0:
272,160,29540,1,8,0:0:0:0:
272,160,29607,1,8,0:0:0:0:
272,160,29675,1,0,0:0:0:0:
272,160,29742,1,0,0:0:0:0:
272,160,29810,1,8,0:0:0:0:
272,160,29878,1,0,0:0:0:0:
272,160,29945,1,0,0:0:0:0:
272,160,30013,1,0,0:0:0:0:
272,160,30080,1,8,0:0:0:0:
272,160,30215,1,4,0:0:0:0:
272,160,30485,1,0,0:0:0:0:
272,160,30620,1,8,0:0:0:0:
256,160,30755,1,8,0:0:0:0:
272,160,30890,1,0,0:0:0:0:
256,160,31025,1,0,0:0:0:0:
272,160,31160,1,8,0:0:0:0:
272,160,31296,1,0,0:0:0:0:
272,160,31431,1,8,0:0:0:0:
272,160,31498,1,8,0:0:0:0:
272,160,31566,1,0,0:0:0:0:
285,148,31633,1,0,0:0:0:0:
272,160,31701,1,8,0:0:0:0:
272,160,31836,1,0,0:0:0:0:
272,160,31971,1,8,0:0:0:0:
304,160,32039,1,0,0:0:0:0:
272,160,32106,1,8,0:0:0:0:
272,160,32242,1,0,0:0:0:0:
272,160,32377,1,12,0:0:0:0:
256,176,32647,1,0,0:0:0:0:
256,176,32782,1,8,0:0:0:0:
256,176,32917,1,8,0:0:0:0:
256,144,33052,1,0,0:0:0:0:
256,176,33187,1,0,0:0:0:0:
256,176,33323,1,8,0:0:0:0:
256,176,33458,1,0,0:0:0:0:
256,176,33593,1,8,0:0:0:0:
285,147,33660,1,0,0:0:0:0:
256,176,33728,1,8,0:0:0:0:
256,144,33796,1,8,0:0:0:0:
256,176,33863,1,0,0:0:0:0:
256,144,33931,1,8,0:0:0:0:
256,176,33998,1,0,0:0:0:0:
256,176,34133,1,8,0:0:0:0:
256,144,34201,1,8,0:0:0:0:
256,176,34269,1,8,0:0:0:0:
256,176,34404,1,0,0:0:0:0:
256,176,34539,1,12,0:0:0:0:
256,160,34809,1,0,0:0:0:0:
256,160,34944,1,8,0:0:0:0:
240,160,35012,1,0,0:0:0:0:
240,160,35079,1,0,0:0:0:0:
256,160,35214,1,8,0:0:0:0:
256,160,35350,1,0,0:0:0:0:
240,160,35485,1,8,0:0:0:0:
240,144,35552,1,8,0:0:0:0:
256,160,35620,1,0,0:0:0:0:
256,160,35755,1,8,0:0:0:0:
256,160,35890,1,0,0:0:0:0:
256,160,36025,1,8,0:0:0:0:
199,17,36093,1,0,0:0:0:0:
256,160,36160,1,8,0:0:0:0:
256,160,36296,1,0,0:0:0:0:
256,160,36431,1,0,0:0:0:0:
243,137,36498,1,0,0:0:0:0:
256,160,36566,1,8,0:0:0:0:
256,160,36701,1,4,0:0:0:0:
240,160,36971,1,0,0:0:0:0:
240,160,37106,1,8,0:0:0:0:
243,137,37242,1,0,0:0:0:0:
228,141,37377,1,8,0:0:0:0:
224,144,37444,1,8,0:0:0:0:
243,137,37512,1,0,0:0:0:0:
243,137,37647,1,8,0:0:0:0:
243,137,37782,1,0,0:0:0:0:
243,137,37917,1,8,0:0:0:0:
245,116,37985,1,8,0:0:0:0:
243,137,38052,1,0,0:0:0:0:
254,111,38120,1,0,0:0:0:0:
243,137,38187,1,8,0:0:0:0:
254,111,38255,1,0,0:0:0:0:
254,111,38323,1,8,0:0:0:0:
243,137,38458,1,0,0:0:0:0:
254,111,38525,1,0,0:0:0:0:
243,137,38593,1,0,0:0:0:0:
254,111,38728,1,8,0:0:0:0:
243,137,38863,1,4,0:0:0:0:
256,192,39133,1,0,0:0:0:0:
256,192,39269,1,8,0:0:0:0:
256,192,39404,1,0,0:0:0:0:
256,192,39539,1,0,0:0:0:0:
256,192,39674,1,0,0:0:0:0:
256,192,39809,1,8,0:0:0:0:
256,192,39944,1,8,0:0:0:0:
256,192,40079,1,0,0:0:0:0:
256,192,40214,1,0,0:0:0:0:
243,133,40282,1,0,0:0:0:0:
256,192,40350,1,8,0:0:0:0:
256,192,40485,1,0,0:0:0:0:
256,192,40620,1,8,0:0:0:0:
256,192,40755,1,0,0:0:0:0:
256,192,40890,1,0,0:0:0:0:
512,0,41025,1,12,0:0:0:0:
256,192,41296,1,0,0:0:0:0:
256,192,41431,1,8,0:0:0:0:
235,157,41566,1,0,0:0:0:0:
256,192,41701,1,8,0:0:0:0:
256,192,41836,1,0,0:0:0:0:
256,192,41971,1,8,0:0:0:0:
256,192,42106,1,0,0:0:0:0:
256,192,42242,1,8,0:0:0:0:
256,192,42309,1,0,0:0:0:0:
256,192,42377,1,8,0:0:0:0:
256,192,42444,1,8,0:0:0:0:
256,192,42512,1,0,0:0:0:0:
256,192,42647,1,8,0:0:0:0:
256,192,42782,1,0,0:0:0:0:
256,192,42917,1,8,0:0:0:0:
256,192,42985,1,0,0:0:0:0:
256,192,43052,1,8,0:0:0:0:
512,0,43187,1,4,0:0:0:0:
256,192,43458,1,0,0:0:0:0:
256,192,43593,1,8,0:0:0:0:
256,192,43728,1,0,0:0:0:0:
256,192,43863,1,0,0:0:0:0:
256,192,43998,1,0,0:0:0:0:
256,192,44133,1,8,0:0:0:0:
256,192,44269,1,0,0:0:0:0:
256,192,44404,1,8,0:0:0:0:
256,192,44539,1,0,0:0:0:0:
256,192,44606,1,0,0:0:0:0:
256,192,44674,1,8,0:0:0:0:
256,192,44809,1,0,0:0:0:0:
256,192,44944,1,8,0:0:0:0:
256,192,45012,1,8,0:0:0:0:
256,192,45079,1,0,0:0:0:0:
230,178,45147,1,0,0:0:0:0:
256,192,45214,1,0,0:0:0:0:
512,0,45350,1,12,0:0:0:0:
256,192,45620,1,0,0:0:0:0:
256,192,45755,1,8,0:0:0:0:
256,192,45890,1,0,0:0:0:0:
213,116,45958,1,0,0:0:0:0:
256,192,46025,1,8,0:0:0:0:
256,192,46160,1,0,0:0:0:0:
256,192,46296,1,8,0:0:0:0:
256,192,46431,1,8,0:0:0:0:
256,192,46498,1,8,0:0:0:0:
256,192,46566,1,0,0:0:0:0:
256,192,46633,1,0,0:0:0:0:
256,192,46701,1,8,0:0:0:0:
512,0,46836,1,4,0:0:0:0:
256,192,46971,1,8,0:0:0:0:
256,192,47039,1,8,0:0:0:0:
256,192,47106,1,8,0:0:0:0:
256,192,47242,1,0,0:0:0:0:
256,192,47377,1,0,0:0:0:0:
256,192,47512,1,0,0:0:0:0:
512,0,47647,1,12,0:0:0:0:
256,192,48728,1,8,0:0:0:0:
256,192,49809,1,0,0:0:0:0:
256,192,50890,1,0,0:0:0:0:
256,192,51971,1,0,0:0:0:0:
256,192,53052,1,8,0:0:0:0:
256,192,54133,1,0,0:0:0:0:
256,192,55214,1,8,0:0:0:0:
256,192,56295,1,8,0:0:0:0:
256,192,57378,1,0,0:0:0:0:
256,192,57918,1,0,0:0:0:0:
256,192,58459,1,8,0:0:0:0:
256,192,59540,1,0,0:0:0:0:
256,192,60080,12,0,60486,0:0:0:0:
512,0,60621,5,4,0:0:0:0:
256,192,60891,1,8,0:0:0:0:
256,192,61026,1,8,0:0:0:0:
256,192,61094,1,8,0:0:0:0:
256,192,61161,1,0,0:0:0:0:
256,192,61296,1,0,0:0:0:0:
256,192,61432,1,8,0:0:0:0:
256,192,61567,1,0,0:0:0:0:
256,192,61702,1,8,0:0:0:0:
256,192,61769,1,0,0:0:0:0:
256,192,61837,1,0,0:0:0:0:
256,192,61972,1,8,0:0:0:0:
256,192,62107,1,8,0:0:0:0:
256,192,62175,1,8,0:0:0:0:
256,192,62242,1,0,0:0:0:0:
240,106,62310,1,0,0:0:0:0:
256,192,62378,1,0,0:0:0:0:
256,192,62513,1,8,0:0:0:0:
256,192,62648,1,0,0:0:0:0:
247,118,62715,1,0,0:0:0:0:
256,192,62783,1,8,0:0:0:0:
256,192,62918,1,0,0:0:0:0:
256,192,63053,1,8,0:0:0:0:
256,192,63188,1,8,0:0:0:0:
256,192,63256,1,8,0:0:0:0:
256,192,63323,1,0,0:0:0:0:
256,192,63391,1,0,0:0:0:0:
256,192,63459,1,0,0:0:0:0:
230,89,63526,1,0,0:0:0:0:
256,192,63594,1,8,0:0:0:0:
256,192,63729,1,0,0:0:0:0:
256,192,63796,1,0,0:0:0:0:
256,192,63864,1,8,0:0:0:0:
238,114,63999,1,0,0:0:0:0:
256,192,64134,1,8,0:0:0:0:
256,192,64269,1,8,0:0:0:0:
256,192,64405,1,0,0:0:0:0:
256,192,64472,1,8,0:0:0:0:
256,192,64540,1,0,0:0:0:0:
512,0,64675,1,8,0:0:0:0:
512,0,64945,1,4,0:0:0:0:
256,192,65215,1,8,0:0:0:0:
256,192,65350,1,0,0:0:0:0:
256,192,65418,1,0,0:0:0:0:
256,192,65486,1,8,0:0:0:0:
256,192,65621,1,0,0:0:0:0:
256,192,65756,1,8,0:0:0:0:
256,192,65823,1,8,0:0:0:0:
256,192,65891,1,0,0:0:0:0:
256,192,65959,1,0,0:0:0:0:
256,192,66026,1,8,0:0:0:0:
256,192,66161,1,0,0:0:0:0:
256,192,66296,1,8,0:0:0:0:
256,192,66432,1,0,0:0:0:0:
256,192,66499,1,0,0:0:0:0:
256,192,66567,1,8,0:0:0:0:
256,192,66702,1,0,0:0:0:0:
256,192,66837,1,8,0:0:0:0:
256,192,66972,1,0,0:0:0:0:
512,0,67107,1,12,0:0:0:0:
256,192,67648,1,8,0:0:0:0:
256,192,67828,1,0,0:0:0:0:
256,192,68008,1,0,0:0:0:0:
512,0,68188,1,12,0:0:0:0:
256,192,68526,1,8,0:0:0:0:
256,192,68594,1,8,0:0:0:0:
256,192,68661,1,8,0:0:0:0:
256,192,68729,1,8,0:0:0:0:
256,192,68864,1,8,0:0:0:0:
256,192,68999,1,0,0:0:0:0:
256,192,69134,1,0,0:0:0:0:
256,192,69269,5,0,0:0:0:0:
256,192,69539,1,8,0:0:0:0:
268,202,69674,1,0,0:0:0:0:
256,192,69809,1,8,0:0:0:0:
256,192,70079,1,0,0:0:0:0:
256,192,70350,1,8,0:0:0:0:
256,192,70620,1,8,0:0:0:0:
256,192,70890,1,0,0:0:0:0:
256,192,71025,1,0,0:0:0:0:
256,192,71160,1,0,0:0:0:0:
256,192,71296,1,0,0:0:0:0:
256,192,71431,1,8,0:0:0:0:
256,192,71566,1,0,0:0:0:0:
256,192,71701,1,8,0:0:0:0:
256,192,71971,1,0,0:0:0:0:
256,192,72241,1,0,0:0:0:0:
256,192,72512,1,8,0:0:0:0:
256,192,72782,1,0,0:0:0:0:
256,192,72917,1,8,0:0:0:0:
256,192,73052,1,0,0:0:0:0:
256,192,73187,1,8,0:0:0:0:
256,192,73323,1,0,0:0:0:0:
256,192,73593,1,8,0:0:0:0:
256,192,73863,1,8,0:0:0:0:
256,192,74133,1,0,0:0:0:0:
256,192,74269,1,0,0:0:0:0:
256,192,74404,1,8,0:0:0:0:
256,192,74539,1,8,0:0:0:0:
256,192,74674,1,0,0:0:0:0:
256,192,74809,1,0,0:0:0:0:
256,192,74944,1,8,0:0:0:0:
256,192,75214,1,0,0:0:0:0:
256,192,75485,1,0,0:0:0:0:
256,192,75755,1,0,0:0:0:0:
256,192,76025,1,8,0:0:0:0:
256,192,76296,1,8,0:0:0:0:
256,192,76566,1,0,0:0:0:0:
256,192,76836,1,8,0:0:0:0:
256,192,76971,1,8,0:0:0:0:
256,192,77106,1,8,0:0:0:0:
256,192,77377,1,0,0:0:0:0:
256,192,77647,1,8,0:0:0:0:
256,192,77917,1,8,0:0:0:0:
256,192,78187,1,0,0:0:0:0:
256,192,78458,1,8,0:0:0:0:
256,192,78593,1,8,0:0:0:0:
256,192,78728,1,8,0:0:0:0:
256,192,78998,1,0,0:0:0:0:
256,192,79268,1,8,0:0:0:0:
256,192,79539,1,8,0:0:0:0:
256,192,79809,1,0,0:0:0:0:
256,192,80079,1,8,0:0:0:0:
256,192,80214,1,8,0:0:0:0:
256,192,80350,1,8,0:0:0:0:
512,0,80620,1,12,0:0:0:0:
256,192,80890,1,0,0:0:0:0:
256,192,81160,1,8,0:0:0:0:
256,192,81295,1,0,0:0:0:0:
256,192,81565,1,8,0:0:0:0:
248,157,81836,1,0,0:0:0:0:
256,192,81971,1,0,0:0:0:0:
256,192,82241,1,8,0:0:0:0:
240,156,82376,1,4,0:0:0:0:
512,0,82782,1,12,0:0:0:0:
256,192,83052,1,0,0:0:0:0:
256,192,83322,1,8,0:0:0:0:
256,192,83457,1,0,0:0:0:0:
256,192,83728,1,8,0:0:0:0:
256,192,83998,1,0,0:0:0:0:
256,192,84133,1,0,0:0:0:0:
256,192,84403,1,8,0:0:0:0:
237,156,84538,5,4,0:0:0:0:
512,0,84944,1,12,0:0:0:0:
256,192,85214,1,8,0:0:0:0:
512,0,85349,1,4,0:0:0:0:
256,192,85620,1,0,0:0:0:0:
256,192,85755,1,8,0:0:0:0:
512,0,86025,1,12,0:0:0:0:
256,192,86295,1,8,0:0:0:0:
512,0,86430,1,4,0:0:0:0:
256,192,86701,1,0,0:0:0:0:
256,192,86836,1,8,0:0:0:0:
512,0,87106,1,12,0:0:0:0:
256,192,87293,1,0,0:0:0:0:
256,192,87481,1,0,0:0:0:0:
512,0,87669,1,12,0:0:0:0:
512,0,87857,1,12,0:0:0:0:
512,0,88044,1,12,0:0:0:0:
256,192,88232,1,8,0:0:0:0:
256,192,88294,1,0,0:0:0:0:
256,192,88357,1,0,0:0:0:0:
256,192,88419,1,0,0:0:0:0:
256,192,88482,1,8,0:0:0:0:
256,192,88544,1,8,0:0:0:0:
256,192,88607,1,0,0:0:0:0:
256,192,88669,1,0,0:0:0:0:
256,192,88732,1,8,0:0:0:0:
256,192,88794,1,0,0:0:0:0:
256,192,88857,1,0,0:0:0:0:
256,192,88919,1,0,0:0:0:0:
256,192,88982,1,8,0:0:0:0:
256,192,89268,12,0,90581,0:0:0:0:
256,192,90888,5,0,0:0:0:0:
256,192,90955,1,0,0:0:0:0:
256,192,91023,1,0,0:0:0:0:
256,192,91090,1,0,0:0:0:0:
256,192,91158,1,8,0:0:0:0:
256,192,91225,1,8,0:0:0:0:
256,192,91293,1,8,0:0:0:0:
512,0,91430,1,4,0:0:0:0:
256,192,91700,1,8,0:0:0:0:
256,192,91835,1,8,0:0:0:0:
256,192,91902,1,8,0:0:0:0:
256,192,91970,1,0,0:0:0:0:
256,192,92105,1,0,0:0:0:0:
256,192,92240,1,8,0:0:0:0:
256,192,92308,1,8,0:0:0:0:
256,192,92375,1,8,0:0:0:0:
219,219,92443,1,8,0:0:0:0:
256,192,92511,1,0,0:0:0:0:
256,192,92646,1,8,0:0:0:0:
245,170,92713,1,0,0:0:0:0:
256,192,92781,1,8,0:0:0:0:
256,192,92916,1,0,0:0:0:0:
256,192,93051,1,8,0:0:0:0:
256,192,93119,1,8,0:0:0:0:
256,192,93186,1,0,0:0:0:0:
256,192,93321,1,8,0:0:0:0:
256,192,93457,1,0,0:0:0:0:
256,192,93524,1,0,0:0:0:0:
256,192,93592,1,8,0:0:0:0:
256,192,93862,1,8,0:0:0:0:
256,192,93997,1,8,0:0:0:0:
256,192,94065,1,8,0:0:0:0:
256,192,94132,1,0,0:0:0:0:
256,192,94267,1,8,0:0:0:0:
256,192,94402,1,0,0:0:0:0:
256,192,94538,1,8,0:0:0:0:
272,164,94605,1,8,0:0:0:0:
256,192,94673,1,8,0:0:0:0:
256,192,94808,1,0,0:0:0:0:
256,192,94875,1,0,0:0:0:0:
256,192,94943,1,8,0:0:0:0:
256,192,95078,1,0,0:0:0:0:
256,192,95213,1,8,0:0:0:0:
256,192,95281,1,0,0:0:0:0:
256,192,95348,1,0,0:0:0:0:
282,176,95416,1,0,0:0:0:0:
256,192,95484,1,8,0:0:0:0:
256,192,95551,1,8,0:0:0:0:
256,192,95619,1,0,0:0:0:0:
512,0,95754,1,12,0:0:0:0:
256,192,96024,1,8,0:0:0:0:
256,192,96159,1,0,0:0:0:0:
256,192,96227,1,8,0:0:0:0:
256,192,96294,1,0,0:0:0:0:
256,192,96430,1,0,0:0:0:0:
256,192,96565,1,8,0:0:0:0:
256,192,96632,1,8,0:0:0:0:
256,192,96700,1,0,0:0:0:0:
256,192,96767,1,0,0:0:0:0:
256,192,96835,1,0,0:0:0:0:
256,192,96970,1,8,0:0:0:0:
256,192,97038,1,8,0:0:0:0:
256,192,97105,1,8,0:0:0:0:
256,192,97240,1,0,0:0:0:0:
256,192,97375,1,8,0:0:0:0:
256,192,97511,1,0,0:0:0:0:
256,192,97578,1,0,0:0:0:0:
256,192,97646,1,8,0:0:0:0:
256,192,97781,1,0,0:0:0:0:
256,192,97916,1,8,0:0:0:0:
218,52,97984,1,0,0:0:0:0:
256,192,98051,1,0,0:0:0:0:
256,192,98119,1,0,0:0:0:0:
256,192,98186,1,8,0:0:0:0:
256,192,98321,1,0,0:0:0:0:
256,192,98592,1,0,0:0:0:0:
512,0,98862,1,12,0:0:0:0:
256,192,99132,1,8,0:0:0:0:
256,192,99200,1,8,0:0:0:0:
256,192,99267,1,8,0:0:0:0:
256,192,99402,1,0,0:0:0:0:
256,192,99538,1,8,0:0:0:0:
256,192,99605,1,8,0:0:0:0:
256,192,99673,1,0,0:0:0:0:
256,192,99808,1,8,0:0:0:0:
256,192,99875,1,0,0:0:0:0:
256,192,99943,1,0,0:0:0:0:
512,0,100078,1,12,0:0:0:0:
256,192,100348,1,8,0:0:0:0:
256,192,100484,1,0,0:0:0:0:
256,192,100551,1,8,0:0:0:0:
256,192,100619,1,0,0:0:0:0:
256,192,100754,1,0,0:0:0:0:
256,192,100889,1,8,0:0:0:0:
258,131,101024,1,8,0:0:0:0:
256,192,101159,1,0,0:0:0:0:
256,192,101294,1,8,0:0:0:0:
256,192,101362,1,8,0:0:0:0:
256,192,101429,1,8,0:0:0:0:
256,192,101565,1,0,0:0:0:0:
256,192,101700,1,8,0:0:0:0:
256,192,101835,1,0,0:0:0:0:
256,192,101902,1,0,0:0:0:0:
256,192,101970,1,8,0:0:0:0:
256,192,102105,1,0,0:0:0:0:
256,192,102240,1,8,0:0:0:0:
256,192,102511,1,8,0:0:0:0:
256,192,102646,1,0,0:0:0:0:
256,192,102713,1,0,0:0:0:0:
256,192,102781,1,8,0:0:0:0:
256,192,102916,1,0,0:0:0:0:
256,192,103051,1,8,0:0:0:0:
256,192,103186,1,0,0:0:0:0:
256,192,103254,1,0,0:0:0:0:
256,192,103321,1,0,0:0:0:0:
256,192,103457,1,8,0:0:0:0:
256,192,103592,1,0,0:0:0:0:
256,192,103727,1,8,0:0:0:0:
256,192,103794,1,0,0:0:0:0:
256,192,103862,1,8,0:0:0:0:
272,146,103929,1,8,0:0:0:0:
256,192,103997,1,0,0:0:0:0:
256,192,104132,1,8,0:0:0:0:
256,192,104200,1,8,0:0:0:0:
256,192,104267,1,8,0:0:0:0:
512,0,104402,1,4,0:0:0:0:
256,192,104673,1,8,0:0:0:0:
256,192,104808,1,8,0:0:0:0:
256,192,104875,1,8,0:0:0:0:
256,192,104943,1,0,0:0:0:0:
256,192,105078,1,0,0:0:0:0:
256,192,105213,1,8,0:0:0:0:
256,192,105281,1,8,0:0:0:0:
256,192,105348,1,8,0:0:0:0:
256,192,105416,1,8,0:0:0:0:
256,192,105484,1,0,0:0:0:0:
256,192,105619,1,0,0:0:0:0:
256,192,105754,1,8,0:0:0:0:
256,192,105889,1,0,0:0:0:0:
256,192,105957,1,8,0:0:0:0:
256,192,106024,1,0,0:0:0:0:
256,192,106159,1,0,0:0:0:0:
256,192,106294,1,8,0:0:0:0:
256,192,106362,1,8,0:0:0:0:
256,192,106429,1,8,0:0:0:0:
512,0,106565,1,4,0:0:0:0:
256,192,106700,1,0,0:0:0:0:
256,192,106835,1,8,0:0:0:0:
256,192,106970,1,8,0:0:0:0:
256,192,107038,1,8,0:0:0:0:
256,192,107105,1,0,0:0:0:0:
252,124,107173,1,0,0:0:0:0:
256,192,107240,1,0,0:0:0:0:
256,192,107375,1,8,0:0:0:0:
256,192,107443,1,8,0:0:0:0:
256,192,107511,1,0,0:0:0:0:
256,192,107646,1,8,0:0:0:0:
256,192,107781,1,0,0:0:0:0:
256,192,107916,1,8,0:0:0:0:
256,192,108051,1,0,0:0:0:0:
256,192,108186,1,8,0:0:0:0:
256,192,108254,1,8,0:0:0:0:
256,192,108321,1,0,0:0:0:0:
256,192,108389,1,0,0:0:0:0:
256,192,108457,1,8,0:0:0:0:
256,192,108524,1,0,0:0:0:0:
256,192,108592,1,0,0:0:0:0:
512,0,108727,1,12,0:0:0:0:
256,192,109538,1,0,0:0:0:0:
256,192,109673,1,0,0:0:0:0:
512,0,109808,1,12,0:0:0:0:
249,141,109943,1,0,0:0:0:0:
256,192,110078,1,0,0:0:0:0:
256,192,110213,1,0,0:0:0:0:
256,192,110348,1,8,0:0:0:0:
256,192,110484,1,8,0:0:0:0:
256,192,110619,1,0,0:0:0:0:
256,192,110754,1,0,0:0:0:0:
512,0,110889,1,12,0:0:0:0:
256,192,111069,1,0,0:0:0:0:
256,192,111249,1,0,0:0:0:0:
512,0,111429,1,12,0:0:0:0:
512,0,111610,1,12,0:0:0:0:
512,0,111790,1,12,0:0:0:0:
512,0,111970,1,4,0:0:0:0:
256,192,112105,1,8,0:0:0:0:
256,192,112240,1,8,0:0:0:0:
256,192,112375,1,8,0:0:0:0:
222,118,112443,1,8,0:0:0:0:
256,192,112511,1,8,0:0:0:0:
256,192,112646,1,0,0:0:0:0:
256,192,112781,1,0,0:0:0:0:
512,0,112916,1,12,0:0:0:0:
256,192,113186,1,0,0:0:0:0:
256,192,113321,1,8,0:0:0:0:
256,192,113457,1,8,0:0:0:0:
256,192,113592,1,0,0:0:0:0:
277,160,113659,1,8,0:0:0:0:
256,192,113727,1,0,0:0:0:0:
256,192,113862,1,8,0:0:0:0:
256,192,113997,1,0,0:0:0:0:
256,192,114132,1,8,0:0:0:0:
256,192,114200,1,0,0:0:0:0:
256,192,114267,1,8,0:0:0:0:
233,158,114335,1,0,0:0:0:0:
256,192,114402,1,8,0:0:0:0:
256,192,114538,1,0,0:0:0:0:
256,192,114673,1,8,0:0:0:0:
256,192,114808,1,0,0:0:0:0:
256,192,114875,1,0,0:0:0:0:
256,192,114943,1,8,0:0:0:0:
256,192,115078,1,8,0:0:0:0:
256,192,115213,1,0,0:0:0:0:
256,192,115281,1,0,0:0:0:0:
256,192,115348,1,0,0:0:0:0:
256,192,115416,1,0,0:0:0:0:
256,192,115484,1,8,0:0:0:0:
256,192,115619,1,0,0:0:0:0:
256,192,115889,1,0,0:0:0:0:
256,192,116024,1,8,0:0:0:0:
512,0,116159,1,4,0:0:0:0:
256,192,116429,1,0,0:0:0:0:
256,192,116565,1,8,0:0:0:0:
256,192,116700,1,0,0:0:0:0:
256,192,116767,1,0,0:0:0:0:
256,192,116835,1,8,0:0:0:0:
256,192,116902,1,8,0:0:0:0:
256,192,116970,1,0,0:0:0:0:
256,192,117038,1,0,0:0:0:0:
256,192,117105,1,0,0:0:0:0:
512,0,117240,1,12,0:0:0:0:
256,192,117511,1,0,0:0:0:0:
256,192,117646,1,8,0:0:0:0:
256,192,117781,1,8,0:0:0:0:
256,192,117916,1,0,0:0:0:0:
256,192,118051,1,0,0:0:0:0:
256,192,118186,1,8,0:0:0:0:
256,192,118321,1,8,0:0:0:0:
244,148,118389,1,8,0:0:0:0:
256,192,118457,1,0,0:0:0:0:
256,192,118592,1,8,0:0:0:0:
256,192,118727,1,8,0:0:0:0:
256,192,118862,1,0,0:0:0:0:
256,192,118997,1,8,0:0:0:0:
272,126,119065,1,0,0:0:0:0:
256,192,119132,1,8,0:0:0:0:
256,192,119200,1,0,0:0:0:0:
256,192,119267,1,8,0:0:0:0:
256,192,119402,1,0,0:0:0:0:
256,192,119538,1,8,0:0:0:0:
256,192,119673,1,0,0:0:0:0:
256,192,119943,1,8,0:0:0:0:
256,192,120213,1,8,0:0:0:0:
256,192,120348,1,8,0:0:0:0:
256,192,120484,1,0,0:0:0:0:
256,192,120754,1,8,0:0:0:0:
256,192,121024,1,0,0:0:0:0:
256,192,121159,1,8,0:0:0:0:
256,192,121294,1,8,0:0:0:0:
256,192,121429,1,0,0:0:0:0:
256,192,121565,1,0,0:0:0:0:
512,0,121700,1,12,0:0:0:0:
256,192,121970,1,0,0:0:0:0:
512,0,122105,1,12,0:0:0:0:
256,192,122375,1,0,0:0:0:0:
246,175,122511,1,8,0:0:0:0:
246,175,122578,1,8,0:0:0:0:
246,175,122646,1,8,0:0:0:0:
256,192,122771,1,0,0:0:0:0:
256,192,122906,1,8,0:0:0:0:
236,114,123041,1,8,0:0:0:0:
256,192,123176,1,0,0:0:0:0:
217,126,123243,1,0,0:0:0:0:
256,192,123311,1,0,0:0:0:0:
256,192,123426,1,8,0:0:0:0:
256,192,123565,1,0,0:0:0:0:
256,192,123635,1,0,0:0:0:0:
256,192,123705,1,8,0:0:0:0:
512,0,123862,1,4,0:0:0:0:
256,192,124673,1,0,0:0:0:0:
512,0,124943,1,12,0:0:0:0:
251,177,125484,1,8,0:0:0:0:
256,192,125754,1,0,0:0:0:0:
256,192,125889,1,0,0:0:0:0:
256,192,126024,1,0,0:0:0:0:
256,192,126565,1,8,0:0:0:0:
256,192,126835,1,0,0:0:0:0:
256,192,126970,1,0,0:0:0:0:
512,0,127105,1,12,0:0:0:0:
256,192,127240,1,0,0:0:0:0:
256,192,127511,1,0,0:0:0:0:
256,192,127916,1,0,0:0:0:0:
512,0,128186,1,4,0:0:0:0:
256,192,128997,1,0,0:0:0:0:
512,0,129267,1,12,0:0:0:0:
256,192,129808,1,8,0:0:0:0:
256,192,130078,1,0,0:0:0:0:
256,192,130213,1,0,0:0:0:0:
256,192,130348,1,0,0:0:0:0:
256,192,130889,1,8,0:0:0:0:
256,192,130957,1,8,0:0:0:0:
256,192,131024,1,8,0:0:0:0:
256,192,131092,1,8,0:0:0:0:
256,192,131159,1,8,0:0:0:0:
256,192,131227,1,8,0:0:0:0:
256,192,131294,1,8,0:0:0:0:
512,0,131429,1,4,0:0:0:0:
256,192,131565,1,8,0:0:0:0:
256,192,131835,1,0,0:0:0:0:
256,192,132240,1,8,0:0:0:0:
256,192,132375,1,8,0:0:0:0:
512,0,132511,1,4,0:0:0:0:
256,192,132781,1,8,0:0:0:0:
256,192,132916,1,0,0:0:0:0:
256,192,132984,1,8,0:0:0:0:
256,192,133051,1,0,0:0:0:0:
256,192,133186,1,0,0:0:0:0:
256,192,133321,1,8,0:0:0:0:
256,192,133457,1,0,0:0:0:0:
268,167,133524,1,0,0:0:0:0:
256,192,133592,1,8,0:0:0:0:
256,192,133727,1,0,0:0:0:0:
256,192,133862,1,8,0:0:0:0:
244,85,133929,1,0,0:0:0:0:
256,192,133997,1,8,0:0:0:0:
256,192,134065,1,8,0:0:0:0:
256,192,134132,1,0,0:0:0:0:
256,192,134267,1,0,0:0:0:0:
256,192,134402,1,8,0:0:0:0:
256,192,134538,1,0,0:0:0:0:
247,118,134605,1,0,0:0:0:0:
256,192,134673,1,8,0:0:0:0:
256,192,134808,1,0,0:0:0:0:
256,192,134943,1,8,0:0:0:0:
260,92,135011,1,0,0:0:0:0:
256,192,135078,1,8,0:0:0:0:
256,192,135146,1,8,0:0:0:0:
256,192,135213,1,0,0:0:0:0:
256,192,135281,1,0,0:0:0:0:
256,192,135348,1,0,0:0:0:0:
256,192,135484,1,8,0:0:0:0:
256,192,135619,1,0,0:0:0:0:
256,192,135686,1,0,0:0:0:0:
256,192,135754,1,8,0:0:0:0:
238,114,135889,1,0,0:0:0:0:
256,192,136024,1,8,0:0:0:0:
256,192,136159,1,8,0:0:0:0:
256,192,136294,1,0,0:0:0:0:
256,192,136362,1,8,0:0:0:0:
256,192,136429,1,0,0:0:0:0:
512,0,136565,1,8,0:0:0:0:
512,0,136835,1,4,0:0:0:0:
256,192,137105,1,8,0:0:0:0:
256,192,137240,1,0,0:0:0:0:
256,192,137308,1,0,0:0:0:0:
256,192,137375,1,8,0:0:0:0:
256,192,137511,1,0,0:0:0:0:
256,192,137646,1,8,0:0:0:0:
256,192,137713,1,8,0:0:0:0:
256,192,137781,1,0,0:0:0:0:
256,192,137916,1,12,0:0:0:0:
256,192,138186,1,8,0:0:0:0:
256,192,138321,1,0,0:0:0:0:
256,192,138389,1,0,0:0:0:0:
256,192,138457,1,8,0:0:0:0:
256,192,138592,1,0,0:0:0:0:
256,192,138727,1,0,0:0:0:0:
256,192,138862,1,0,0:0:0:0:
512,0,138997,1,12,0:0:0:0:
256,192,139538,1,8,0:0:0:0:
256,192,139718,1,0,0:0:0:0:
256,192,139898,1,0,0:0:0:0:
512,0,140078,1,12,0:0:0:0:
256,192,140416,1,8,0:0:0:0:
256,192,140484,1,8,0:0:0:0:
256,192,140551,1,8,0:0:0:0:
256,192,140619,1,8,0:0:0:0:
256,192,140754,1,8,0:0:0:0:
256,192,140889,1,0,0:0:0:0:
256,192,141024,1,0,0:0:0:0:
256,192,141160,5,0,0:0:0:0:
256,192,141430,1,8,0:0:0:0:
268,202,141565,1,8,0:0:0:0:
256,192,141700,1,0,0:0:0:0:
256,192,141970,1,8,0:0:0:0:
256,192,142241,1,8,0:0:0:0:
256,192,142511,1,0,0:0:0:0:
256,192,142781,1,8,0:0:0:0:
256,192,142916,1,0,0:0:0:0:
256,192,143051,1,0,0:0:0:0:
256,192,143187,1,0,0:0:0:0:
256,192,143322,1,8,0:0:0:0:
256,192,143457,1,0,0:0:0:0:
256,192,143592,1,8,0:0:0:0:
256,192,143862,1,0,0:0:0:0:
256,192,144132,1,0,0:0:0:0:
256,192,144403,1,8,0:0:0:0:
256,192,144673,1,0,0:0:0:0:
256,192,144808,1,8,0:0:0:0:
256,192,144943,1,0,0:0:0:0:
256,192,145078,1,0,0:0:0:0:
256,192,145214,1,8,0:0:0:0:
256,192,145484,1,8,0:0:0:0:
256,192,145754,1,0,0:0:0:0:
256,192,146024,1,8,0:0:0:0:
256,192,146160,1,0,0:0:0:0:
256,192,146295,1,8,0:0:0:0:
256,192,146430,1,8,0:0:0:0:
256,192,146565,1,0,0:0:0:0:
256,192,146700,1,0,0:0:0:0:
256,192,146835,1,8,0:0:0:0:
256,192,147105,1,0,0:0:0:0:
256,192,147376,1,0,0:0:0:0:
256,192,147646,1,0,0:0:0:0:
256,192,147916,1,8,0:0:0:0:
256,192,148187,1,8,0:0:0:0:
256,192,148457,1,0,0:0:0:0:
256,192,148727,1,8,0:0:0:0:
256,192,148862,1,8,0:0:0:0:
256,192,148997,1,8,0:0:0:0:
256,192,149268,1,0,0:0:0:0:
256,192,149538,1,8,0:0:0:0:
256,192,149808,1,8,0:0:0:0:
256,192,150078,1,0,0:0:0:0:
256,192,150349,1,8,0:0:0:0:
256,192,150484,1,8,0:0:0:0:
256,192,150619,1,8,0:0:0:0:
256,192,150889,1,0,0:0:0:0:
256,192,151160,1,8,0:0:0:0:
256,192,151430,1,8,0:0:0:0:
256,192,151700,1,0,0:0:0:0:
256,192,151970,1,8,0:0:0:0:
256,192,152105,1,8,0:0:0:0:
256,192,152241,1,8,0:0:0:0:
512,0,152511,1,12,0:0:0:0:
256,192,152781,1,0,0:0:0:0:
256,192,153051,1,8,0:0:0:0:
256,192,153186,1,0,0:0:0:0:
256,192,153456,1,8,0:0:0:0:
248,157,153727,1,0,0:0:0:0:
256,192,153862,1,0,0:0:0:0:
256,192,154132,1,8,0:0:0:0:
240,156,154267,1,4,0:0:0:0:
512,0,154673,1,12,0:0:0:0:
256,192,154943,1,0,0:0:0:0:
256,192,155213,1,8,0:0:0:0:
256,192,155348,1,0,0:0:0:0:
256,192,155619,1,8,0:0:0:0:
256,192,155889,1,0,0:0:0:0:
256,192,156024,1,0,0:0:0:0:
256,192,156294,1,8,0:0:0:0:
237,156,156429,5,4,0:0:0:0:
512,0,156835,1,12,0:0:0:0:
256,192,157105,1,8,0:0:0:0:
512,0,157240,1,4,0:0:0:0:
256,192,157511,1,0,0:0:0:0:
256,192,157646,1,8,0:0:0:0:
512,0,157916,1,12,0:0:0:0:
256,192,158186,1,8,0:0:0:0:
512,0,158321,1,4,0:0:0:0:
256,192,158592,1,0,0:0:0:0:
256,192,158727,1,8,0:0:0:0:
512,0,158997,1,12,0:0:0:0:
256,192,159177,1,0,0:0:0:0:
256,192,159357,1,0,0:0:0:0:
512,0,159538,1,12,0:0:0:0:
512,0,159718,1,12,0:0:0:0:
512,0,159898,1,12,0:0:0:0:
256,192,160078,1,8,0:0:0:0:
256,192,160143,1,0,0:0:0:0:
256,192,160209,1,0,0:0:0:0:
256,192,160275,1,0,0:0:0:0:
256,192,160341,1,8,0:0:0:0:
256,192,160406,1,8,0:0:0:0:
256,192,160472,1,0,0:0:0:0:
256,192,160538,1,0,0:0:0:0:
256,192,160604,1,8,0:0:0:0:
256,192,160670,1,0,0:0:0:0:
256,192,160735,1,0,0:0:0:0:
256,192,160801,1,0,0:0:0:0:
256,192,160867,1,8,0:0:0:0:
512,0,161169,1,4,0:0:0:0:
256,192,161415,1,8,0:0:0:0:
256,192,161525,1,8,0:0:0:0:
256,192,161596,1,8,0:0:0:0:
256,192,161667,1,0,0:0:0:0:
256,192,161810,1,0,0:0:0:0:
256,192,161945,1,8,0:0:0:0:
256,192,162012,1,8,0:0:0:0:
256,192,162080,1,8,0:0:0:0:
256,192,162215,1,0,0:0:0:0:
256,192,162350,1,8,0:0:0:0:
256,192,162417,1,0,0:0:0:0:
256,192,162485,1,8,0:0:0:0:
256,192,162620,1,0,0:0:0:0:
256,192,162755,1,8,0:0:0:0:
256,192,162823,1,0,0:0:0:0:
256,192,162890,1,0,0:0:0:0:
256,192,162958,1,0,0:0:0:0:
256,192,163025,1,8,0:0:0:0:
256,192,163160,1,0,0:0:0:0:
256,192,163306,1,8,0:0:0:0:
256,192,163576,1,8,0:0:0:0:
256,192,163711,1,0,0:0:0:0:
256,192,163778,1,0,0:0:0:0:
256,192,163846,1,0,0:0:0:0:
256,192,164002,1,8,0:0:0:0:
251,153,164068,1,0,0:0:0:0:
256,192,164134,1,0,0:0:0:0:
256,192,164267,1,8,0:0:0:0:
233,155,164334,1,8,0:0:0:0:
256,192,164402,1,0,0:0:0:0:
256,192,164537,1,8,0:0:0:0:
256,192,164604,1,8,0:0:0:0:
256,192,164672,1,8,0:0:0:0:
256,192,164807,1,0,0:0:0:0:
256,192,164942,1,8,0:0:0:0:
256,192,165010,1,0,0:0:0:0:
256,192,165077,1,0,0:0:0:0:
282,176,165145,1,0,0:0:0:0:
256,192,165212,1,8,0:0:0:0:
256,192,165347,1,0,0:0:0:0:
512,0,165483,1,12,0:0:0:0:
256,192,165753,1,8,0:0:0:0:
256,192,165889,1,0,0:0:0:0:
256,192,165956,1,8,0:0:0:0:
256,192,166024,1,0,0:0:0:0:
256,192,166159,1,0,0:0:0:0:
256,192,166294,1,8,0:0:0:0:
256,192,166362,1,8,0:0:0:0:
256,192,166429,1,0,0:0:0:0:
256,192,166497,1,0,0:0:0:0:
256,192,166565,1,0,0:0:0:0:
256,192,166700,1,8,0:0:0:0:
256,192,166767,1,8,0:0:0:0:
256,192,166835,1,0,0:0:0:0:
256,192,166970,1,8,0:0:0:0:
256,192,167105,1,0,0:0:0:0:
256,192,167173,1,8,0:0:0:0:
256,192,167240,1,0,0:0:0:0:
256,192,167375,1,8,0:0:0:0:
256,192,167510,1,0,0:0:0:0:
256,192,167646,1,8,0:0:0:0:
218,52,167713,1,0,0:0:0:0:
256,192,167781,1,0,0:0:0:0:
256,192,167848,1,0,0:0:0:0:
256,192,167916,1,8,0:0:0:0:
256,192,168051,1,0,0:0:0:0:
256,192,168321,1,0,0:0:0:0:
512,0,168592,1,12,0:0:0:0:
256,192,168862,1,8,0:0:0:0:
256,192,168929,1,8,0:0:0:0:
256,192,168997,1,8,0:0:0:0:
256,192,169132,1,0,0:0:0:0:
256,192,169267,1,8,0:0:0:0:
256,192,169335,1,8,0:0:0:0:
256,192,169402,1,8,0:0:0:0:
256,192,169517,1,0,0:0:0:0:
256,192,169584,1,0,0:0:0:0:
256,192,169652,1,0,0:0:0:0:
512,0,169807,1,12,0:0:0:0:
256,192,170077,1,8,0:0:0:0:
256,192,170212,1,8,0:0:0:0:
256,192,170279,1,8,0:0:0:0:
256,192,170347,1,0,0:0:0:0:
256,192,170482,1,0,0:0:0:0:
256,192,170617,1,8,0:0:0:0:
258,131,170752,1,8,0:0:0:0:
256,192,170888,1,0,0:0:0:0:
256,192,171023,1,8,0:0:0:0:
256,192,171090,1,0,0:0:0:0:
256,192,171158,1,8,0:0:0:0:
256,192,171293,1,0,0:0:0:0:
256,192,171428,1,8,0:0:0:0:
256,192,171563,1,0,0:0:0:0:
256,192,171631,1,0,0:0:0:0:
256,192,171698,1,8,0:0:0:0:
256,192,171834,1,0,0:0:0:0:
256,192,171969,1,8,0:0:0:0:
256,192,172239,1,8,0:0:0:0:
256,192,172374,1,0,0:0:0:0:
256,192,172442,1,0,0:0:0:0:
256,192,172509,1,8,0:0:0:0:
256,192,172644,1,0,0:0:0:0:
256,192,172779,1,8,0:0:0:0:
256,192,172915,1,8,0:0:0:0:
256,192,172982,1,8,0:0:0:0:
256,192,173050,1,0,0:0:0:0:
256,192,173185,1,8,0:0:0:0:
256,192,173320,1,0,0:0:0:0:
256,192,173455,1,8,0:0:0:0:
256,192,173523,1,8,0:0:0:0:
256,192,173590,1,0,0:0:0:0:
272,146,173658,1,8,0:0:0:0:
256,192,173725,1,0,0:0:0:0:
256,192,173861,1,8,0:0:0:0:
256,192,173928,1,8,0:0:0:0:
256,192,173996,1,8,0:0:0:0:
512,0,174131,1,4,0:0:0:0:
256,192,174401,1,8,0:0:0:0:
256,192,174536,1,0,0:0:0:0:
256,192,174604,1,8,0:0:0:0:
256,192,174671,1,0,0:0:0:0:
256,192,174807,1,0,0:0:0:0:
256,192,174942,1,8,0:0:0:0:
256,192,175009,1,8,0:0:0:0:
256,192,175077,1,0,0:0:0:0:
256,192,175144,1,0,0:0:0:0:
256,192,175212,1,8,0:0:0:0:
256,192,175347,1,0,0:0:0:0:
256,192,175482,1,8,0:0:0:0:
256,192,175617,1,8,0:0:0:0:
256,192,175685,1,8,0:0:0:0:
256,192,175752,1,0,0:0:0:0:
256,192,175888,1,0,0:0:0:0:
256,192,176023,1,8,0:0:0:0:
256,192,176090,1,8,0:0:0:0:
256,192,176158,1,8,0:0:0:0:
512,0,176293,1,4,0:0:0:0:
256,192,176428,1,0,0:0:0:0:
256,192,176563,1,8,0:0:0:0:
252,124,176631,1,0,0:0:0:0:
256,192,176698,1,8,0:0:0:0:
256,192,176766,1,8,0:0:0:0:
256,192,176834,1,0,0:0:0:0:
256,192,176969,1,0,0:0:0:0:
256,192,177104,1,8,0:0:0:0:
256,192,177171,1,0,0:0:0:0:
256,192,177239,1,0,0:0:0:0:
256,192,177374,1,8,0:0:0:0:
256,192,177509,1,0,0:0:0:0:
256,192,177644,1,8,0:0:0:0:
256,192,177779,1,8,0:0:0:0:
256,192,177915,1,0,0:0:0:0:
256,192,177982,1,8,0:0:0:0:
256,192,178050,1,0,0:0:0:0:
256,192,178117,1,0,0:0:0:0:
256,192,178185,1,8,0:0:0:0:
256,192,178252,1,8,0:0:0:0:
256,192,178320,1,0,0:0:0:0:
512,0,178455,1,12,0:0:0:0:
256,192,178725,1,8,0:0:0:0:
256,192,178861,1,8,0:0:0:0:
256,192,178996,1,0,0:0:0:0:
256,192,179131,1,0,0:0:0:0:
256,192,179266,1,8,0:0:0:0:
244,156,179334,1,0,0:0:0:0:
256,192,179401,1,0,0:0:0:0:
256,192,179469,1,0,0:0:0:0:
256,192,179536,1,8,0:0:0:0:
256,192,179671,1,0,0:0:0:0:
256,192,179807,1,8,0:0:0:0:
256,192,179942,1,8,0:0:0:0:
256,192,180077,1,0,0:0:0:0:
256,192,180212,1,0,0:0:0:0:
256,192,180347,1,8,0:0:0:0:
256,192,180415,1,8,0:0:0:0:
256,192,180482,1,0,0:0:0:0:
240,153,180550,1,0,0:0:0:0:
256,192,180617,1,8,0:0:0:0:
256,192,180752,1,0,0:0:0:0:
256,192,180888,1,8,0:0:0:0:
256,192,181023,1,8,0:0:0:0:
256,192,181157,1,0,0:0:0:0:
256,192,181292,1,0,0:0:0:0:
256,192,181427,1,8,0:0:0:0:
251,155,181495,1,0,0:0:0:0:
256,192,181563,1,8,0:0:0:0:
240,153,181630,1,0,0:0:0:0:
256,192,181698,1,8,0:0:0:0:
256,192,181968,1,0,0:0:0:0:
256,192,182238,1,8,0:0:0:0:
256,192,182373,1,0,0:0:0:0:
256,192,182508,1,0,0:0:0:0:
256,192,182644,1,0,0:0:0:0:
512,0,182779,1,12,0:0:0:0:
256,192,183049,1,8,0:0:0:0:
256,192,183184,1,8,0:0:0:0:
256,192,183319,1,0,0:0:0:0:
256,192,183454,1,0,0:0:0:0:
256,192,183590,1,8,0:0:0:0:
256,192,183657,1,8,0:0:0:0:
256,192,183725,1,0,0:0:0:0:
256,192,183792,1,0,0:0:0:0:
256,192,183860,1,8,0:0:0:0:
256,192,183995,1,0,0:0:0:0:
256,192,184130,1,8,0:0:0:0:
256,192,184265,1,8,0:0:0:0:
256,192,184400,1,0,0:0:0:0:
256,192,184536,1,8,0:0:0:0:
256,192,184671,1,8,0:0:0:0:
256,192,184738,1,8,0:0:0:0:
256,192,184806,1,0,0:0:0:0:
512,0,184942,1,12,0:0:0:0:
256,192,185077,1,0,0:0:0:0:
256,192,185212,1,0,0:0:0:0:
256,192,185347,1,8,0:0:0:0:
256,192,185618,1,8,0:0:0:0:
256,192,185753,1,8,0:0:0:0:
256,192,185888,1,0,0:0:0:0:
245,180,186023,1,0,0:0:0:0:
256,192,186158,1,0,0:0:0:0:
256,192,186428,1,8,0:0:0:0:
256,192,186564,1,8,0:0:0:0:
256,192,186699,1,0,0:0:0:0:
256,192,186834,1,0,0:0:0:0:
282,329,186949,1,12,0:0:0:0:
272,160,187218,1,0,0:0:0:0:
272,160,187353,1,8,0:0:0:0:
256,160,187488,1,8,0:0:0:0:
272,160,187624,1,0,0:0:0:0:
256,160,187759,1,0,0:0:0:0:
272,160,187894,1,8,0:0:0:0:
272,160,188029,1,0,0:0:0:0:
272,160,188164,1,8,0:0:0:0:
272,160,188232,1,8,0:0:0:0:
272,160,188299,1,0,0:0:0:0:
285,148,188367,1,0,0:0:0:0:
272,160,188434,1,8,0:0:0:0:
272,160,188570,1,0,0:0:0:0:
272,160,188705,1,8,0:0:0:0:
304,160,188772,1,0,0:0:0:0:
272,160,188840,1,8,0:0:0:0:
272,160,188975,1,0,0:0:0:0:
272,160,189111,1,12,0:0:0:0:
256,176,189381,1,0,0:0:0:0:
234,61,189458,1,0,0:0:0:0:
256,176,189537,1,8,0:0:0:0:
256,176,189672,1,8,0:0:0:0:
256,144,189807,1,0,0:0:0:0:
256,176,189941,1,0,0:0:0:0:
256,176,190076,1,8,0:0:0:0:
256,176,190211,1,8,0:0:0:0:
285,147,190279,1,8,0:0:0:0:
256,176,190346,1,0,0:0:0:0:
256,176,190481,1,8,0:0:0:0:
213,110,190549,1,0,0:0:0:0:
256,176,190617,1,0,0:0:0:0:
256,144,190684,1,0,0:0:0:0:
256,176,190752,1,8,0:0:0:0:
256,176,190887,1,8,0:0:0:0:
256,176,191022,1,0,0:0:0:0:
238,113,191090,1,0,0:0:0:0:
256,176,191157,1,8,0:0:0:0:
256,176,191292,1,4,0:0:0:0:
256,160,191563,1,0,0:0:0:0:
256,160,191698,1,8,0:0:0:0:
240,160,191833,1,8,0:0:0:0:
256,160,191968,1,0,0:0:0:0:
256,160,192103,1,0,0:0:0:0:
240,160,192238,1,8,0:0:0:0:
256,160,192373,1,0,0:0:0:0:
240,144,192441,1,0,0:0:0:0:
256,160,192508,1,8,0:0:0:0:
256,160,192644,1,0,0:0:0:0:
256,160,192779,1,8,0:0:0:0:
256,160,192914,1,8,0:0:0:0:
211,96,192981,1,8,0:0:0:0:
256,160,193049,1,0,0:0:0:0:
240,160,193117,1,0,0:0:0:0:
256,160,193184,1,8,0:0:0:0:
256,160,193319,1,0,0:0:0:0:
256,160,193454,1,12,0:0:0:0:
240,160,193725,1,0,0:0:0:0:
263,123,193792,1,0,0:0:0:0:
240,160,193860,1,8,0:0:0:0:
243,137,193995,1,8,0:0:0:0:
228,141,194130,1,0,0:0:0:0:
243,137,194265,1,0,0:0:0:0:
243,137,194400,1,8,0:0:0:0:
243,137,194536,1,0,0:0:0:0:
243,137,194671,1,8,0:0:0:0:
245,116,194738,1,8,0:0:0:0:
243,137,194806,1,8,0:0:0:0:
254,111,194873,1,8,0:0:0:0:
243,137,194941,1,0,0:0:0:0:
254,111,195076,1,0,0:0:0:0:
243,137,195211,1,8,0:0:0:0:
254,111,195279,1,8,0:0:0:0:
243,137,195346,1,0,0:0:0:0:
254,111,195414,1,0,0:0:0:0:
254,111,195481,1,8,0:0:0:0:
243,137,195617,1,4,0:0:0:0:
256,192,195887,1,0,0:0:0:0:
256,192,196022,1,8,0:0:0:0:
256,192,196157,1,0,0:0:0:0:
256,192,196292,1,0,0:0:0:0:
256,192,196427,1,0,0:0:0:0:
256,192,196563,1,8,0:0:0:0:
256,192,196698,1,8,0:0:0:0:
256,192,196833,1,0,0:0:0:0:
256,192,196968,1,0,0:0:0:0:
243,133,197036,1,0,0:0:0:0:
256,192,197103,1,8,0:0:0:0:
256,192,197238,1,0,0:0:0:0:
256,192,197373,1,8,0:0:0:0:
256,192,197508,1,0,0:0:0:0:
256,192,197644,1,0,0:0:0:0:
512,0,197779,1,12,0:0:0:0:
256,192,198049,1,0,0:0:0:0:
256,192,198184,1,8,0:0:0:0:
235,157,198319,1,0,0:0:0:0:
256,192,198454,1,8,0:0:0:0:
256,192,198522,1,8,0:0:0:0:
256,192,198590,1,0,0:0:0:0:
256,192,198725,1,8,0:0:0:0:
256,192,198860,1,0,0:0:0:0:
256,192,198995,1,8,0:0:0:0:
256,192,199063,1,0,0:0:0:0:
256,192,199130,1,8,0:0:0:0:
256,192,199198,1,8,0:0:0:0:
256,192,199265,1,0,0:0:0:0:
256,192,199400,1,8,0:0:0:0:
256,192,199536,1,0,0:0:0:0:
256,192,199671,1,8,0:0:0:0:
256,192,199738,1,0,0:0:0:0:
256,192,199806,1,8,0:0:0:0:
512,0,199941,1,4,0:0:0:0:
256,192,200211,1,0,0:0:0:0:
256,192,200346,1,8,0:0:0:0:
256,192,200481,1,0,0:0:0:0:
256,192,200617,1,8,0:0:0:0:
256,192,200752,1,0,0:0:0:0:
256,192,200887,1,8,0:0:0:0:
256,192,201022,1,8,0:0:0:0:
232,88,201090,1,8,0:0:0:0:
256,192,201157,1,8,0:0:0:0:
256,192,201292,1,0,0:0:0:0:
256,192,201427,1,8,0:0:0:0:
256,192,201563,1,4,0:0:0:0:
256,192,201698,1,8,0:0:0:0:
256,192,201765,1,8,0:0:0:0:
256,192,201833,1,0,0:0:0:0:
230,178,201900,1,0,0:0:0:0:
256,192,201968,1,0,0:0:0:0:
512,0,202103,1,12,0:0:0:0:
256,192,202373,1,0,0:0:0:0:
256,192,202508,1,8,0:0:0:0:
256,192,202644,1,0,0:0:0:0:
213,116,202711,1,0,0:0:0:0:
256,192,202779,1,0,0:0:0:0:
256,192,202914,1,0,0:0:0:0:
256,192,203049,1,8,0:0:0:0:
256,192,203184,1,8,0:0:0:0:
256,192,203252,1,8,0:0:0:0:
256,192,203319,1,0,0:0:0:0:
256,192,203387,1,0,0:0:0:0:
256,192,203454,1,8,0:0:0:0:
512,0,203590,1,0,0:0:0:0:
256,192,203725,1,8,0:0:0:0:
256,192,203792,1,8,0:0:0:0:
256,192,203860,1,8,0:0:0:0:
256,192,203995,1,0,0:0:0:0:
256,192,204130,1,0,0:0:0:0:
256,192,204265,1,0,0:0:0:0:
512,0,204410,1,12,0:0:0:0:
256,192,204950,1,0,0:0:0:0:
256,192,205491,1,8,0:0:0:0:
256,192,205761,1,0,0:0:0:0:
256,192,205896,1,8,0:0:0:0:
256,192,206166,1,0,0:0:0:0:
256,192,206301,1,8,0:0:0:0:
512,0,206572,1,4,0:0:0:0:
256,192,207112,1,8,0:0:0:0:
256,192,207382,1,0,0:0:0:0:
256,192,207518,1,0,0:0:0:0:
512,0,207653,1,12,0:0:0:0:
256,192,207788,1,4,0:0:0:0:
256,192,208058,1,12,0:0:0:0:
256,192,208328,1,12,0:0:0:0:
512,0,208734,1,4,0:0:0:0:
256,192,209004,1,8,0:0:0:0:
256,192,209274,1,8,0:0:0:0:
256,192,209545,1,8,0:0:0:0:
256,192,209950,1,8,0:0:0:0:
256,192,210220,1,8,0:0:0:0:
256,192,210355,1,0,0:0:0:0:
256,192,210626,1,8,0:0:0:0:
259,147,211707,1,8,0:0:0:0:
259,147,211842,1,8,0:0:0:0:
256,192,211977,1,0,0:0:0:0:
256,192,213058,1,0,0:0:0:0:
256,192,213328,1,8,0:0:0:0:
256,192,213599,1,8,0:0:0:0:
256,192,213869,1,8,0:0:0:0:
256,192,214274,1,8,0:0:0:0:
256,192,214545,1,0,0:0:0:0:
256,192,214680,1,8,0:0:0:0:
256,192,214950,1,8,0:0:0:0:
256,192,215220,1,0,0:0:0:0:
261,155,216031,1,8,0:0:0:0:
261,155,216166,1,8,0:0:0:0:
256,192,216301,1,0,0:0:0:0:
256,192,217382,1,0,0:0:0:0:
256,192,217789,1,8,0:0:0:0:
256,192,218059,1,0,0:0:0:0:
256,192,218194,1,0,0:0:0:0:
256,192,218600,1,8,0:0:0:0:
256,192,218870,1,0,0:0:0:0:
256,192,219005,1,8,0:0:0:0:
256,192,219275,1,8,0:0:0:0:
256,192,219546,1,0,0:0:0:0:
256,192,219816,1,8,0:0:0:0:
256,192,220086,1,8,0:0:0:0:
256,192,220221,1,0,0:0:0:0:
256,192,220491,1,8,0:0:0:0:
256,192,220627,1,0,0:0:0:0:
256,192,220762,1,8,0:0:0:0:
256,192,221032,1,8,0:0:0:0:
256,192,221167,1,0,0:0:0:0:
256,192,221437,1,0,0:0:0:0:
512,0,221707,1,12,0:0:0:0:
256,192,221977,1,8,0:0:0:0:
256,192,222112,1,0,0:0:0:0:
256,192,222382,1,0,0:0:0:0:
256,192,222517,1,8,0:0:0:0:
512,0,222788,1,12,0:0:0:0:
256,192,223058,1,0,0:0:0:0:
512,0,223193,1,12,0:0:0:0:
256,192,223463,1,0,0:0:0:0:
512,0,223599,1,12,0:0:0:0:
512,0,223869,1,12,0:0:0:0:
256,192,224139,1,8,0:0:0:0:
256,192,224207,1,0,0:0:0:0:
256,192,224274,1,8,0:0:0:0:
256,192,224342,1,8,0:0:0:0:
256,192,224409,1,0,0:0:0:0:
256,192,224477,1,0,0:0:0:0:
256,192,224545,1,0,0:0:0:0:
256,192,224612,1,0,0:0:0:0:
256,192,224680,1,8,0:0:0:0:
256,192,224747,1,8,0:0:0:0:
256,192,224815,1,0,0:0:0:0:
256,192,224882,1,0,0:0:0:0:
256,192,224950,1,8,0:0:0:0:
256,192,225018,12,0,225896,0:0:0:0:
256,192,226301,5,8,0:0:0:0:
256,192,226436,1,8,0:0:0:0:
256,192,226572,1,0,0:0:0:0:
256,192,226707,1,0,0:0:0:0:
256,192,226842,1,8,0:0:0:0:
256,192,226909,1,8,0:0:0:0:
256,192,226977,1,8,0:0:0:0:
219,219,227045,1,8,0:0:0:0:
256,192,227112,1,0,0:0:0:0:
256,192,227247,1,8,0:0:0:0:
256,192,227315,1,0,0:0:0:0:
256,192,227382,1,8,0:0:0:0:
256,192,227517,1,0,0:0:0:0:
256,192,227653,1,8,0:0:0:0:
256,192,227720,1,8,0:0:0:0:
256,192,227788,1,0,0:0:0:0:
256,192,227923,1,8,0:0:0:0:
256,192,228058,1,0,0:0:0:0:
256,192,228126,1,0,0:0:0:0:
256,192,228193,1,8,0:0:0:0:
256,192,228463,1,8,0:0:0:0:
251,153,228531,1,0,0:0:0:0:
256,192,228599,1,8,0:0:0:0:
256,192,228666,1,8,0:0:0:0:
256,192,228734,1,0,0:0:0:0:
256,192,228869,1,8,0:0:0:0:
256,192,229004,1,0,0:0:0:0:
256,192,229139,1,8,0:0:0:0:
272,164,229207,1,8,0:0:0:0:
256,192,229274,1,8,0:0:0:0:
256,192,229409,1,0,0:0:0:0:
256,192,229477,1,0,0:0:0:0:
256,192,229545,1,8,0:0:0:0:
256,192,229680,1,0,0:0:0:0:
256,192,229815,1,8,0:0:0:0:
256,192,229882,1,0,0:0:0:0:
256,192,229950,1,0,0:0:0:0:
282,176,230017,1,0,0:0:0:0:
256,192,230085,1,8,0:0:0:0:
256,192,230153,1,8,0:0:0:0:
256,192,230220,1,0,0:0:0:0:
512,0,230355,1,12,0:0:0:0:
256,192,230626,1,8,0:0:0:0:
256,192,230761,1,0,0:0:0:0:
256,192,230828,1,8,0:0:0:0:
256,192,230896,1,0,0:0:0:0:
256,192,231031,1,0,0:0:0:0:
256,192,231166,1,8,0:0:0:0:
256,192,231234,1,8,0:0:0:0:
256,192,231301,1,0,0:0:0:0:
256,192,231369,1,0,0:0:0:0:
256,192,231436,1,0,0:0:0:0:
256,192,231572,1,8,0:0:0:0:
256,192,231639,1,8,0:0:0:0:
256,192,231707,1,8,0:0:0:0:
256,192,231842,1,0,0:0:0:0:
256,192,231977,1,8,0:0:0:0:
256,192,232112,1,0,0:0:0:0:
256,192,232180,1,0,0:0:0:0:
256,192,232247,1,8,0:0:0:0:
256,192,232382,1,0,0:0:0:0:
256,192,232517,1,8,0:0:0:0:
218,52,232585,1,0,0:0:0:0:
256,192,232653,1,0,0:0:0:0:
256,192,232720,1,0,0:0:0:0:
256,192,232788,1,8,0:0:0:0:
256,192,232923,1,0,0:0:0:0:
256,192,233193,1,0,0:0:0:0:
512,0,233463,1,12,0:0:0:0:
256,192,233734,1,8,0:0:0:0:
256,192,233801,1,8,0:0:0:0:
256,192,233869,1,8,0:0:0:0:
256,192,234004,1,0,0:0:0:0:
256,192,234130,1,8,0:0:0:0:
256,192,234194,1,8,0:0:0:0:
256,192,234258,1,0,0:0:0:0:
256,192,234323,1,0,0:0:0:0:
256,192,234387,1,8,0:0:0:0:
256,192,234451,1,0,0:0:0:0:
256,192,234516,1,0,0:0:0:0:
512,0,234666,1,12,0:0:0:0:
256,192,234936,1,8,0:0:0:0:
256,192,235071,1,0,0:0:0:0:
256,192,235138,1,8,0:0:0:0:
256,192,235206,1,0,0:0:0:0:
256,192,235341,1,0,0:0:0:0:
256,192,235506,1,8,0:0:0:0:
258,131,235634,1,8,0:0:0:0:
256,192,235762,1,0,0:0:0:0:
256,192,235897,1,8,0:0:0:0:
256,192,235964,1,8,0:0:0:0:
256,192,236032,1,8,0:0:0:0:
256,192,236167,1,0,0:0:0:0:
256,192,236302,1,8,0:0:0:0:
256,192,236437,1,0,0:0:0:0:
256,192,236505,1,0,0:0:0:0:
256,192,236573,1,8,0:0:0:0:
234,174,236640,1,0,0:0:0:0:
256,192,236708,1,0,0:0:0:0:
256,192,236843,1,8,0:0:0:0:
256,192,237113,1,8,0:0:0:0:
256,192,237248,1,0,0:0:0:0:
256,192,237316,1,0,0:0:0:0:
256,192,237383,1,8,0:0:0:0:
256,192,237518,1,0,0:0:0:0:
256,192,237654,1,8,0:0:0:0:
256,192,237789,1,0,0:0:0:0:
256,192,237856,1,0,0:0:0:0:
256,192,237924,1,0,0:0:0:0:
273,205,237991,1,0,0:0:0:0:
256,192,238059,1,8,0:0:0:0:
256,192,238194,1,0,0:0:0:0:
256,192,238329,1,8,0:0:0:0:
256,192,238397,1,0,0:0:0:0:
256,192,238464,1,8,0:0:0:0:
272,146,238532,1,8,0:0:0:0:
256,192,238600,1,0,0:0:0:0:
256,192,238735,1,8,0:0:0:0:
256,192,238802,1,8,0:0:0:0:
256,192,238870,1,8,0:0:0:0:
512,0,239005,1,4,0:0:0:0:
256,192,239275,1,8,0:0:0:0:
256,192,239410,1,8,0:0:0:0:
256,192,239478,1,8,0:0:0:0:
256,192,239546,1,0,0:0:0:0:
256,192,239681,1,0,0:0:0:0:
256,192,239816,1,8,0:0:0:0:
256,192,239883,1,8,0:0:0:0:
256,192,239951,1,8,0:0:0:0:
256,192,240018,1,8,0:0:0:0:
256,192,240086,1,0,0:0:0:0:
256,192,240221,1,0,0:0:0:0:
256,192,240356,1,8,0:0:0:0:
256,192,240491,1,0,0:0:0:0:
256,192,240559,1,8,0:0:0:0:
256,192,240627,1,0,0:0:0:0:
256,192,240762,1,0,0:0:0:0:
256,192,240897,1,8,0:0:0:0:
256,192,240964,1,8,0:0:0:0:
256,192,241032,1,8,0:0:0:0:
512,0,241167,1,4,0:0:0:0:
256,192,241302,1,0,0:0:0:0:
256,192,241437,1,8,0:0:0:0:
256,192,241573,1,8,0:0:0:0:
256,192,241640,1,8,0:0:0:0:
256,192,241708,1,0,0:0:0:0:
252,124,241775,1,0,0:0:0:0:
256,192,241843,1,0,0:0:0:0:
256,192,241978,1,8,0:0:0:0:
256,192,242046,1,8,0:0:0:0:
256,192,242113,1,0,0:0:0:0:
256,192,242248,1,8,0:0:0:0:
256,192,242383,1,0,0:0:0:0:
256,192,242518,1,8,0:0:0:0:
256,192,242654,1,0,0:0:0:0:
256,192,242789,1,8,0:0:0:0:
256,192,242856,1,8,0:0:0:0:
256,192,242924,1,8,0:0:0:0:
256,192,242991,1,8,0:0:0:0:
256,192,243059,1,0,0:0:0:0:
256,192,243127,1,0,0:0:0:0:
256,192,243194,1,0,0:0:0:0:
512,0,243329,1,12,0:0:0:0:
256,192,244140,1,0,0:0:0:0:
256,192,244275,1,0,0:0:0:0:
512,0,244410,1,12,0:0:0:0:
249,141,244546,1,0,0:0:0:0:
256,192,244681,1,0,0:0:0:0:
256,192,244816,1,0,0:0:0:0:
256,192,244951,1,12,0:0:0:0:
256,192,245086,1,8,0:0:0:0:
256,192,245221,1,0,0:0:0:0:
256,192,245356,1,0,0:0:0:0:
512,0,245491,1,12,0:0:0:0:
256,192,245671,1,0,0:0:0:0:
256,192,245851,1,0,0:0:0:0:
512,0,246032,1,12,0:0:0:0:
512,0,246212,1,12,0:0:0:0:
512,0,246392,1,12,0:0:0:0:
512,0,246572,1,4,0:0:0:0:
256,192,246662,12,0,247653,0:0:0:0:
