osu file format v14

[General]
AudioFilename: audio.mp3
AudioLeadIn: 0
PreviewTime: 169424
Countdown: 0
SampleSet: Normal
StackLeniency: 0.7
Mode: 1
LetterboxInBreaks: 0
WidescreenStoryboard: 0

[Editor]
DistanceSpacing: 0.6
BeatDivisor: 4
GridSize: 32
TimelineZoom: 2.799999

[Metadata]
Title:Torquemada
TitleUnicode:Torquemada
Artist:Avalanch
ArtistUnicode:Avalanch
Creator:Hanjamon
Version:Inner Oni
Source:
Tags:Israel Ramos Alberto Rionda Jorge Salán Mike Terrana Magnus Rosén José Manuel Paz El Ángel Caído 2017 All Star Band
BeatmapID:1374716
BeatmapSetID:648914

[Difficulty]
HPDrainRate:5
CircleSize:6
OverallDifficulty:6
ApproachRate:5
SliderMultiplier:1.4
SliderTickRate:1

[Events]
//Background and Video events
0,0,"angelbwBG.jpg",0,0
//Break Periods
//Storyboard Layer 0 (Background)
//Storyboard Layer 1 (Fail)
//Storyboard Layer 2 (Pass)
//Storyboard Layer 3 (Foreground)
//Storyboard Sound Samples

[TimingPoints]
70,375,4,1,0,20,1,0
3070,-100,4,1,0,65,0,0
27820,375,4,1,0,65,1,0
33820,-100,4,1,0,65,0,1
47320,-100,4,1,0,65,0,0
78820,375,6,1,0,65,1,0
81070,375,4,1,0,65,1,0
82570,375,4,1,0,65,1,0
96070,375,5,1,0,65,1,0
99820,375,4,1,0,65,1,0
114820,375,6,1,0,65,1,0
117070,375,4,1,0,65,1,0
118570,375,4,1,0,65,1,0
147070,-100,4,1,0,65,0,1
162070,-100,4,1,0,65,0,0
169570,-100,4,1,0,65,0,1
193570,-90.9090909090909,4,1,0,65,0,1
199382,-92.5925925925926,4,1,0,65,0,1
199476,-93.4579439252336,4,1,0,65,0,1
199570,-94.3396226415094,4,1,0,65,0,1
199663,-95.2380952380952,4,1,0,65,0,1
199757,-96.1538461538461,4,1,0,65,0,1
199851,-97.0873786407767,4,1,0,65,0,1
199945,-98.0392156862745,4,1,0,65,0,1
200038,-99.009900990099,4,1,0,65,0,1
200132,-100,4,1,0,65,0,1
201070,-100,4,1,0,65,0,0
225070,-100,4,1,0,65,0,1
240070,-100,4,1,0,65,0,0
265945,-105.263157894737,4,1,0,65,0,0
266320,-111.111111111111,4,1,0,65,0,0
266695,-117.647058823529,4,1,0,65,0,0
267070,-125,4,1,0,65,0,0
267445,-133.333333333333,4,1,0,65,0,0
267820,-142.857142857143,4,1,0,65,0,0
268570,-100,4,1,0,65,0,1
286570,-100,4,1,0,65,0,0
302507,-100,4,1,0,40,0,0
304042,400,4,1,0,40,1,0
304042,-142.857142857143,4,1,0,40,0,0
308842,-125,4,1,0,50,0,0
315242,-111.111111111111,4,1,0,60,0,0
321642,-100,4,1,0,65,0,0
326442,-102.040816326531,4,1,0,63,0,0
326642,-104.166666666667,4,1,0,61,0,0
326842,-106.382978723404,4,1,0,59,0,0
327042,-108.695652173913,4,1,0,57,0,0
327242,-111.111111111111,4,1,0,55,0,0
327442,-113.636363636364,4,1,0,53,0,0
327642,-116.279069767442,4,1,0,40,0,0
329642,375,4,1,0,65,1,8
329882,375,4,1,0,65,1,0
330819,375,4,1,0,65,1,0
344319,-100,4,1,0,65,0,1
368319,-100,4,1,0,65,0,0

[HitObjects]
256,192,70,12,0,2695,0:0:0:0:
288,160,3070,5,8,0:0:0:0:
352,192,3257,1,8,0:0:0:0:
352,192,3445,1,0,0:0:0:0:
352,192,3632,1,0,0:0:0:0:
352,192,3820,1,8,0:0:0:0:
352,192,4007,1,8,0:0:0:0:
352,192,4195,1,0,0:0:0:0:
352,192,4382,1,0,0:0:0:0:
352,192,4570,1,8,0:0:0:0:
352,192,4757,1,0,0:0:0:0:
352,192,4945,1,8,0:0:0:0:
352,192,5132,1,0,0:0:0:0:
352,192,5320,1,8,0:0:0:0:
352,192,5507,1,8,0:0:0:0:
352,192,5695,1,0,0:0:0:0:
352,192,5882,1,0,0:0:0:0:
352,192,6070,1,8,0:0:0:0:
352,192,6257,1,8,0:0:0:0:
352,192,6445,1,0,0:0:0:0:
352,192,6632,1,0,0:0:0:0:
288,160,6820,1,8,0:0:0:0:
352,192,7007,1,8,0:0:0:0:
352,192,7195,1,0,0:0:0:0:
352,192,7382,1,0,0:0:0:0:
352,192,7570,1,8,0:0:0:0:
352,192,7757,1,0,0:0:0:0:
352,192,7945,1,8,0:0:0:0:
352,192,8132,1,0,0:0:0:0:
288,160,8320,1,8,0:0:0:0:
352,192,8507,1,8,0:0:0:0:
352,192,8695,1,0,0:0:0:0:
288,160,9070,1,4,0:0:0:0:
384,96,9351,1,12,0:0:0:0:
160,160,9632,1,0,0:0:0:0:
384,192,9820,1,8,0:0:0:0:
384,192,10007,1,8,0:0:0:0:
384,192,10195,1,0,0:0:0:0:
384,192,10382,1,0,0:0:0:0:
384,192,10570,1,8,0:0:0:0:
384,192,10757,1,0,0:0:0:0:
384,192,10945,1,8,0:0:0:0:
384,192,11132,1,0,0:0:0:0:
384,192,11320,1,8,0:0:0:0:
384,192,11507,1,8,0:0:0:0:
384,96,11601,1,8,0:0:0:0:
384,192,11695,1,8,0:0:0:0:
384,96,11788,1,8,0:0:0:0:
384,96,11882,1,8,0:0:0:0:
384,96,12070,1,4,0:0:0:0:
416,192,12351,1,12,0:0:0:0:
352,160,12632,1,0,0:0:0:0:
352,160,12820,1,8,0:0:0:0:
352,160,13007,1,8,0:0:0:0:
352,160,13195,1,0,0:0:0:0:
352,160,13382,1,0,0:0:0:0:
352,160,13570,1,8,0:0:0:0:
352,160,13757,1,0,0:0:0:0:
352,160,13945,1,8,0:0:0:0:
352,160,14132,1,0,0:0:0:0:
352,160,14320,1,8,0:0:0:0:
352,160,14507,1,8,0:0:0:0:
352,160,14695,1,0,0:0:0:0:
352,160,15070,1,4,0:0:0:0:
352,160,15351,1,0,0:0:0:0:
320,160,15632,1,8,0:0:0:0:
320,160,15820,1,8,0:0:0:0:
320,160,15913,1,8,0:0:0:0:
320,160,16007,1,0,0:0:0:0:
320,160,16101,1,0,0:0:0:0:
320,160,16195,1,8,0:0:0:0:
320,160,16288,1,8,0:0:0:0:
320,160,16382,1,0,0:0:0:0:
320,160,16570,1,4,0:0:0:0:
384,192,16851,1,0,0:0:0:0:
384,192,17132,1,8,0:0:0:0:
384,192,17320,1,8,0:0:0:0:
384,192,17413,1,8,0:0:0:0:
384,192,17507,1,0,0:0:0:0:
384,192,17601,1,0,0:0:0:0:
384,192,17695,1,8,0:0:0:0:
384,192,17788,1,8,0:0:0:0:
384,192,17882,1,0,0:0:0:0:
384,192,18070,1,4,0:0:0:0:
384,192,18351,1,0,0:0:0:0:
384,192,18632,1,8,0:0:0:0:
384,192,18820,1,8,0:0:0:0:
384,192,18913,1,8,0:0:0:0:
384,192,19007,1,0,0:0:0:0:
384,192,19101,1,0,0:0:0:0:
384,192,19195,1,8,0:0:0:0:
384,192,19288,1,8,0:0:0:0:
384,192,19382,1,0,0:0:0:0:
384,192,19570,1,4,0:0:0:0:
384,224,19851,1,0,0:0:0:0:
384,224,20132,1,8,0:0:0:0:
384,224,20320,1,8,0:0:0:0:
384,224,20413,1,8,0:0:0:0:
384,224,20507,1,0,0:0:0:0:
384,224,20601,1,8,0:0:0:0:
384,224,20695,1,8,0:0:0:0:
384,224,20788,1,0,0:0:0:0:
384,224,20882,1,0,0:0:0:0:
384,256,21070,1,12,0:0:0:0:
416,256,21351,1,0,0:0:0:0:
416,256,21632,1,8,0:0:0:0:
416,256,21820,1,8,0:0:0:0:
416,256,21913,1,8,0:0:0:0:
416,256,22007,1,0,0:0:0:0:
416,256,22101,1,0,0:0:0:0:
416,256,22195,1,8,0:0:0:0:
416,256,22288,1,8,0:0:0:0:
416,256,22382,1,0,0:0:0:0:
416,256,22570,1,12,0:0:0:0:
416,256,22851,1,0,0:0:0:0:
416,256,23132,1,8,0:0:0:0:
416,256,23320,1,8,0:0:0:0:
416,256,23413,1,8,0:0:0:0:
416,256,23507,1,0,0:0:0:0:
416,256,23601,1,0,0:0:0:0:
416,256,23695,1,8,0:0:0:0:
416,256,23788,1,8,0:0:0:0:
416,256,23882,1,0,0:0:0:0:
416,256,24070,1,12,0:0:0:0:
416,256,24351,1,0,0:0:0:0:
416,256,24632,1,8,0:0:0:0:
416,256,24820,1,8,0:0:0:0:
416,256,24913,1,8,0:0:0:0:
416,256,25007,1,0,0:0:0:0:
416,256,25101,1,0,0:0:0:0:
416,256,25195,1,8,0:0:0:0:
416,256,25288,1,8,0:0:0:0:
416,256,25382,1,0,0:0:0:0:
416,256,25570,1,12,0:0:0:0:
416,256,25851,1,0,0:0:0:0:
416,256,26132,1,8,0:0:0:0:
416,256,26320,1,8,0:0:0:0:
416,256,26413,1,8,0:0:0:0:
416,256,26507,1,0,0:0:0:0:
416,256,26601,1,0,0:0:0:0:
416,256,26695,1,8,0:0:0:0:
416,256,26788,1,8,0:0:0:0:
416,256,26882,1,8,0:0:0:0:
416,256,27070,1,4,0:0:0:0:
416,256,27351,1,4,0:0:0:0:
416,256,27632,1,4,0:0:0:0:
416,256,27820,1,12,0:0:0:0:
352,128,28007,1,8,0:0:0:0:
352,128,28195,1,0,0:0:0:0:
352,128,28288,1,0,0:0:0:0:
352,128,28382,1,8,0:0:0:0:
352,128,28476,1,0,0:0:0:0:
352,128,28570,1,8,0:0:0:0:
352,128,28663,1,8,0:0:0:0:
352,128,28757,1,0,0:0:0:0:
352,128,28851,1,0,0:0:0:0:
352,128,28945,1,8,0:0:0:0:
352,128,29038,1,0,0:0:0:0:
352,128,29132,1,8,0:0:0:0:
352,128,29226,1,8,0:0:0:0:
352,128,29320,1,0,0:0:0:0:
352,128,29413,1,0,0:0:0:0:
352,128,29507,1,8,0:0:0:0:
352,128,29601,1,0,0:0:0:0:
352,128,29695,1,8,0:0:0:0:
352,128,29788,1,0,0:0:0:0:
352,128,29882,1,8,0:0:0:0:
352,128,29976,1,0,0:0:0:0:
352,128,30070,1,8,0:0:0:0:
352,128,30163,1,8,0:0:0:0:
352,128,30257,1,0,0:0:0:0:
352,128,30351,1,0,0:0:0:0:
352,128,30445,1,8,0:0:0:0:
352,128,30538,1,8,0:0:0:0:
352,128,30632,1,8,0:0:0:0:
352,128,30820,1,4,0:0:0:0:
288,192,31101,1,4,0:0:0:0:
288,192,31382,1,4,0:0:0:0:
256,192,31570,1,12,0:0:0:0:
256,192,31757,1,8,0:0:0:0:
256,192,31945,1,0,0:0:0:0:
256,192,32038,1,0,0:0:0:0:
256,192,32132,1,8,0:0:0:0:
256,192,32226,1,0,0:0:0:0:
256,192,32320,1,0,0:0:0:0:
256,192,32413,1,0,0:0:0:0:
256,192,32507,1,8,0:0:0:0:
256,96,32601,1,8,0:0:0:0:
256,96,32695,1,0,0:0:0:0:
256,192,32788,1,0,0:0:0:0:
256,96,32882,1,8,0:0:0:0:
256,96,32976,1,0,0:0:0:0:
256,96,33070,1,8,0:0:0:0:
256,96,33163,1,0,0:0:0:0:
256,96,33257,1,8,0:0:0:0:
256,96,33351,1,8,0:0:0:0:
256,96,33445,1,8,0:0:0:0:
256,96,33538,1,8,0:0:0:0:
256,96,33632,1,8,0:0:0:0:
288,192,33726,1,8,0:0:0:0:
288,192,33820,1,0,0:0:0:0:
256,160,33913,1,0,0:0:0:0:
352,224,34007,1,8,0:0:0:0:
352,224,34101,1,0,0:0:0:0:
352,224,34195,1,0,0:0:0:0:
352,224,34288,1,0,0:0:0:0:
352,224,34382,1,8,0:0:0:0:
352,224,34476,1,8,0:0:0:0:
352,224,34570,1,0,0:0:0:0:
352,224,34663,1,0,0:0:0:0:
352,224,34757,1,8,0:0:0:0:
352,224,34851,1,0,0:0:0:0:
352,224,34945,1,0,0:0:0:0:
352,224,35038,1,0,0:0:0:0:
352,224,35132,1,8,0:0:0:0:
352,224,35226,1,0,0:0:0:0:
352,224,35320,1,8,0:0:0:0:
352,224,35413,1,0,0:0:0:0:
352,224,35507,1,8,0:0:0:0:
352,224,35601,1,8,0:0:0:0:
352,224,35695,1,0,0:0:0:0:
352,224,35788,1,0,0:0:0:0:
352,224,35882,1,8,0:0:0:0:
352,224,35976,1,0,0:0:0:0:
352,224,36070,1,8,0:0:0:0:
352,224,36163,1,0,0:0:0:0:
352,224,36257,1,8,0:0:0:0:
352,224,36351,1,8,0:0:0:0:
352,224,36445,1,0,0:0:0:0:
352,224,36538,1,0,0:0:0:0:
352,224,36632,1,8,0:0:0:0:
352,224,36726,1,8,0:0:0:0:
352,224,36820,1,0,0:0:0:0:
352,224,36913,1,0,0:0:0:0:
352,224,37007,1,8,0:0:0:0:
352,224,37101,1,0,0:0:0:0:
352,224,37195,1,0,0:0:0:0:
352,224,37288,1,0,0:0:0:0:
352,224,37382,1,8,0:0:0:0:
352,224,37476,1,8,0:0:0:0:
352,224,37570,1,0,0:0:0:0:
352,224,37663,1,0,0:0:0:0:
352,224,37757,1,8,0:0:0:0:
352,224,37851,1,0,0:0:0:0:
352,224,37945,1,0,0:0:0:0:
352,224,38038,1,0,0:0:0:0:
352,224,38132,1,8,0:0:0:0:
352,224,38226,1,0,0:0:0:0:
352,224,38320,1,8,0:0:0:0:
352,224,38413,1,0,0:0:0:0:
352,224,38507,1,8,0:0:0:0:
352,224,38601,1,8,0:0:0:0:
352,224,38695,1,0,0:0:0:0:
352,224,38788,1,0,0:0:0:0:
352,224,38882,1,8,0:0:0:0:
352,224,38976,1,8,0:0:0:0:
352,224,39070,1,0,0:0:0:0:
352,224,39163,1,8,0:0:0:0:
352,224,39257,1,0,0:0:0:0:
352,224,39351,1,0,0:0:0:0:
352,224,39445,1,8,0:0:0:0:
352,224,39538,1,0,0:0:0:0:
352,224,39632,1,8,0:0:0:0:
352,224,39726,1,8,0:0:0:0:
352,224,39820,1,0,0:0:0:0:
352,224,39913,1,0,0:0:0:0:
352,224,40007,1,8,0:0:0:0:
352,224,40101,1,0,0:0:0:0:
352,224,40195,1,0,0:0:0:0:
352,224,40288,1,0,0:0:0:0:
352,224,40382,1,8,0:0:0:0:
352,224,40476,1,8,0:0:0:0:
352,224,40570,1,0,0:0:0:0:
352,224,40663,1,0,0:0:0:0:
352,224,40757,1,8,0:0:0:0:
352,224,40851,1,0,0:0:0:0:
352,224,40945,1,0,0:0:0:0:
352,224,41038,1,0,0:0:0:0:
352,224,41132,1,8,0:0:0:0:
352,224,41226,1,0,0:0:0:0:
352,224,41320,1,8,0:0:0:0:
352,224,41413,1,0,0:0:0:0:
352,224,41507,1,8,0:0:0:0:
352,224,41601,1,8,0:0:0:0:
352,224,41695,1,0,0:0:0:0:
352,224,41788,1,0,0:0:0:0:
352,224,41882,1,8,0:0:0:0:
352,224,41976,1,0,0:0:0:0:
352,224,42070,1,8,0:0:0:0:
352,224,42163,1,0,0:0:0:0:
352,224,42257,1,8,0:0:0:0:
352,224,42351,1,8,0:0:0:0:
352,224,42445,1,0,0:0:0:0:
352,224,42538,1,0,0:0:0:0:
352,224,42632,1,8,0:0:0:0:
352,224,42726,1,8,0:0:0:0:
352,224,42820,1,0,0:0:0:0:
352,224,42913,1,0,0:0:0:0:
352,224,43007,1,8,0:0:0:0:
352,224,43101,1,0,0:0:0:0:
352,224,43195,1,0,0:0:0:0:
352,224,43288,1,0,0:0:0:0:
352,224,43382,1,8,0:0:0:0:
352,224,43476,1,8,0:0:0:0:
352,224,43570,1,0,0:0:0:0:
352,224,43663,1,0,0:0:0:0:
352,224,43757,1,8,0:0:0:0:
352,224,43851,1,0,0:0:0:0:
352,224,43945,1,0,0:0:0:0:
384,256,44038,1,0,0:0:0:0:
384,256,44132,1,8,0:0:0:0:
352,224,44226,1,0,0:0:0:0:
384,256,44320,1,8,0:0:0:0:
352,224,44413,1,0,0:0:0:0:
352,224,44507,1,0,0:0:0:0:
352,224,44601,1,0,0:0:0:0:
352,224,44695,1,8,0:0:0:0:
352,224,44788,1,8,0:0:0:0:
352,224,44882,1,0,0:0:0:0:
352,224,44976,1,0,0:0:0:0:
352,224,45070,1,8,0:0:0:0:
352,224,45163,1,0,0:0:0:0:
352,224,45257,1,8,0:0:0:0:
352,224,45351,1,0,0:0:0:0:
352,224,45445,1,8,0:0:0:0:
352,224,45538,1,8,0:0:0:0:
352,224,45632,1,0,0:0:0:0:
352,224,45726,1,0,0:0:0:0:
352,224,45820,1,8,0:0:0:0:
352,256,45913,1,8,0:0:0:0:
352,256,46007,1,0,0:0:0:0:
352,256,46101,1,0,0:0:0:0:
352,256,46195,1,0,0:0:0:0:
352,256,46288,1,0,0:0:0:0:
352,256,46382,1,8,0:0:0:0:
352,256,46476,1,8,0:0:0:0:
352,256,46570,1,0,0:0:0:0:
352,256,46663,1,0,0:0:0:0:
352,256,46757,1,0,0:0:0:0:
352,256,46851,1,0,0:0:0:0:
352,256,46945,1,8,0:0:0:0:
352,256,47038,1,0,0:0:0:0:
352,256,47132,1,8,0:0:0:0:
352,256,47320,1,4,0:0:0:0:
256,160,47507,1,0,0:0:0:0:
256,160,47601,1,0,0:0:0:0:
256,160,47695,1,8,0:0:0:0:
256,160,47882,1,0,0:0:0:0:
256,160,47976,1,0,0:0:0:0:
256,160,48070,1,8,0:0:0:0:
288,192,48163,1,0,0:0:0:0:
288,192,48257,1,0,0:0:0:0:
288,192,48351,1,0,0:0:0:0:
288,192,48445,1,8,0:0:0:0:
288,192,48538,1,8,0:0:0:0:
288,192,48632,1,0,0:0:0:0:
288,192,48726,1,0,0:0:0:0:
288,192,48820,1,8,0:0:0:0:
320,192,49007,1,0,0:0:0:0:
320,192,49101,1,0,0:0:0:0:
320,192,49195,1,8,0:0:0:0:
320,192,49382,1,0,0:0:0:0:
320,192,49476,1,0,0:0:0:0:
320,192,49570,1,8,0:0:0:0:
320,192,49663,1,0,0:0:0:0:
320,192,49757,1,8,0:0:0:0:
320,192,49851,1,0,0:0:0:0:
320,192,49945,1,8,0:0:0:0:
320,192,50038,1,8,0:0:0:0:
320,192,50132,1,0,0:0:0:0:
320,192,50226,1,0,0:0:0:0:
320,192,50320,1,8,0:0:0:0:
320,192,50507,1,0,0:0:0:0:
320,192,50601,1,0,0:0:0:0:
320,192,50695,1,8,0:0:0:0:
320,192,50882,1,0,0:0:0:0:
320,192,50976,1,0,0:0:0:0:
320,192,51070,1,8,0:0:0:0:
192,160,51163,1,0,0:0:0:0:
288,128,51257,1,0,0:0:0:0:
288,128,51351,1,0,0:0:0:0:
288,128,51445,1,8,0:0:0:0:
288,128,51538,1,8,0:0:0:0:
288,128,51632,1,0,0:0:0:0:
288,128,51820,1,12,0:0:0:0:
288,96,52007,1,0,0:0:0:0:
288,96,52195,1,8,0:0:0:0:
288,96,52382,1,0,0:0:0:0:
288,96,52570,1,12,0:0:0:0:
288,96,52757,1,0,0:0:0:0:
288,96,52945,1,8,0:0:0:0:
288,96,53132,1,0,0:0:0:0:
288,96,53320,1,0,0:0:0:0:
288,96,53413,1,0,0:0:0:0:
288,96,53507,1,8,0:0:0:0:
288,96,53601,1,0,0:0:0:0:
288,96,53695,1,0,0:0:0:0:
288,96,53788,1,0,0:0:0:0:
288,96,53882,1,8,0:0:0:0:
288,96,53976,1,8,0:0:0:0:
288,96,54070,1,0,0:0:0:0:
288,96,54163,1,0,0:0:0:0:
288,96,54257,1,8,0:0:0:0:
288,96,54351,1,0,0:0:0:0:
288,96,54445,1,0,0:0:0:0:
384,192,54538,1,0,0:0:0:0:
384,192,54632,1,8,0:0:0:0:
384,192,54726,1,8,0:0:0:0:
384,192,54820,1,0,0:0:0:0:
384,192,54913,1,0,0:0:0:0:
384,192,55007,1,8,0:0:0:0:
384,192,55101,1,0,0:0:0:0:
384,192,55195,1,0,0:0:0:0:
384,192,55288,1,0,0:0:0:0:
384,192,55382,1,8,0:0:0:0:
384,192,55476,1,8,0:0:0:0:
384,192,55570,1,0,0:0:0:0:
384,192,55663,1,0,0:0:0:0:
384,192,55757,1,8,0:0:0:0:
384,192,55851,1,0,0:0:0:0:
384,192,55945,1,8,0:0:0:0:
384,192,56038,1,0,0:0:0:0:
384,192,56132,1,8,0:0:0:0:
384,192,56226,1,8,0:0:0:0:
384,192,56320,1,0,0:0:0:0:
384,192,56413,1,0,0:0:0:0:
384,192,56507,1,8,0:0:0:0:
384,192,56601,1,0,0:0:0:0:
384,192,56695,1,0,0:0:0:0:
384,192,56788,1,0,0:0:0:0:
384,192,56882,1,8,0:0:0:0:
384,192,56976,1,0,0:0:0:0:
384,192,57070,1,8,0:0:0:0:
384,192,57163,1,0,0:0:0:0:
384,192,57257,1,8,0:0:0:0:
384,192,57351,1,8,0:0:0:0:
384,192,57445,1,0,0:0:0:0:
384,192,57538,1,0,0:0:0:0:
384,192,57632,1,8,0:0:0:0:
384,192,57820,1,4,0:0:0:0:
384,192,58007,1,8,0:0:0:0:
384,192,58101,1,8,0:0:0:0:
384,192,58195,1,0,0:0:0:0:
384,192,58288,1,0,0:0:0:0:
384,192,58382,1,8,0:0:0:0:
384,192,58570,1,12,0:0:0:0:
384,192,58757,1,0,0:0:0:0:
384,192,58851,1,0,0:0:0:0:
384,192,58945,1,8,0:0:0:0:
384,192,59038,1,8,0:0:0:0:
384,192,59132,1,8,0:0:0:0:
448,256,59320,1,12,0:0:0:0:
256,192,59507,1,0,0:0:0:0:
256,192,59601,1,0,0:0:0:0:
256,192,59695,1,8,0:0:0:0:
256,192,59882,1,0,0:0:0:0:
256,192,59976,1,0,0:0:0:0:
256,192,60070,1,8,0:0:0:0:
256,192,60163,1,0,0:0:0:0:
256,192,60257,1,0,0:0:0:0:
256,192,60351,1,0,0:0:0:0:
256,192,60445,1,8,0:0:0:0:
192,128,60538,1,8,0:0:0:0:
320,192,60632,1,0,0:0:0:0:
320,192,60726,1,0,0:0:0:0:
320,192,60820,1,8,0:0:0:0:
320,192,61007,1,0,0:0:0:0:
320,192,61101,1,0,0:0:0:0:
320,192,61195,1,8,0:0:0:0:
320,192,61382,1,0,0:0:0:0:
320,192,61476,1,0,0:0:0:0:
320,192,61570,1,8,0:0:0:0:
320,192,61663,1,0,0:0:0:0:
320,192,61757,1,8,0:0:0:0:
320,192,61851,1,0,0:0:0:0:
320,192,61945,1,8,0:0:0:0:
320,192,62038,1,8,0:0:0:0:
256,128,62132,1,0,0:0:0:0:
256,128,62226,1,0,0:0:0:0:
256,128,62320,1,8,0:0:0:0:
352,192,62507,1,0,0:0:0:0:
352,192,62601,1,0,0:0:0:0:
352,192,62695,1,8,0:0:0:0:
352,192,62882,1,0,0:0:0:0:
352,192,62976,1,0,0:0:0:0:
352,192,63070,1,8,0:0:0:0:
352,192,63163,1,0,0:0:0:0:
352,192,63257,1,0,0:0:0:0:
352,192,63351,1,0,0:0:0:0:
352,192,63445,1,8,0:0:0:0:
352,192,63538,1,8,0:0:0:0:
352,192,63632,1,0,0:0:0:0:
352,192,63820,1,4,0:0:0:0:
384,224,64007,1,8,0:0:0:0:
384,224,64101,1,8,0:0:0:0:
384,224,64195,1,0,0:0:0:0:
384,224,64288,1,0,0:0:0:0:
384,224,64382,1,8,0:0:0:0:
384,224,64570,1,4,0:0:0:0:
384,224,64757,1,8,0:0:0:0:
384,224,64851,1,0,0:0:0:0:
384,224,64945,1,0,0:0:0:0:
384,224,65038,1,0,0:0:0:0:
384,224,65132,1,8,0:0:0:0:
256,192,65226,1,8,0:0:0:0:
448,288,65320,1,0,0:0:0:0:
448,288,65413,1,0,0:0:0:0:
448,288,65507,1,8,0:0:0:0:
448,288,65601,1,0,0:0:0:0:
448,288,65695,1,8,0:0:0:0:
448,288,65788,1,0,0:0:0:0:
448,288,65882,1,8,0:0:0:0:
448,288,65976,1,8,0:0:0:0:
448,288,66070,1,0,0:0:0:0:
448,288,66163,1,0,0:0:0:0:
448,288,66257,1,8,0:0:0:0:
448,288,66351,1,0,0:0:0:0:
448,288,66445,1,8,0:0:0:0:
448,288,66538,1,0,0:0:0:0:
448,288,66632,1,8,0:0:0:0:
448,288,66726,1,8,0:0:0:0:
448,288,66820,1,0,0:0:0:0:
448,288,66913,1,0,0:0:0:0:
448,288,67007,1,0,0:0:0:0:
352,224,67101,1,0,0:0:0:0:
448,288,67195,5,8,0:0:0:0:
448,288,67288,1,0,0:0:0:0:
448,288,67382,1,0,0:0:0:0:
448,288,67476,1,0,0:0:0:0:
448,288,67570,1,8,0:0:0:0:
448,288,67663,1,0,0:0:0:0:
448,288,67757,1,8,0:0:0:0:
448,288,67851,1,8,0:0:0:0:
448,288,67945,1,0,0:0:0:0:
320,224,68038,1,0,0:0:0:0:
448,288,68132,1,8,0:0:0:0:
192,96,68320,6,2,L|256:96,6,35
160,96,69070,1,8,0:0:0:0:
192,160,69163,1,8,0:0:0:0:
192,160,69257,1,8,0:0:0:0:
256,160,69351,1,8,0:0:0:0:
256,160,69445,1,0,0:0:0:0:
256,160,69538,1,0,0:0:0:0:
256,160,69632,1,8,0:0:0:0:
256,160,69820,1,4,0:0:0:0:
192,160,70007,1,8,0:0:0:0:
224,128,70195,1,0,0:0:0:0:
224,128,70288,1,0,0:0:0:0:
224,128,70382,1,8,0:0:0:0:
224,128,70570,1,0,0:0:0:0:
224,128,70757,1,8,0:0:0:0:
224,128,70851,1,0,0:0:0:0:
224,128,71038,1,0,0:0:0:0:
224,128,71132,1,8,0:0:0:0:
224,128,71320,1,0,0:0:0:0:
224,128,71507,1,8,0:0:0:0:
224,128,71695,1,0,0:0:0:0:
224,128,71788,1,0,0:0:0:0:
224,128,71882,1,8,0:0:0:0:
224,128,72070,1,0,0:0:0:0:
224,96,72163,1,0,0:0:0:0:
224,128,72257,1,8,0:0:0:0:
224,128,72445,1,0,0:0:0:0:
224,128,72538,1,0,0:0:0:0:
224,128,72632,1,8,0:0:0:0:
288,128,72820,1,0,0:0:0:0:
288,128,72913,1,0,0:0:0:0:
288,128,73007,1,8,0:0:0:0:
288,128,73101,1,0,0:0:0:0:
256,128,73195,1,0,0:0:0:0:
256,128,73288,1,0,0:0:0:0:
256,128,73382,1,8,0:0:0:0:
256,128,73570,1,12,0:0:0:0:
256,128,73757,1,0,0:0:0:0:
256,128,73945,1,12,0:0:0:0:
256,128,74132,1,0,0:0:0:0:
256,128,74320,1,4,0:0:0:0:
288,128,74507,1,8,0:0:0:0:
288,128,74695,1,0,0:0:0:0:
288,128,74788,1,0,0:0:0:0:
288,128,74882,1,8,0:0:0:0:
288,128,75070,1,0,0:0:0:0:
288,128,75257,1,8,0:0:0:0:
288,128,75351,1,0,0:0:0:0:
288,128,75538,1,0,0:0:0:0:
288,128,75632,1,8,0:0:0:0:
288,128,75820,1,0,0:0:0:0:
288,128,76007,1,8,0:0:0:0:
288,128,76195,1,0,0:0:0:0:
288,128,76288,1,0,0:0:0:0:
288,128,76382,1,8,0:0:0:0:
288,128,76570,1,0,0:0:0:0:
288,128,76663,1,0,0:0:0:0:
288,128,76757,1,8,0:0:0:0:
288,128,76945,1,0,0:0:0:0:
288,128,77038,1,0,0:0:0:0:
288,128,77132,1,8,0:0:0:0:
288,128,77320,1,8,0:0:0:0:
256,128,77413,1,8,0:0:0:0:
256,128,77507,1,0,0:0:0:0:
256,128,77601,1,0,0:0:0:0:
256,128,77695,1,8,0:0:0:0:
256,128,77788,1,0,0:0:0:0:
256,128,77882,1,0,0:0:0:0:
256,128,77976,1,0,0:0:0:0:
256,128,78070,1,8,0:0:0:0:
256,128,78163,1,8,0:0:0:0:
256,128,78257,1,0,0:0:0:0:
256,128,78351,1,0,0:0:0:0:
256,128,78445,1,8,0:0:0:0:
256,128,78632,1,0,0:0:0:0:
256,160,78820,1,4,0:0:0:0:
256,160,79007,1,8,0:0:0:0:
256,160,79101,1,0,0:0:0:0:
256,160,79288,1,0,0:0:0:0:
256,160,79382,1,8,0:0:0:0:
256,160,79570,1,0,0:0:0:0:
256,160,79757,1,8,0:0:0:0:
256,160,79945,1,0,0:0:0:0:
256,160,80038,1,0,0:0:0:0:
256,160,80132,1,8,0:0:0:0:
288,160,80320,1,0,0:0:0:0:
224,160,80413,1,0,0:0:0:0:
288,160,80507,1,8,0:0:0:0:
288,160,80695,1,0,0:0:0:0:
288,160,80788,1,0,0:0:0:0:
288,160,80882,1,8,0:0:0:0:
288,160,81070,1,4,0:0:0:0:
288,160,81257,1,0,0:0:0:0:
288,160,81351,1,0,0:0:0:0:
288,160,81445,1,8,0:0:0:0:
288,160,81632,1,4,0:0:0:0:
288,160,81820,1,8,0:0:0:0:
288,160,81913,1,8,0:0:0:0:
384,192,82007,1,8,0:0:0:0:
384,192,82101,1,8,0:0:0:0:
384,192,82195,1,0,0:0:0:0:
384,192,82288,1,0,0:0:0:0:
384,192,82382,1,8,0:0:0:0:
384,256,82570,1,4,0:0:0:0:
256,160,82757,1,8,0:0:0:0:
256,160,82945,1,0,0:0:0:0:
256,160,83038,1,0,0:0:0:0:
256,160,83132,1,8,0:0:0:0:
256,160,83320,1,0,0:0:0:0:
256,160,83507,1,8,0:0:0:0:
256,160,83601,1,0,0:0:0:0:
256,160,83788,1,0,0:0:0:0:
256,160,83882,1,8,0:0:0:0:
256,160,84070,1,0,0:0:0:0:
256,160,84257,1,8,0:0:0:0:
256,160,84445,1,0,0:0:0:0:
256,160,84538,1,0,0:0:0:0:
256,160,84632,1,8,0:0:0:0:
256,160,84820,1,0,0:0:0:0:
256,160,84913,1,0,0:0:0:0:
256,160,85007,1,8,0:0:0:0:
256,160,85195,1,0,0:0:0:0:
256,160,85288,1,0,0:0:0:0:
256,160,85382,1,8,0:0:0:0:
256,160,85570,1,0,0:0:0:0:
384,224,85663,1,0,0:0:0:0:
256,128,85757,1,8,0:0:0:0:
256,128,85851,1,0,0:0:0:0:
256,128,85945,1,0,0:0:0:0:
256,128,86038,1,0,0:0:0:0:
256,128,86132,1,8,0:0:0:0:
288,160,86320,1,0,0:0:0:0:
288,160,86507,1,8,0:0:0:0:
256,160,86601,1,8,0:0:0:0:
288,160,86695,1,0,0:0:0:0:
288,160,86788,1,0,0:0:0:0:
288,160,86882,1,8,0:0:0:0:
256,160,87070,1,4,0:0:0:0:
320,192,87257,1,8,0:0:0:0:
320,192,87445,1,0,0:0:0:0:
320,192,87538,1,0,0:0:0:0:
320,192,87632,1,8,0:0:0:0:
320,192,87820,1,0,0:0:0:0:
320,192,88007,1,8,0:0:0:0:
320,192,88101,1,0,0:0:0:0:
320,192,88288,1,0,0:0:0:0:
320,192,88382,1,8,0:0:0:0:
160,128,88476,1,8,0:0:0:0:
320,192,88570,1,0,0:0:0:0:
320,192,88757,1,8,0:0:0:0:
320,192,88945,1,0,0:0:0:0:
320,192,89038,1,0,0:0:0:0:
320,192,89132,1,8,0:0:0:0:
320,192,89320,1,0,0:0:0:0:
320,192,89413,1,0,0:0:0:0:
352,192,89507,1,8,0:0:0:0:
352,192,89601,1,8,0:0:0:0:
352,192,89695,1,0,0:0:0:0:
352,192,89882,1,8,0:0:0:0:
192,160,90070,1,4,0:0:0:0:
256,128,90257,1,0,0:0:0:0:
288,128,90351,1,0,0:0:0:0:
416,256,90445,1,8,0:0:0:0:
256,128,90632,1,8,0:0:0:0:
416,256,90820,1,4,0:0:0:0:
256,128,91007,1,0,0:0:0:0:
256,128,91101,1,0,0:0:0:0:
416,256,91195,1,8,0:0:0:0:
256,128,91382,1,8,0:0:0:0:
416,256,91570,1,4,0:0:0:0:
224,96,91757,1,0,0:0:0:0:
224,96,91851,1,0,0:0:0:0:
416,256,91945,1,8,0:0:0:0:
64,160,92038,1,8,0:0:0:0:
224,160,92132,1,0,0:0:0:0:
224,160,92226,1,0,0:0:0:0:
384,256,92320,1,8,0:0:0:0:
384,256,92413,1,8,0:0:0:0:
384,256,92507,1,0,0:0:0:0:
384,256,92601,1,0,0:0:0:0:
320,192,92695,1,8,0:0:0:0:
320,192,92788,1,8,0:0:0:0:
320,192,92882,1,8,0:0:0:0:
320,192,93070,1,4,0:0:0:0:
320,192,93257,1,8,0:0:0:0:
320,192,93445,1,0,0:0:0:0:
320,192,93538,1,0,0:0:0:0:
320,192,93632,1,8,0:0:0:0:
320,192,93820,1,0,0:0:0:0:
320,192,94007,1,8,0:0:0:0:
320,192,94101,1,0,0:0:0:0:
320,192,94288,1,0,0:0:0:0:
320,192,94382,1,8,0:0:0:0:
192,128,94476,1,8,0:0:0:0:
320,192,94570,1,0,0:0:0:0:
320,192,94757,1,8,0:0:0:0:
320,192,94945,1,0,0:0:0:0:
320,192,95038,1,0,0:0:0:0:
320,192,95132,1,8,0:0:0:0:
320,192,95320,1,0,0:0:0:0:
320,192,95507,1,8,0:0:0:0:
320,192,95601,1,0,0:0:0:0:
320,192,95788,1,0,0:0:0:0:
320,192,95882,1,8,0:0:0:0:
320,192,96070,1,0,0:0:0:0:
320,192,96163,1,0,0:0:0:0:
320,192,96257,1,8,0:0:0:0:
320,192,96351,1,0,0:0:0:0:
320,192,96445,1,8,0:0:0:0:
320,192,96538,1,8,0:0:0:0:
320,192,96632,1,0,0:0:0:0:
320,192,96726,1,0,0:0:0:0:
320,192,96820,1,8,0:0:0:0:
320,192,96913,1,0,0:0:0:0:
320,192,97007,1,0,0:0:0:0:
320,192,97101,1,0,0:0:0:0:
320,192,97195,1,8,0:0:0:0:
320,192,97288,1,8,0:0:0:0:
320,192,97382,1,0,0:0:0:0:
320,192,97476,1,0,0:0:0:0:
320,192,97570,1,8,0:0:0:0:
320,192,97663,1,0,0:0:0:0:
320,192,97757,1,0,0:0:0:0:
320,192,97851,1,0,0:0:0:0:
320,192,97945,1,8,0:0:0:0:
320,192,98038,1,8,0:0:0:0:
320,192,98132,1,0,0:0:0:0:
320,192,98226,1,0,0:0:0:0:
320,192,98320,1,8,0:0:0:0:
320,192,98413,1,0,0:0:0:0:
320,192,98507,1,8,0:0:0:0:
320,192,98601,1,8,0:0:0:0:
320,192,98695,1,0,0:0:0:0:
320,192,98788,1,8,0:0:0:0:
320,192,98882,1,0,0:0:0:0:
320,192,98976,1,0,0:0:0:0:
320,192,99070,1,8,0:0:0:0:
320,192,99163,1,0,0:0:0:0:
320,192,99257,1,8,0:0:0:0:
320,192,99351,1,8,0:0:0:0:
320,192,99445,1,0,0:0:0:0:
320,192,99538,1,0,0:0:0:0:
320,192,99632,1,8,0:0:0:0:
352,224,99820,1,4,0:0:0:0:
256,160,100007,1,0,0:0:0:0:
256,160,100101,1,0,0:0:0:0:
256,160,100195,1,8,0:0:0:0:
256,160,100382,1,0,0:0:0:0:
256,160,100476,1,0,0:0:0:0:
256,160,100570,1,8,0:0:0:0:
288,192,100663,1,0,0:0:0:0:
288,192,100757,1,0,0:0:0:0:
288,192,100851,1,0,0:0:0:0:
288,192,100945,1,8,0:0:0:0:
288,192,101038,1,8,0:0:0:0:
288,192,101132,1,0,0:0:0:0:
288,192,101226,1,0,0:0:0:0:
288,192,101320,1,8,0:0:0:0:
320,192,101507,1,0,0:0:0:0:
320,192,101601,1,0,0:0:0:0:
320,192,101695,1,8,0:0:0:0:
320,192,101882,1,0,0:0:0:0:
320,192,101976,1,0,0:0:0:0:
320,192,102070,1,8,0:0:0:0:
320,192,102163,1,0,0:0:0:0:
320,192,102257,1,8,0:0:0:0:
320,192,102351,1,0,0:0:0:0:
320,192,102445,1,8,0:0:0:0:
320,192,102538,1,8,0:0:0:0:
320,192,102632,1,0,0:0:0:0:
320,192,102726,1,0,0:0:0:0:
320,192,102820,1,8,0:0:0:0:
320,192,103007,1,0,0:0:0:0:
320,192,103101,1,0,0:0:0:0:
320,192,103195,1,8,0:0:0:0:
320,192,103382,1,0,0:0:0:0:
320,192,103476,1,0,0:0:0:0:
320,192,103570,1,8,0:0:0:0:
192,160,103663,1,0,0:0:0:0:
288,128,103757,1,0,0:0:0:0:
288,128,103851,1,0,0:0:0:0:
288,128,103945,1,8,0:0:0:0:
288,128,104038,1,8,0:0:0:0:
288,128,104132,1,0,0:0:0:0:
288,128,104320,1,12,0:0:0:0:
288,96,104507,1,0,0:0:0:0:
288,96,104695,1,8,0:0:0:0:
288,96,104882,1,0,0:0:0:0:
288,96,105070,1,12,0:0:0:0:
288,96,105257,1,0,0:0:0:0:
288,96,105445,1,8,0:0:0:0:
192,160,105632,1,0,0:0:0:0:
256,160,105820,1,4,0:0:0:0:
192,160,106007,1,8,0:0:0:0:
224,128,106195,1,0,0:0:0:0:
224,128,106288,1,0,0:0:0:0:
224,128,106382,1,8,0:0:0:0:
224,128,106570,1,0,0:0:0:0:
224,128,106757,1,8,0:0:0:0:
224,128,106851,1,0,0:0:0:0:
224,128,107038,1,0,0:0:0:0:
224,128,107132,1,8,0:0:0:0:
224,128,107320,1,0,0:0:0:0:
224,128,107507,1,8,0:0:0:0:
224,128,107695,1,0,0:0:0:0:
224,128,107788,1,0,0:0:0:0:
224,128,107882,1,8,0:0:0:0:
224,128,108070,1,0,0:0:0:0:
224,96,108163,1,0,0:0:0:0:
224,128,108257,1,8,0:0:0:0:
224,128,108445,1,0,0:0:0:0:
224,128,108538,1,0,0:0:0:0:
224,128,108632,1,8,0:0:0:0:
288,128,108820,1,0,0:0:0:0:
288,128,108913,1,0,0:0:0:0:
288,128,109007,1,8,0:0:0:0:
288,128,109101,1,8,0:0:0:0:
256,128,109195,1,0,0:0:0:0:
256,128,109288,1,0,0:0:0:0:
256,128,109382,1,8,0:0:0:0:
256,128,109570,1,8,0:0:0:0:
320,128,109663,1,8,0:0:0:0:
256,128,109757,1,0,0:0:0:0:
320,128,109851,1,0,0:0:0:0:
256,128,109945,1,8,0:0:0:0:
320,128,110038,1,8,0:0:0:0:
256,128,110132,1,0,0:0:0:0:
256,128,110320,1,4,0:0:0:0:
288,128,110507,1,8,0:0:0:0:
288,128,110695,1,0,0:0:0:0:
288,128,110788,1,0,0:0:0:0:
288,128,110882,1,8,0:0:0:0:
288,128,111070,1,0,0:0:0:0:
288,128,111257,1,8,0:0:0:0:
288,128,111351,1,0,0:0:0:0:
288,128,111538,1,0,0:0:0:0:
288,128,111632,1,8,0:0:0:0:
288,128,111820,1,0,0:0:0:0:
288,128,112007,1,8,0:0:0:0:
288,128,112195,1,0,0:0:0:0:
288,128,112288,1,0,0:0:0:0:
288,128,112382,1,8,0:0:0:0:
288,128,112570,1,0,0:0:0:0:
288,128,112663,1,0,0:0:0:0:
288,128,112757,1,8,0:0:0:0:
288,128,112945,1,0,0:0:0:0:
288,128,113038,1,0,0:0:0:0:
288,128,113132,1,8,0:0:0:0:
288,128,113320,1,8,0:0:0:0:
256,128,113413,1,8,0:0:0:0:
256,128,113507,1,0,0:0:0:0:
256,128,113601,1,0,0:0:0:0:
256,128,113695,1,8,0:0:0:0:
256,128,113788,1,0,0:0:0:0:
256,128,113882,1,0,0:0:0:0:
256,128,113976,1,0,0:0:0:0:
256,128,114070,1,8,0:0:0:0:
256,128,114163,1,8,0:0:0:0:
256,128,114257,1,0,0:0:0:0:
256,128,114351,1,0,0:0:0:0:
256,128,114445,1,8,0:0:0:0:
256,128,114632,1,0,0:0:0:0:
256,160,114820,1,4,0:0:0:0:
256,160,115007,1,8,0:0:0:0:
256,160,115101,1,0,0:0:0:0:
256,160,115288,1,0,0:0:0:0:
256,160,115382,1,8,0:0:0:0:
256,160,115570,1,0,0:0:0:0:
256,160,115757,1,8,0:0:0:0:
256,160,115945,1,0,0:0:0:0:
256,160,116038,1,0,0:0:0:0:
256,160,116132,1,8,0:0:0:0:
288,160,116320,1,0,0:0:0:0:
224,160,116413,1,0,0:0:0:0:
288,160,116507,1,8,0:0:0:0:
288,160,116695,1,0,0:0:0:0:
288,160,116788,1,0,0:0:0:0:
288,160,116882,1,8,0:0:0:0:
288,160,117070,1,4,0:0:0:0:
288,160,117257,1,0,0:0:0:0:
288,160,117351,1,0,0:0:0:0:
288,160,117445,1,8,0:0:0:0:
288,160,117632,1,4,0:0:0:0:
288,160,117820,1,8,0:0:0:0:
288,160,117913,1,0,0:0:0:0:
384,192,118007,1,8,0:0:0:0:
384,192,118101,1,8,0:0:0:0:
384,192,118195,1,0,0:0:0:0:
384,192,118288,1,0,0:0:0:0:
384,192,118382,1,8,0:0:0:0:
384,256,118570,1,4,0:0:0:0:
256,160,118757,1,8,0:0:0:0:
256,160,118945,1,0,0:0:0:0:
256,160,119038,1,0,0:0:0:0:
256,160,119132,1,8,0:0:0:0:
256,160,119320,1,0,0:0:0:0:
256,160,119507,1,8,0:0:0:0:
256,160,119601,1,0,0:0:0:0:
256,160,119788,1,0,0:0:0:0:
256,160,119882,1,8,0:0:0:0:
256,160,120070,1,0,0:0:0:0:
256,160,120257,1,0,0:0:0:0:
256,160,120445,1,12,0:0:0:0:
256,160,120632,1,0,0:0:0:0:
256,160,120820,1,12,0:0:0:0:
256,160,121007,1,0,0:0:0:0:
256,160,121195,1,12,0:0:0:0:
256,160,121382,1,0,0:0:0:0:
256,160,121570,1,0,0:0:0:0:
384,224,121663,1,0,0:0:0:0:
256,128,121757,1,8,0:0:0:0:
256,128,121851,1,8,0:0:0:0:
256,128,121945,1,0,0:0:0:0:
256,128,122038,1,0,0:0:0:0:
256,128,122132,1,8,0:0:0:0:
288,160,122320,1,0,0:0:0:0:
288,160,122507,1,8,0:0:0:0:
256,160,122601,1,0,0:0:0:0:
288,160,122695,1,0,0:0:0:0:
288,160,122788,1,0,0:0:0:0:
288,160,122882,1,8,0:0:0:0:
256,160,123070,1,4,0:0:0:0:
320,192,123257,1,8,0:0:0:0:
320,192,123445,1,0,0:0:0:0:
320,192,123538,1,0,0:0:0:0:
320,192,123632,1,8,0:0:0:0:
256,128,123726,1,8,0:0:0:0:
320,192,123820,1,0,0:0:0:0:
320,192,124007,1,8,0:0:0:0:
320,192,124101,1,0,0:0:0:0:
320,192,124288,1,0,0:0:0:0:
320,192,124382,1,8,0:0:0:0:
224,128,124476,1,8,0:0:0:0:
320,192,124570,1,0,0:0:0:0:
320,192,124757,1,8,0:0:0:0:
320,192,124945,1,0,0:0:0:0:
320,192,125038,1,0,0:0:0:0:
320,192,125132,1,8,0:0:0:0:
288,160,125226,1,0,0:0:0:0:
320,192,125320,1,0,0:0:0:0:
320,192,125413,1,0,0:0:0:0:
352,192,125507,1,8,0:0:0:0:
352,192,125601,1,8,0:0:0:0:
352,192,125695,1,0,0:0:0:0:
352,192,125882,1,8,0:0:0:0:
192,160,126070,1,4,0:0:0:0:
192,160,126257,1,0,0:0:0:0:
192,160,126351,1,0,0:0:0:0:
416,256,126445,1,8,0:0:0:0:
256,128,126632,1,8,0:0:0:0:
416,256,126820,1,4,0:0:0:0:
256,96,127007,1,0,0:0:0:0:
256,96,127101,1,0,0:0:0:0:
416,256,127195,1,8,0:0:0:0:
192,96,127382,1,8,0:0:0:0:
416,256,127570,1,4,0:0:0:0:
256,128,127757,1,0,0:0:0:0:
352,224,127851,1,0,0:0:0:0:
416,256,127945,1,8,0:0:0:0:
224,160,128132,1,0,0:0:0:0:
224,160,128226,1,0,0:0:0:0:
384,256,128320,1,8,0:0:0:0:
384,256,128413,1,8,0:0:0:0:
384,256,128507,1,0,0:0:0:0:
384,256,128601,1,0,0:0:0:0:
320,192,128695,1,8,0:0:0:0:
320,192,128788,1,8,0:0:0:0:
320,192,128882,1,8,0:0:0:0:
320,192,129070,1,4,0:0:0:0:
320,192,129257,1,8,0:0:0:0:
320,192,129445,1,0,0:0:0:0:
320,192,129538,1,0,0:0:0:0:
320,192,129632,1,8,0:0:0:0:
288,96,129726,1,8,0:0:0:0:
320,192,129820,1,0,0:0:0:0:
320,192,130007,1,8,0:0:0:0:
320,192,130101,1,0,0:0:0:0:
320,192,130288,1,0,0:0:0:0:
320,192,130382,1,8,0:0:0:0:
192,128,130476,1,8,0:0:0:0:
320,192,130570,1,0,0:0:0:0:
320,192,130757,1,8,0:0:0:0:
320,192,130945,1,0,0:0:0:0:
320,192,131038,1,0,0:0:0:0:
320,192,131132,1,8,0:0:0:0:
192,128,131226,1,8,0:0:0:0:
320,192,131320,1,0,0:0:0:0:
320,192,131507,1,8,0:0:0:0:
320,192,131601,1,0,0:0:0:0:
320,192,131788,1,0,0:0:0:0:
320,192,131882,1,8,0:0:0:0:
320,192,132070,1,0,0:0:0:0:
320,192,132163,1,0,0:0:0:0:
320,192,132257,1,8,0:0:0:0:
320,192,132351,1,0,0:0:0:0:
320,192,132445,1,8,0:0:0:0:
320,192,132538,1,8,0:0:0:0:
320,192,132632,1,0,0:0:0:0:
320,192,132726,1,0,0:0:0:0:
320,192,132820,1,8,0:0:0:0:
320,192,132913,1,0,0:0:0:0:
320,192,133007,1,0,0:0:0:0:
320,192,133101,1,0,0:0:0:0:
320,192,133195,1,8,0:0:0:0:
320,192,133288,1,8,0:0:0:0:
320,192,133382,1,0,0:0:0:0:
320,192,133476,1,0,0:0:0:0:
320,192,133570,1,8,0:0:0:0:
320,192,133663,1,0,0:0:0:0:
320,192,133757,1,0,0:0:0:0:
320,192,133851,1,0,0:0:0:0:
320,192,133945,1,8,0:0:0:0:
320,192,134038,1,8,0:0:0:0:
320,192,134132,1,0,0:0:0:0:
320,192,134226,1,0,0:0:0:0:
320,192,134320,1,8,0:0:0:0:
320,192,134413,1,0,0:0:0:0:
320,192,134507,1,0,0:0:0:0:
320,192,134601,1,0,0:0:0:0:
320,192,134695,1,8,0:0:0:0:
320,192,134788,1,8,0:0:0:0:
320,192,134882,1,0,0:0:0:0:
320,192,135070,1,12,0:0:0:0:
288,192,135257,1,0,0:0:0:0:
288,192,135351,1,0,0:0:0:0:
288,192,135445,1,0,0:0:0:0:
288,192,135632,1,0,0:0:0:0:
288,192,135726,1,0,0:0:0:0:
288,192,135820,1,8,0:0:0:0:
288,192,136007,1,0,0:0:0:0:
288,192,136101,1,0,0:0:0:0:
288,192,136195,1,0,0:0:0:0:
288,192,136382,1,0,0:0:0:0:
288,192,136476,1,0,0:0:0:0:
288,192,136570,1,8,0:0:0:0:
288,192,136757,1,0,0:0:0:0:
288,192,136851,1,0,0:0:0:0:
288,192,136945,1,0,0:0:0:0:
288,192,137132,1,0,0:0:0:0:
288,192,137226,1,0,0:0:0:0:
288,192,137320,1,8,0:0:0:0:
288,192,137507,1,0,0:0:0:0:
288,192,137601,1,0,0:0:0:0:
288,192,137695,1,0,0:0:0:0:
288,192,137882,1,0,0:0:0:0:
288,192,138070,1,12,0:0:0:0:
288,192,138257,1,0,0:0:0:0:
288,192,138351,1,0,0:0:0:0:
288,192,138445,1,8,0:0:0:0:
288,192,138632,1,0,0:0:0:0:
288,192,138726,1,0,0:0:0:0:
288,192,138820,1,0,0:0:0:0:
288,192,139007,1,0,0:0:0:0:
288,192,139101,1,0,0:0:0:0:
288,192,139195,1,8,0:0:0:0:
288,192,139382,1,0,0:0:0:0:
288,192,139570,1,12,0:0:0:0:
288,192,139757,1,0,0:0:0:0:
288,192,139851,1,0,0:0:0:0:
288,192,139945,1,8,0:0:0:0:
288,192,140132,1,0,0:0:0:0:
288,192,140226,1,0,0:0:0:0:
288,192,140320,1,0,0:0:0:0:
288,192,140507,1,0,0:0:0:0:
288,192,140601,1,0,0:0:0:0:
288,192,140695,1,8,0:0:0:0:
288,192,140882,1,0,0:0:0:0:
288,192,141070,1,8,0:0:0:0:
288,192,141257,1,0,0:0:0:0:
288,192,141445,1,12,0:0:0:0:
288,192,141632,1,0,0:0:0:0:
288,192,141820,1,0,0:0:0:0:
288,192,142007,1,0,0:0:0:0:
288,192,142195,1,12,0:0:0:0:
288,192,142382,1,0,0:0:0:0:
288,192,142570,1,8,0:0:0:0:
288,192,142757,1,0,0:0:0:0:
288,192,142945,1,12,0:0:0:0:
224,128,143132,1,0,0:0:0:0:
288,192,143320,1,0,0:0:0:0:
288,192,143507,1,0,0:0:0:0:
288,192,143695,1,12,0:0:0:0:
288,192,143882,1,0,0:0:0:0:
288,192,144070,1,8,0:0:0:0:
256,160,144257,1,8,0:0:0:0:
384,128,144445,1,4,0:0:0:0:
384,128,144632,1,0,0:0:0:0:
384,128,144820,1,8,0:0:0:0:
256,160,145007,1,8,0:0:0:0:
384,128,145195,1,4,0:0:0:0:
384,128,145382,1,0,0:0:0:0:
384,128,145570,1,8,0:0:0:0:
256,160,145757,1,8,0:0:0:0:
384,128,145945,1,4,0:0:0:0:
288,192,146320,1,8,0:0:0:0:
288,192,146413,1,8,0:0:0:0:
288,192,146507,1,0,0:0:0:0:
288,192,146601,1,0,0:0:0:0:
288,192,146695,1,8,0:0:0:0:
288,192,146788,1,0,0:0:0:0:
288,192,146882,1,8,0:0:0:0:
288,192,146976,1,8,0:0:0:0:
288,192,147070,1,0,0:0:0:0:
256,160,147163,1,0,0:0:0:0:
256,160,147257,1,8,0:0:0:0:
256,160,147351,1,0,0:0:0:0:
256,160,147445,1,0,0:0:0:0:
256,160,147538,1,0,0:0:0:0:
256,160,147632,1,8,0:0:0:0:
256,160,147726,1,8,0:0:0:0:
256,160,147820,1,0,0:0:0:0:
256,160,147913,1,0,0:0:0:0:
256,160,148007,1,8,0:0:0:0:
256,160,148101,1,0,0:0:0:0:
256,160,148195,1,0,0:0:0:0:
256,160,148288,1,0,0:0:0:0:
256,160,148382,1,8,0:0:0:0:
256,160,148476,1,8,0:0:0:0:
256,160,148570,1,0,0:0:0:0:
256,160,148663,1,0,0:0:0:0:
256,160,148757,1,8,0:0:0:0:
256,160,148851,1,0,0:0:0:0:
256,160,148945,1,0,0:0:0:0:
256,160,149038,1,0,0:0:0:0:
256,160,149132,1,8,0:0:0:0:
256,160,149226,1,8,0:0:0:0:
256,160,149320,1,0,0:0:0:0:
256,160,149413,1,0,0:0:0:0:
256,160,149507,1,8,0:0:0:0:
256,160,149601,1,0,0:0:0:0:
256,160,149695,1,0,0:0:0:0:
256,160,149788,1,0,0:0:0:0:
256,160,149882,1,8,0:0:0:0:
256,160,149976,1,8,0:0:0:0:
256,160,150070,1,0,0:0:0:0:
256,160,150163,1,0,0:0:0:0:
256,160,150257,1,8,0:0:0:0:
256,160,150351,1,0,0:0:0:0:
256,160,150445,1,0,0:0:0:0:
256,160,150538,1,0,0:0:0:0:
256,160,150632,1,8,0:0:0:0:
256,160,150726,1,8,0:0:0:0:
256,160,150820,1,0,0:0:0:0:
256,160,150913,1,0,0:0:0:0:
256,160,151007,1,8,0:0:0:0:
256,160,151101,1,8,0:0:0:0:
256,160,151195,1,0,0:0:0:0:
256,160,151288,1,0,0:0:0:0:
256,160,151382,1,8,0:0:0:0:
288,160,151570,1,12,0:0:0:0:
288,160,151757,1,0,0:0:0:0:
288,160,151945,1,12,0:0:0:0:
288,160,152132,1,0,0:0:0:0:
288,160,152320,1,12,0:0:0:0:
288,160,152507,1,0,0:0:0:0:
288,160,152695,1,12,0:0:0:0:
224,128,152882,1,0,0:0:0:0:
224,128,152976,1,0,0:0:0:0:
224,128,153070,1,8,0:0:0:0:
128,128,153163,1,0,0:0:0:0:
128,128,153257,1,8,0:0:0:0:
256,128,153351,1,8,0:0:0:0:
224,96,153445,1,0,0:0:0:0:
224,96,153538,1,0,0:0:0:0:
224,96,153632,1,0,0:0:0:0:
224,96,153726,1,0,0:0:0:0:
224,96,153820,1,8,0:0:0:0:
320,128,153913,1,0,0:0:0:0:
320,128,154007,1,8,0:0:0:0:
320,128,154101,1,8,0:0:0:0:
256,128,154195,1,0,0:0:0:0:
256,128,154288,1,0,0:0:0:0:
256,128,154382,1,0,0:0:0:0:
256,160,154476,1,0,0:0:0:0:
256,160,154570,1,8,0:0:0:0:
224,128,154663,1,0,0:0:0:0:
224,128,154757,1,8,0:0:0:0:
224,128,154851,1,8,0:0:0:0:
224,128,154945,1,0,0:0:0:0:
224,128,155038,1,0,0:0:0:0:
224,128,155132,1,0,0:0:0:0:
224,128,155226,1,0,0:0:0:0:
224,128,155320,1,8,0:0:0:0:
224,128,155413,1,0,0:0:0:0:
224,128,155507,1,0,0:0:0:0:
224,128,155601,1,8,0:0:0:0:
224,128,155695,1,0,0:0:0:0:
224,128,155788,1,0,0:0:0:0:
224,128,155882,1,8,0:0:0:0:
224,128,155976,1,0,0:0:0:0:
224,128,156070,1,8,0:0:0:0:
224,128,156163,1,8,0:0:0:0:
224,128,156257,1,8,0:0:0:0:
224,128,156351,1,8,0:0:0:0:
224,128,156445,1,0,0:0:0:0:
224,128,156538,1,0,0:0:0:0:
224,128,156632,1,8,0:0:0:0:
224,128,156726,1,0,0:0:0:0:
224,128,156820,1,0,0:0:0:0:
256,128,156913,1,0,0:0:0:0:
224,128,157007,1,8,0:0:0:0:
224,128,157101,1,8,0:0:0:0:
224,128,157195,1,0,0:0:0:0:
224,128,157288,1,0,0:0:0:0:
224,128,157382,1,8,0:0:0:0:
224,128,157476,1,0,0:0:0:0:
224,128,157570,1,0,0:0:0:0:
256,96,157663,1,0,0:0:0:0:
256,96,157757,1,8,0:0:0:0:
256,96,157851,1,8,0:0:0:0:
256,96,157945,5,0,0:0:0:0:
256,96,158038,1,0,0:0:0:0:
256,96,158132,1,8,0:0:0:0:
256,96,158226,1,0,0:0:0:0:
256,96,158320,1,0,0:0:0:0:
256,96,158413,1,0,0:0:0:0:
256,96,158507,1,8,0:0:0:0:
256,96,158601,1,8,0:0:0:0:
256,96,158695,1,0,0:0:0:0:
256,96,158788,1,0,0:0:0:0:
288,192,158882,1,8,0:0:0:0:
224,160,159070,5,4,0:0:0:0:
224,160,159257,1,8,0:0:0:0:
224,160,159445,1,0,0:0:0:0:
256,160,159538,1,0,0:0:0:0:
256,160,159632,1,8,0:0:0:0:
256,160,159820,1,0,0:0:0:0:
256,160,160007,1,8,0:0:0:0:
256,160,160101,1,0,0:0:0:0:
256,160,160195,1,8,0:0:0:0:
256,160,160288,1,0,0:0:0:0:
256,160,160382,1,8,0:0:0:0:
352,160,160570,5,8,0:0:0:0:
288,160,160663,1,8,0:0:0:0:
288,160,160757,1,8,0:0:0:0:
288,160,160851,1,0,0:0:0:0:
288,160,160945,1,0,0:0:0:0:
288,160,161038,1,0,0:0:0:0:
288,160,161132,1,8,0:0:0:0:
288,160,161226,1,8,0:0:0:0:
288,160,161320,1,8,0:0:0:0:
288,160,161413,1,0,0:0:0:0:
288,160,161507,1,8,0:0:0:0:
288,160,161601,1,0,0:0:0:0:
288,160,161695,1,8,0:0:0:0:
288,160,161788,1,8,0:0:0:0:
288,160,161882,1,0,0:0:0:0:
288,160,162070,1,4,0:0:0:0:
320,160,162351,1,4,0:0:0:0:
320,160,163195,1,8,0:0:0:0:
320,160,163945,1,8,0:0:0:0:
224,192,164413,2,2,L|288:192,5,35
384,224,165070,1,4,0:0:0:0:
256,160,165351,1,4,0:0:0:0:
288,160,166195,1,8,0:0:0:0:
288,160,166570,1,4,0:0:0:0:
320,128,166851,1,0,0:0:0:0:
320,128,167132,1,8,0:0:0:0:
320,128,167320,1,8,0:0:0:0:
320,128,167413,1,8,0:0:0:0:
320,128,167507,1,0,0:0:0:0:
320,128,167601,1,0,0:0:0:0:
320,128,167695,1,8,0:0:0:0:
320,128,167788,1,8,0:0:0:0:
320,128,167882,1,0,0:0:0:0:
320,128,168070,1,12,0:0:0:0:
320,128,168351,1,0,0:0:0:0:
320,128,168632,1,8,0:0:0:0:
320,128,168820,1,8,0:0:0:0:
320,128,168913,1,8,0:0:0:0:
320,128,169007,1,0,0:0:0:0:
320,128,169101,1,0,0:0:0:0:
320,128,169195,1,8,0:0:0:0:
320,128,169288,1,8,0:0:0:0:
320,128,169382,1,8,0:0:0:0:
192,96,169476,1,8,0:0:0:0:
320,128,169570,1,0,0:0:0:0:
256,160,169663,1,0,0:0:0:0:
256,160,169757,1,8,0:0:0:0:
256,160,169851,1,0,0:0:0:0:
256,160,169945,1,0,0:0:0:0:
256,160,170038,1,0,0:0:0:0:
256,160,170132,1,8,0:0:0:0:
256,160,170226,1,0,0:0:0:0:
256,160,170320,1,0,0:0:0:0:
256,160,170413,1,0,0:0:0:0:
256,160,170507,1,8,0:0:0:0:
256,160,170601,1,0,0:0:0:0:
256,160,170695,1,0,0:0:0:0:
256,160,170788,1,0,0:0:0:0:
256,160,170882,1,8,0:0:0:0:
320,128,170976,1,0,0:0:0:0:
256,160,171070,1,0,0:0:0:0:
256,160,171163,1,0,0:0:0:0:
256,160,171257,1,8,0:0:0:0:
256,160,171351,1,8,0:0:0:0:
320,128,171445,1,0,0:0:0:0:
160,160,171538,1,0,0:0:0:0:
320,128,171632,1,8,0:0:0:0:
288,160,171820,1,12,0:0:0:0:
288,160,172195,1,12,0:0:0:0:
288,160,172570,1,0,0:0:0:0:
288,128,172663,1,0,0:0:0:0:
288,128,172757,1,8,0:0:0:0:
288,128,172851,1,0,0:0:0:0:
288,128,172945,1,0,0:0:0:0:
288,128,173038,1,0,0:0:0:0:
288,128,173132,1,8,0:0:0:0:
288,128,173226,1,0,0:0:0:0:
288,128,173320,1,0,0:0:0:0:
288,128,173413,1,0,0:0:0:0:
288,128,173507,1,8,0:0:0:0:
288,128,173601,1,0,0:0:0:0:
288,128,173695,1,0,0:0:0:0:
288,128,173788,1,0,0:0:0:0:
288,128,173882,1,8,0:0:0:0:
288,128,173976,1,0,0:0:0:0:
288,128,174070,1,0,0:0:0:0:
288,128,174163,1,0,0:0:0:0:
288,128,174257,1,8,0:0:0:0:
288,128,174351,1,8,0:0:0:0:
288,128,174445,1,0,0:0:0:0:
288,128,174538,1,0,0:0:0:0:
288,128,174632,1,8,0:0:0:0:
352,192,174726,1,0,0:0:0:0:
352,224,174820,1,8,0:0:0:0:
352,224,174913,1,0,0:0:0:0:
384,224,175007,1,0,0:0:0:0:
352,224,175101,1,8,0:0:0:0:
288,128,175195,1,0,0:0:0:0:
352,192,175288,1,0,0:0:0:0:
352,192,175382,1,8,0:0:0:0:
352,192,175476,1,0,0:0:0:0:
352,192,175570,1,8,0:0:0:0:
352,192,175663,1,0,0:0:0:0:
352,192,175757,1,0,0:0:0:0:
352,192,175851,1,8,0:0:0:0:
352,192,175945,1,8,0:0:0:0:
352,192,176038,1,0,0:0:0:0:
352,192,176132,1,8,0:0:0:0:
352,192,176226,1,0,0:0:0:0:
352,192,176320,1,8,0:0:0:0:
352,192,176413,1,8,0:0:0:0:
352,192,176507,1,0,0:0:0:0:
352,192,176601,1,8,0:0:0:0:
352,192,176695,1,0,0:0:0:0:
352,192,176788,1,0,0:0:0:0:
352,192,176882,1,8,0:0:0:0:
352,192,176976,1,0,0:0:0:0:
352,192,177070,1,0,0:0:0:0:
352,192,177163,1,0,0:0:0:0:
352,192,177257,1,8,0:0:0:0:
352,192,177351,1,8,0:0:0:0:
352,192,177445,1,0,0:0:0:0:
352,192,177538,1,0,0:0:0:0:
352,192,177632,1,8,0:0:0:0:
352,192,177726,1,0,0:0:0:0:
352,192,177820,1,0,0:0:0:0:
352,192,177913,1,0,0:0:0:0:
352,192,178007,1,8,0:0:0:0:
352,192,178101,1,8,0:0:0:0:
352,192,178195,1,0,0:0:0:0:
352,192,178288,1,0,0:0:0:0:
352,192,178382,1,8,0:0:0:0:
352,192,178476,1,8,0:0:0:0:
352,192,178570,1,0,0:0:0:0:
352,192,178663,1,0,0:0:0:0:
352,192,178757,1,8,0:0:0:0:
352,192,178851,1,0,0:0:0:0:
352,192,178945,1,0,0:0:0:0:
384,192,179038,1,0,0:0:0:0:
384,192,179132,1,8,0:0:0:0:
352,192,179226,1,8,0:0:0:0:
352,192,179320,1,0,0:0:0:0:
352,192,179413,1,0,0:0:0:0:
352,192,179507,1,8,0:0:0:0:
352,192,179601,1,0,0:0:0:0:
352,192,179695,1,0,0:0:0:0:
352,192,179788,1,0,0:0:0:0:
352,192,179882,1,8,0:0:0:0:
352,192,179976,1,0,0:0:0:0:
352,192,180070,1,8,0:0:0:0:
352,192,180163,1,8,0:0:0:0:
352,192,180257,1,8,0:0:0:0:
352,192,180351,1,8,0:0:0:0:
352,192,180445,1,0,0:0:0:0:
352,192,180538,1,0,0:0:0:0:
352,192,180632,1,8,0:0:0:0:
352,192,180726,1,8,0:0:0:0:
352,192,180820,1,0,0:0:0:0:
352,192,180913,1,0,0:0:0:0:
352,192,181007,1,0,0:0:0:0:
352,192,181101,1,0,0:0:0:0:
352,192,181195,1,8,0:0:0:0:
352,192,181288,1,0,0:0:0:0:
352,192,181382,1,8,0:0:0:0:
320,128,181570,1,0,0:0:0:0:
256,160,181663,1,0,0:0:0:0:
256,160,181757,1,8,0:0:0:0:
256,160,181851,1,0,0:0:0:0:
256,160,181945,1,0,0:0:0:0:
256,160,182038,1,0,0:0:0:0:
256,160,182132,1,8,0:0:0:0:
256,160,182226,1,0,0:0:0:0:
256,160,182320,1,0,0:0:0:0:
256,160,182413,1,0,0:0:0:0:
256,160,182507,1,8,0:0:0:0:
256,160,182601,1,0,0:0:0:0:
256,160,182695,1,0,0:0:0:0:
256,160,182788,1,0,0:0:0:0:
256,160,182882,1,8,0:0:0:0:
320,128,182976,1,0,0:0:0:0:
256,160,183070,1,0,0:0:0:0:
256,160,183163,1,0,0:0:0:0:
256,160,183257,1,8,0:0:0:0:
256,160,183351,1,8,0:0:0:0:
320,128,183445,1,0,0:0:0:0:
160,160,183538,1,0,0:0:0:0:
320,128,183632,1,8,0:0:0:0:
288,160,183820,1,12,0:0:0:0:
288,160,184195,1,12,0:0:0:0:
288,160,184570,1,0,0:0:0:0:
288,128,184663,1,0,0:0:0:0:
288,128,184757,1,8,0:0:0:0:
288,128,184851,1,0,0:0:0:0:
288,128,184945,1,0,0:0:0:0:
288,128,185038,1,0,0:0:0:0:
288,128,185132,1,8,0:0:0:0:
288,128,185226,1,0,0:0:0:0:
288,128,185320,1,0,0:0:0:0:
288,128,185413,1,0,0:0:0:0:
288,128,185507,1,8,0:0:0:0:
288,128,185601,1,0,0:0:0:0:
288,128,185695,1,0,0:0:0:0:
288,128,185788,1,0,0:0:0:0:
288,128,185882,1,8,0:0:0:0:
288,128,185976,1,0,0:0:0:0:
288,128,186070,1,0,0:0:0:0:
288,128,186163,1,0,0:0:0:0:
288,128,186257,1,8,0:0:0:0:
288,128,186351,1,8,0:0:0:0:
288,128,186445,1,0,0:0:0:0:
288,128,186538,1,0,0:0:0:0:
288,128,186632,1,8,0:0:0:0:
352,192,186726,1,0,0:0:0:0:
352,224,186820,1,8,0:0:0:0:
352,224,186913,1,0,0:0:0:0:
384,224,187007,1,0,0:0:0:0:
352,224,187101,1,8,0:0:0:0:
288,128,187195,1,0,0:0:0:0:
352,192,187288,1,0,0:0:0:0:
352,192,187382,1,8,0:0:0:0:
352,192,187476,1,0,0:0:0:0:
352,192,187570,1,8,0:0:0:0:
352,192,187663,1,0,0:0:0:0:
352,192,187757,1,0,0:0:0:0:
352,192,187851,1,8,0:0:0:0:
352,192,187945,1,8,0:0:0:0:
352,192,188038,1,0,0:0:0:0:
352,192,188132,1,8,0:0:0:0:
352,192,188226,1,0,0:0:0:0:
352,192,188320,1,8,0:0:0:0:
352,192,188413,1,8,0:0:0:0:
352,192,188507,1,0,0:0:0:0:
352,192,188601,1,8,0:0:0:0:
352,192,188695,1,0,0:0:0:0:
352,192,188788,1,0,0:0:0:0:
352,192,188882,1,8,0:0:0:0:
352,192,188976,1,0,0:0:0:0:
352,192,189070,1,0,0:0:0:0:
352,192,189163,1,0,0:0:0:0:
352,192,189257,1,8,0:0:0:0:
352,192,189351,1,8,0:0:0:0:
352,192,189445,1,0,0:0:0:0:
352,192,189538,1,0,0:0:0:0:
352,192,189632,1,8,0:0:0:0:
352,192,189726,1,0,0:0:0:0:
352,192,189820,1,0,0:0:0:0:
352,192,189913,1,0,0:0:0:0:
352,192,190007,1,8,0:0:0:0:
352,192,190101,1,8,0:0:0:0:
352,192,190195,1,0,0:0:0:0:
352,192,190288,1,0,0:0:0:0:
352,192,190382,1,8,0:0:0:0:
352,192,190476,1,0,0:0:0:0:
352,192,190570,1,0,0:0:0:0:
352,192,190663,1,0,0:0:0:0:
352,192,190757,1,8,0:0:0:0:
352,192,190851,1,0,0:0:0:0:
352,192,190945,1,8,0:0:0:0:
384,192,191038,1,8,0:0:0:0:
384,192,191132,1,0,0:0:0:0:
352,192,191226,1,0,0:0:0:0:
352,192,191320,1,8,0:0:0:0:
352,192,191413,1,0,0:0:0:0:
352,192,191507,1,8,0:0:0:0:
352,192,191601,1,8,0:0:0:0:
352,192,191695,1,0,0:0:0:0:
352,192,191788,1,0,0:0:0:0:
352,192,191882,1,8,0:0:0:0:
352,192,191976,1,0,0:0:0:0:
352,192,192070,1,8,0:0:0:0:
352,192,192163,1,0,0:0:0:0:
352,192,192257,1,0,0:0:0:0:
352,192,192351,1,8,0:0:0:0:
352,192,192445,1,0,0:0:0:0:
352,192,192538,1,0,0:0:0:0:
352,192,192632,1,8,0:0:0:0:
352,192,192726,1,8,0:0:0:0:
352,192,192820,1,8,0:0:0:0:
352,192,192913,1,8,0:0:0:0:
352,192,193007,1,0,0:0:0:0:
352,192,193101,1,0,0:0:0:0:
352,192,193195,1,8,0:0:0:0:
352,192,193288,1,0,0:0:0:0:
352,192,193382,1,8,0:0:0:0:
192,192,193570,1,4,0:0:0:0:
352,192,193757,1,0,0:0:0:0:
352,192,193851,1,0,0:0:0:0:
352,192,193945,1,8,0:0:0:0:
352,192,194132,1,0,0:0:0:0:
352,192,194226,1,8,0:0:0:0:
352,192,194413,1,8,0:0:0:0:
352,192,194507,1,0,0:0:0:0:
320,192,194695,1,8,0:0:0:0:
320,192,194882,1,0,0:0:0:0:
320,192,194976,1,8,0:0:0:0:
320,192,195070,1,0,0:0:0:0:
320,192,195257,1,0,0:0:0:0:
320,192,195351,1,0,0:0:0:0:
320,192,195445,1,8,0:0:0:0:
320,192,195632,1,0,0:0:0:0:
320,192,195726,1,8,0:0:0:0:
320,192,195913,1,8,0:0:0:0:
320,192,196007,1,0,0:0:0:0:
320,192,196195,1,8,0:0:0:0:
320,192,196382,1,0,0:0:0:0:
320,192,196476,1,0,0:0:0:0:
320,192,196570,1,0,0:0:0:0:
320,192,196757,1,0,0:0:0:0:
320,192,196851,1,0,0:0:0:0:
320,192,196945,1,8,0:0:0:0:
320,192,197132,1,0,0:0:0:0:
320,192,197226,1,8,0:0:0:0:
320,192,197413,1,8,0:0:0:0:
320,192,197507,1,0,0:0:0:0:
320,192,197695,1,8,0:0:0:0:
320,192,197882,1,0,0:0:0:0:
320,192,197976,1,8,0:0:0:0:
320,192,198070,1,0,0:0:0:0:
320,192,198257,1,0,0:0:0:0:
320,192,198351,1,0,0:0:0:0:
320,192,198445,1,8,0:0:0:0:
320,192,198632,1,0,0:0:0:0:
320,192,198726,1,8,0:0:0:0:
320,192,198913,1,8,0:0:0:0:
320,192,199007,1,0,0:0:0:0:
320,192,199195,5,8,0:0:0:0:
320,192,199382,1,0,0:0:0:0:
320,192,199476,1,0,0:0:0:0:
320,192,199570,1,8,0:0:0:0:
224,160,199663,1,8,0:0:0:0:
256,160,199757,1,0,0:0:0:0:
256,160,199851,1,0,0:0:0:0:
256,160,199945,1,8,0:0:0:0:
256,160,200038,1,0,0:0:0:0:
256,160,200132,1,0,0:0:0:0:
256,160,200226,1,0,0:0:0:0:
448,320,200320,5,8,0:0:0:0:
448,320,200413,1,0,0:0:0:0:
448,320,200507,1,8,0:0:0:0:
448,320,200601,1,8,0:0:0:0:
448,320,200695,1,0,0:0:0:0:
448,320,200788,1,0,0:0:0:0:
448,320,200882,1,8,0:0:0:0:
352,128,201070,5,4,0:0:0:0:
256,160,201257,1,0,0:0:0:0:
256,160,201351,1,0,0:0:0:0:
256,160,201445,1,8,0:0:0:0:
256,160,201632,1,0,0:0:0:0:
256,160,201726,1,0,0:0:0:0:
256,160,201820,1,8,0:0:0:0:
288,192,201913,1,0,0:0:0:0:
288,192,202007,1,0,0:0:0:0:
288,192,202101,1,0,0:0:0:0:
288,192,202195,1,8,0:0:0:0:
288,192,202288,1,8,0:0:0:0:
288,192,202382,1,0,0:0:0:0:
288,192,202476,1,0,0:0:0:0:
288,192,202570,1,8,0:0:0:0:
320,192,202757,1,0,0:0:0:0:
320,192,202851,1,0,0:0:0:0:
320,192,202945,1,8,0:0:0:0:
320,192,203132,1,0,0:0:0:0:
320,192,203226,1,0,0:0:0:0:
320,192,203320,1,8,0:0:0:0:
320,192,203413,1,0,0:0:0:0:
320,192,203507,1,8,0:0:0:0:
320,192,203601,1,0,0:0:0:0:
320,192,203695,1,8,0:0:0:0:
320,192,203788,1,8,0:0:0:0:
320,192,203882,1,0,0:0:0:0:
320,192,203976,1,0,0:0:0:0:
320,192,204070,1,8,0:0:0:0:
320,192,204257,1,0,0:0:0:0:
320,192,204351,1,0,0:0:0:0:
320,192,204445,1,8,0:0:0:0:
320,192,204632,1,0,0:0:0:0:
320,192,204726,1,0,0:0:0:0:
320,192,204820,1,8,0:0:0:0:
192,160,204913,1,0,0:0:0:0:
288,128,205007,1,8,0:0:0:0:
288,128,205101,1,0,0:0:0:0:
288,128,205195,1,8,0:0:0:0:
288,128,205288,1,8,0:0:0:0:
288,128,205382,1,0,0:0:0:0:
224,96,205476,1,0,0:0:0:0:
288,128,205570,1,8,0:0:0:0:
288,96,205757,1,0,0:0:0:0:
288,160,205851,1,0,0:0:0:0:
288,96,205945,1,8,0:0:0:0:
288,160,206038,1,8,0:0:0:0:
288,96,206132,1,0,0:0:0:0:
288,96,206320,1,12,0:0:0:0:
288,96,206507,1,0,0:0:0:0:
288,96,206695,1,8,0:0:0:0:
288,96,206882,1,0,0:0:0:0:
160,128,207070,1,4,0:0:0:0:
256,160,207257,1,0,0:0:0:0:
256,160,207351,1,0,0:0:0:0:
256,160,207445,1,8,0:0:0:0:
256,160,207632,1,0,0:0:0:0:
256,160,207726,1,0,0:0:0:0:
256,160,207820,1,8,0:0:0:0:
288,192,207913,1,0,0:0:0:0:
288,192,208007,1,0,0:0:0:0:
288,192,208101,1,0,0:0:0:0:
288,192,208195,1,8,0:0:0:0:
288,192,208288,1,8,0:0:0:0:
288,192,208382,1,0,0:0:0:0:
288,192,208476,1,0,0:0:0:0:
288,192,208570,1,8,0:0:0:0:
320,192,208757,1,0,0:0:0:0:
320,192,208851,1,0,0:0:0:0:
320,192,208945,1,8,0:0:0:0:
320,192,209132,1,0,0:0:0:0:
320,192,209226,1,0,0:0:0:0:
320,192,209320,1,8,0:0:0:0:
320,192,209413,1,0,0:0:0:0:
320,192,209507,1,8,0:0:0:0:
320,192,209601,1,0,0:0:0:0:
320,192,209695,1,8,0:0:0:0:
320,192,209788,1,8,0:0:0:0:
320,192,209882,1,0,0:0:0:0:
320,192,210070,1,12,0:0:0:0:
320,192,210257,1,0,0:0:0:0:
320,192,210351,1,0,0:0:0:0:
320,192,210445,1,8,0:0:0:0:
320,192,210632,1,0,0:0:0:0:
320,192,210820,1,12,0:0:0:0:
288,128,211007,1,0,0:0:0:0:
288,128,211101,1,0,0:0:0:0:
288,128,211195,1,8,0:0:0:0:
288,128,211288,1,8,0:0:0:0:
288,128,211382,1,0,0:0:0:0:
288,128,211570,1,8,0:0:0:0:
288,96,211757,1,0,0:0:0:0:
192,160,211851,1,8,0:0:0:0:
288,96,211945,1,8,0:0:0:0:
192,160,212038,1,8,0:0:0:0:
288,96,212132,1,0,0:0:0:0:
288,96,212320,1,12,0:0:0:0:
288,96,212507,1,8,0:0:0:0:
288,96,212695,1,0,0:0:0:0:
288,96,212882,1,0,0:0:0:0:
256,160,213070,1,12,0:0:0:0:
448,256,213257,1,0,0:0:0:0:
448,256,213445,1,0,0:0:0:0:
448,256,213632,1,0,0:0:0:0:
448,256,213820,1,8,0:0:0:0:
160,128,213913,1,8,0:0:0:0:
448,256,214007,1,0,0:0:0:0:
448,256,214195,1,0,0:0:0:0:
448,256,214382,1,0,0:0:0:0:
160,160,214476,1,0,0:0:0:0:
448,256,214570,1,8,0:0:0:0:
448,256,214757,1,0,0:0:0:0:
288,160,214851,1,0,0:0:0:0:
448,256,214945,1,0,0:0:0:0:
448,256,215132,1,0,0:0:0:0:
256,128,215226,1,0,0:0:0:0:
448,256,215320,1,8,0:0:0:0:
448,256,215507,1,0,0:0:0:0:
256,128,215601,1,0,0:0:0:0:
448,256,215695,1,0,0:0:0:0:
448,256,215882,1,0,0:0:0:0:
448,256,216070,1,12,0:0:0:0:
448,256,216257,1,0,0:0:0:0:
256,128,216351,1,0,0:0:0:0:
448,256,216445,1,8,0:0:0:0:
448,256,216632,1,0,0:0:0:0:
256,128,216726,1,0,0:0:0:0:
448,256,216820,1,0,0:0:0:0:
448,256,217007,1,0,0:0:0:0:
256,128,217101,1,0,0:0:0:0:
448,256,217195,1,8,0:0:0:0:
448,256,217382,1,0,0:0:0:0:
448,256,217570,1,12,0:0:0:0:
448,256,217757,1,0,0:0:0:0:
256,128,217851,1,0,0:0:0:0:
448,256,217945,1,8,0:0:0:0:
448,256,218132,1,0,0:0:0:0:
224,128,218226,1,0,0:0:0:0:
448,256,218320,1,0,0:0:0:0:
448,256,218507,1,0,0:0:0:0:
224,128,218601,1,0,0:0:0:0:
448,256,218695,1,8,0:0:0:0:
448,256,218882,1,0,0:0:0:0:
448,256,219070,1,8,0:0:0:0:
448,256,219257,1,0,0:0:0:0:
448,256,219445,1,12,0:0:0:0:
448,256,219632,1,0,0:0:0:0:
448,256,219820,1,0,0:0:0:0:
448,256,220007,1,0,0:0:0:0:
288,192,220195,1,12,0:0:0:0:
288,192,220382,1,0,0:0:0:0:
288,192,220570,1,8,0:0:0:0:
288,192,220757,1,0,0:0:0:0:
288,192,220945,1,12,0:0:0:0:
224,128,221132,1,0,0:0:0:0:
288,192,221320,1,0,0:0:0:0:
288,192,221507,1,0,0:0:0:0:
288,192,221695,1,12,0:0:0:0:
288,192,221882,1,0,0:0:0:0:
288,192,222070,1,8,0:0:0:0:
256,160,222257,1,8,0:0:0:0:
384,128,222445,1,4,0:0:0:0:
384,128,222632,1,0,0:0:0:0:
384,128,222820,1,8,0:0:0:0:
256,160,223007,1,8,0:0:0:0:
384,128,223195,1,4,0:0:0:0:
384,128,223382,1,0,0:0:0:0:
384,128,223570,1,8,0:0:0:0:
256,160,223757,1,8,0:0:0:0:
384,128,223945,1,4,0:0:0:0:
288,192,224320,1,8,0:0:0:0:
288,192,224413,1,8,0:0:0:0:
288,192,224507,1,0,0:0:0:0:
288,192,224601,1,0,0:0:0:0:
288,192,224695,1,8,0:0:0:0:
288,192,224788,1,0,0:0:0:0:
288,192,224882,1,8,0:0:0:0:
288,192,224976,1,8,0:0:0:0:
288,192,225070,1,0,0:0:0:0:
256,160,225163,1,0,0:0:0:0:
256,160,225257,1,8,0:0:0:0:
256,160,225351,1,0,0:0:0:0:
256,160,225445,1,0,0:0:0:0:
256,160,225538,1,0,0:0:0:0:
256,160,225632,1,8,0:0:0:0:
256,160,225726,1,8,0:0:0:0:
256,160,225820,1,0,0:0:0:0:
256,160,225913,1,0,0:0:0:0:
256,160,226007,1,8,0:0:0:0:
256,160,226101,1,0,0:0:0:0:
256,160,226195,1,0,0:0:0:0:
256,160,226288,1,0,0:0:0:0:
256,160,226382,1,8,0:0:0:0:
256,160,226476,1,8,0:0:0:0:
256,160,226570,1,0,0:0:0:0:
256,160,226663,1,0,0:0:0:0:
256,160,226757,1,8,0:0:0:0:
256,160,226851,1,0,0:0:0:0:
256,160,226945,1,0,0:0:0:0:
256,160,227038,1,0,0:0:0:0:
256,160,227132,1,8,0:0:0:0:
256,160,227226,1,8,0:0:0:0:
256,160,227320,1,0,0:0:0:0:
256,160,227413,1,0,0:0:0:0:
256,160,227507,1,8,0:0:0:0:
256,160,227601,1,0,0:0:0:0:
256,160,227695,1,0,0:0:0:0:
256,160,227788,1,0,0:0:0:0:
256,160,227882,1,8,0:0:0:0:
256,160,227976,1,8,0:0:0:0:
256,160,228070,1,0,0:0:0:0:
256,160,228163,1,0,0:0:0:0:
256,160,228257,1,8,0:0:0:0:
256,160,228351,1,0,0:0:0:0:
256,160,228445,1,0,0:0:0:0:
256,160,228538,1,0,0:0:0:0:
256,160,228632,1,8,0:0:0:0:
256,160,228726,1,8,0:0:0:0:
256,160,228820,1,0,0:0:0:0:
256,160,228913,1,0,0:0:0:0:
256,160,229007,1,8,0:0:0:0:
256,160,229101,1,8,0:0:0:0:
256,160,229195,1,0,0:0:0:0:
256,160,229288,1,0,0:0:0:0:
256,160,229382,1,8,0:0:0:0:
288,160,229570,1,12,0:0:0:0:
288,160,229757,1,0,0:0:0:0:
288,160,229945,1,12,0:0:0:0:
288,160,230132,1,0,0:0:0:0:
288,160,230320,1,12,0:0:0:0:
288,160,230507,1,0,0:0:0:0:
288,160,230695,1,12,0:0:0:0:
224,128,230882,1,0,0:0:0:0:
224,128,230976,1,0,0:0:0:0:
224,128,231070,1,8,0:0:0:0:
128,128,231163,1,0,0:0:0:0:
128,128,231257,1,8,0:0:0:0:
256,128,231351,1,8,0:0:0:0:
224,96,231445,1,0,0:0:0:0:
224,96,231538,1,0,0:0:0:0:
224,96,231632,1,8,0:0:0:0:
224,96,231726,1,0,0:0:0:0:
224,96,231820,1,8,0:0:0:0:
320,128,231913,1,0,0:0:0:0:
320,128,232007,1,8,0:0:0:0:
320,128,232101,1,8,0:0:0:0:
256,128,232195,1,0,0:0:0:0:
256,128,232288,1,0,0:0:0:0:
256,128,232382,1,8,0:0:0:0:
256,160,232476,1,0,0:0:0:0:
256,160,232570,1,8,0:0:0:0:
224,128,232663,1,0,0:0:0:0:
224,128,232757,1,8,0:0:0:0:
224,128,232851,1,8,0:0:0:0:
224,128,232945,1,0,0:0:0:0:
224,128,233038,1,0,0:0:0:0:
224,128,233132,1,8,0:0:0:0:
224,128,233226,1,0,0:0:0:0:
224,128,233320,1,8,0:0:0:0:
224,128,233413,1,0,0:0:0:0:
224,128,233507,1,0,0:0:0:0:
224,128,233601,1,8,0:0:0:0:
224,128,233695,1,0,0:0:0:0:
224,128,233788,1,0,0:0:0:0:
224,128,233882,1,8,0:0:0:0:
224,128,233976,1,0,0:0:0:0:
224,128,234070,1,8,0:0:0:0:
224,128,234163,1,8,0:0:0:0:
224,128,234257,1,8,0:0:0:0:
224,128,234351,1,8,0:0:0:0:
224,128,234445,1,0,0:0:0:0:
224,128,234538,1,0,0:0:0:0:
224,128,234632,1,8,0:0:0:0:
224,128,234726,1,0,0:0:0:0:
224,128,234820,1,0,0:0:0:0:
256,128,234913,1,0,0:0:0:0:
224,128,235007,1,8,0:0:0:0:
224,128,235101,1,8,0:0:0:0:
224,128,235195,1,0,0:0:0:0:
224,128,235288,1,0,0:0:0:0:
224,128,235382,1,8,0:0:0:0:
224,128,235476,1,0,0:0:0:0:
224,128,235570,1,0,0:0:0:0:
256,96,235663,1,0,0:0:0:0:
256,96,235757,1,8,0:0:0:0:
256,96,235851,1,8,0:0:0:0:
256,96,235945,5,0,0:0:0:0:
256,96,236038,1,0,0:0:0:0:
256,96,236132,1,8,0:0:0:0:
256,96,236226,1,0,0:0:0:0:
256,96,236320,1,0,0:0:0:0:
256,96,236413,1,0,0:0:0:0:
256,96,236507,1,8,0:0:0:0:
256,96,236601,1,8,0:0:0:0:
256,96,236695,1,0,0:0:0:0:
256,96,236788,1,0,0:0:0:0:
288,192,236882,1,8,0:0:0:0:
224,160,237070,5,4,0:0:0:0:
224,160,237257,1,8,0:0:0:0:
224,160,237445,1,0,0:0:0:0:
256,160,237538,1,0,0:0:0:0:
256,160,237632,1,8,0:0:0:0:
256,160,237820,1,0,0:0:0:0:
256,160,238007,1,8,0:0:0:0:
256,160,238101,1,0,0:0:0:0:
256,160,238195,1,8,0:0:0:0:
256,160,238288,1,0,0:0:0:0:
256,160,238382,1,8,0:0:0:0:
352,160,238570,5,8,0:0:0:0:
288,160,238663,1,8,0:0:0:0:
288,160,238757,1,8,0:0:0:0:
288,160,238851,1,0,0:0:0:0:
288,160,238945,1,0,0:0:0:0:
288,160,239038,1,0,0:0:0:0:
288,160,239132,1,8,0:0:0:0:
288,160,239226,1,8,0:0:0:0:
288,160,239320,1,8,0:0:0:0:
288,160,239413,1,0,0:0:0:0:
288,160,239507,1,8,0:0:0:0:
288,160,239601,1,0,0:0:0:0:
288,160,239695,1,8,0:0:0:0:
288,160,239788,1,8,0:0:0:0:
288,160,239882,1,0,0:0:0:0:
288,160,240070,1,4,0:0:0:0:
416,224,240351,1,4,0:0:0:0:
416,224,240632,1,0,0:0:0:0:
416,224,240820,1,8,0:0:0:0:
416,224,241007,1,8,0:0:0:0:
416,224,241195,1,0,0:0:0:0:
416,224,241382,1,0,0:0:0:0:
416,224,241570,1,8,0:0:0:0:
416,224,241757,1,0,0:0:0:0:
416,224,241945,1,8,0:0:0:0:
416,224,242132,1,0,0:0:0:0:
416,224,242320,1,8,0:0:0:0:
416,224,242507,1,8,0:0:0:0:
416,224,242601,1,8,0:0:0:0:
416,224,242695,1,8,0:0:0:0:
416,224,242788,1,8,0:0:0:0:
416,224,242882,1,8,0:0:0:0:
416,224,243070,1,4,0:0:0:0:
416,224,243351,1,4,0:0:0:0:
416,224,243632,1,0,0:0:0:0:
416,224,243820,1,8,0:0:0:0:
416,224,244007,1,8,0:0:0:0:
416,224,244195,1,0,0:0:0:0:
416,224,244382,1,0,0:0:0:0:
128,160,244570,1,0,0:0:0:0:
288,160,244663,1,8,0:0:0:0:
288,160,244757,1,8,0:0:0:0:
288,160,244851,1,0,0:0:0:0:
288,160,244945,1,8,0:0:0:0:
256,64,245038,1,8,0:0:0:0:
288,160,245132,1,0,0:0:0:0:
256,64,245226,1,8,0:0:0:0:
256,64,245320,1,8,0:0:0:0:
256,96,245413,1,8,0:0:0:0:
288,160,245507,1,0,0:0:0:0:
288,160,245695,1,8,0:0:0:0:
384,160,246070,1,4,0:0:0:0:
320,128,246351,1,0,0:0:0:0:
320,128,246445,1,8,0:0:0:0:
320,128,246820,1,8,0:0:0:0:
320,128,247007,1,0,0:0:0:0:
320,128,247195,1,8,0:0:0:0:
320,128,247288,1,0,0:0:0:0:
384,224,247570,1,0,0:0:0:0:
384,224,247851,1,0,0:0:0:0:
384,224,247945,1,8,0:0:0:0:
384,224,248320,1,8,0:0:0:0:
384,224,248507,1,0,0:0:0:0:
384,224,248601,1,0,0:0:0:0:
384,224,248695,1,8,0:0:0:0:
384,224,248788,1,0,0:0:0:0:
384,224,248882,1,0,0:0:0:0:
384,224,249070,1,4,0:0:0:0:
384,224,249351,1,0,0:0:0:0:
384,224,249445,1,8,0:0:0:0:
384,224,249820,1,8,0:0:0:0:
384,224,250007,1,0,0:0:0:0:
384,224,250195,1,8,0:0:0:0:
384,224,250288,1,0,0:0:0:0:
384,224,250570,1,0,0:0:0:0:
384,224,250851,1,0,0:0:0:0:
384,224,250945,1,8,0:0:0:0:
256,192,251132,1,0,0:0:0:0:
384,224,251320,1,8,0:0:0:0:
384,224,251507,1,8,0:0:0:0:
384,224,251695,1,8,0:0:0:0:
384,224,251788,1,8,0:0:0:0:
384,224,251882,1,8,0:0:0:0:
256,192,252070,1,4,0:0:0:0:
320,224,252351,1,0,0:0:0:0:
256,160,252632,1,8,0:0:0:0:
256,160,252820,1,8,0:0:0:0:
256,160,252913,1,8,0:0:0:0:
256,160,253007,1,0,0:0:0:0:
256,160,253101,1,8,0:0:0:0:
256,160,253195,1,8,0:0:0:0:
256,160,253288,1,8,0:0:0:0:
256,160,253382,1,0,0:0:0:0:
96,128,253476,1,0,0:0:0:0:
256,160,253570,1,8,0:0:0:0:
320,160,253663,1,0,0:0:0:0:
320,160,253757,1,0,0:0:0:0:
320,160,253851,1,0,0:0:0:0:
320,160,253945,1,8,0:0:0:0:
320,160,254038,1,8,0:0:0:0:
320,160,254132,1,0,0:0:0:0:
320,160,254226,1,0,0:0:0:0:
320,160,254320,1,8,0:0:0:0:
320,160,254413,1,0,0:0:0:0:
320,160,254507,1,8,0:0:0:0:
320,160,254601,1,8,0:0:0:0:
320,160,254695,1,0,0:0:0:0:
320,160,254788,1,0,0:0:0:0:
320,160,254882,1,8,0:0:0:0:
320,160,254976,1,0,0:0:0:0:
320,160,255070,1,8,0:0:0:0:
320,160,255163,1,8,0:0:0:0:
320,160,255257,1,0,0:0:0:0:
320,160,255351,1,0,0:0:0:0:
320,160,255445,1,8,0:0:0:0:
320,160,255538,1,0,0:0:0:0:
320,160,255632,1,0,0:0:0:0:
320,160,255726,1,0,0:0:0:0:
320,160,255820,1,8,0:0:0:0:
320,160,255913,1,8,0:0:0:0:
320,160,256007,1,0,0:0:0:0:
320,160,256101,1,0,0:0:0:0:
320,160,256195,1,8,0:0:0:0:
320,160,256382,1,0,0:0:0:0:
320,160,256570,1,8,0:0:0:0:
320,160,256663,1,0,0:0:0:0:
320,160,256757,1,0,0:0:0:0:
320,160,256851,1,0,0:0:0:0:
320,160,256945,1,8,0:0:0:0:
320,160,257038,1,8,0:0:0:0:
320,160,257132,1,0,0:0:0:0:
320,160,257226,1,0,0:0:0:0:
320,160,257320,1,8,0:0:0:0:
320,160,257413,1,0,0:0:0:0:
320,160,257507,1,8,0:0:0:0:
320,160,257601,1,8,0:0:0:0:
320,160,257695,1,0,0:0:0:0:
320,160,257788,1,0,0:0:0:0:
320,160,257882,1,8,0:0:0:0:
320,160,257976,1,0,0:0:0:0:
320,160,258070,1,8,0:0:0:0:
320,160,258163,1,8,0:0:0:0:
320,160,258257,1,0,0:0:0:0:
320,160,258351,1,0,0:0:0:0:
320,160,258445,1,8,0:0:0:0:
320,160,258538,1,0,0:0:0:0:
320,160,258632,1,8,0:0:0:0:
320,160,258726,1,8,0:0:0:0:
320,160,258820,1,0,0:0:0:0:
320,160,258913,1,0,0:0:0:0:
320,160,259007,1,8,0:0:0:0:
320,160,259101,1,8,0:0:0:0:
320,160,259195,1,8,0:0:0:0:
320,160,259382,1,0,0:0:0:0:
320,160,259570,1,8,0:0:0:0:
320,160,259663,1,0,0:0:0:0:
320,160,259757,1,0,0:0:0:0:
320,160,259851,1,0,0:0:0:0:
320,160,259945,1,8,0:0:0:0:
320,160,260038,1,8,0:0:0:0:
320,160,260132,1,0,0:0:0:0:
320,160,260226,1,0,0:0:0:0:
320,160,260320,1,8,0:0:0:0:
320,160,260413,1,0,0:0:0:0:
320,160,260507,1,8,0:0:0:0:
320,160,260601,1,8,0:0:0:0:
320,160,260695,1,0,0:0:0:0:
320,160,260788,1,0,0:0:0:0:
320,160,260882,1,8,0:0:0:0:
320,160,260976,1,0,0:0:0:0:
320,160,261070,1,8,0:0:0:0:
320,160,261163,1,8,0:0:0:0:
320,160,261257,1,0,0:0:0:0:
320,160,261351,1,0,0:0:0:0:
320,160,261445,1,0,0:0:0:0:
320,160,261538,1,0,0:0:0:0:
320,160,261632,1,8,0:0:0:0:
320,160,261726,1,0,0:0:0:0:
320,160,261820,1,8,0:0:0:0:
320,160,261913,1,8,0:0:0:0:
320,160,262007,1,8,0:0:0:0:
320,160,262101,1,8,0:0:0:0:
320,160,262195,1,0,0:0:0:0:
320,160,262288,1,0,0:0:0:0:
384,192,262382,1,8,0:0:0:0:
384,192,262476,1,8,0:0:0:0:
384,192,262570,1,0,0:0:0:0:
384,192,262663,1,0,0:0:0:0:
384,192,262757,1,8,0:0:0:0:
384,192,262851,1,0,0:0:0:0:
384,192,262945,1,8,0:0:0:0:
384,192,263038,1,0,0:0:0:0:
384,192,263132,1,8,0:0:0:0:
384,192,263226,1,8,0:0:0:0:
384,192,263320,1,0,0:0:0:0:
384,192,263413,1,0,0:0:0:0:
384,192,263507,1,8,0:0:0:0:
384,192,263601,1,0,0:0:0:0:
384,192,263695,1,8,0:0:0:0:
384,192,263788,1,0,0:0:0:0:
384,192,263882,1,8,0:0:0:0:
384,192,263976,1,8,0:0:0:0:
384,192,264070,1,0,0:0:0:0:
384,192,264163,1,0,0:0:0:0:
384,192,264257,1,8,0:0:0:0:
384,192,264351,1,0,0:0:0:0:
384,192,264445,1,0,0:0:0:0:
384,192,264538,1,0,0:0:0:0:
384,192,264632,1,8,0:0:0:0:
384,192,264726,1,8,0:0:0:0:
384,192,264820,1,0,0:0:0:0:
384,192,264913,1,0,0:0:0:0:
384,192,265007,1,8,0:0:0:0:
384,192,265101,1,8,0:0:0:0:
384,192,265195,1,8,0:0:0:0:
384,192,265288,1,8,0:0:0:0:
384,192,265382,1,8,0:0:0:0:
384,192,265570,1,4,0:0:0:0:
384,192,265945,1,4,0:0:0:0:
320,160,266320,1,12,0:0:0:0:
256,128,266695,1,12,0:0:0:0:
288,128,267070,1,4,0:0:0:0:
288,128,267445,1,12,0:0:0:0:
288,128,267820,1,12,0:0:0:0:
288,192,268570,1,0,0:0:0:0:
288,192,268663,1,0,0:0:0:0:
288,192,268757,1,8,0:0:0:0:
288,192,268851,1,0,0:0:0:0:
288,192,268945,1,8,0:0:0:0:
288,192,269038,1,0,0:0:0:0:
288,192,269132,1,8,0:0:0:0:
288,192,269226,1,8,0:0:0:0:
288,192,269320,1,0,0:0:0:0:
288,192,269413,1,0,0:0:0:0:
256,192,269507,1,8,0:0:0:0:
288,192,269601,1,0,0:0:0:0:
256,192,269695,1,8,0:0:0:0:
256,192,269788,1,0,0:0:0:0:
288,192,269882,1,8,0:0:0:0:
256,192,269976,1,8,0:0:0:0:
256,192,270070,1,0,0:0:0:0:
256,192,270163,1,0,0:0:0:0:
256,192,270257,1,8,0:0:0:0:
256,192,270351,1,0,0:0:0:0:
256,192,270445,1,8,0:0:0:0:
256,192,270538,1,0,0:0:0:0:
256,192,270632,1,8,0:0:0:0:
256,192,270726,1,8,0:0:0:0:
256,192,270820,1,0,0:0:0:0:
256,192,270913,1,0,0:0:0:0:
256,192,271007,1,8,0:0:0:0:
256,192,271101,1,0,0:0:0:0:
256,192,271195,1,8,0:0:0:0:
256,192,271288,1,8,0:0:0:0:
256,192,271382,1,8,0:0:0:0:
256,192,271570,1,4,0:0:0:0:
384,288,271757,1,8,0:0:0:0:
384,288,271945,1,0,0:0:0:0:
416,288,272038,1,0,0:0:0:0:
416,288,272132,1,8,0:0:0:0:
416,288,272320,1,0,0:0:0:0:
288,224,272507,1,8,0:0:0:0:
288,224,272601,1,8,0:0:0:0:
288,224,272695,1,8,0:0:0:0:
288,224,272788,1,8,0:0:0:0:
288,224,272882,1,8,0:0:0:0:
416,256,273070,1,0,0:0:0:0:
416,256,273163,1,0,0:0:0:0:
416,256,273257,1,8,0:0:0:0:
416,256,273351,1,8,0:0:0:0:
416,256,273445,1,0,0:0:0:0:
416,256,273538,1,0,0:0:0:0:
416,256,273632,1,8,0:0:0:0:
416,256,273726,1,0,0:0:0:0:
416,256,273820,1,8,0:0:0:0:
416,256,273913,1,0,0:0:0:0:
416,256,274007,1,8,0:0:0:0:
416,256,274101,1,8,0:0:0:0:
416,256,274195,1,0,0:0:0:0:
416,256,274288,1,0,0:0:0:0:
416,256,274382,1,8,0:0:0:0:
416,256,274476,1,8,0:0:0:0:
416,256,274570,1,8,0:0:0:0:
416,256,274663,1,0,0:0:0:0:
416,256,274757,1,8,0:0:0:0:
416,256,274851,1,8,0:0:0:0:
416,256,274945,1,0,0:0:0:0:
416,256,275038,1,8,0:0:0:0:
416,256,275132,1,0,0:0:0:0:
416,256,275226,1,0,0:0:0:0:
416,256,275320,1,8,0:0:0:0:
416,256,275413,1,8,0:0:0:0:
416,256,275507,1,0,0:0:0:0:
416,256,275601,1,8,0:0:0:0:
416,256,275695,1,8,0:0:0:0:
416,256,275788,1,0,0:0:0:0:
416,256,275882,1,8,0:0:0:0:
416,256,276070,1,4,0:0:0:0:
320,96,276257,1,8,0:0:0:0:
320,96,276351,1,8,0:0:0:0:
320,96,276445,1,0,0:0:0:0:
320,128,276632,1,8,0:0:0:0:
320,128,276726,1,0,0:0:0:0:
320,128,276820,1,0,0:0:0:0:
256,128,277007,1,8,0:0:0:0:
256,128,277195,1,0,0:0:0:0:
256,128,277320,1,0,0:0:0:0:
256,128,277445,1,0,0:0:0:0:
256,128,277570,1,8,0:0:0:0:
288,128,277757,1,8,0:0:0:0:
288,128,277945,1,0,0:0:0:0:
352,160,278132,1,8,0:0:0:0:
352,160,278226,1,8,0:0:0:0:
352,160,278320,1,0,0:0:0:0:
352,160,278507,1,8,0:0:0:0:
352,160,278695,1,0,0:0:0:0:
352,160,278788,1,0,0:0:0:0:
352,160,278882,1,8,0:0:0:0:
352,128,279070,5,4,0:0:0:0:
352,128,279257,1,8,0:0:0:0:
352,128,279351,1,8,0:0:0:0:
352,128,279445,1,8,0:0:0:0:
352,128,279632,1,8,0:0:0:0:
352,128,279820,1,0,0:0:0:0:
352,160,280007,1,8,0:0:0:0:
352,160,280195,1,0,0:0:0:0:
288,96,280382,1,8,0:0:0:0:
288,96,280476,1,8,0:0:0:0:
288,96,280570,1,0,0:0:0:0:
288,96,280757,1,8,0:0:0:0:
288,96,280851,1,0,0:0:0:0:
288,96,280945,1,8,0:0:0:0:
288,96,281132,1,0,0:0:0:0:
288,96,281320,1,8,0:0:0:0:
288,96,281413,1,8,0:0:0:0:
288,96,281507,1,8,0:0:0:0:
288,96,281601,1,8,0:0:0:0:
288,96,281695,1,8,0:0:0:0:
288,96,281882,1,8,0:0:0:0:
224,128,282070,5,0,0:0:0:0:
288,96,282163,1,0,0:0:0:0:
288,96,282257,1,8,0:0:0:0:
288,96,282351,1,8,0:0:0:0:
288,96,282445,1,0,0:0:0:0:
288,96,282538,1,0,0:0:0:0:
288,96,282632,1,8,0:0:0:0:
288,96,282726,1,8,0:0:0:0:
288,96,282820,1,8,0:0:0:0:
288,64,282913,1,0,0:0:0:0:
288,64,283007,1,8,0:0:0:0:
288,64,283101,1,8,0:0:0:0:
288,64,283195,1,0,0:0:0:0:
288,64,283288,1,0,0:0:0:0:
288,64,283382,1,8,0:0:0:0:
288,64,283476,1,0,0:0:0:0:
288,64,283570,1,8,0:0:0:0:
288,64,283663,1,8,0:0:0:0:
192,32,283757,1,0,0:0:0:0:
288,64,283851,1,0,0:0:0:0:
288,64,283945,1,8,0:0:0:0:
288,64,284038,1,0,0:0:0:0:
288,64,284132,1,8,0:0:0:0:
288,64,284226,1,8,0:0:0:0:
288,64,284320,1,0,0:0:0:0:
288,64,284413,1,8,0:0:0:0:
288,64,284507,1,0,0:0:0:0:
288,64,284601,1,0,0:0:0:0:
288,64,284695,1,8,0:0:0:0:
288,64,284788,1,8,0:0:0:0:
288,64,284882,1,0,0:0:0:0:
192,128,284945,1,0,0:0:0:0:
288,64,285007,1,0,0:0:0:0:
288,64,285070,1,8,0:0:0:0:
288,64,285163,1,8,0:0:0:0:
288,64,285257,1,0,0:0:0:0:
288,128,285320,1,0,0:0:0:0:
288,64,285382,1,0,0:0:0:0:
288,64,285445,1,8,0:0:0:0:
288,64,285538,1,8,0:0:0:0:
288,64,285632,1,0,0:0:0:0:
288,64,285726,1,0,0:0:0:0:
288,64,285820,1,8,0:0:0:0:
288,64,285913,1,8,0:0:0:0:
288,64,286007,1,8,0:0:0:0:
288,64,286101,1,8,0:0:0:0:
288,64,286195,1,8,0:0:0:0:
288,64,286288,1,8,0:0:0:0:
320,64,286382,1,8,0:0:0:0:
288,128,286570,1,4,0:0:0:0:
384,256,286851,1,0,0:0:0:0:
416,224,286945,1,8,0:0:0:0:
448,192,287132,1,0,0:0:0:0:
448,192,287320,1,0,0:0:0:0:
512,160,287413,1,8,0:0:0:0:
512,160,287507,1,0,0:0:0:0:
512,160,287601,1,0,0:0:0:0:
512,160,287695,1,8,0:0:0:0:
512,160,287788,1,0,0:0:0:0:
512,160,287882,1,0,0:0:0:0:
512,160,287976,1,8,0:0:0:0:
512,160,288070,1,0,0:0:0:0:
352,160,288351,1,0,0:0:0:0:
352,160,288445,1,8,0:0:0:0:
352,160,288632,1,0,0:0:0:0:
352,160,288820,1,0,0:0:0:0:
352,160,288913,1,8,0:0:0:0:
352,160,289007,1,0,0:0:0:0:
352,160,289101,1,0,0:0:0:0:
352,160,289195,1,8,0:0:0:0:
352,160,289382,1,8,0:0:0:0:
320,128,289570,1,0,0:0:0:0:
352,192,289663,1,8,0:0:0:0:
352,192,289851,1,0,0:0:0:0:
352,192,289945,1,8,0:0:0:0:
352,192,290132,1,0,0:0:0:0:
352,192,290320,1,0,0:0:0:0:
352,192,290413,1,8,0:0:0:0:
352,192,290507,1,0,0:0:0:0:
352,192,290601,1,0,0:0:0:0:
352,192,290695,1,8,0:0:0:0:
352,192,290788,1,0,0:0:0:0:
352,192,290882,1,0,0:0:0:0:
352,192,290976,1,8,0:0:0:0:
352,192,291070,1,0,0:0:0:0:
256,128,291351,1,0,0:0:0:0:
256,128,291445,1,8,0:0:0:0:
256,128,291632,1,0,0:0:0:0:
256,128,291820,1,0,0:0:0:0:
256,128,291913,1,8,0:0:0:0:
256,128,292007,1,0,0:0:0:0:
256,128,292195,1,12,0:0:0:0:
224,64,292382,1,12,0:0:0:0:
224,64,292570,1,4,0:0:0:0:
320,160,292851,1,0,0:0:0:0:
320,160,292945,1,8,0:0:0:0:
320,160,293132,1,0,0:0:0:0:
320,160,293320,1,0,0:0:0:0:
320,160,293413,1,8,0:0:0:0:
320,160,293601,1,0,0:0:0:0:
320,160,293695,1,8,0:0:0:0:
192,32,293882,1,0,0:0:0:0:
192,32,293976,1,8,0:0:0:0:
192,32,294070,1,0,0:0:0:0:
256,64,294351,1,0,0:0:0:0:
256,64,294445,1,8,0:0:0:0:
256,64,294632,1,0,0:0:0:0:
256,64,294726,1,8,0:0:0:0:
256,64,294820,1,0,0:0:0:0:
256,64,294913,1,8,0:0:0:0:
256,64,295101,1,0,0:0:0:0:
256,64,295195,1,8,0:0:0:0:
256,64,295382,1,0,0:0:0:0:
256,64,295570,1,0,0:0:0:0:
256,64,295663,1,8,0:0:0:0:
256,64,295757,1,0,0:0:0:0:
256,64,295851,1,0,0:0:0:0:
256,64,295945,1,8,0:0:0:0:
256,64,296132,1,0,0:0:0:0:
256,64,296226,1,8,0:0:0:0:
256,64,296320,1,0,0:0:0:0:
256,64,296413,1,8,0:0:0:0:
256,64,296601,1,0,0:0:0:0:
256,64,296695,1,8,0:0:0:0:
256,64,296882,1,0,0:0:0:0:
256,64,296976,1,8,0:0:0:0:
256,64,297070,1,0,0:0:0:0:
224,64,297351,1,0,0:0:0:0:
224,64,297445,1,8,0:0:0:0:
224,64,297632,1,0,0:0:0:0:
224,64,297820,1,0,0:0:0:0:
224,64,297913,1,8,0:0:0:0:
224,64,298101,1,0,0:0:0:0:
224,64,298195,1,8,0:0:0:0:
224,64,298382,1,8,0:0:0:0:
256,160,298476,1,8,0:0:0:0:
224,64,298570,1,0,0:0:0:0:
256,160,298757,1,0,0:0:0:0:
256,160,298945,1,12,0:0:0:0:
256,160,299132,1,0,0:0:0:0:
256,160,299320,1,8,0:0:0:0:
416,256,299413,1,0,0:0:0:0:
480,288,299507,1,0,0:0:0:0:
448,256,299601,1,0,0:0:0:0:
448,288,299695,1,8,0:0:0:0:
480,288,299788,1,8,0:0:0:0:
256,160,299882,1,0,0:0:0:0:
448,256,299976,1,0,0:0:0:0:
256,160,300070,1,8,0:0:0:0:
448,256,300163,1,8,0:0:0:0:
448,256,300257,1,0,0:0:0:0:
448,256,300351,1,0,0:0:0:0:
448,256,300445,1,8,0:0:0:0:
448,256,300538,1,0,0:0:0:0:
416,256,300632,1,8,0:0:0:0:
448,256,300726,1,0,0:0:0:0:
448,256,300820,1,8,0:0:0:0:
448,256,300913,1,0,0:0:0:0:
448,256,301007,1,0,0:0:0:0:
448,256,301101,1,0,0:0:0:0:
448,256,301195,1,8,0:0:0:0:
448,256,301288,1,8,0:0:0:0:
448,256,301382,1,0,0:0:0:0:
160,128,301570,1,4,0:0:0:0:
288,160,301851,1,4,0:0:0:0:
352,192,302132,1,4,0:0:0:0:
352,192,302320,1,12,0:0:0:0:
256,192,302507,12,0,303820,0:0:0:0:
256,160,304042,5,8,0:0:0:0:
320,160,304242,1,0,0:0:0:0:
448,256,304442,1,8,0:0:0:0:
448,256,304642,1,0,0:0:0:0:
448,256,304842,1,8,0:0:0:0:
448,256,305042,1,8,0:0:0:0:
448,256,305242,1,0,0:0:0:0:
448,256,305442,1,0,0:0:0:0:
448,256,305642,1,8,0:0:0:0:
448,256,305842,1,8,0:0:0:0:
448,256,306042,1,0,0:0:0:0:
448,256,306242,1,0,0:0:0:0:
448,256,306442,1,8,0:0:0:0:
448,256,306642,1,8,0:0:0:0:
448,256,306842,1,0,0:0:0:0:
448,256,307042,1,0,0:0:0:0:
448,256,307242,1,8,0:0:0:0:
448,256,307442,1,0,0:0:0:0:
448,256,307642,1,8,0:0:0:0:
448,256,307842,1,0,0:0:0:0:
448,256,308042,1,8,0:0:0:0:
448,256,308242,1,8,0:0:0:0:
448,256,308442,1,0,0:0:0:0:
448,256,308842,1,8,0:0:0:0:
448,256,309042,1,8,0:0:0:0:
448,256,309242,1,0,0:0:0:0:
448,256,309442,1,0,0:0:0:0:
448,256,309642,1,8,0:0:0:0:
448,256,309842,1,8,0:0:0:0:
448,256,310042,1,0,0:0:0:0:
384,192,310242,1,0,0:0:0:0:
384,192,310442,1,8,0:0:0:0:
384,192,310642,1,0,0:0:0:0:
384,192,310842,1,8,0:0:0:0:
384,192,311042,1,0,0:0:0:0:
384,192,311242,1,8,0:0:0:0:
384,192,311442,1,8,0:0:0:0:
384,192,311642,1,0,0:0:0:0:
384,192,311842,1,0,0:0:0:0:
384,192,312042,1,8,0:0:0:0:
384,192,312242,1,8,0:0:0:0:
384,192,312442,1,0,0:0:0:0:
384,192,312642,1,0,0:0:0:0:
384,192,312842,1,8,0:0:0:0:
384,192,313042,1,8,0:0:0:0:
384,192,313242,1,0,0:0:0:0:
384,192,313442,1,0,0:0:0:0:
384,192,313642,1,8,0:0:0:0:
384,192,313842,1,0,0:0:0:0:
384,192,314042,1,8,0:0:0:0:
384,192,314242,1,0,0:0:0:0:
384,192,314442,1,8,0:0:0:0:
384,192,314642,1,8,0:0:0:0:
384,192,314842,1,0,0:0:0:0:
384,192,315242,1,8,0:0:0:0:
384,192,315442,1,8,0:0:0:0:
352,128,315642,1,0,0:0:0:0:
352,128,315842,1,0,0:0:0:0:
352,128,316042,1,8,0:0:0:0:
352,128,316242,1,8,0:0:0:0:
352,128,316442,1,0,0:0:0:0:
352,128,316642,1,0,0:0:0:0:
352,128,316842,1,8,0:0:0:0:
352,128,317042,1,0,0:0:0:0:
352,128,317242,1,8,0:0:0:0:
352,128,317442,1,0,0:0:0:0:
352,128,317642,1,8,0:0:0:0:
352,128,317842,1,8,0:0:0:0:
352,128,318042,1,0,0:0:0:0:
352,128,318242,1,0,0:0:0:0:
352,128,318442,1,8,0:0:0:0:
352,128,318642,1,8,0:0:0:0:
352,128,318842,1,0,0:0:0:0:
352,128,319042,1,0,0:0:0:0:
352,128,319242,1,8,0:0:0:0:
352,128,319442,1,8,0:0:0:0:
352,128,319642,1,0,0:0:0:0:
352,128,319842,1,0,0:0:0:0:
352,128,320042,1,8,0:0:0:0:
352,128,320242,1,0,0:0:0:0:
352,128,320442,1,8,0:0:0:0:
352,128,320642,1,0,0:0:0:0:
352,128,320842,1,8,0:0:0:0:
352,128,321042,1,8,0:0:0:0:
352,128,321242,1,0,0:0:0:0:
320,96,321642,1,8,0:0:0:0:
320,96,321842,1,8,0:0:0:0:
320,96,322042,1,0,0:0:0:0:
320,96,322242,1,0,0:0:0:0:
320,96,322442,1,8,0:0:0:0:
320,96,322642,1,8,0:0:0:0:
352,96,322842,1,0,0:0:0:0:
352,96,323042,1,0,0:0:0:0:
352,96,323242,1,8,0:0:0:0:
352,96,323442,1,0,0:0:0:0:
352,96,323642,1,8,0:0:0:0:
352,96,323842,1,0,0:0:0:0:
352,96,324042,1,8,0:0:0:0:
352,96,324242,1,8,0:0:0:0:
352,96,324442,1,0,0:0:0:0:
352,96,324642,1,0,0:0:0:0:
352,96,324842,1,8,0:0:0:0:
352,96,325042,1,8,0:0:0:0:
352,96,325242,1,0,0:0:0:0:
352,96,325442,1,0,0:0:0:0:
352,96,325642,1,8,0:0:0:0:
352,96,325842,1,8,0:0:0:0:
352,96,326042,1,0,0:0:0:0:
352,96,326242,1,0,0:0:0:0:
352,96,326442,1,8,0:0:0:0:
352,96,326642,1,0,0:0:0:0:
352,96,326842,1,8,0:0:0:0:
352,96,327042,1,0,0:0:0:0:
352,96,327242,1,8,0:0:0:0:
352,96,327442,1,8,0:0:0:0:
256,192,327642,12,0,329642,0:0:0:0:
224,128,329882,5,0,0:0:0:0:
224,128,329975,1,0,0:0:0:0:
224,128,330069,1,8,0:0:0:0:
224,128,330163,1,0,0:0:0:0:
224,128,330257,1,0,0:0:0:0:
224,128,330350,1,0,0:0:0:0:
224,128,330444,1,8,0:0:0:0:
288,192,330819,1,12,0:0:0:0:
288,192,331006,1,0,0:0:0:0:
288,192,331100,1,0,0:0:0:0:
288,192,331194,1,0,0:0:0:0:
288,192,331381,1,0,0:0:0:0:
288,192,331475,1,0,0:0:0:0:
288,192,331569,1,8,0:0:0:0:
288,192,331756,1,0,0:0:0:0:
288,192,331850,1,0,0:0:0:0:
288,192,331944,1,0,0:0:0:0:
288,192,332131,1,0,0:0:0:0:
288,192,332225,1,0,0:0:0:0:
288,192,332319,1,8,0:0:0:0:
288,192,332506,1,0,0:0:0:0:
288,192,332600,1,0,0:0:0:0:
288,192,332694,1,0,0:0:0:0:
288,192,332881,1,0,0:0:0:0:
288,192,332975,1,0,0:0:0:0:
288,192,333069,1,8,0:0:0:0:
288,192,333256,1,0,0:0:0:0:
288,192,333350,1,0,0:0:0:0:
288,192,333444,1,0,0:0:0:0:
288,192,333631,1,0,0:0:0:0:
288,192,333819,1,12,0:0:0:0:
288,192,334006,1,0,0:0:0:0:
288,192,334100,1,0,0:0:0:0:
288,192,334194,1,8,0:0:0:0:
288,192,334381,1,0,0:0:0:0:
288,192,334475,1,0,0:0:0:0:
288,192,334569,1,0,0:0:0:0:
288,192,334756,1,0,0:0:0:0:
288,192,334850,1,0,0:0:0:0:
288,192,334944,1,8,0:0:0:0:
288,192,335037,1,0,0:0:0:0:
288,192,335131,1,0,0:0:0:0:
288,192,335319,1,12,0:0:0:0:
288,192,335506,1,0,0:0:0:0:
288,192,335600,1,0,0:0:0:0:
288,192,335694,1,8,0:0:0:0:
288,192,335881,1,0,0:0:0:0:
288,192,335975,1,0,0:0:0:0:
288,192,336069,1,0,0:0:0:0:
288,192,336256,1,0,0:0:0:0:
288,192,336444,1,12,0:0:0:0:
288,128,336631,1,0,0:0:0:0:
288,128,336725,1,8,0:0:0:0:
288,128,336819,1,0,0:0:0:0:
352,128,337006,1,0,0:0:0:0:
352,128,337194,1,12,0:0:0:0:
352,128,337381,1,0,0:0:0:0:
352,128,337569,1,0,0:0:0:0:
352,128,337756,1,0,0:0:0:0:
352,128,337944,1,12,0:0:0:0:
224,64,338131,1,0,0:0:0:0:
352,128,338319,1,8,0:0:0:0:
352,128,338506,1,0,0:0:0:0:
352,128,338694,1,12,0:0:0:0:
352,128,338881,1,0,0:0:0:0:
352,128,339069,1,0,0:0:0:0:
256,64,339256,1,0,0:0:0:0:
256,64,339444,1,12,0:0:0:0:
256,64,339631,1,0,0:0:0:0:
256,64,339819,1,8,0:0:0:0:
256,64,340006,1,0,0:0:0:0:
256,64,340100,1,0,0:0:0:0:
256,64,340194,1,0,0:0:0:0:
256,64,340381,1,0,0:0:0:0:
256,64,340475,1,0,0:0:0:0:
256,64,340569,1,8,0:0:0:0:
256,64,340756,1,0,0:0:0:0:
256,64,340850,1,0,0:0:0:0:
256,64,340944,1,0,0:0:0:0:
256,64,341131,1,0,0:0:0:0:
256,64,341225,1,0,0:0:0:0:
256,64,341319,1,8,0:0:0:0:
256,64,341506,1,0,0:0:0:0:
256,64,341600,1,0,0:0:0:0:
256,64,341694,1,0,0:0:0:0:
256,64,341881,1,0,0:0:0:0:
256,64,341975,1,0,0:0:0:0:
256,64,342069,1,8,0:0:0:0:
256,64,342256,1,0,0:0:0:0:
256,64,342444,1,8,0:0:0:0:
256,64,342631,1,0,0:0:0:0:
224,64,342725,1,0,0:0:0:0:
256,64,342819,1,8,0:0:0:0:
256,64,343006,1,0,0:0:0:0:
224,64,343100,1,0,0:0:0:0:
256,64,343194,1,8,0:0:0:0:
256,64,343381,1,0,0:0:0:0:
256,64,343569,1,8,0:0:0:0:
224,160,343662,1,8,0:0:0:0:
224,160,343756,1,0,0:0:0:0:
224,160,343850,1,0,0:0:0:0:
224,160,343944,1,8,0:0:0:0:
224,160,344037,1,8,0:0:0:0:
224,160,344131,1,8,0:0:0:0:
224,160,344225,1,8,0:0:0:0:
320,128,344319,1,0,0:0:0:0:
256,160,344412,1,0,0:0:0:0:
256,160,344506,1,8,0:0:0:0:
256,160,344600,1,0,0:0:0:0:
256,160,344694,1,8,0:0:0:0:
256,160,344787,1,0,0:0:0:0:
256,160,344881,1,8,0:0:0:0:
256,160,344975,1,8,0:0:0:0:
256,160,345069,1,0,0:0:0:0:
256,160,345162,1,0,0:0:0:0:
256,160,345256,1,8,0:0:0:0:
256,160,345350,1,0,0:0:0:0:
256,160,345444,1,0,0:0:0:0:
256,160,345537,1,0,0:0:0:0:
256,160,345631,1,8,0:0:0:0:
320,128,345725,1,0,0:0:0:0:
256,160,345819,1,0,0:0:0:0:
256,160,345912,1,0,0:0:0:0:
256,160,346006,1,8,0:0:0:0:
256,160,346100,1,8,0:0:0:0:
320,128,346194,1,0,0:0:0:0:
160,160,346287,1,0,0:0:0:0:
320,128,346381,1,8,0:0:0:0:
288,160,346569,1,12,0:0:0:0:
224,192,346756,1,0,0:0:0:0:
288,160,346944,1,12,0:0:0:0:
288,160,347319,1,0,0:0:0:0:
288,128,347412,1,0,0:0:0:0:
288,128,347506,1,8,0:0:0:0:
288,128,347600,1,0,0:0:0:0:
288,128,347694,1,8,0:0:0:0:
288,128,347787,1,0,0:0:0:0:
288,128,347881,1,8,0:0:0:0:
288,128,347975,1,8,0:0:0:0:
288,128,348069,1,0,0:0:0:0:
288,128,348162,1,0,0:0:0:0:
288,128,348256,1,8,0:0:0:0:
288,128,348350,1,0,0:0:0:0:
288,128,348444,1,0,0:0:0:0:
288,128,348537,1,0,0:0:0:0:
288,128,348631,1,8,0:0:0:0:
288,128,348725,1,0,0:0:0:0:
288,128,348819,1,0,0:0:0:0:
288,128,348912,1,0,0:0:0:0:
288,128,349006,1,8,0:0:0:0:
288,128,349100,1,8,0:0:0:0:
288,128,349194,1,0,0:0:0:0:
288,128,349287,1,0,0:0:0:0:
288,128,349381,1,8,0:0:0:0:
352,192,349475,1,0,0:0:0:0:
352,224,349569,1,8,0:0:0:0:
352,224,349662,1,0,0:0:0:0:
384,224,349756,1,0,0:0:0:0:
352,224,349850,1,8,0:0:0:0:
288,128,349944,1,0,0:0:0:0:
352,192,350037,1,0,0:0:0:0:
352,192,350131,1,8,0:0:0:0:
352,192,350225,1,0,0:0:0:0:
352,192,350319,1,8,0:0:0:0:
352,192,350412,1,0,0:0:0:0:
352,192,350506,1,0,0:0:0:0:
352,192,350600,1,8,0:0:0:0:
352,192,350694,1,8,0:0:0:0:
352,192,350787,1,0,0:0:0:0:
352,192,350881,1,8,0:0:0:0:
352,192,350975,1,0,0:0:0:0:
352,192,351069,1,8,0:0:0:0:
352,192,351162,1,8,0:0:0:0:
352,192,351256,1,0,0:0:0:0:
352,192,351350,1,8,0:0:0:0:
352,192,351444,1,0,0:0:0:0:
352,192,351537,1,0,0:0:0:0:
352,192,351631,1,8,0:0:0:0:
352,192,351725,1,0,0:0:0:0:
352,192,351819,1,0,0:0:0:0:
352,192,351912,1,0,0:0:0:0:
352,192,352006,1,8,0:0:0:0:
352,192,352100,1,8,0:0:0:0:
352,192,352194,1,0,0:0:0:0:
352,192,352287,1,8,0:0:0:0:
352,192,352381,1,8,0:0:0:0:
352,192,352475,1,8,0:0:0:0:
352,192,352569,1,0,0:0:0:0:
352,192,352662,1,0,0:0:0:0:
352,192,352756,1,8,0:0:0:0:
352,192,352850,1,8,0:0:0:0:
352,192,352944,1,0,0:0:0:0:
352,192,353037,1,0,0:0:0:0:
352,192,353131,1,8,0:0:0:0:
352,192,353225,1,8,0:0:0:0:
352,192,353319,1,0,0:0:0:0:
352,192,353412,1,0,0:0:0:0:
352,192,353506,1,8,0:0:0:0:
352,192,353600,1,0,0:0:0:0:
352,192,353694,1,0,0:0:0:0:
384,192,353787,1,0,0:0:0:0:
384,192,353881,1,8,0:0:0:0:
352,192,353975,1,8,0:0:0:0:
352,192,354069,1,0,0:0:0:0:
352,192,354162,1,0,0:0:0:0:
352,192,354256,1,8,0:0:0:0:
352,192,354350,1,0,0:0:0:0:
352,192,354444,1,0,0:0:0:0:
352,192,354537,1,0,0:0:0:0:
352,192,354631,1,8,0:0:0:0:
352,192,354725,1,0,0:0:0:0:
352,192,354819,1,8,0:0:0:0:
352,192,354912,1,8,0:0:0:0:
352,192,355006,1,8,0:0:0:0:
352,192,355100,1,8,0:0:0:0:
352,192,355194,1,0,0:0:0:0:
352,192,355287,1,0,0:0:0:0:
352,192,355381,1,8,0:0:0:0:
352,192,355475,1,8,0:0:0:0:
352,192,355569,1,0,0:0:0:0:
352,192,355662,1,0,0:0:0:0:
352,192,355756,1,0,0:0:0:0:
352,192,355850,1,0,0:0:0:0:
352,192,355944,1,8,0:0:0:0:
352,192,356037,1,0,0:0:0:0:
352,192,356131,1,8,0:0:0:0:
320,128,356319,1,0,0:0:0:0:
256,160,356412,1,0,0:0:0:0:
256,160,356506,1,8,0:0:0:0:
256,160,356600,1,0,0:0:0:0:
256,160,356694,1,8,0:0:0:0:
256,160,356787,1,0,0:0:0:0:
256,160,356881,1,8,0:0:0:0:
256,160,356975,1,8,0:0:0:0:
256,160,357069,1,0,0:0:0:0:
256,160,357162,1,0,0:0:0:0:
256,160,357256,1,8,0:0:0:0:
256,160,357350,1,0,0:0:0:0:
256,160,357444,1,0,0:0:0:0:
256,160,357537,1,0,0:0:0:0:
256,160,357631,1,8,0:0:0:0:
320,128,357725,1,0,0:0:0:0:
256,160,357819,1,0,0:0:0:0:
256,160,357912,1,0,0:0:0:0:
256,160,358006,1,8,0:0:0:0:
256,160,358100,1,8,0:0:0:0:
320,128,358194,1,0,0:0:0:0:
160,160,358287,1,0,0:0:0:0:
320,128,358381,1,8,0:0:0:0:
288,160,358569,1,12,0:0:0:0:
192,128,358756,1,0,0:0:0:0:
288,160,358944,1,12,0:0:0:0:
288,160,359319,1,0,0:0:0:0:
288,128,359412,1,0,0:0:0:0:
288,128,359506,1,8,0:0:0:0:
288,128,359600,1,0,0:0:0:0:
288,128,359694,1,8,0:0:0:0:
288,128,359787,1,0,0:0:0:0:
288,128,359881,1,8,0:0:0:0:
288,128,359975,1,8,0:0:0:0:
288,128,360069,1,0,0:0:0:0:
288,128,360162,1,0,0:0:0:0:
288,128,360256,1,8,0:0:0:0:
288,128,360350,1,0,0:0:0:0:
288,128,360444,1,0,0:0:0:0:
288,128,360537,1,0,0:0:0:0:
288,128,360631,1,8,0:0:0:0:
288,128,360725,1,0,0:0:0:0:
288,128,360819,1,0,0:0:0:0:
288,128,360912,1,0,0:0:0:0:
288,128,361006,1,8,0:0:0:0:
288,128,361100,1,8,0:0:0:0:
288,128,361194,1,0,0:0:0:0:
288,128,361287,1,0,0:0:0:0:
288,128,361381,1,8,0:0:0:0:
352,192,361475,1,0,0:0:0:0:
352,224,361569,1,8,0:0:0:0:
352,224,361662,1,0,0:0:0:0:
384,224,361756,1,0,0:0:0:0:
352,224,361850,1,8,0:0:0:0:
288,128,361944,1,0,0:0:0:0:
352,192,362037,1,0,0:0:0:0:
352,192,362131,1,8,0:0:0:0:
352,192,362225,1,0,0:0:0:0:
352,192,362319,1,8,0:0:0:0:
352,192,362412,1,0,0:0:0:0:
352,192,362506,1,0,0:0:0:0:
352,192,362600,1,8,0:0:0:0:
352,192,362694,1,8,0:0:0:0:
352,192,362787,1,0,0:0:0:0:
352,192,362881,1,8,0:0:0:0:
352,192,362975,1,0,0:0:0:0:
352,192,363069,1,8,0:0:0:0:
352,192,363162,1,8,0:0:0:0:
352,192,363256,1,0,0:0:0:0:
352,192,363350,1,8,0:0:0:0:
352,192,363444,1,0,0:0:0:0:
352,192,363537,1,0,0:0:0:0:
352,192,363631,1,8,0:0:0:0:
352,192,363725,1,0,0:0:0:0:
352,192,363819,1,8,0:0:0:0:
352,192,363912,1,0,0:0:0:0:
352,192,364006,1,8,0:0:0:0:
352,192,364100,1,8,0:0:0:0:
352,192,364194,1,0,0:0:0:0:
352,192,364287,1,0,0:0:0:0:
352,192,364381,1,8,0:0:0:0:
352,192,364475,1,0,0:0:0:0:
352,192,364569,1,8,0:0:0:0:
352,192,364662,1,0,0:0:0:0:
352,192,364756,1,8,0:0:0:0:
352,192,364850,1,8,0:0:0:0:
352,192,364944,1,0,0:0:0:0:
352,192,365037,1,8,0:0:0:0:
352,192,365131,1,8,0:0:0:0:
352,192,365225,1,8,0:0:0:0:
352,192,365319,1,0,0:0:0:0:
352,192,365412,1,0,0:0:0:0:
352,192,365506,1,8,0:0:0:0:
352,192,365600,1,0,0:0:0:0:
352,192,365694,1,8,0:0:0:0:
384,192,365787,1,8,0:0:0:0:
384,192,365881,1,0,0:0:0:0:
352,192,365975,1,0,0:0:0:0:
352,192,366069,1,8,0:0:0:0:
352,192,366162,1,0,0:0:0:0:
352,192,366256,1,8,0:0:0:0:
352,192,366350,1,8,0:0:0:0:
352,192,366444,1,0,0:0:0:0:
352,192,366537,1,0,0:0:0:0:
352,192,366631,1,8,0:0:0:0:
352,192,366725,1,0,0:0:0:0:
352,192,366819,1,8,0:0:0:0:
352,192,366912,1,8,0:0:0:0:
352,192,367006,1,0,0:0:0:0:
352,192,367100,1,8,0:0:0:0:
352,192,367194,1,0,0:0:0:0:
352,192,367287,1,0,0:0:0:0:
352,192,367381,1,8,0:0:0:0:
352,192,367475,1,8,0:0:0:0:
352,192,367569,1,8,0:0:0:0:
352,192,367662,1,8,0:0:0:0:
352,192,367756,1,0,0:0:0:0:
352,192,367850,1,0,0:0:0:0:
352,192,367944,1,8,0:0:0:0:
352,192,368037,1,0,0:0:0:0:
352,192,368131,1,8,0:0:0:0:
192,192,368319,1,4,0:0:0:0:
288,192,368600,1,12,0:0:0:0:
320,224,368881,1,0,0:0:0:0:
320,224,369069,1,8,0:0:0:0:
320,224,369256,1,8,0:0:0:0:
320,224,369444,1,0,0:0:0:0:
320,224,369631,1,0,0:0:0:0:
320,224,369819,1,8,0:0:0:0:
320,224,370006,1,0,0:0:0:0:
320,224,370194,1,8,0:0:0:0:
320,224,370381,1,0,0:0:0:0:
320,224,370569,1,8,0:0:0:0:
320,224,370756,1,8,0:0:0:0:
288,224,370850,1,8,0:0:0:0:
320,224,370944,1,8,0:0:0:0:
288,224,371037,1,8,0:0:0:0:
288,224,371131,1,8,0:0:0:0:
288,224,371319,1,4,0:0:0:0:
192,96,371600,1,4,0:0:0:0:
256,128,371881,1,0,0:0:0:0:
256,128,372069,1,8,0:0:0:0:
288,128,372256,1,8,0:0:0:0:
288,128,372444,1,0,0:0:0:0:
288,128,372631,1,0,0:0:0:0:
288,128,372819,1,8,0:0:0:0:
288,128,373006,1,0,0:0:0:0:
288,128,373194,1,8,0:0:0:0:
288,128,373381,1,0,0:0:0:0:
288,128,373569,1,8,0:0:0:0:
288,128,373756,1,8,0:0:0:0:
288,128,373944,1,0,0:0:0:0:
224,128,374319,1,4,0:0:0:0:
224,128,374600,1,0,0:0:0:0:
224,128,374881,1,8,0:0:0:0:
224,128,375069,1,8,0:0:0:0:
224,128,375162,1,8,0:0:0:0:
224,128,375256,1,0,0:0:0:0:
224,128,375350,1,0,0:0:0:0:
224,128,375444,1,8,0:0:0:0:
224,128,375537,1,8,0:0:0:0:
224,128,375631,1,0,0:0:0:0:
224,128,375819,1,12,0:0:0:0:
288,96,376100,1,0,0:0:0:0:
288,96,376381,1,8,0:0:0:0:
288,96,376569,1,8,0:0:0:0:
288,96,376662,1,8,0:0:0:0:
288,96,376756,1,0,0:0:0:0:
288,96,376850,1,0,0:0:0:0:
288,96,376944,1,8,0:0:0:0:
288,96,377037,1,8,0:0:0:0:
288,96,377131,1,0,0:0:0:0:
288,96,377319,1,4,0:0:0:0:
288,96,377600,1,0,0:0:0:0:
288,96,377881,1,8,0:0:0:0:
288,96,378069,1,8,0:0:0:0:
288,96,378162,1,8,0:0:0:0:
288,96,378256,1,0,0:0:0:0:
288,96,378350,1,0,0:0:0:0:
288,96,378444,1,8,0:0:0:0:
288,96,378537,1,8,0:0:0:0:
288,96,378631,1,0,0:0:0:0:
288,96,378819,1,12,0:0:0:0:
288,96,379100,1,0,0:0:0:0:
288,160,379381,1,8,0:0:0:0:
320,160,379569,1,8,0:0:0:0:
320,160,379662,1,8,0:0:0:0:
320,160,379756,1,0,0:0:0:0:
320,160,379850,1,8,0:0:0:0:
320,160,379944,1,8,0:0:0:0:
320,160,380037,1,0,0:0:0:0:
320,160,380131,1,0,0:0:0:0:
320,160,380319,1,4,0:0:0:0:
320,160,380600,1,4,0:0:0:0:
384,256,380881,1,0,0:0:0:0:
160,128,380975,1,0,0:0:0:0:
384,256,381069,1,8,0:0:0:0:
384,256,381162,1,8,0:0:0:0:
384,256,381256,1,0,0:0:0:0:
384,256,381444,1,8,0:0:0:0:
384,256,381537,1,8,0:0:0:0:
