osu file format v14

[General]
AudioFilename: audio.mp3
AudioLeadIn: 0
PreviewTime: 30161
Countdown: 0
SampleSet: Soft
StackLeniency: 0
Mode: 0
LetterboxInBreaks: 0
WidescreenStoryboard: 1
SamplesMatchPlaybackRate: 1

[Editor]
DistanceSpacing: 4.6
BeatDivisor: 8
GridSize: 4
TimelineZoom: 1

[Metadata]
Title:So Am I (Cut Ver.)
TitleUnicode:So Am I (Cut Ver.)
Artist:Ava Max
ArtistUnicode:Ava Max
Creator:Sani_
Version:END
Source:
Tags:Heaven & Hell Electropop English tech electronic hannody billboard cut short ver version arronchu1207 chu
BeatmapID:3119078
BeatmapSetID:1522679

[Difficulty]
HPDrainRate:6
CircleSize:4
OverallDifficulty:7.5
ApproachRate:9
SliderMultiplier:2.8
SliderTickRate:1

[Events]
//Background and Video events
0,0,"bg.jpg",0,0
//Break Periods
//Storyboard Layer 0 (Background)
//Storyboard Layer 1 (Fail)
//Storyboard Layer 2 (Pass)
//Storyboard Layer 3 (Foreground)
//Storyboard Layer 4 (Overlay)
//Storyboard Sound Samples

[TimingPoints]
15508,461.538461538462,4,2,1,80,1,0
15508,-66.6666666666667,4,2,1,80,0,0
15969,-100,4,2,1,80,0,0
16200,-500,4,2,1,80,0,0
16661,-66.6666666666667,4,2,1,80,0,0
16892,-200,4,2,1,80,0,0
17354,-66.6666666666667,4,2,1,80,0,0
17815,-100,4,2,1,80,0,0
18277,-66.6666666666667,4,2,1,80,0,0
18738,-40,4,2,1,80,0,0
19200,-66.6666666666667,4,2,1,80,0,0
19661,-100,4,2,1,80,0,0
19892,-500,4,2,1,80,0,0
20584,-66.6666666666667,4,2,1,80,0,0
21508,-100,4,2,1,80,0,0
21738,-125,4,2,1,80,0,0
22200,-66.6666666666667,4,2,1,80,0,0
22431,-1000,4,2,1,80,0,0
22892,-71.4285714285714,4,2,1,80,0,0
23354,-100,4,2,1,80,0,0
23584,-100,4,2,1,80,0,0
24277,-200,4,2,1,80,0,0
24508,-76.9230769230769,4,2,1,80,0,0
24738,-100,4,2,1,80,0,0
25200,-333.333333333333,4,2,1,80,0,0
25431,-66.6666666666667,4,2,1,80,0,0
26123,-1000,4,2,1,80,0,0
26584,-52.6315789473684,4,2,1,80,0,0
27046,-100,4,2,1,80,0,0
27508,-100,4,2,1,80,0,0
28431,-200,4,2,1,80,0,0
29815,-66.6666666666667,4,2,1,80,0,0
30277,-125,4,2,1,80,0,0
32123,-200,4,2,1,80,0,0
32584,-125,4,2,1,80,0,0
33046,-200,4,2,1,80,0,0
33508,-125,4,2,1,80,0,0
33969,-125,4,2,1,80,0,0
34200,-200,4,2,1,80,0,0
34431,-125,4,2,1,80,0,0
35815,-200,4,2,1,80,0,0
37661,-125,4,2,1,80,0,0
40892,-66.6666666666667,4,2,1,80,0,0
41354,-142.857142857143,4,2,1,80,0,0
42046,-333.333333333333,4,2,1,80,0,0
43200,-500,4,2,1,80,0,0
44123,-500,4,2,1,80,0,0
45046,-66.6666666666667,4,2,1,80,0,1
45508,-83.3333333333333,4,2,2,80,0,1
48738,-83.3333333333333,4,2,2,80,0,1
51046,-55.5555555555556,4,2,2,80,0,1
51277,-83.3333333333333,4,2,2,80,0,1
51969,-100,4,2,2,80,0,1
52431,-83.3333333333333,4,2,2,80,0,1
58892,-66.6666666666667,4,2,2,80,0,1
59354,-55.5555555555556,4,2,2,80,0,0
59815,-66.6666666666667,4,2,2,80,0,1
60738,-83.3333333333333,4,2,2,80,0,1
66738,-66.6666666666667,4,2,2,80,0,1
67200,-83.3333333333333,4,2,2,80,0,1
70892,-66.6666666666667,4,2,2,80,0,1
71354,-83.3333333333333,4,2,2,80,0,1
71815,-66.6666666666667,4,2,2,80,0,1
72277,-83.3333333333333,4,2,2,80,0,1
72738,-66.6666666666667,4,2,2,80,0,1
73200,-83.3333333333333,4,2,2,80,0,1
73661,-83.3333333333333,4,2,2,80,0,1
74584,-83.3333333333333,4,2,3,80,0,0

[Colours]
Combo1 : 240,166,230
Combo2 : 154,211,233

[HitObjects]
424,236,15508,6,0,B|440:200|488:192|488:192|412:152|348:196|392:216|332:252|276:232,1,315.000012016297,4|0,0:0|0:0,0:0:0:0:
288,100,15969,2,0,P|308:124|304:164,1,70,8|0,0:0|0:0,0:0:0:0:
184,336,16200,2,0,L|132:328,1,42,0|0,3:0|0:0,0:0:0:0:
136,344,16661,1,0,0:0:0:0:
288,100,16892,2,0,P|308:124|304:164,1,70,8|0,0:0|0:0,0:0:0:0:
56,364,17354,6,0,B|44:248|44:248|44:244|44:244|48:248|48:248|40:152|40:152|36:152|36:152|36:148|36:148|24:56,1,315.000012016297,0|0,3:0|0:0,0:0:0:0:
25,64,17815,2,0,L|92:96,1,70,8|0,0:0|0:0,0:0:0:0:
50,129,18046,2,0,L|18:45,1,70,0|0,3:0|0:0,0:0:0:0:
232,0,18277,2,0,L|204:112,1,105.000004005432,0|0,0:0|0:0,0:0:0:0:
111,196,18508,2,0,L|71:24,1,105.000004005432,0|0,3:0|0:0,0:0:0:0:
292,100,18738,6,0,L|384:116,1,87.5,8|0,0:0|0:0,0:0:0:0:
378,114,19200,6,0,B|406:78|366:46|366:46|302:134|350:206|382:214|382:214|358:226|342:278,1,315.000012016297,0|0,3:0|0:0,0:0:0:0:
464,328,19661,2,0,P|452:296|396:284,1,70,8|0,0:0|0:0,0:0:0:0:
448,160,19892,1,0,3:0:0:0:
284,368,20123,2,0,L|288:352,1,14,0|0,0:0|0:0,0:0:0:0:
204,364,20354,2,0,L|208:348,1,14,0|0,0:0|0:0,0:0:0:0:
136,104,20584,6,0,B|87:137|87:137|136:288,1,210.000008010865,8|0,0:0|0:0,0:0:0:0:
354,245,21046,2,0,B|278:233|278:233|250:181|250:181|158:169,1,210.000008010865,0|0,3:0|0:0,0:0:0:0:
0,336,21508,2,0,L|80:308,1,70,8|0,0:0|0:0,0:0:0:0:
66,312,21738,2,0,L|38:388,1,56,0|0,3:0|0:0,0:0:0:0:
116,244,21969,2,0,L|96:172,1,56,0|0,0:0|0:0,0:0:0:0:
354,245,22200,2,0,L|236:220,1,105.000004005432,0|0,3:0|0:0,0:0:0:0:
48,320,22431,6,0,L|69:311,1,21,8|0,0:0|0:0,0:0:0:0:
251,223,22892,6,0,L|239:163,6,48.9999985046387,0|0|0|0|0|0|0,3:0|0:0|0:0|0:0|0:0|0:0|0:0,0:0:0:0:
264,144,23354,2,0,L|360:128,1,70,8|0,0:0|0:0,0:0:0:0:
80,8,23584,1,0,3:0:0:0:
65,97,23815,1,0,0:0:0:0:
65,97,24277,5,8,0:0:0:0:
80,8,24508,2,0,L|64:104,1,90.9999958343508,0|0,0:0|0:0,0:0:0:0:
241,174,24738,6,0,B|185:138|121:190|153:186|121:246|53:234,1,210,0|0,3:0|0:0,0:0:0:0:
40,248,25200,2,0,L|36:220,1,20.9999993591309,8|0,0:0|0:0,0:0:0:0:
296,100,25431,2,0,B|344:140|344:140|300:280,2,210.000008010865,0|0|0,3:0|0:0|3:0,0:0:0:0:
200,240,26123,6,0,L|204:244,6,3.5,8|0|0|0|0|0|0,0:0|0:0|0:0|0:0|0:0|0:0|0:0,0:0:0:0:
299,280,26584,6,0,L|340:160,1,66.4999982242585,0|0,3:0|0:0,0:0:0:0:
299,280,27046,6,0,L|332:188,1,70,8|0,0:0|0:0,0:0:0:0:
241,174,27277,1,0,3:0:0:0:
420,236,27508,6,0,L|453:328,1,70,0|0,0:0|0:0,0:0:0:0:
362,342,27739,1,0,0:0:0:0:
322,214,27969,1,8,0:0:0:0:
443,301,28200,1,0,0:0:0:0:
272,368,28431,5,0,3:0:0:0:
392,136,28661,1,0,0:0:0:0:
196,328,28892,1,8,0:0:0:0:
504,236,29123,1,0,3:0:0:0:
112,72,29354,6,0,L|120:48,2,17.5,0|0|0,0:0|0:0|0:0,0:0:0:0:
36,248,29584,2,0,L|44:272,2,17.5,0|0|0,3:0|0:0|0:0,0:0:0:0:
128,160,29815,6,0,L|68:172,6,52.5000020027161,8|0|0|0|0|0|0,0:0|0:0|0:0|0:0|0:0|0:0|0:0,0:0:0:0:
24,92,30277,5,0,3:0:0:0:
196,228,30508,5,0,0:0:0:0:
208,220,30623,1,0,0:0:0:0:
220,212,30738,2,0,L|232:144,1,56,8|0,0:0|0:0,0:0:0:0:
162,299,30969,5,0,3:0:0:0:
174,291,31084,1,0,0:0:0:0:
186,283,31199,2,0,L|198:215,1,56,0|0,0:0|0:0,0:0:0:0:
128,370,31431,5,0,0:0:0:0:
140,362,31546,1,0,0:0:0:0:
152,354,31661,2,0,L|164:286,1,56,8|0,0:0|0:0,0:0:0:0:
220,212,31892,2,0,L|232:144,1,56,0|0,0:0|0:0,0:0:0:0:
120,32,32123,6,0,L|132:80,1,35,0|0,3:0|0:0,0:0:0:0:
221,122,32354,2,0,L|233:170,1,35,0|0,0:0|0:0,0:0:0:0:
186,283,32584,6,0,L|198:215,1,56,8|0,0:0|0:0,0:0:0:0:
268,12,32815,2,0,L|288:84,1,56,8|0,3:0|0:0,0:0:0:0:
56,144,33046,6,0,L|104:156,1,35,0|0,0:0|0:0,0:0:0:0:
161,219,33277,2,0,L|209:231,1,35,8|0,3:0|0:0,0:0:0:0:
428,72,33508,6,0,L|364:84,1,56,8|0,0:0|0:0,0:0:0:0:
284,146,33738,2,0,L|220:158,1,56,0|0,0:0|0:0,0:0:0:0:
428,72,33969,6,0,L|364:84,1,56,0|0,3:0|0:0,0:0:0:0:
56,144,34200,6,0,L|104:156,1,35,0|0,0:0|0:0,0:0:0:0:
276,296,34431,5,8,0:0:0:0:
280,292,34546,1,0,0:0:0:0:
284,288,34661,1,0,3:0:0:0:
89,152,34892,5,0,0:0:0:0:
93,156,35007,1,0,0:0:0:0:
97,160,35122,1,0,0:0:0:0:
24,360,35354,5,8,0:0:0:0:
28,356,35469,1,0,0:0:0:0:
32,352,35584,1,0,0:0:0:0:
276,296,35815,5,0,3:0:0:0:
89,152,36046,1,0,0:0:0:0:
24,360,36277,1,8,0:0:0:0:
228,156,36508,5,8,3:0:0:0:
152,354,36738,1,0,0:0:0:0:
8,240,36969,1,8,3:0:0:0:
132,252,37200,5,8,0:0:0:0:
120,256,37431,1,8,3:0:0:0:
192,72,37661,6,0,L|180:12,1,56,8|0,3:0|0:0,0:0:0:0:
188,80,37892,1,0,0:0:0:0:
376,164,38123,2,0,L|388:100,1,56,8|0,0:0|0:0,0:0:0:0:
380,172,38354,1,0,3:0:0:0:
237,211,38584,2,0,L|225:139,1,56,0|0,0:0|0:0,0:0:0:0:
233,219,38815,1,0,0:0:0:0:
416,344,39046,2,0,L|428:280,1,56,8|0,0:0|0:0,0:0:0:0:
420,352,39277,1,0,0:0:0:0:
192,72,39508,6,0,L|180:12,1,56,0|0,3:0|0:0,0:0:0:0:
376,164,39738,2,0,L|388:100,1,56,0|0,0:0|0:0,0:0:0:0:
237,211,39969,2,0,L|225:139,1,56,8|0,0:0|0:0,0:0:0:0:
416,344,40200,2,0,L|428:280,1,56,8|0,3:0|0:0,0:0:0:0:
384,168,40431,2,0,L|396:104,1,56,0|0,0:0|0:0,0:0:0:0:
245,215,40662,2,0,L|233:143,1,56,8|0,3:0|0:0,0:0:0:0:
471,136,40892,6,0,B|508:65|508:65|353:2|353:2|321:95,1,315.000012016297,8|0,0:0|0:0,0:0:0:0:
337,154,41354,2,0,L|391:170,1,48.9999985046387,0|0,3:0|0:0,0:0:0:0:
116,328,41815,1,8,0:0:0:0:
116,328,42046,2,0,L|60:336,3,41.9999987182618,8|0|8|8,3:0|0:0|0:0|0:0,0:0:0:0:
67,343,43200,6,0,L|123:336,1,56,12|0,3:0|0:0,0:0:0:0:
394,112,44123,5,0,0:0:0:0:
318,87,44584,1,0,0:0:0:0:
318,87,45046,6,0,L|351:297,1,210.000008010865,4|0,0:0|0:0,0:0:0:0:
236,47,45392,1,0,0:0:0:0:
229,52,45508,2,0,L|140:42,1,83.9999974365235,8|0,0:0|0:0,0:0:0:0:
241,219,45738,2,0,P|259:183|248:133,1,83.9999974365235,0|0,0:0|0:0,0:0:0:0:
40,244,45969,6,0,B|88:252|116:208|100:208|120:164|180:168,1,167.999994873047,0|0,0:0|3:0,0:0:0:0:
288,328,46315,1,0,0:0:0:0:
266,364,46431,1,8,0:0:0:0:
224,364,46546,1,0,0:0:0:0:
203,328,46661,1,0,0:0:0:0:
224,292,46777,1,0,0:0:0:0:
266,292,46892,6,0,P|168:312|12:344,1,251.999992309571,0|0,3:0|0:0,0:0:0:0:
24,344,47354,2,0,L|124:368,1,83.9999974365235,8|0,0:0|0:0,0:0:0:0:
332,208,47584,1,8,0:0:0:0:
340,196,47700,1,0,0:0:0:0:
348,184,47815,2,0,P|376:256|368:280,1,83.9999974365235,0|0,0:0|0:0,0:0:0:0:
266,292,48046,2,0,P|242:256|242:212,1,83.9999974365235,0|0,3:0|0:0,0:0:0:0:
436,336,48277,1,8,0:0:0:0:
425,343,48392,6,0,P|341:315|193:271,1,167.999994873047,0|0,0:0|0:0,0:0:0:0:
144,204,48738,6,0,B|232:216|264:140|216:132|276:60|340:76,1,251.999992309571,0|0,3:0|0:0,0:0:0:0:
425,216,49200,2,0,P|389:200|337:180,1,83.9999974365235,8|0,0:0|0:0,0:0:0:0:
440,40,49431,2,0,P|420:100|408:148,1,83.9999974365235,0|0,0:0|0:0,0:0:0:0:
191,364,49661,6,0,P|167:260|115:152,2,167.999994873047,0|0|8,0:0|3:0|0:0,0:0:0:0:
368,0,50354,2,0,P|344:36|332:112,1,83.9999974365235,0|0,0:0|0:0,0:0:0:0:
347,183,50584,2,0,P|275:103|144:32,1,251.999992309571,0|0,3:0|0:0,0:0:0:0:
220,156,51046,6,0,P|244:140|204:148,1,125.999996154785,8|0,3:0|0:0,0:0:0:0:
84,0,51277,2,0,B|68:92|68:92|84:120|84:120|64:244,1,251.999992309571,8|0,3:0|0:0,0:0:0:0:
64,240,51738,2,0,L|24:160,1,83.9999974365235,0|0,3:0|0:0,0:0:0:0:
176,340,51969,6,0,P|172:324|160:296,1,35,8|0,0:0|0:0,0:0:0:0:
184,332,52084,2,0,P|176:304|168:288,1,35,0|0,0:0|0:0,0:0:0:0:
264,244,52200,6,0,P|260:260|248:288,1,35,0|0,0:0|0:0,0:0:0:0:
272,252,52315,2,0,P|264:280|256:296,1,35,0|0,0:0|0:0,0:0:0:0:
324,340,52431,6,0,P|272:312|376:292,1,251.999992309571,0|0,3:0|0:0,0:0:0:0:
324,340,52892,2,0,P|376:268|500:152,1,251.999992309571,8|0,0:0|0:0,0:0:0:0:
296,1,53354,2,0,P|324:37|332:81,1,83.9999974365235,0|0,0:0|0:0,0:0:0:0:
400,33,53584,2,0,P|364:41|332:73,1,83.9999974365235,0|0,3:0|0:0,0:0:0:0:
352,8,53815,1,8,0:0:0:0:
204,164,54046,5,0,0:0:0:0:
212,160,54161,1,0,0:0:0:0:
220,156,54277,1,0,3:0:0:0:
72,56,54508,1,0,0:0:0:0:
64,52,54623,1,0,0:0:0:0:
56,48,54738,1,8,0:0:0:0:
60,311,54969,6,0,P|48:263|20:239,1,83.9999974365235,0|0,0:0|0:0,0:0:0:0:
23,240,55200,2,0,P|32:283|64:311,1,83.9999974365235,0|0,0:0|0:0,0:0:0:0:
204,164,55431,6,0,P|192:212|164:236,1,83.9999974365235,0|0,3:0|0:0,0:0:0:0:
167,235,55662,2,0,P|176:192|208:164,1,83.9999974365235,8|0,0:0|0:0,0:0:0:0:
76,148,55892,1,0,0:0:0:0:
368,245,56123,5,2,3:0:0:0:
388,230,56238,1,0,0:0:0:0:
408,246,56354,1,0,0:0:0:0:
400,270,56469,1,0,0:0:0:0:
344,236,56584,1,8,0:0:0:0:
393,203,56700,1,0,0:0:0:0:
439,240,56815,1,0,0:0:0:0:
417,295,56931,1,0,0:0:0:0:
216,328,57046,5,0,0:0:0:0:
236,343,57161,1,0,0:0:0:0:
256,327,57277,1,2,3:0:0:0:
248,303,57392,1,0,0:0:0:0:
192,337,57507,1,8,0:0:0:0:
241,370,57623,1,0,0:0:0:0:
287,333,57738,1,0,0:0:0:0:
265,278,57854,1,0,0:0:0:0:
76,203,57969,5,2,3:0:0:0:
44,192,58084,1,0,0:0:0:0:
44,159,58200,1,0,0:0:0:0:
76,148,58315,1,0,0:0:0:0:
204,165,58431,5,8,0:0:0:0:
236,154,58546,1,0,0:0:0:0:
236,121,58662,1,2,3:0:0:0:
204,110,58777,1,0,0:0:0:0:
92,12,58892,6,0,P|96:40|92:72,1,52.5000020027161,0|0,0:0|0:0,0:0:0:0:
110,15,59008,2,0,P|102:51|90:67,1,52.5000020027161,0|0,0:0|0:0,0:0:0:0:
127,28,59123,2,0,P|115:52|91:64,1,52.5000020027161,2|0,3:0|0:0,0:0:0:0:
141,50,59238,2,0,P|121:62|89:62,1,52.5000020027161,0|0,0:0|0:0,0:0:0:0:
149,86,59354,6,0,P|117:82|93:62,1,62.9999980773926,8|0,0:0|0:0,0:0:0:0:
111,120,59469,2,0,P|93:89|93:57,1,62.9999980773926,0|0,0:0|0:0,0:0:0:0:
62,116,59584,2,0,P|78:76|103:55,1,62.9999980773926,0|0,0:0|0:0,0:0:0:0:
32,72,59700,2,0,P|56:60|104:68,1,62.9999980773926,0|0,0:0|0:0,0:0:0:0:
204,165,59815,6,0,B|292:189|352:97|308:93|364:9|460:25,1,315.000012016297,4|0,0:0|0:0,0:0:0:0:
392,224,60277,2,0,B|304:248|244:156|288:152|232:68|136:84,1,315.000012016297,8|0,0:0|0:0,0:0:0:0:
28,296,60738,2,0,P|56:244|92:212,1,83.9999974365235,0|0,0:0|0:0,0:0:0:0:
164,368,60969,2,0,P|144:328|112:300,1,83.9999974365235,0|0,3:0|0:0,0:0:0:0:
0,192,61200,1,8,0:0:0:0:
328,100,61431,6,0,P|300:188|260:352,1,251.999992309571,0|0,0:0|0:0,0:0:0:0:
261,342,61892,2,0,P|244:292|224:264,1,83.9999974365235,0|0,0:0|0:0,0:0:0:0:
392,224,62123,2,0,B|472:208|420:136|512:116,1,167.999994873047,8|0,0:0|0:0,0:0:0:0:
471,259,62469,1,0,0:0:0:0:
463,267,62584,6,0,P|415:239|379:215,1,83.9999974365235,0|0,0:0|0:0,0:0:0:0:
328,100,62815,2,0,P|364:112|372:160,1,83.9999974365235,0|0,3:0|0:0,0:0:0:0:
227,267,63046,2,0,P|304:248|396:224,1,167.999994873047,8|0,0:0|0:0,0:0:0:0:
176,360,63392,1,0,0:0:0:0:
164,368,63508,6,0,B|92:352|68:276|96:260|64:200|-20:176,1,251.999992309571,0|0,3:0|0:0,0:0:0:0:
72,328,63969,1,8,0:0:0:0:
76,316,64084,1,0,0:0:0:0:
80,304,64200,1,0,0:0:0:0:
112,96,64431,6,0,B|96:48|124:8|172:8|172:8|192:52|168:92|112:96,1,251.999992309571,0|0,0:0|0:0,0:0:0:0:
36,128,64892,2,0,P|24:72|36:20,1,83.9999974365235,8|0,0:0|0:0,0:0:0:0:
160,184,65123,2,0,B|212:184|240:220|228:268|228:268|176:272|148:236|156:184,1,251.999992309571,0|0,0:0|0:0,0:0:0:0:
256,40,65584,2,0,P|240:100|216:128,1,83.9999974365235,0|0,0:0|0:0,0:0:0:0:
128,312,65815,6,0,P|100:280|84:232,1,83.9999974365235,8|0,0:0|0:0,0:0:0:0:
227,116,66046,2,0,B|299:124|343:60|303:48|359:-12|431:4,1,251.999992309571,8|0,3:0|0:0,0:0:0:0:
432,152,66508,1,0,3:0:0:0:
424,144,66623,1,0,0:0:0:0:
416,136,66738,6,0,P|404:100|408:68,2,52.5000020027161,8|0|0,0:0|0:0|0:0,0:0:0:0:
308,240,66969,6,0,P|312:272|304:300,2,52.5000020027161,0|0|0,0:0|0:0|0:0,0:0:0:0:
368,340,67200,6,0,P|276:320|116:288,1,251.999992309571,0|0,3:0|0:0,0:0:0:0:
116,292,67661,2,0,P|167:278|108:213,1,167.999994873047,8|0,0:0|0:0,0:0:0:0:
8,352,68008,1,0,0:0:0:0:
16,344,68123,2,0,P|8:292|-8:252,1,83.9999974365235,0|0,0:0|0:0,0:0:0:0:
120,207,68354,2,0,P|132:163|152:127,1,83.9999974365235,0|0,3:0|0:0,0:0:0:0:
52,68,68584,1,8,0:0:0:0:
300,24,68815,6,0,P|352:60|280:32,1,251.999992309571,0|0,0:0|0:0,0:0:0:0:
412,0,69277,2,0,B|440:76|440:76|408:152|408:152|436:240,1,251.999992309571,0|0,0:0|0:0,0:0:0:0:
434,236,69738,2,0,L|504:168,1,83.9999974365235,8|0,0:0|0:0,0:0:0:0:
408,152,69969,1,0,0:0:0:0:
252,304,70200,2,0,L|340:324,1,83.9999974365235,0|0,3:0|0:0,0:0:0:0:
308,240,70431,1,8,0:0:0:0:
440,344,70661,1,0,0:0:0:0:
152,8,70892,5,2,3:0:0:0:
144,16,71008,1,0,0:0:0:0:
136,24,71123,1,0,0:0:0:0:
128,32,71238,1,0,0:0:0:0:
28,120,71354,5,8,0:0:0:0:
52,104,71469,1,0,0:0:0:0:
84,104,71585,1,0,0:0:0:0:
112,120,71700,1,0,0:0:0:0:
168,188,71816,5,0,0:0:0:0:
192,204,71931,1,0,0:0:0:0:
224,204,72046,1,2,3:0:0:0:
252,188,72162,1,0,0:0:0:0:
276,76,72277,5,8,0:0:0:0:
268,68,72393,1,0,0:0:0:0:
260,60,72508,1,0,0:0:0:0:
152,368,72738,5,2,3:0:0:0:
144,360,72854,1,0,0:0:0:0:
136,352,72969,1,0,0:0:0:0:
128,344,73084,1,0,0:0:0:0:
28,256,73200,5,8,0:0:0:0:
52,272,73315,1,0,0:0:0:0:
84,272,73431,1,2,3:0:0:0:
112,256,73546,1,0,0:0:0:0:
168,188,73662,5,0,0:0:0:0:
192,172,73777,1,0,0:0:0:0:
224,172,73892,1,2,3:0:0:0:
252,188,74008,1,0,0:0:0:0:
276,300,74123,5,8,0:0:0:0:
268,308,74239,1,0,0:0:0:0:
260,316,74354,1,0,0:0:0:0:
64,176,74584,5,4,0:0:0:0:
