osu file format v14

[General]
AudioFilename: audio.mp3
AudioLeadIn: 0
PreviewTime: 165501
Countdown: 0
SampleSet: Soft
StackLeniency: 0.3
Mode: 0
LetterboxInBreaks: 0
WidescreenStoryboard: 0

[Editor]
Bookmarks: 930,14644,28358,55787,83230,96929,124358,138072,165501,192944,206658,234087,261515,273515
DistanceSpacing: 2
BeatDivisor: 16
GridSize: 8
TimelineZoom: 1.299999

[Metadata]
Title:Zenmaijikake no Kami wa Kaku Katariki.
TitleUnicode:ゼンマヰ仕掛けの神は斯く語りき。
Artist:Automata Girl
ArtistUnicode:全自動少女
Creator:Qnio
Version:Thus Spoke the Clockwork God.
Source:東方神霊廟 ~ Ten Desires.
Tags:東方Project touhou shinreibyou 霍 青娥 Kaku Seiga 古きユアンシェン furuki yuanxian the old 櫻雨キネマトグラフ Sakuraame Cinématographe 飴野ヲルカ ameno orca 遊女 YuNa zenjidoushoujo zenjidou shoujo C83 Comicket 83 video game japanese electronic wub オートマタ・ガール FataMorgana
BeatmapID:2235500
BeatmapSetID:1067768

[Difficulty]
HPDrainRate:6
CircleSize:3.7
OverallDifficulty:8
ApproachRate:9.2
SliderMultiplier:2.2
SliderTickRate:1

[Events]
//Background and Video events
0,0,"kakuseiga.jpg",0,0
//Break Periods
2,1130,14074
//Storyboard Layer 0 (Background)
//Storyboard Layer 1 (Fail)
//Storyboard Layer 2 (Pass)
//Storyboard Layer 3 (Foreground)
//Storyboard Layer 4 (Overlay)
//Storyboard Sound Samples

[TimingPoints]
-2498,857.142857142857,4,2,2,35,1,0
14644,-100,4,3,2,45,0,0
25144,-100,4,3,2,30,0,0
26214,-100,4,3,2,5,0,0
26358,-100,4,3,2,45,0,0
26500,-100,4,3,2,5,0,0
26644,-100,4,3,2,45,0,0
26786,-100,4,3,2,5,0,0
26929,-100,4,3,2,45,0,0
27071,-100,4,3,2,5,0,0
27215,-100,4,3,2,45,0,0
28144,-54.054054054054,4,2,2,70,0,0
28894,-66.6666666666667,4,2,2,5,0,0
29001,-66.6666666666667,4,2,2,70,0,0
30179,-66.6666666666667,4,2,2,5,0,0
30394,-66.6666666666667,4,2,2,70,0,0
30501,-66.6666666666667,4,2,2,5,0,0
30716,-66.6666666666667,4,2,2,70,0,0
30929,-60.2409638554217,4,2,2,70,0,0
31251,-60.2409638554217,4,2,2,5,0,0
31358,-60.2409638554217,4,2,2,70,0,0
33822,-60.2409638554217,4,2,2,5,0,0
33929,-60.2409638554217,4,2,2,70,0,0
34037,-60.2409638554217,4,2,2,5,0,0
34144,-60.2409638554217,4,2,2,70,0,0
34251,-60.2409638554217,4,2,2,5,0,0
34358,-57.1428571428571,4,2,2,70,0,0
34501,-57.1428571428571,4,2,2,5,0,0
34572,-57.1428571428571,4,2,2,70,0,0
34787,-57.1428571428571,4,2,2,5,0,0
34929,-57.1428571428571,4,2,2,70,0,0
35072,-57.1428571428571,4,2,2,5,0,0
35215,-50,4,2,2,70,0,0
35751,-66.6666666666667,4,2,2,5,0,0
35858,-66.6666666666667,4,2,2,70,0,0
37037,-66.6666666666667,4,2,2,5,0,0
37251,-66.6666666666667,4,2,2,70,0,0
37358,-66.6666666666667,4,2,2,5,0,0
37572,-66.6666666666667,4,2,2,70,0,0
37787,-60.2409638554217,4,2,2,70,0,0
38001,-60.2409638554217,4,2,2,5,0,0
38108,-60.2409638554217,4,2,2,70,0,0
38322,-60.2409638554217,4,2,2,5,0,0
38429,-60.2409638554217,4,2,2,70,0,0
40679,-60.2409638554217,4,2,2,5,0,0
40787,-60.2409638554217,4,2,2,70,0,0
40894,-60.2409638554217,4,2,2,5,0,0
41002,-60.2409638554217,4,2,2,70,0,0
41108,-60.2409638554217,4,2,2,5,0,0
41215,-57.1428571428571,4,2,2,70,0,0
41358,-57.1428571428571,4,2,2,5,0,0
41429,-57.1428571428571,4,2,2,70,0,0
41644,-57.1428571428571,4,2,2,5,0,0
41787,-57.1428571428571,4,2,2,70,0,0
41929,-57.1428571428571,4,2,2,5,0,0
42072,-50,4,2,2,70,0,0
42608,-66.6666666666667,4,2,2,5,0,0
42715,-66.6666666666667,4,2,2,70,0,0
43894,-66.6666666666667,4,2,2,5,0,0
44108,-66.6666666666667,4,2,2,70,0,0
44215,-66.6666666666667,4,2,2,5,0,0
44429,-66.6666666666667,4,2,2,70,0,0
44644,-60.2409638554217,4,2,2,70,0,0
44965,-60.2409638554217,4,2,2,5,0,0
45072,-60.2409638554217,4,2,2,70,0,0
47537,-60.2409638554217,4,2,2,5,0,0
47644,-60.2409638554217,4,2,2,70,0,0
47751,-60.2409638554217,4,2,2,5,0,0
47858,-60.2409638554217,4,2,2,70,0,0
47965,-60.2409638554217,4,2,2,5,0,0
48072,-57.1428571428571,4,2,2,70,0,0
48215,-57.1428571428571,4,2,2,5,0,0
48287,-57.1428571428571,4,2,2,70,0,0
48501,-57.1428571428571,4,2,2,5,0,0
48644,-57.1428571428571,4,2,2,70,0,0
48787,-57.1428571428571,4,2,2,5,0,0
48929,-50,4,2,2,70,0,0
49465,-66.6666666666667,4,2,2,5,0,0
49572,-66.6666666666667,4,2,2,70,0,0
50751,-66.6666666666667,4,2,2,5,0,0
50965,-66.6666666666667,4,2,2,70,0,0
51072,-66.6666666666667,4,2,2,5,0,0
51286,-66.6666666666667,4,2,2,70,0,0
51501,-60.2409638554217,4,2,2,70,0,0
51715,-60.2409638554217,4,2,2,5,0,0
51822,-60.2409638554217,4,2,2,70,0,0
52037,-60.2409638554217,4,2,2,5,0,0
52144,-60.2409638554217,4,2,2,70,0,0
54394,-60.2409638554217,4,2,2,5,0,0
54501,-60.2409638554217,4,2,2,70,0,0
54608,-60.2409638554217,4,2,2,5,0,0
54715,-60.2409638554217,4,2,2,70,0,0
54822,-60.2409638554217,4,2,2,5,0,0
54929,-57.1428571428571,4,2,2,70,0,0
55072,-57.1428571428571,4,2,2,5,0,0
55144,-57.1428571428571,4,2,2,70,0,0
55358,-57.1428571428571,4,2,2,5,0,0
55501,-57.1428571428571,4,2,2,70,0,0
55644,-57.1428571428571,4,2,2,5,0,0
55787,-74.0740740740741,4,2,2,65,0,0
56644,-100,4,2,2,65,0,0
57501,-74.0740740740741,4,2,2,65,0,0
57715,-74.0740740740741,4,2,2,5,0,0
57822,-74.0740740740741,4,2,2,65,0,0
58037,-74.0740740740741,4,2,2,5,0,0
58144,-74.0740740740741,4,2,2,65,0,0
61037,-74.0740740740741,4,2,2,5,0,0
61251,-74.0740740740741,4,2,2,65,0,0
61358,-74.0740740740741,4,2,2,5,0,0
61572,-74.0740740740741,4,2,2,65,0,0
63501,-100,4,2,2,65,0,0
64358,-74.0740740740741,4,2,2,65,0,0
64572,-74.0740740740741,4,2,2,5,0,0
64679,-74.0740740740741,4,2,2,65,0,0
64894,-74.0740740740741,4,2,2,5,0,0
65001,-74.0740740740741,4,2,2,65,0,0
67894,-74.0740740740741,4,2,2,5,0,0
68108,-74.0740740740741,4,2,2,65,0,0
68215,-74.0740740740741,4,2,2,5,0,0
68429,-74.0740740740741,4,2,2,65,0,0
70358,-100,4,2,2,65,0,0
71215,-74.0740740740741,4,2,2,65,0,0
71429,-74.0740740740741,4,2,2,5,0,0
71537,-74.0740740740741,4,2,2,65,0,0
71751,-74.0740740740741,4,2,2,5,0,0
71859,-74.0740740740741,4,2,2,65,0,0
74751,-74.0740740740741,4,2,2,5,0,0
74965,-74.0740740740741,4,2,2,65,0,0
75072,-74.0740740740741,4,2,2,5,0,0
75286,-74.0740740740741,4,2,2,65,0,0
77215,-100,4,2,2,65,0,0
78072,-74.0740740740741,4,2,2,65,0,0
78287,-74.0740740740741,4,2,2,5,0,0
78395,-74.0740740740741,4,2,2,65,0,0
78608,-74.0740740740741,4,2,2,5,0,0
78716,-74.0740740740741,4,2,2,65,0,0
81608,-74.0740740740741,4,2,2,5,0,0
81822,-74.0740740740741,4,2,2,65,0,0
81929,-74.0740740740741,4,2,2,5,0,0
82143,-74.0740740740741,4,2,2,65,0,0
82465,-74.0740740740741,4,2,2,5,0,0
82572,-74.0740740740741,4,2,2,65,0,0
82679,-74.0740740740741,4,2,2,5,0,0
82786,-74.0740740740741,4,2,2,65,0,0
82894,-74.0740740740741,4,2,2,5,0,0
83001,-74.0740740740741,4,2,2,65,0,0
83108,-74.0740740740741,4,2,2,5,0,0
83230,857.142857142857,4,2,2,65,1,0
83230,-74.0740740740741,4,2,2,65,0,0
83980,-74.0740740740741,4,2,2,5,0,0
84087,-74.0740740740741,4,2,2,65,0,0
84194,-74.0740740740741,4,2,2,5,0,0
84301,-74.0740740740741,4,2,2,65,0,0
86123,-74.0740740740741,4,2,2,5,0,0
86230,-74.0740740740741,4,2,2,65,0,0
86552,-74.0740740740741,4,2,2,5,0,0
86659,-74.0740740740741,4,2,2,65,0,0
87409,-74.0740740740741,4,2,2,5,0,0
87516,-74.0740740740741,4,2,2,65,0,0
87623,-74.0740740740741,4,2,2,5,0,0
87730,-74.0740740740741,4,2,2,65,0,0
87837,-74.0740740740741,4,2,2,5,0,0
87944,-74.0740740740741,4,2,2,65,0,0
89659,-60.2409638554217,4,2,2,65,0,0
89980,-60.2409638554217,4,2,2,5,0,0
90087,-60.2409638554217,4,2,2,65,0,0
93409,-60.2409638554217,4,2,2,5,0,0
93516,-60.2409638554217,4,2,2,65,0,0
93623,-60.2409638554217,4,2,2,5,0,0
93730,-60.2409638554217,4,2,2,65,0,0
93837,-60.2409638554217,4,2,2,5,0,0
93944,-60.2409638554217,4,2,2,65,0,0
94587,-60.2409638554217,4,2,2,5,0,0
94694,-75.187969924812,4,2,2,65,0,0
94909,-75.187969924812,4,2,2,5,0,0
95016,-100,4,2,2,65,0,0
96929,857.142857142857,4,2,2,85,1,0
96929,-45.4545454545455,4,2,2,85,0,0
97786,-50,4,2,2,85,0,0
97894,-50,4,2,2,5,0,0
98001,-50,4,2,2,85,0,0
98108,-50,4,2,2,5,0,0
98215,-50,4,2,2,85,0,0
98322,-50,4,2,2,5,0,0
98429,-50,4,2,2,85,0,0
98537,-50,4,2,2,5,0,0
98644,-57.1428571428571,4,2,2,85,0,0
98858,-57.1428571428571,4,2,2,5,0,0
98965,-57.1428571428571,4,2,2,85,0,0
99179,-57.1428571428571,4,2,2,5,0,0
99286,-57.1428571428571,4,2,2,85,0,0
99715,-57.1428571428571,4,2,2,5,0,0
99929,-57.1428571428571,4,2,2,85,0,0
100144,-57.1428571428571,4,2,2,5,0,0
100358,-66.6666666666667,4,2,2,85,0,0
101215,-60.2409638554217,4,2,2,85,0,0
102071,-57.1428571428571,4,2,2,85,0,0
102394,-57.1428571428571,4,2,2,5,0,0
102501,-57.1428571428571,4,2,2,85,0,0
102822,-57.1428571428571,4,2,2,5,0,0
102929,-100,4,2,2,85,0,0
103072,-100,4,2,2,5,0,0
103215,-100,4,2,2,85,0,0
103358,-100,4,2,2,5,0,0
103501,-100,4,2,2,85,0,0
103644,-100,4,2,2,5,0,0
103787,-45.4545454545455,4,2,2,85,0,0
104751,-45.4545454545455,4,2,2,5,0,0
104858,-45.4545454545455,4,2,2,85,0,0
104965,-45.4545454545455,4,2,2,5,0,0
105072,-45.4545454545455,4,2,2,85,0,0
105179,-45.4545454545455,4,2,2,5,0,0
105286,-45.4545454545455,4,2,2,85,0,0
105394,-45.4545454545455,4,2,2,5,0,0
105501,-52.6315789473684,4,2,2,85,0,0
105715,-52.6315789473684,4,2,2,5,0,0
105822,-52.6315789473684,4,2,2,85,0,0
106037,-52.6315789473684,4,2,2,5,0,0
106144,-52.6315789473684,4,2,2,85,0,0
106358,-57.1428571428571,4,2,2,85,0,0
106572,-57.1428571428571,4,2,2,5,0,0
106787,-57.1428571428571,4,2,2,85,0,0
107001,-57.1428571428571,4,2,2,5,0,0
107215,-66.6666666666667,4,2,2,85,0,0
108072,-60.2409638554217,4,2,2,85,0,0
108929,-57.1428571428571,4,2,2,85,0,0
109037,-57.1428571428571,4,2,2,5,0,0
109144,-57.1428571428571,4,2,2,85,0,0
109251,-57.1428571428571,4,2,2,5,0,0
109358,-57.1428571428571,4,2,2,85,0,0
109465,-57.1428571428571,4,2,2,5,0,0
109572,-57.1428571428571,4,2,2,85,0,0
109679,-57.1428571428571,4,2,2,5,0,0
109787,-100,4,2,2,85,0,0
109929,-100,4,2,2,5,0,0
110072,-100,4,2,2,85,0,0
110215,-100,4,2,2,5,0,0
110358,-100,4,2,2,85,0,0
110501,-100,4,2,2,5,0,0
110644,-45.4545454545455,4,2,2,85,0,0
111500,-50,4,2,2,85,0,0
111608,-50,4,2,2,5,0,0
111715,-50,4,2,2,85,0,0
111822,-50,4,2,2,5,0,0
111929,-50,4,2,2,85,0,0
112037,-50,4,2,2,5,0,0
112144,-50,4,2,2,85,0,0
112251,-50,4,2,2,5,0,0
112358,-57.1428571428571,4,2,2,85,0,0
112572,-57.1428571428571,4,2,2,5,0,0
112679,-57.1428571428571,4,2,2,85,0,0
112894,-57.1428571428571,4,2,2,5,0,0
113001,-57.1428571428571,4,2,2,85,0,0
113215,-60.2409638554217,4,2,2,85,0,0
114072,-57.1428571428571,4,2,2,85,0,0
114929,-52.6315789473684,4,2,2,85,0,0
116108,-52.6315789473684,4,2,2,5,0,0
116215,-52.6315789473684,4,2,2,85,0,0
116537,-52.6315789473684,4,2,2,5,0,0
116644,-100,4,2,2,85,0,0
116787,-100,4,2,2,5,0,0
116930,-100,4,2,2,85,0,0
117072,-100,4,2,2,5,0,0
117215,-100,4,2,2,85,0,0
117358,-100,4,2,2,5,0,0
117501,-45.4545454545455,4,2,2,85,0,0
118357,-50,4,2,2,85,0,0
118465,-50,4,2,2,5,0,0
118572,-50,4,2,2,85,0,0
118679,-50,4,2,2,5,0,0
118786,-50,4,2,2,85,0,0
118894,-50,4,2,2,5,0,0
119001,-50,4,2,2,85,0,0
119108,-50,4,2,2,5,0,0
119215,-57.1428571428571,4,2,2,85,0,0
119429,-57.1428571428571,4,2,2,5,0,0
119537,-57.1428571428571,4,2,2,85,0,0
119751,-57.1428571428571,4,2,2,5,0,0
119859,-57.1428571428571,4,2,2,85,0,0
120394,-57.1428571428571,4,2,2,5,0,0
120502,-57.1428571428571,4,2,2,85,0,0
120822,-57.1428571428571,4,2,2,5,0,0
120930,-57.1428571428571,4,2,2,85,0,0
122965,-57.1428571428571,4,2,2,5,0,0
123073,-57.1428571428571,4,2,2,85,0,0
123393,-57.1428571428571,4,2,2,5,0,0
123501,-100,4,2,2,85,0,0
123644,-100,4,2,2,5,0,0
123787,-100,4,2,2,85,0,0
123929,-100,4,2,2,5,0,0
124072,-100,4,2,2,85,0,0
124215,-100,4,2,2,5,0,0
124358,-100,4,2,2,85,0,0
124786,-100,4,3,2,45,0,0
125429,-100,4,3,2,25,0,0
126071,-100,4,3,2,15,0,0
127786,-100,4,3,2,35,0,0
128214,-100,4,3,2,15,0,0
129500,-100,4,3,2,25,0,0
129607,-100,4,3,2,15,0,0
131214,-100,4,3,2,35,0,0
131643,-100,4,3,2,15,0,0
132929,-100,4,3,2,25,0,0
133036,-100,4,3,2,15,0,0
133571,-100,4,3,2,45,0,0
133625,-100,4,3,2,5,0,0
133786,-100,4,3,2,15,0,0
134214,-100,4,3,2,45,0,0
134268,-100,4,3,2,5,0,0
134429,-100,4,3,2,45,0,0
134482,-100,4,3,2,5,0,0
134643,-100,4,3,2,45,0,0
134696,-100,4,3,2,5,0,0
135071,-40,4,2,2,35,0,0
136251,-50,4,2,2,5,0,0
136358,-50,4,2,2,35,0,0
138072,-66.6666666666667,4,2,2,65,0,0
138822,-66.6666666666667,4,2,2,5,0,0
138929,-66.6666666666667,4,2,2,65,0,0
139037,-66.6666666666667,4,2,2,5,0,0
139144,-66.6666666666667,4,2,2,65,0,0
139251,-66.6666666666667,4,2,2,5,0,0
139358,-66.6666666666667,4,2,2,65,0,0
139465,-66.6666666666667,4,2,2,5,0,0
139572,-66.6666666666667,4,2,2,65,0,0
139679,-66.6666666666667,4,2,2,5,0,0
139787,-60.2409638554217,4,2,2,65,0,0
140108,-60.2409638554217,4,2,2,5,0,0
140215,-60.2409638554217,4,2,2,65,0,0
140537,-60.2409638554217,4,2,2,5,0,0
140644,-76.9230769230769,4,2,2,65,0,0
140965,-68.9655172413793,4,2,2,5,0,0
141072,-50,4,2,2,65,0,0
141394,-68.9655172413793,4,2,2,5,0,0
141501,-60.2409638554217,4,2,2,65,0,0
142358,-57.1428571428571,4,2,2,50,0,0
143000,-57.1428571428571,4,2,2,20,0,0
143215,-50,4,2,2,65,0,0
143429,-50,4,2,2,5,0,0
143537,-50,4,2,2,65,0,0
143751,-50,4,2,2,5,0,0
143859,-50,4,2,2,65,0,0
144072,-45.4545454545455,4,2,2,65,0,0
144929,-57.1428571428571,4,2,2,65,0,0
145679,-57.1428571428571,4,2,2,5,0,0
145787,-57.1428571428571,4,2,2,65,0,0
145894,-57.1428571428571,4,2,2,5,0,0
146002,-57.1428571428571,4,2,2,65,0,0
146108,-57.1428571428571,4,2,2,5,0,0
146216,-57.1428571428571,4,2,2,65,0,0
146322,-57.1428571428571,4,2,2,5,0,0
146429,-57.1428571428571,4,2,2,90,0,0
146643,-33.3333333333333,4,2,2,90,0,0
147286,-57.1428571428571,4,2,2,90,0,0
147715,-44.4444444444445,4,2,2,65,0,0
148358,-50,4,2,2,65,0,0
149000,-50,4,2,2,20,0,0
149215,-44.4444444444445,4,2,2,65,0,0
150072,-40,4,2,2,65,0,0
150287,-40,4,2,2,5,0,0
150394,-40,4,2,2,65,0,0
150608,-40,4,2,2,5,0,0
150715,-40,4,2,2,65,0,0
150929,-33.3333333333333,4,2,2,65,0,0
151787,-50,4,2,2,65,0,0
152429,-50,4,2,2,20,0,0
152644,-44.4444444444445,4,2,2,65,0,0
152751,-44.4444444444445,4,2,2,5,0,0
152858,-44.4444444444445,4,2,2,65,0,0
152965,-44.4444444444445,4,2,2,5,0,0
153072,-44.4444444444445,4,2,2,65,0,0
153179,-44.4444444444445,4,2,2,5,0,0
153286,-44.4444444444445,4,2,2,65,0,0
153394,-44.4444444444445,4,2,2,5,0,0
153501,-50,4,2,2,65,0,0
153715,-50,4,2,2,5,0,0
153822,-50,4,2,2,65,0,0
154037,-50,4,2,2,5,0,0
154144,-50,4,2,2,65,0,0
154357,-57.1428571428571,4,2,2,65,0,0
154679,-50,4,2,2,5,0,0
154787,-37.593984962406,4,2,2,65,0,0
155108,-42.9184549356223,4,2,2,5,0,0
155215,-57.1428571428571,4,2,2,65,0,0
156714,-57.1428571428571,4,2,2,20,0,0
156929,-44.4444444444445,4,2,2,65,0,0
157144,-44.4444444444445,4,2,2,5,0,0
157251,-44.4444444444445,4,2,2,65,0,0
157465,-44.4444444444445,4,2,2,5,0,0
157572,-44.4444444444445,4,2,2,65,0,0
158644,-50,4,2,2,65,0,0
159286,-50,4,2,2,20,0,0
159501,-44.4444444444445,4,2,2,65,0,0
159608,-44.4444444444445,4,2,2,5,0,0
159715,-44.4444444444445,4,2,2,65,0,0
159822,-44.4444444444445,4,2,2,5,0,0
159929,-44.4444444444445,4,2,2,65,0,0
160037,-44.4444444444445,4,2,2,5,0,0
160144,-44.4444444444445,4,2,2,65,0,0
160251,-44.4444444444445,4,2,2,5,0,0
160358,-50,4,2,2,90,0,0
161215,-50,4,2,2,65,0,0
161429,-44.4444444444445,4,2,2,65,0,0
162072,-50,4,2,2,65,0,0
162714,-50,4,2,2,20,0,0
162929,-44.4444444444445,4,2,2,65,0,0
163786,-40,4,2,2,65,0,0
164001,-40,4,2,2,5,0,0
164108,-40,4,2,2,65,0,0
164322,-40,4,2,2,5,0,0
164429,-40,4,2,2,65,0,0
164643,-33.3333333333333,4,2,2,65,0,0
165501,-50,4,2,2,90,0,0
166358,-44.4444444444445,4,2,2,90,0,0
166465,-44.4444444444445,4,2,2,5,0,0
166572,-44.4444444444445,4,2,2,90,0,0
166679,-44.4444444444445,4,2,2,5,0,0
166786,-44.4444444444445,4,2,2,90,0,0
166894,-44.4444444444445,4,2,2,5,0,0
167001,-44.4444444444445,4,2,2,90,0,0
167108,-44.4444444444445,4,2,2,5,0,0
167215,-50,4,2,2,90,0,0
167537,-50,4,2,2,5,0,0
167644,-50,4,2,2,90,0,0
167965,-50,4,2,2,5,0,0
168072,-50,4,2,2,90,0,0
168179,-50,4,2,2,5,0,0
168286,-50,4,2,2,90,0,0
168394,-50,4,2,2,5,0,0
168501,-50,4,2,2,90,0,0
168608,-50,4,2,2,5,0,0
168715,-50,4,2,2,90,0,0
168822,-50,4,2,2,5,0,0
168929,-57.1428571428571,4,2,2,90,0,0
169787,-50,4,2,2,90,0,0
170429,-50,4,2,2,45,0,0
170644,-50,4,2,2,90,0,0
173215,-44.4444444444445,4,2,2,90,0,0
173322,-44.4444444444445,4,2,2,5,0,0
173429,-44.4444444444445,4,2,2,90,0,0
173537,-44.4444444444445,4,2,2,5,0,0
173644,-44.4444444444445,4,2,2,90,0,0
173751,-44.4444444444445,4,2,2,5,0,0
173858,-33.3333333333333,4,2,2,100,0,0
174714,-57.1428571428571,4,2,2,100,0,0
175144,-44.4444444444445,4,2,2,90,0,0
175251,-44.4444444444445,4,2,2,5,0,0
175358,-44.4444444444445,4,2,2,90,0,0
175465,-44.4444444444445,4,2,2,5,0,0
175572,-44.4444444444445,4,2,2,90,0,0
175679,-44.4444444444445,4,2,2,5,0,0
175787,-50,4,2,2,90,0,0
176429,-50,4,2,2,45,0,0
176644,-50,4,2,2,90,0,0
177501,-40,4,2,2,90,0,0
177715,-40,4,2,2,5,0,0
177822,-40,4,2,2,90,0,0
178037,-40,4,2,2,5,0,0
178144,-40,4,2,2,90,0,0
178358,-33.3333333333333,4,2,2,90,0,0
179215,-50,4,2,2,90,0,0
179857,-50,4,2,2,45,0,0
180072,-44.4444444444445,4,2,2,90,0,0
180179,-44.4444444444445,4,2,2,5,0,0
180287,-44.4444444444445,4,2,2,90,0,0
180394,-44.4444444444445,4,2,2,5,0,0
180502,-44.4444444444445,4,2,2,90,0,0
180608,-44.4444444444445,4,2,2,5,0,0
180716,-44.4444444444445,4,2,2,90,0,0
180822,-44.4444444444445,4,2,2,5,0,0
180929,-40,4,2,2,90,0,0
181144,-40,4,2,2,5,0,0
181251,-40,4,2,2,90,0,0
181465,-40,4,2,2,5,0,0
181572,-40,4,2,2,90,0,0
181894,-40,4,2,2,5,0,0
182001,-40,4,2,2,90,0,0
182108,-40,4,2,2,5,0,0
182215,-40,4,2,2,90,0,0
182322,-40,4,2,2,5,0,0
182429,-40,4,2,2,90,0,0
182537,-40,4,2,2,5,0,0
182644,-50,4,2,2,90,0,0
184143,-50,4,2,2,45,0,0
184358,-44.4444444444445,4,2,2,90,0,0
184572,-44.4444444444445,4,2,2,5,0,0
184679,-44.4444444444445,4,2,2,90,0,0
184894,-44.4444444444445,4,2,2,5,0,0
185001,-44.4444444444445,4,2,2,90,0,0
186072,-50,4,2,2,90,0,0
186714,-50,4,2,2,45,0,0
186929,-44.4444444444445,4,2,2,90,0,0
187037,-44.4444444444445,4,2,2,5,0,0
187144,-44.4444444444445,4,2,2,90,0,0
187251,-44.4444444444445,4,2,2,5,0,0
187358,-44.4444444444445,4,2,2,90,0,0
187465,-44.4444444444445,4,2,2,5,0,0
187572,-44.4444444444445,4,2,2,90,0,0
187679,-44.4444444444445,4,2,2,5,0,0
187787,-50,4,2,2,90,0,0
188001,-50,4,2,2,5,0,0
188108,-50,4,2,2,90,0,0
188322,-50,4,2,2,5,0,0
188429,-50,4,2,2,90,0,0
188751,-50,4,2,2,5,0,0
188858,-42.9184549356223,4,2,2,90,0,0
189501,-50,4,2,2,90,0,0
190143,-50,4,2,2,45,0,0
190358,-44.4444444444445,4,2,2,90,0,0
191215,-40,4,2,2,90,0,0
191429,-40,4,2,2,5,0,0
191537,-40,4,2,2,90,0,0
191751,-40,4,2,2,5,0,0
191859,-40,4,2,2,90,0,0
192072,-33.3333333333333,4,2,2,90,0,0
192944,857.142857142857,4,2,2,65,1,0
192944,-66.6666666666667,4,2,2,65,0,0
193909,-66.6666666666667,4,2,2,5,0,0
194016,-66.6666666666667,4,2,2,65,0,0
196266,-66.6666666666667,4,2,2,5,0,0
196373,-66.6666666666667,4,2,2,65,0,0
197337,-66.6666666666667,4,2,2,5,0,0
197444,-66.6666666666667,4,2,2,65,0,0
197552,-66.6666666666667,4,2,2,5,0,0
197659,-66.6666666666667,4,2,2,65,0,0
199052,-66.6666666666667,4,2,2,5,0,0
199159,-66.6666666666667,4,2,2,65,0,0
199266,-66.6666666666667,4,2,2,5,0,0
199373,-66.6666666666667,4,2,2,65,0,0
199694,-66.6666666666667,4,2,2,5,0,0
199801,-66.6666666666667,4,2,2,65,0,0
202373,-100,4,2,2,65,0,0
203230,-133.333333333333,4,2,2,70,0,0
203337,-133.333333333333,4,2,2,5,0,0
203444,-133.333333333333,4,2,2,70,0,0
203552,-133.333333333333,4,2,2,5,0,0
203659,-133.333333333333,4,2,2,70,0,0
203766,-133.333333333333,4,2,2,5,0,0
203873,-133.333333333333,4,2,2,70,0,0
203980,-133.333333333333,4,2,2,5,0,0
204087,-100,4,2,2,75,0,0
206659,-40,4,2,2,85,0,0
207515,-44.4444444444445,4,2,2,85,0,0
207623,-44.4444444444445,4,2,2,5,0,0
207730,-44.4444444444445,4,2,2,85,0,0
207837,-44.4444444444445,4,2,2,5,0,0
207944,-44.4444444444445,4,2,2,85,0,0
208052,-44.4444444444445,4,2,2,5,0,0
208159,-44.4444444444445,4,2,2,85,0,0
208266,-44.4444444444445,4,2,2,5,0,0
208373,-50,4,2,2,85,0,0
208587,-50,4,2,2,5,0,0
208694,-50,4,2,2,85,0,0
208909,-50,4,2,2,5,0,0
209016,-50,4,2,2,85,0,0
209230,-57.1428571428571,4,2,2,85,0,0
209552,-57.1428571428571,4,2,2,5,0,0
209659,-57.1428571428571,4,2,2,85,0,0
209980,-57.1428571428571,4,2,2,5,0,0
210087,-66.6666666666667,4,2,2,85,0,0
210944,-60.2409638554217,4,2,2,85,0,0
211802,-57.1428571428571,4,2,2,85,0,0
212123,-57.1428571428571,4,2,2,5,0,0
212230,-57.1428571428571,4,2,2,85,0,0
212552,-57.1428571428571,4,2,2,5,0,0
212659,-100,4,2,2,85,0,0
212801,-100,4,2,2,5,0,0
212944,-100,4,2,2,85,0,0
213087,-100,4,2,2,5,0,0
213230,-100,4,2,2,85,0,0
213373,-100,4,2,2,5,0,0
213516,-40,4,2,2,85,0,0
214372,-44.4444444444445,4,2,2,85,0,0
214480,-44.4444444444445,4,2,2,5,0,0
214587,-44.4444444444445,4,2,2,85,0,0
214694,-44.4444444444445,4,2,2,5,0,0
214801,-44.4444444444445,4,2,2,85,0,0
214909,-44.4444444444445,4,2,2,5,0,0
215016,-44.4444444444445,4,2,2,85,0,0
215123,-44.4444444444445,4,2,2,5,0,0
215230,-57.1428571428571,4,2,2,85,0,0
215444,-57.1428571428571,4,2,2,5,0,0
215552,-57.1428571428571,4,2,2,85,0,0
215766,-57.1428571428571,4,2,2,5,0,0
215874,-57.1428571428571,4,2,2,85,0,0
216409,-57.1428571428571,4,2,2,5,0,0
216517,-57.1428571428571,4,2,2,85,0,0
216837,-57.1428571428571,4,2,2,5,0,0
216944,-66.6666666666667,4,2,2,85,0,0
217802,-60.2409638554217,4,2,2,85,0,0
218659,-57.1428571428571,4,2,2,85,0,0
218766,-57.1428571428571,4,2,2,5,0,0
218874,-57.1428571428571,4,2,2,85,0,0
218980,-57.1428571428571,4,2,2,5,0,0
219088,-57.1428571428571,4,2,2,85,0,0
219194,-57.1428571428571,4,2,2,5,0,0
219302,-57.1428571428571,4,2,2,85,0,0
219409,-57.1428571428571,4,2,2,5,0,0
219516,-100,4,2,2,85,0,0
219659,-100,4,2,2,5,0,0
219802,-100,4,2,2,85,0,0
219944,-100,4,2,2,5,0,0
220087,-100,4,2,2,85,0,0
220230,-100,4,2,2,5,0,0
220373,-44.4444444444445,4,2,2,85,0,0
221337,-44.4444444444445,4,2,2,5,0,0
221444,-44.4444444444445,4,2,2,85,0,0
221552,-44.4444444444445,4,2,2,5,0,0
221659,-44.4444444444445,4,2,2,85,0,0
221766,-44.4444444444445,4,2,2,5,0,0
221873,-44.4444444444445,4,2,2,85,0,0
221980,-44.4444444444445,4,2,2,5,0,0
222087,-50,4,2,2,85,0,0
222302,-50,4,2,2,5,0,0
222409,-50,4,2,2,85,0,0
222623,-50,4,2,2,5,0,0
222730,-50,4,2,2,85,0,0
222944,-57.1428571428571,4,2,2,85,0,0
223802,-52.6315789473684,4,2,2,85,0,0
224659,-45.4545454545455,4,2,2,85,0,0
225837,-45.4545454545455,4,2,2,5,0,0
225944,-45.4545454545455,4,2,2,85,0,0
226266,-45.4545454545455,4,2,2,5,0,0
226373,-100,4,2,2,85,0,0
226516,-100,4,2,2,5,0,0
226659,-100,4,2,2,85,0,0
226802,-100,4,2,2,5,0,0
226945,-100,4,2,2,85,0,0
227087,-100,4,2,2,5,0,0
227230,-40,4,2,2,85,0,0
228086,-45.4545454545455,4,2,2,85,0,0
228194,-44.4444444444445,4,2,2,5,0,0
228301,-44.4444444444445,4,2,2,85,0,0
228409,-44.4444444444445,4,2,2,5,0,0
228516,-44.4444444444445,4,2,2,85,0,0
228623,-44.4444444444445,4,2,2,5,0,0
228730,-44.4444444444445,4,2,2,85,0,0
228837,-44.4444444444445,4,2,2,5,0,0
228944,-57.1428571428571,4,2,2,85,0,0
229159,-57.1428571428571,4,2,2,5,0,0
229266,-57.1428571428571,4,2,2,85,0,0
229480,-57.1428571428571,4,2,2,5,0,0
229587,-57.1428571428571,4,2,2,85,0,0
230123,-57.1428571428571,4,2,2,5,0,0
230230,-57.1428571428571,4,2,2,85,0,0
230552,-57.1428571428571,4,2,2,5,0,0
230659,-57.1428571428571,4,2,2,85,0,0
232694,-57.1428571428571,4,2,2,5,0,0
232801,-57.1428571428571,4,2,2,85,0,0
233123,-57.1428571428571,4,2,2,5,0,0
233230,-100,4,2,2,85,0,0
233373,-100,4,2,2,5,0,0
233516,-100,4,2,2,85,0,0
233659,-100,4,2,2,5,0,0
233802,-100,4,2,2,85,0,0
233944,-100,4,2,2,5,0,0
234087,-44.4444444444445,4,2,2,85,0,0
234408,-44.4444444444445,4,2,2,5,0,0
234515,-44.4444444444445,4,2,2,60,0,0
234729,-44.4444444444445,4,2,2,85,0,0
235052,-44.4444444444445,4,2,2,5,0,0
235159,-44.4444444444445,4,2,2,85,0,0
235266,-44.4444444444445,4,2,2,5,0,0
235373,-44.4444444444445,4,2,2,85,0,0
235480,-44.4444444444445,4,2,2,5,0,0
235587,-44.4444444444445,4,2,2,85,0,0
235694,-44.4444444444445,4,2,2,5,0,0
235802,-50,4,2,2,85,0,0
236016,-50,4,2,2,5,0,0
236123,-50,4,2,2,85,0,0
236337,-50,4,2,2,5,0,0
236444,-50,4,2,2,85,0,0
236659,-57.1428571428571,4,2,2,85,0,0
236980,-57.1428571428571,4,2,2,5,0,0
237087,-57.1428571428571,4,2,2,85,0,0
237194,-57.1428571428571,4,2,2,5,0,0
237301,-57.1428571428571,4,2,2,85,0,0
237409,-57.1428571428571,4,2,2,5,0,0
237516,-66.6666666666667,4,2,2,85,0,0
237836,-66.6666666666667,4,2,2,5,0,0
237944,-66.6666666666667,4,2,2,60,0,0
238158,-66.6666666666667,4,2,2,85,0,0
238373,-60.2409638554217,4,2,2,85,0,0
239230,-57.1428571428571,4,2,2,85,0,0
239552,-57.1428571428571,4,2,2,5,0,0
239659,-57.1428571428571,4,2,2,85,0,0
239980,-57.1428571428571,4,2,2,5,0,0
240087,-100,4,2,2,85,0,0
240230,-100,4,2,2,5,0,0
240373,-100,4,2,2,85,0,0
240516,-100,4,2,2,5,0,0
240659,-100,4,2,2,85,0,0
240802,-100,4,2,2,5,0,0
240944,-44.4444444444445,4,2,2,85,0,0
241265,-44.4444444444445,4,2,2,5,0,0
241372,-44.4444444444445,4,2,2,60,0,0
241586,-44.4444444444445,4,2,2,85,0,0
241909,-44.4444444444445,4,2,2,5,0,0
242016,-44.4444444444445,4,2,2,85,0,0
242123,-44.4444444444445,4,2,2,5,0,0
242230,-44.4444444444445,4,2,2,85,0,0
242337,-44.4444444444445,4,2,2,5,0,0
242444,-44.4444444444445,4,2,2,85,0,0
242552,-44.4444444444445,4,2,2,5,0,0
242659,-57.1428571428571,4,2,2,85,0,0
242873,-57.1428571428571,4,2,2,5,0,0
242980,-57.1428571428571,4,2,2,85,0,0
243194,-57.1428571428571,4,2,2,5,0,0
243301,-57.1428571428571,4,2,2,85,0,0
243837,-57.1428571428571,4,2,2,5,0,0
243944,-57.1428571428571,4,2,2,85,0,0
244051,-57.1428571428571,4,2,2,5,0,0
244158,-57.1428571428571,4,2,2,85,0,0
244266,-57.1428571428571,4,2,2,5,0,0
244372,-66.6666666666667,4,2,2,85,0,0
244694,-66.6666666666667,4,2,2,5,0,0
244801,-66.6666666666667,4,2,2,60,0,0
245015,-66.6666666666667,4,2,2,85,0,0
245230,-60.2409638554217,4,2,2,85,0,0
245551,-60.2409638554217,4,2,2,5,0,0
245658,-60.2409638554217,4,2,2,60,0,0
245872,-60.2409638554217,4,2,2,85,0,0
246087,-57.1428571428571,4,2,2,85,0,0
246944,-100,4,2,2,85,0,0
247087,-100,4,2,2,5,0,0
247230,-100,4,2,2,85,0,0
247373,-100,4,2,2,5,0,0
247516,-100,4,2,2,85,0,0
247659,-100,4,2,2,5,0,0
247802,-44.4444444444445,4,2,2,85,0,0
248122,-44.4444444444445,4,2,2,5,0,0
248229,-44.4444444444445,4,2,2,60,0,0
248444,-44.4444444444445,4,2,2,85,0,0
248766,-44.4444444444445,4,2,2,5,0,0
248873,-44.4444444444445,4,2,2,85,0,0
248980,-44.4444444444445,4,2,2,5,0,0
249087,-44.4444444444445,4,2,2,85,0,0
249194,-44.4444444444445,4,2,2,5,0,0
249301,-44.4444444444445,4,2,2,85,0,0
249409,-44.4444444444445,4,2,2,5,0,0
249516,-50,4,2,2,85,0,0
249730,-50,4,2,2,5,0,0
249837,-50,4,2,2,85,0,0
250052,-50,4,2,2,5,0,0
250159,-50,4,2,2,85,0,0
250373,-57.1428571428571,4,2,2,85,0,0
251230,-50,4,2,2,85,0,0
252087,-45.4545454545455,4,2,2,85,0,0
252944,-52.6315789473684,4,2,2,85,0,0
253266,-52.6315789473684,4,2,2,5,0,0
253373,-52.6315789473684,4,2,2,85,0,0
253479,-52.6315789473684,4,2,2,5,0,0
253586,-52.6315789473684,4,2,2,85,0,0
253694,-52.6315789473684,4,2,2,5,0,0
253802,-100,4,2,2,85,0,0
253944,-100,4,2,2,5,0,0
254087,-100,4,2,2,85,0,0
254230,-100,4,2,2,5,0,0
254373,-100,4,2,2,85,0,0
254516,-100,4,2,2,5,0,0
254659,-44.4444444444445,4,2,2,85,0,0
254979,-44.4444444444445,4,2,2,5,0,0
255086,-44.4444444444445,4,2,2,60,0,0
255301,-44.4444444444445,4,2,2,85,0,0
255623,-44.4444444444445,4,2,2,5,0,0
255730,-44.4444444444445,4,2,2,85,0,0
255837,-44.4444444444445,4,2,2,5,0,0
255944,-44.4444444444445,4,2,2,85,0,0
256052,-44.4444444444445,4,2,2,5,0,0
256159,-44.4444444444445,4,2,2,85,0,0
256266,-44.4444444444445,4,2,2,5,0,0
256373,-57.1428571428571,4,2,2,85,0,0
256587,-57.1428571428571,4,2,2,5,0,0
256694,-57.1428571428571,4,2,2,85,0,0
256909,-57.1428571428571,4,2,2,5,0,0
257016,-57.1428571428571,4,2,2,85,0,0
257552,-57.1428571428571,4,2,2,5,0,0
257659,-57.1428571428571,4,2,2,85,0,0
257765,-57.1428571428571,4,2,2,5,0,0
257872,-57.1428571428571,4,2,2,85,0,0
257980,-57.1428571428571,4,2,2,5,0,0
258087,-57.1428571428571,4,2,2,85,0,0
258944,-54.054054054054,4,2,2,85,0,0
259802,-57.1428571428571,4,2,2,85,0,0
260659,-100,4,2,2,85,0,0
260802,-100,4,2,2,5,0,0
260945,-100,4,2,2,85,0,0
261087,-100,4,2,2,5,0,0
261230,-100,4,2,2,85,0,0
261373,-100,4,2,2,5,0,0
261516,-40,4,2,2,85,0,0
272123,-40,4,2,2,5,0,0
272230,-40,4,2,2,35,0,0
273516,-50,4,2,2,5,0,0

[Colours]
Combo1 : 148,95,197
Combo2 : 108,225,112
Combo3 : 100,200,253
Combo4 : 241,74,56

[HitObjects]
338,148,644,5,2,0:0:0:0:
347,157,716,5,2,0:0:0:0:
353,167,787,5,2,0:0:0:0:
355,179,858,5,2,0:0:0:0:
355,192,930,5,4,1:3:0:0:
43,159,14644,5,8,0:0:0:0:
158,63,14858,1,0,0:0:0:0:
154,80,14965,1,0,0:0:0:0:
150,97,15072,1,0,0:0:0:0:
224,160,15287,1,8,0:0:0:0:
339,64,15501,1,0,0:0:0:0:
335,81,15608,1,0,0:0:0:0:
331,98,15715,1,0,0:0:0:0:
405,161,15929,1,8,0:0:0:0:
211,290,16358,5,8,0:0:0:0:
238,239,16465,1,0,0:0:0:0:
296,230,16572,1,0,0:0:0:0:
305,333,16787,1,0,0:0:0:0:
196,291,17001,5,8,0:0:0:0:
313,345,17215,1,0,0:0:0:0:
171,244,17429,5,0,0:0:0:0:
176,268,17537,1,0,0:0:0:0:
181,292,17644,1,8,0:0:0:0:
308,202,17858,1,0,0:0:0:0:
512,344,18072,5,8,0:0:0:0:
387,241,18287,1,0,0:0:0:0:
391,258,18394,1,0,0:0:0:0:
395,275,18501,1,0,0:0:0:0:
312,345,18715,1,8,0:0:0:0:
188,242,18929,1,0,0:0:0:0:
192,259,19037,1,0,0:0:0:0:
196,276,19144,1,0,0:0:0:0:
113,346,19358,1,8,0:0:0:0:
48,62,19787,5,8,0:0:0:0:
15,113,19894,1,0,0:0:0:0:
39,165,20001,1,0,0:0:0:0:
133,122,20215,1,0,0:0:0:0:
42,48,20429,5,8,0:0:0:0:
148,123,20644,1,0,0:0:0:0:
32,10,20858,5,0,0:0:0:0:
37,30,20965,1,0,0:0:0:0:
42,48,21072,1,8,0:0:0:0:
21,188,21287,1,0,0:0:0:0:
256,40,21501,5,8,0:0:0:0:
344,172,21715,1,0,0:0:0:0:
348,155,21822,1,0,0:0:0:0:
352,138,21929,1,0,0:0:0:0:
241,160,22144,1,8,0:0:0:0:
329,292,22358,1,0,0:0:0:0:
333,275,22465,1,0,0:0:0:0:
337,258,22572,1,0,0:0:0:0:
226,280,22787,1,8,0:0:0:0:
485,72,23215,5,8,0:0:0:0:
512,119,23322,1,0,0:0:0:0:
494,175,23429,1,0,0:0:0:0:
400,132,23644,1,0,0:0:0:0:
491,58,23858,5,8,0:0:0:0:
385,133,24072,1,0,0:0:0:0:
506,0,24287,5,0,0:0:0:0:
501,23,24394,1,0,0:0:0:0:
496,44,24501,1,8,0:0:0:0:
512,198,24715,1,0,0:0:0:0:
377,48,24929,6,0,L|362:24,1,27.5,8|0,0:0|0:0,0:0:0:0:
276,40,25144,6,0,L|265:24,2,18.3333333333333
210,82,25358,6,0,L|199:66,2,18.3333333333333
144,124,25573,6,0,L|128:100,2,18.3333333333333
78,166,25787,6,0,L|67:150,2,18.3333333333333
18,210,26001,5,0,0:0:0:0:
18,210,26073,6,0,L|13:246,1,36.6666666666667,8|0,0:0|0:0,0:0:0:0:
88,289,26358,2,0,L|93:253,1,36.6666666666667,8|0,0:0|0:0,0:0:0:0:
168,296,26644,2,0,L|163:332,1,36.6666666666667,8|0,0:0|0:0,0:0:0:0:
238,375,26930,2,0,L|243:339,1,36.6666666666667,8|0,0:0|0:0,0:0:0:0:
318,382,27215,1,8,0:0:0:0:
194,2,27501,5,4,1:3:0:0:
439,0,28144,5,2,0:0:0:0:
425,4,28215,5,2,0:0:0:0:
411,8,28287,5,2,0:0:0:0:
451,37,28358,6,0,L|198:17,1,254.374999029636,4|0,1:2|0:0,0:0:0:0:
194,2,29001,1,0,1:0:0:0:
76,91,29216,2,0,P|180:147|177:264,1,247.500009441376,8|0,0:0|0:0,0:0:0:0:
280,324,30072,6,0,L|291:381,1,41.2500015735627,0|0,1:0|0:0,0:0:0:0:
352,184,30394,2,0,L|344:224,1,41.2500015735627,0|0,1:0|0:0,0:0:0:0:
432,86,30715,5,2,1:2:0:0:
425,82,30787,5,2,0:0:0:0:
418,78,30858,5,2,0:0:0:0:
466,37,30929,6,0,L|458:174,1,136.950001985207,8|0,0:0|0:0,0:0:0:0:
510,249,31358,1,2,0:0:0:0:
410,277,31572,1,2,0:0:0:0:
512,345,31787,2,0,P|439:306|336:296,1,182.600002646942,0|0,1:0|1:0,0:0:0:0:
390,382,32429,1,0,1:0:0:0:
209,384,32644,6,0,B|228:299|198:276|219:203,1,182.600002646942,8|0,0:0|0:0,0:0:0:0:
56,259,33287,5,2,1:2:0:0:
66,265,33358,5,2,0:0:0:0:
75,271,33429,5,2,0:0:0:0:
87,276,33501,6,8,P|109:278|131:272,1,45.6500006617355,2|0,1:0|0:0,0:0:0:0:
100,194,33715,2,8,P|78:188|59:174,1,45.6500006617355,2|0,0:1|0:0,0:0:0:0:
90,71,33929,2,8,P|99:91|115:107,1,45.6500006617355,2|0,1:0|0:0,0:0:0:0:
172,44,34144,2,8,P|165:22|167:0,1,45.6500006617355,2|0,0:1|0:0,0:0:0:0:
226,128,34358,6,0,L|289:135,1,64.1666672786077,8|0,1:2|0:0,0:0:0:0:
296,143,34572,5,0,3:0:0:0:
303,150,34644,6,0,L|366:158,1,64.1666672786077,0|0,1:0|0:0,0:0:0:0:
496,96,34930,2,0,L|432:87,1,64.1666672786077,0|0,1:0|0:0,0:0:0:0:
512,219,35215,6,0,L|237:241,1,275,4|0,1:2|0:0,0:0:0:0:
248,256,35858,1,0,1:0:0:0:
104,208,36073,2,0,P|106:325|3:381,1,247.500009441376,8|0,0:0|0:0,0:0:0:0:
80,200,36929,6,0,L|85:240,1,41.2500015735627,0|0,1:0|0:0,0:0:0:0:
8,88,37251,2,0,L|2:128,1,41.2500015735627,0|0,1:0|0:0,0:0:0:0:
146,56,37572,5,2,1:2:0:0:
153,60,37644,5,2,0:0:0:0:
161,64,37715,5,2,0:0:0:0:
134,89,37787,6,0,P|178:88|215:114,1,91.3000013234711,10|0,0:1|0:0,0:0:0:0:
260,173,38108,2,0,P|296:199|341:197,1,91.3000013234711,2|0,0:1|0:0,0:0:0:0:
409,165,38429,1,2,0:1:0:0:
202,216,38644,6,0,P|275:269|365:267,1,182.600002646942,2|0,1:0|1:0,0:0:0:0:
409,165,39287,1,0,1:0:0:0:
160,32,39501,6,0,B|181:105|151:128|170:213,1,182.600002646942,8|0,0:0|0:0,0:0:0:0:
50,317,40144,5,2,1:2:0:0:
45,327,40215,5,2,0:0:0:0:
40,337,40287,5,2,0:0:0:0:
35,347,40358,6,0,P|53:333|75:329,1,45.6500006617355,2|0,1:0|0:0,0:0:0:0:
156,367,40572,2,0,P|175:381|197:385,1,45.6500006617355,2|0,0:1|0:0,0:0:0:0:
278,346,40787,2,0,P|296:332|318:328,1,45.6500006617355,2|0,1:0|0:0,0:0:0:0:
399,366,41001,2,0,P|417:379|439:383,1,45.6500006617355,2|0,0:1|0:0,0:0:0:0:
512,286,41216,6,0,L|504:222,1,64.1666672786077,8|0,1:2|0:0,0:0:0:0:
497,216,41429,5,0,3:0:0:0:
490,209,41501,6,0,L|481:145,1,64.1666672786077,0|0,1:0|0:0,0:0:0:0:
360,128,41787,2,0,L|351:64,1,64.1666672786077,0|0,1:0|0:0,0:0:0:0:
120,0,42073,6,0,L|97:274,1,275,4|0,1:2|0:0,0:0:0:0:
88,288,42715,1,0,1:0:0:0:
208,384,42930,2,0,P|263:280|380:281,1,247.500009441376,8|0,0:0|0:0,0:0:0:0:
456,176,43787,6,0,L|496:170,1,41.2500015735627,0|0,1:0|0:0,0:0:0:0:
293,105,44108,2,0,L|333:110,1,41.2500015735627,0|0,1:0|0:0,0:0:0:0:
154,28,44429,5,2,1:2:0:0:
141,25,44501,5,2,0:0:0:0:
128,22,44572,5,2,0:0:0:0:
140,59,44644,6,0,L|3:67,1,136.950001985207,8|0,0:0|0:0,0:0:0:0:
33,156,45072,1,2,0:0:0:0:
5,245,45287,1,2,0:0:0:0:
127,190,45501,2,0,P|51:240|0:315,1,182.600002646942,0|0,1:0|1:0,0:0:0:0:
84,384,46144,1,0,1:0:0:0:
226,305,46358,6,0,B|299:326|322:296|407:315,1,182.600002646942,8|0,0:0|0:0,0:0:0:0:
509,189,47001,5,2,1:2:0:0:
502,180,47072,5,2,0:0:0:0:
496,170,47144,5,2,0:0:0:0:
490,161,47215,6,0,P|483:139|482:116,1,45.6500006617355,2|0,1:0|0:0,0:0:0:0:
412,21,47429,2,0,P|404:43|403:66,1,45.6500006617355,2|0,0:1|0:0,0:0:0:0:
313,161,47644,2,0,P|320:140|321:117,1,45.6500006617355,2|0,1:0|0:0,0:0:0:0:
232,20,47858,2,0,P|239:42|240:65,1,45.6500006617355,2|0,0:1|0:0,0:0:0:0:
141,61,48073,6,0,L|78:68,1,64.1666672786077,8|0,1:2|0:0,0:0:0:0:
71,76,48287,5,0,3:0:0:0:
64,83,48358,6,0,L|1:91,1,64.1666672786077,0|0,1:0|0:0,0:0:0:0:
184,192,48644,2,0,L|121:184,1,64.1666672786077,0|0,1:0|0:0,0:0:0:0:
0,240,48930,6,0,L|274:217,1,275,4|0,1:2|0:0,0:0:0:0:
280,232,49572,1,0,1:0:0:0:
340,81,49787,2,0,P|395:185|513:184,1,247.500009441376,8|0,0:0|0:0,0:0:0:0:
304,104,50644,6,0,L|308:63,1,41.2500015735627,0|0,1:0|0:0,0:0:0:0:
216,208,50965,2,0,L|211:167,1,41.2500015735627,0|0,1:0|0:0,0:0:0:0:
307,301,51287,5,2,1:2:0:0:
299,305,51358,5,2,0:0:0:0:
291,309,51429,5,2,0:0:0:0:
320,338,51501,6,0,P|275:331|232:344,1,91.3000013234711,10|0,0:1|0:0,0:0:0:0:
128,375,51822,2,0,P|172:382|215:369,1,91.3000013234711,2|0,0:1|0:0,0:0:0:0:
110,351,52144,1,2,0:1:0:0:
10,299,52358,6,0,P|63:226|61:136,1,182.600002646942,2|0,1:0|1:0,0:0:0:0:
130,60,53001,1,0,1:0:0:0:
169,217,53215,6,0,B|244:208|261:242|348:238,1,182.600002646942,8|0,0:0|0:0,0:0:0:0:
484,348,53858,5,2,1:2:0:0:
478,342,53929,5,2,0:0:0:0:
472,335,54001,5,2,0:0:0:0:
466,327,54072,6,0,P|461:304|462:282,1,45.6500006617355,2|0,1:0|0:0,0:0:0:0:
495,210,54287,2,0,P|500:187|499:165,1,45.6500006617355,2|0,0:1|0:0,0:0:0:0:
388,130,54501,2,0,P|404:145|424:156,1,45.6500006617355,2|0,1:0|0:0,0:0:0:0:
510,77,54715,2,0,P|488:83|468:95,1,45.6500006617355,2|0,0:1|0:0,0:0:0:0:
317,89,54930,6,0,L|310:152,1,64.1666672786077,8|0,1:2|0:0,0:0:0:0:
301,160,55144,5,0,3:0:0:0:
292,166,55216,6,0,L|284:229,1,64.1666672786077,0|0,1:0|0:0,0:0:0:0:
401,291,55501,2,0,L|393:228,1,64.1666672786077,0|0,1:0|0:0,0:0:0:0:
273,355,55787,6,0,P|204:328|165:267,1,148.500000566483,4|0,1:2|1:0,0:0:0:0:
165,267,56429,1,0,1:0:0:0:
28,334,56644,2,0,L|36:251,2,82.5,8|0|0,0:0|0:0|0:0,0:0:0:0:
185,336,57501,2,0,P|183:299|165:266,1,74.2500002832413,0|0,1:0|0:0,0:0:0:0:
285,234,57822,2,0,P|257:209|222:199,1,74.2500002832413,0|0,1:0|0:0,0:0:0:0:
283,90,58144,5,2,1:2:0:0:
248,92,58215,5,2,0:0:0:0:
216,104,58287,5,2,0:0:0:0:
174,139,58358,5,10,0:0:0:0:
68,124,58572,1,2,0:0:0:0:
83,18,58787,1,2,0:0:0:0:
189,33,59001,1,2,0:0:0:0:
222,199,59215,6,0,P|290:172|329:111,1,148.500000566483,0|0,1:0|1:0,0:0:0:0:
329,111,59858,1,0,1:0:0:0:
484,146,60072,2,0,P|415:172|376:233,1,148.500000566483,8|0,0:0|1:0,0:0:0:0:
376,233,60715,1,0,1:0:0:0:
446,376,60929,6,0,P|432:363|421:348,2,37.1250001416206,0|0|0,1:0|0:0|0:0,0:0:0:0:
302,374,61251,2,0,P|300:355|303:337,2,37.1250001416206,0|0|0,1:0|0:0|0:0,0:0:0:0:
201,270,61572,1,0,1:0:0:0:
272,105,61787,2,0,P|235:106|202:124,1,74.2500002832413,8|0,0:0|0:0,0:0:0:0:
97,99,62215,1,2,0:0:0:0:
84,151,62322,1,2,0:0:0:0:
73,204,62429,1,2,0:0:0:0:
60,254,62537,1,2,0:0:0:0:
19,296,62644,6,0,L|173:281,1,148.500000566483,0|0,1:0|1:0,0:0:0:0:
166,281,63287,1,0,1:0:0:0:
299,359,63501,2,0,L|291:277,2,82.5,8|0|0,0:0|0:0|0:0,0:0:0:0:
394,274,64358,6,0,P|395:237|413:204,1,74.2500002832413,0|0,1:0|0:0,0:0:0:0:
294,172,64679,2,0,P|321:147|356:137,1,74.2500002832413,0|0,1:0|0:0,0:0:0:0:
292,27,65001,5,2,1:2:0:0:
329,28,65072,5,2,0:0:0:0:
361,43,65144,5,2,0:0:0:0:
405,77,65215,5,10,0:0:0:0:
421,186,65429,1,2,0:0:0:0:
312,202,65644,1,2,0:0:0:0:
328,311,65858,1,2,0:0:0:0:
499,384,66072,6,0,L|512:236,1,148.500000566483,0|0,1:0|1:0,0:0:0:0:
512,236,66715,1,0,1:0:0:0:
405,77,66930,2,0,L|418:225,1,148.500000566483,8|0,0:0|1:0,0:0:0:0:
418,225,67572,1,0,1:0:0:0:
512,69,67787,6,0,P|493:72|476:80,2,37.1250001416206,0|0|0,1:0|0:0|0:0,0:0:0:0:
385,0,68108,2,0,P|373:14|367:32,2,37.1250001416206,0|0|0,1:0|0:0|0:0,0:0:0:0:
245,40,68429,1,0,1:0:0:0:
224,217,68644,2,0,P|192:197|172:165,2,74.2500002832413,8|0|0,0:0|0:0|0:0,0:0:0:0:
112,248,69287,5,2,0:0:0:0:
104,292,69394,1,2,0:0:0:0:
80,357,69501,6,0,P|86:283|62:213,1,148.500000566483,4|0,1:2|1:0,0:0:0:0:
62,213,70144,1,0,1:0:0:0:
85,55,70358,2,0,L|2:62,2,82.5,8|0|0,0:0|0:0|0:0,0:0:0:0:
228,18,71215,6,0,L|207:89,1,74.2500002832413,0|0,1:0|0:0,0:0:0:0:
317,161,71537,2,0,L|294:79,1,74.2500002832413,0|0,1:0|0:0,0:0:0:0:
407,18,71858,5,2,1:2:0:0:
399,53,71929,5,2,0:0:0:0:
390,87,72001,5,2,0:0:0:0:
391,142,72072,5,10,0:0:0:0:
496,172,72286,1,2,0:0:0:0:
500,281,72500,1,2,0:0:0:0:
396,318,72715,1,2,0:0:0:0:
215,384,72930,6,0,P|143:363|69:361,1,148.500000566483,0|0,1:0|1:0,0:0:0:0:
69,361,73572,1,0,1:0:0:0:
256,304,73787,2,0,P|276:232|278:158,1,148.500000566483,8|0,0:0|1:0,0:0:0:0:
278,158,74429,1,0,1:0:0:0:
208,16,74644,6,0,L|218:51,2,37.1250001416206,0|0|0,1:0|0:0|0:0,0:0:0:0:
119,159,74965,2,0,L|129:123,2,37.1250001416206,0|0|0,1:0|0:0|0:0,0:0:0:0:
30,16,75287,1,0,1:0:0:0:
80,176,75501,2,0,L|63:248,1,74.2500002832413,8|0,0:0|0:0,0:0:0:0:
0,384,75930,1,2,0:0:0:0:
50,372,76038,1,2,0:0:0:0:
101,361,76145,1,2,0:0:0:0:
151,349,76252,1,2,0:0:0:0:
203,335,76359,6,0,P|232:268|215:197,1,148.500000566483,0|0,1:0|1:0,0:0:0:0:
215,197,77001,1,0,1:0:0:0:
55,201,77216,2,0,L|62:284,2,82.5,8|0|0,0:0|0:0|0:0,0:0:0:0:
240,213,78072,6,0,L|169:234,1,74.2500002832413,0|0,1:0|0:0,0:0:0:0:
97,123,78394,2,0,L|168:143,1,74.2500002832413,0|0,1:0|0:0,0:0:0:0:
244,32,78715,5,2,1:2:0:0:
206,37,78787,5,2,0:0:0:0:
168,41,78858,5,2,0:0:0:0:
115,49,78929,5,10,0:0:0:0:
10,39,79144,1,2,0:0:0:0:
0,143,79358,1,2,0:0:0:0:
105,153,79572,1,2,0:0:0:0:
272,96,79787,6,0,P|251:167|248:241,1,148.500000566483,0|0,1:0|1:0,0:0:0:0:
248,241,80429,1,0,1:0:0:0:
391,337,80644,2,0,P|388:263|368:192,1,148.500000566483,8|0,0:0|1:0,0:0:0:0:
368,191,81287,1,0,1:0:0:0:
368,13,81501,6,0,L|403:3,2,37.1250001416206,0|0|0,1:0|0:0|0:0,0:0:0:0:
511,102,81822,2,0,L|475:92,2,37.1250001416206,0|0|0,1:0|0:0|0:1,0:0:0:0:
368,191,82144,1,0,1:0:0:0:
465,332,82358,6,2,P|482:325|500:320,1,37.1250001416206,10|2,0:0|0:0,0:0:0:0:
392,293,82572,2,0,P|402:277|415:264,1,37.1250001416206,2|0,0:0|0:0,0:0:0:0:
309,295,82787,2,0,P|310:276|315:258,1,37.1250001416206,2|0,0:0|0:0,0:0:0:0:
238,338,83001,2,0,P|230:321|225:303,1,37.1250001416206,2|0,0:0|0:0,0:0:0:0:
104,360,83230,5,4,1:3:0:0:
104,360,83444,1,2,0:0:0:0:
78,254,83659,1,2,0:0:0:0:
155,179,83873,2,0,L|197:169,1,37.1250001416206,2|0,3:2|0:0,0:0:0:0:
259,207,84087,2,0,L|300:219,1,37.1250001416206,2|0,3:2|0:0,0:0:0:0:
332,284,84302,1,2,0:0:0:0:
436,258,84516,1,2,0:0:0:0:
465,153,84730,1,2,0:0:0:0:
389,76,84944,5,2,0:0:0:0:
360,172,85159,1,2,0:0:0:0:
267,0,85373,1,2,0:0:0:0:
296,96,85587,1,2,0:0:0:0:
154,64,85802,2,0,P|99:54|45:65,1,111.375000424862,2|0,0:0|0:0,0:0:0:0:
45,176,86230,2,0,P|99:185|153:174,1,111.375000424862,2|0,0:0|0:0,0:0:0:0:
227,119,86659,5,8,3:0:0:0:
227,119,86873,1,2,0:0:0:0:
296,46,87087,1,2,0:0:0:0:
386,89,87302,2,0,L|377:146,1,37.1250001416206,2|0,3:2|0:0,0:0:0:0:
316,225,87516,2,0,L|350:211,1,37.1250001416206,2|0,3:2|0:0,0:0:0:0:
468,216,87730,2,0,L|439:192,1,37.1250001416206,2|0,3:2|0:0,0:0:0:0:
386,89,87944,1,2,0:0:0:0:
316,225,88159,1,2,0:0:0:0:
163,40,88373,5,2,0:0:0:0:
45,65,88587,1,2,0:0:0:0:
224,144,88802,1,2,0:0:0:0:
128,252,89016,1,2,0:0:0:0:
321,336,89230,1,2,0:0:0:0:
334,192,89444,1,2,0:0:0:0:
179,368,89659,2,0,P|172:301|140:241,1,136.950001985207,2|0,0:0|0:0,0:0:0:0:
56,192,90087,5,8,3:0:0:0:
56,192,90302,1,2,0:0:0:0:
66,316,90516,1,2,0:0:0:0:
179,368,90730,1,2,0:0:0:0:
280,296,90944,1,2,0:0:0:0:
208,195,91159,1,2,0:0:0:0:
264,70,91373,1,2,0:0:0:0:
399,56,91587,1,2,0:0:0:0:
496,192,91802,5,2,0:0:0:0:
480,336,92016,1,2,0:0:0:0:
304,244,92230,1,2,0:0:0:0:
448,260,92444,1,2,0:0:0:0:
256,313,92659,1,2,0:0:0:0:
272,168,92873,1,2,0:0:0:0:
429,127,93087,2,0,P|363:124|323:71,1,136.950001985207,2|0,0:0|0:0,0:0:0:0:
208,0,93515,5,8,3:0:0:0:
208,0,93730,2,0,L|196:44,1,45.6500006617355,2|0,3:2|0:0,0:0:0:0:
96,89,93944,1,2,0:0:0:0:
52,184,94159,1,2,0:0:0:0:
199,172,94373,2,0,P|239:191|269:225,1,91.3000013234711,2|0,0:0|0:0,0:0:0:0:
334,169,94694,2,0,P|347:201|349:238,1,73.149996986313,2|0,0:0|0:0,0:0:0:0:
430,253,95016,1,2,0:0:0:0:
512,384,95230,1,4,1:3:0:0:
256,192,95337,12,0,96837,0:0:0:0:
401,262,96929,6,0,B|411:146|331:146|342:32,1,242.000007385254,4|0,1:2|1:0,0:0:0:0:
284,234,97572,1,0,1:0:0:0:
122,126,97787,6,0,L|105:61,1,55,10|0,0:1|0:0,0:0:0:0:
187,246,98001,2,0,L|200:299,1,55,2|0,0:1|0:0,0:0:0:0:
214,153,98215,2,0,L|279:136,1,55,2|0,0:1|0:0,0:0:0:0:
94,218,98429,2,0,L|40:231,1,55,2|0,0:1|0:0,0:0:0:0:
37,96,98644,6,0,P|84:95|121:125,1,96.2500009179115,0|0,1:0|0:0,0:0:0:0:
297,181,98965,2,0,P|261:152|214:153,1,96.2500009179115,0|0,1:0|0:0,0:0:0:0:
397,210,99287,5,2,1:2:0:0:
389,243,99358,5,2,0:0:0:0:
378,276,99429,5,2,0:0:0:0:
376,332,99501,6,0,P|355:289|353:241,1,96.2500009179115,10|0,0:0|0:0,0:0:0:0:
475,274,99929,2,0,P|492:229|494:182,1,96.2500009179115,2|0,1:2|0:0,0:0:0:0:
303,378,100358,6,0,P|277:300|278:217,1,165.000006294251,8|0,1:3|1:0,0:0:0:0:
374,148,101001,1,0,1:0:0:0:
510,5,101215,2,0,L|419:12,2,91.3000013234711,8|0|0,0:0|0:0|0:0,0:0:0:0:
305,0,101858,5,2,1:2:0:0:
297,30,101965,1,2,0:0:0:0:
287,59,102071,2,0,P|220:66|145:53,1,144.375001376867,2|0,1:2|0:0,0:0:0:0:
0,84,102501,2,0,P|71:76|142:87,1,144.375001376867,0|0,1:0|0:0,0:0:0:0:
26,255,102929,6,0,L|-9:267,1,36.6666666666667,8|0,1:0|0:0,0:0:0:0:
178,93,103215,6,0,L|141:86,1,36.6666666666667,0|0,1:0|0:0,0:0:0:0:
249,310,103501,6,0,L|220:334,1,36.6666666666667,0|0,1:0|0:0,0:0:0:0:
0,264,103787,6,0,B|114:246|97:352|220:334,1,242.000007385254,4|0,1:2|1:0,0:0:0:0:
26,369,104429,1,0,1:0:0:0:
192,248,104644,6,0,L|249:233,1,60.5000018463135,10|0,0:1|0:0,0:0:0:0:
420,235,104858,2,0,L|360:248,1,60.5000018463135,2|0,0:1|0:0,0:0:0:0:
299,126,105072,2,0,L|313:184,1,60.5000018463135,2|0,0:1|0:0,0:0:0:0:
312,355,105287,2,0,L|297:296,1,60.5000018463135,2|0,0:1|0:0,0:0:0:0:
176,240,105501,6,0,P|178:188|213:151,1,104.499997209549,0|0,1:0|0:0,0:0:0:0:
360,80,105822,2,0,P|314:103|264:91,1,104.499997209549,0|0,1:0|0:0,0:0:0:0:
144,0,106144,5,2,1:2:0:0:
130,32,106215,5,2,0:0:0:0:
116,64,106287,5,2,0:0:0:0:
88,113,106358,6,0,P|120:78|162:55,1,96.2500009179115,10|0,0:0|0:0,0:0:0:0:
384,0,106787,2,0,P|425:23|458:58,1,96.2500009179115,2|0,1:2|0:0,0:0:0:0:
256,128,107215,6,0,P|238:209|256:289,1,165.000006294251,8|0,1:3|1:0,0:0:0:0:
360,384,107858,1,0,1:0:0:0:
505,280,108072,2,0,L|512:189,2,91.3000013234711,8|0|0,0:0|0:0|0:0,0:0:0:0:
360,384,108715,1,0,1:0:0:0:
241,270,108929,6,0,P|217:273|194:279,1,48.1250004589558,2|0,1:2|0:0,0:0:0:0:
125,219,109144,2,0,P|112:239|103:261,1,48.1250004589558,2|0,1:2|0:0,0:0:0:0:
0,336,109358,2,0,P|23:332|46:326,1,48.1250004589558,2|0,1:2|0:0,0:0:0:0:
114,384,109572,2,0,P|126:363|136:341,1,48.1250004589558,2|0,1:2|0:0,0:0:0:0:
247,269,109787,6,0,L|210:275,1,36.6666666666667,8|0,1:0|0:0,0:0:0:0:
304,202,110072,6,0,L|275:225,1,36.6666666666667,0|0,1:0|0:0,0:0:0:0:
321,118,110358,6,0,L|307:152,1,36.6666666666667,0|0,1:0|0:0,0:0:0:0:
256,0,110644,6,0,P|316:88|443:94,1,242.000007385254,4|0,1:2|1:0,0:0:0:0:
256,80,111287,1,0,1:0:0:0:
88,160,111501,6,0,L|77:213,1,55,10|0,0:1|0:0,0:0:0:0:
160,69,111715,2,0,L|170:15,1,55,2|0,0:1|0:0,0:0:0:0:
169,151,111929,2,0,L|222:161,1,55,2|0,0:1|0:0,0:0:0:0:
79,78,112144,2,0,L|25:67,1,55,2|0,0:1|0:0,0:0:0:0:
0,224,112358,6,0,P|19:267|59:292,1,96.2500009179115,0|0,1:0|0:0,0:0:0:0:
160,384,112679,2,0,P|187:345|189:297,1,96.2500009179115,0|0,1:0|0:0,0:0:0:0:
218,165,113001,5,2,1:2:0:0:
173,162,113072,5,2,0:0:0:0:
132,177,113144,5,2,0:0:0:0:
87,211,113215,6,0,L|-3:201,2,91.3000013234711,10|0|0,0:0|0:0|0:0,0:0:0:0:
189,297,113858,5,2,0:0:0:0:
240,280,113965,1,2,0:0:0:0:
288,288,114072,2,0,P|354:314|409:361,2,144.375001376867,8|0|0,1:3|0:0|1:0,0:0:0:0:
89,221,114929,2,0,P|162:192|240:184,2,156.749995814324,8|0|0,1:0|0:0|1:0,0:0:0:0:
224,64,115787,6,0,P|288:56|376:88,1,156.749995814324,0|0,1:0|0:0,0:0:0:0:
511,175,116215,2,0,P|434:169|362:198,1,156.749995814324,0|0,1:0|0:0,0:0:0:0:
136,184,116644,6,0,L|142:220,1,36.6666666666667,8|0,1:0|0:0,0:0:0:0:
304,288,116929,6,0,L|280:260,1,36.6666666666667,0|0,1:0|0:0,0:0:0:0:
0,288,117215,6,0,L|34:300,1,36.6666666666667,0|0,1:0|0:0,0:0:0:0:
210,88,117501,6,0,P|114:157|0:131,1,242.000007385254,4|0,1:2|1:0,0:0:0:0:
128,0,118144,1,0,1:0:0:0:
340,50,118358,6,0,L|329:104,1,55,10|0,0:1|0:0,0:0:0:0:
245,248,118572,2,0,L|255:193,1,55,2|0,0:1|0:0,0:0:0:0:
392,195,118787,2,0,L|338:185,1,55,2|0,0:1|0:0,0:0:0:0:
194,102,119001,2,0,L|247:113,1,55,2|0,0:1|0:0,0:0:0:0:
432,64,119215,6,0,P|461:101|461:148,1,96.2500009179115,0|0,1:0|0:0,0:0:0:0:
307,268,119537,2,0,P|307:221|337:184,1,96.2500009179115,0|0,1:0|0:0,0:0:0:0:
456,272,119858,5,2,1:2:0:0:
427,303,119929,5,2,0:0:0:0:
389,327,120001,5,2,0:0:0:0:
336,344,120072,6,0,P|266:340|224:283,1,144.375001376867,10|0,0:0|0:0,0:0:0:0:
112,216,120501,2,0,P|181:212|223:155,1,144.375001376867,2|0,1:2|0:0,0:0:0:0:
288,0,120929,2,0,B|250:80|342:114|310:183,1,192.500001835823,8|0,1:3|1:0,0:0:0:0:
368,40,121572,1,0,1:0:0:0:
144,0,121787,6,0,B|160:48|144:128|166:191,1,192.500001835823,8|0,0:0|1:0,0:0:0:0:
56,48,122429,1,2,1:2:0:0:
48,96,122537,1,2,0:0:0:0:
15,135,122644,2,0,P|64:187|68:257,1,144.375001376867,2|0,1:2|0:0,0:0:0:0:
152,384,123072,2,0,P|103:332|99:262,1,144.375001376867,0|0,1:0|0:0,0:0:0:0:
248,224,123501,6,0,L|241:260,1,36.6666666666667,8|0,1:0|0:0,0:0:0:0:
64,144,123787,6,0,L|88:117,1,36.6666666666667,0|0,1:0|0:0,0:0:0:0:
320,88,124071,6,0,L|284:98,1,36.6666666666667,0|0,1:0|0:0,0:0:0:0:
512,0,124358,5,4,1:3:0:0:
512,0,124786,5,0,0:0:0:0:
480,120,125000,1,0,0:0:0:0:
480,120,125429,5,0,0:0:0:0:
356,120,125643,1,0,0:0:0:0:
356,120,125750,1,0,0:0:0:0:
356,120,125857,1,0,0:0:0:0:
256,192,126071,5,0,0:0:0:0:
256,192,126179,1,0,0:0:0:0:
256,192,126286,1,0,0:0:0:0:
156,120,126500,5,0,0:0:0:0:
125,120,126607,1,0,0:0:0:0:
94,120,126714,1,0,0:0:0:0:
63,120,126821,1,0,0:0:0:0:
32,120,126929,1,0,0:0:0:0:
0,0,127143,5,0,0:0:0:0:
0,0,127250,1,0,0:0:0:0:
0,0,127357,1,0,0:0:0:0:
32,120,127571,1,0,0:0:0:0:
91,308,127786,5,4,0:0:0:0:
91,308,128214,5,0,0:0:0:0:
194,247,128429,1,0,3:0:0:0:
256,353,128643,5,0,3:0:0:0:
256,353,128750,1,0,0:0:0:0:
256,353,128857,1,0,0:0:0:0:
318,247,129071,5,0,3:0:0:0:
378,263,129179,1,0,0:0:0:0:
438,279,129286,1,0,0:0:0:0:
512,384,129500,5,4,0:0:0:0:
512,384,129607,1,0,0:0:0:0:
512,384,129714,1,0,0:0:0:0:
438,279,129929,5,0,0:0:0:0:
407,287,130036,1,0,0:0:0:0:
378,295,130143,1,0,0:0:0:0:
348,303,130250,1,0,0:0:0:0:
318,311,130358,1,0,0:0:0:0:
256,192,130571,5,0,0:0:0:0:
256,192,130679,1,0,0:0:0:0:
256,192,130786,1,0,0:0:0:0:
156,263,131000,5,0,0:0:0:0:
0,384,131214,5,4,0:0:0:0:
0,384,131643,5,0,0:0:0:0:
32,264,131857,1,0,0:0:0:0:
151,230,132071,5,0,0:0:0:0:
151,230,132179,1,0,0:0:0:0:
151,230,132286,1,0,0:0:0:0:
256,162,132499,5,0,3:0:0:0:
256,98,132606,1,0,0:0:0:0:
256,37,132714,1,0,0:0:0:0:
361,230,132929,5,4,0:0:0:0:
361,230,133037,1,0,0:0:0:0:
361,230,133144,1,0,0:0:0:0:
480,264,133357,5,0,0:0:0:0:
480,264,133464,1,0,0:0:0:0:
480,264,133571,2,0,L|469:286,1,13.75,4|4,0:0|0:0,0:0:0:0:
512,384,133786,5,0,0:0:0:0:
416,0,134214,6,0,L|403:19,1,13.75,4|0,0:0|0:0,0:0:0:0:
256,192,134429,2,0,L|256:216,1,13.75,4|0,0:0|0:0,0:0:0:0:
103,11,134643,2,0,L|96:0,1,13.75,4|0,0:0|0:0,0:0:0:0:
296,319,135071,6,2,P|256:58|215:319,1,756.25,0|2,0:0|3:0,0:2:0:0:
256,192,136358,12,0,137965,0:0:0:0:
84,190,138072,6,0,B|155:122|157:40|131:2|48:-3|36:68,1,288.750011014939,4|0,1:2|0:0,0:0:0:0:
167,91,138929,6,0,L|178:39,1,41.2500015735627,10|0,1:0|0:0,0:0:0:0:
279,15,139144,2,0,L|270:55,1,41.2500015735627,2|0,1:0|0:0,0:0:0:0:
348,130,139358,2,0,L|357:89,1,41.2500015735627,2|0,1:0|0:0,0:0:0:0:
460,54,139572,2,0,L|451:94,1,41.2500015735627,2|0,1:0|0:0,0:0:0:0:
383,283,139787,6,0,B|392:215|392:215|446:174,1,136.950001985207,4|0,1:2|0:0,0:0:0:0:
507,384,140215,2,0,B|465:329|465:329|473:262,1,136.950001985207,4|0,1:2|0:0,0:0:0:0:
393,364,140644,6,0,P|336:352|304:304,1,107.249995090485,8|0,1:0|0:0,0:0:0:0:
116,328,141072,6,2,B|140:352|140:352|232:352|232:352|256:384,1,165,2|0,1:0|0:3,1:3:0:0:
384,280,141501,6,0,P|315:225|238:265,1,182.600002646942,4|0,1:2|0:0,0:0:0:0:
223,383,142144,1,0,1:0:0:0:
48,352,142358,2,2,B|72:246|41:239|48:208|110:222|117:191|86:184|110:79,1,288.750002753735,10|0,0:1|1:0,0:2:0:0:
305,33,143215,6,0,P|250:36|208:69,1,110,4|0,1:2|0:0,0:0:0:0:
376,152,143537,2,0,P|321:148|279:115,1,110,0|0,1:0|0:0,0:0:0:0:
392,64,143858,1,0,1:0:0:0:
448,208,144072,2,0,B|434:286|434:286|449:289|449:289|435:373,2,181.500005538941,10|2|2,0:1|0:1|0:1,0:0:0:0:
352,48,144929,6,0,B|192:0|128:80|144:160|256:208|288:112,1,336.87500321269,4|0,1:2|0:0,0:0:0:0:
144,96,145787,6,0,L|134:143,1,48.1250004589558,10|0,1:0|0:0,0:0:0:0:
160,272,146001,2,0,L|169:224,1,48.1250004589558,2|0,1:0|0:0,0:0:0:0:
64,200,146215,2,0,L|54:247,1,48.1250004589558,2|0,1:0|0:0,0:0:0:0:
80,376,146429,1,2,1:3:0:0:
80,376,146537,1,2,1:3:0:0:
80,376,146643,5,2,1:3:0:0:
80,376,146750,2,0,B|40:357|40:357|-5:361,2,82.5000031471254,2|2|0,1:3|1:3|1:0,0:0:0:0:
98,292,147071,5,2,1:3:0:0:
98,292,147179,1,2,1:3:0:0:
98,292,147286,2,0,B|55:269,1,48.1250004589558,2|2,1:3|1:3,0:0:0:0:
118,206,147500,5,8,1:0:0:0:
38,108,147715,2,2,P|29:48|65:0,2,123.750004720688,2|2|2,0:1|0:1|0:1,0:1:0:0:
224,80,148358,6,0,B|380:17|428:65|444:193|340:178,1,330,4|0,1:2|1:0,0:0:0:0:
96,176,149215,6,0,P|103:84|150:5,2,185.625007081032,8|0|0,1:0|1:0|1:0,0:0:0:0:
335,255,150072,6,0,P|348:187|339:120,1,137.5,4|0,1:2|0:0,0:0:0:0:
268,6,150394,2,0,P|313:57|339:120,1,137.5,4|0,1:2|0:0,0:0:0:0:
324,274,150715,1,4,1:2:0:0:
64,336,150929,6,0,P|43:215|79:97,2,247.500009441376,12|0|0,1:2|0:0|0:0,0:0:0:0:
384,384,151787,6,0,B|426:327|474:199|330:135|282:231|296:280,1,330,4|0,1:2|1:0,0:0:0:0:
448,336,152644,6,0,L|508:348,1,61.875002360344,10|0,1:0|0:0,0:0:0:0:
512,224,152858,2,0,L|447:237,1,61.875002360344,2|0,1:0|0:0,0:0:0:0:
448,112,153072,2,0,L|508:124,1,61.875002360344,2|0,1:0|0:0,0:0:0:0:
512,0,153287,2,0,L|432:16,1,61.875002360344,2|0,1:0|0:0,0:0:0:0:
304,144,153501,6,0,B|280:92|280:92|288:35,1,110,4|0,1:2|0:0,0:0:0:0:
152,0,153822,2,0,B|161:58|161:58|136:108,1,110,4|0,1:2|0:0,0:0:0:0:
33,161,154144,5,2,1:2:0:0:
39,198,154215,5,2,0:0:0:0:
44,234,154287,5,2,0:0:0:0:
43,288,154358,6,0,P|90:241|147:276,1,144.375001376867,10|0,0:0|0:0,0:0:0:0:
280,344,154787,6,2,B|389:376|389:376|469:307,1,219.449990958939,2|0,1:0|0:0,0:1:0:0:
512,48,155215,6,0,P|422:28|363:98,1,192.500001835823,4|0,1:2|1:0,0:0:0:0:
336,224,155858,1,0,1:0:0:0:
192,112,156072,2,2,B|168:218|199:225|192:256|130:242|123:273|154:280|130:385,1,288.750002753735,10|0,0:1|1:0,0:0:0:0:
315,340,156929,6,0,P|341:284|336:224,1,123.750004720688,4|0,1:2|0:0,0:0:0:0:
432,79,157251,2,0,P|426:139|453:194,1,123.750004720688,4|0,1:2|0:0,0:0:0:0:
304,95,157572,1,4,1:2:0:0:
153,168,157787,2,0,B|168:254|168:254|152:257|152:257|166:337,2,185.625007081032,10|2|2,0:1|0:1|0:1,0:1:0:0:
16,80,158644,6,0,B|96:0|208:0|256:128|144:160,1,330,4|0,1:2|1:0,0:0:0:0:
35,304,159501,6,0,L|21:242,1,61.875002360344,10|0,1:0|0:0,0:0:0:0:
144,258,159715,2,0,L|156:318,1,61.875002360344,2|0,1:0|0:0,0:0:0:0:
279,334,159929,2,0,L|266:273,1,61.875002360344,2|0,1:0|0:0,0:0:0:0:
388,288,160144,2,0,L|401:349,1,61.875002360344,2|0,1:0|0:0,0:0:0:0:
335,223,160358,6,0,P|308:185|314:108,1,110,2|2,1:3|0:3,0:0:0:0:
417,53,160679,2,0,P|417:107|387:152,1,110,2|2,1:3|0:3,0:0:0:0:
276,212,161001,5,2,1:3:0:0:
264,173,161072,5,2,0:3:0:0:
253,132,161144,5,2,0:3:0:0:
238,78,161215,5,10,0:0:0:0:
112,144,161429,2,2,P|52:153|4:117,2,123.750004720688,2|2|2,0:1|0:1|0:1,0:1:0:0:
286,241,162072,6,0,B|436:324|513:227|474:137|387:151,1,330,4|0,1:2|1:0,0:0:0:0:
298,340,162929,6,0,P|387:360|477:340,2,185.625007081032,8|0|0,1:0|1:0|1:0,0:0:0:0:
144,192,163787,6,0,P|201:155|269:143,1,137.5,4|0,1:2|0:0,0:0:0:0:
393,191,164108,2,0,P|335:154|267:142,1,137.5,4|0,1:2|0:0,0:0:0:0:
120,214,164429,1,4,1:2:0:0:
0,0,164644,6,0,P|96:32|240:0,2,247.500009441376,12|0|0,1:2|0:0|0:0,0:0:0:0:
288,112,165501,6,0,B|457:146|465:47|465:47|424:-11|369:19,1,330,4|0,1:2|0:0,0:0:0:0:
191,128,166358,6,0,P|184:160|192:192,1,61.875002360344,10|0,1:0|0:0,0:0:0:0:
344,224,166572,2,0,P|312:216|280:224,1,61.875002360344,2|0,1:0|0:0,0:0:0:0:
232,376,166787,2,0,P|239:344|231:312,1,61.875002360344,2|0,1:0|0:0,0:0:0:0:
72,280,167001,2,0,P|103:287|135:279,1,61.875002360344,2|0,1:0|0:0,0:0:0:0:
287,160,167215,6,0,B|367:148|367:148|421:212,1,165,4|0,1:2|0:0,0:0:0:0:
512,256,167644,2,0,B|434:242|434:242|378:308,1,165,4|0,1:2|0:0,0:0:0:0:
256,384,168072,6,0,P|253:356|245:330,1,55,2|0,1:2|0:0,0:0:0:0:
96,248,168287,2,0,P|100:277|106:301,1,55,2|0,1:2|0:0,0:0:0:0:
232,184,168501,2,0,P|235:156|242:130,1,55,2|0,1:2|0:0,0:0:0:0:
392,32,168715,2,0,P|388:61|381:85,1,55,2|0,1:2|0:0,0:0:0:0:
207,191,168929,6,0,P|132:136|123:43,1,192.500001835823,4|0,1:2|1:0,0:0:0:0:
0,192,169572,1,0,1:0:0:0:
100,316,169787,2,2,B|144:316|176:332|176:300|212:328|240:316|240:368|256:368|256:264|272:264|272:316|304:300|336:332|336:300|368:316|420:316,1,330,10|0,0:1|0:0,0:0:0:0:
208,240,170643,6,0,P|217:158|257:87,1,165,4|0,1:2|1:0,0:0:0:0:
336,32,171072,1,2,0:0:0:0:
496,32,171287,1,2,0:0:0:0:
496,192,171501,1,10,0:0:0:0:
336,192,171715,1,2,0:0:0:0:
336,352,171929,1,2,0:0:0:0:
496,352,172144,1,2,0:0:0:0:
256,272,172358,6,0,B|86:237|78:336|78:336|119:395|174:364,1,330,4|0,1:2|0:0,0:0:0:0:
336,224,173215,6,0,P|313:203|284:192,1,61.875002360344,10|0,1:0|0:0,0:0:0:0:
120,272,173429,2,0,P|150:263|173:243,1,61.875002360344,2|0,1:0|0:0,0:0:0:0:
192,64,173644,2,0,P|185:94|190:124,1,61.875002360344,2|0,1:0|0:0,0:0:0:0:
336,224,173858,1,2,1:3:0:0:
336,224,173965,1,2,1:3:0:0:
336,224,174072,5,2,1:3:0:0:
336,224,174179,2,0,B|359:259|359:259|358:306,2,82.5000031471254,2|2|0,1:3|1:3|1:0,0:0:0:0:
263,276,174501,5,2,1:3:0:0:
263,276,174607,1,2,1:3:0:0:
263,276,174714,2,0,B|290:333,1,48.1250004589558,2|2,1:3|1:3,0:0:0:0:
186,315,174929,5,8,1:0:0:0:
96,176,175144,2,0,P|102:146|121:121,1,61.875002360344,2|0,0:1|0:0,0:0:0:0:
240,0,175358,2,0,L|240:61,1,61.875002360344,2|0,0:1|0:0,0:0:0:0:
384,176,175572,2,0,P|365:151|359:121,1,61.875002360344,2|0,0:1|0:0,0:0:0:0:
512,0,175787,6,0,B|546:169|447:177|447:177|389:136|419:81,1,330,4|0,1:2|1:0,0:0:0:0:
424,368,176644,6,0,L|438:203,2,165,8|0|0,1:0|1:0|1:0,0:0:0:0:
255,56,177501,6,0,L|255:193,1,137.5,4|0,1:2|0:0,0:0:0:0:
255,331,177822,2,0,L|255:194,1,137.5,4|0,1:2|0:0,0:0:0:0:
256,32,178144,1,4,1:2:0:0:
104,368,178358,6,0,L|81:121,2,247.500009441376,12|0|0,1:2|0:0|0:0,0:0:0:0:
0,176,179215,6,0,B|-34:7|65:-1|65:-1|123:40|93:95,1,330,4|0,1:2|1:0,0:0:0:0:
0,328,180072,6,0,P|32:336|64:328,1,61.875002360344,10|0,1:0|0:0,0:0:0:0:
152,192,180287,2,0,P|122:184|92:189,1,61.875002360344,2|0,1:0|0:0,0:0:0:0:
184,327,180501,2,0,P|214:332|243:324,1,61.875002360344,2|0,1:0|0:0,0:0:0:0:
336,191,180715,2,0,P|306:183|276:188,1,61.875002360344,2|0,1:0|0:0,0:0:0:0:
432,335,180929,6,0,B|472:272|472:272|472:209,1,137.5,4|0,1:2|0:0,0:0:0:0:
324,79,181251,2,0,B|368:128|368:128|368:199,1,137.5,4|0,1:2|0:0,0:0:0:0:
314,347,181572,5,2,1:2:0:0:
278,357,181644,5,2,0:0:0:0:
243,367,181715,5,2,0:0:0:0:
191,359,181787,6,0,P|178:328|158:300,1,68.75,10|0,1:2|0:0,0:0:0:0:
50,254,182001,2,0,P|45:288|32:320,1,68.75,2|0,1:2|0:0,0:0:0:0:
141,209,182215,2,0,P|146:175|159:144,1,68.75,2|0,1:2|0:0,0:0:0:0:
0,104,182429,2,0,P|13:136|33:164,1,68.75,2|0,1:2|0:0,0:0:0:0:
208,47,182644,6,0,P|315:48|396:120,1,220,4|0,1:2|1:0,0:0:0:0:
256,192,183287,1,0,1:0:0:0:
420,316,183501,2,2,B|368:316|336:300|336:332|304:300|272:316|272:264|256:264|256:368|240:368|240:316|212:328|176:300|176:332|144:316|100:316,1,330,10|0,1:0|1:0,0:0:0:0:
256,192,184358,6,0,P|218:146|159:130,1,123.750004720688,4|0,1:2|0:0,0:0:0:0:
0,128,184679,2,0,P|38:174|97:190,1,123.750004720688,4|0,1:2|0:0,0:0:0:0:
48,24,185001,1,4,1:2:0:0:
157,130,185215,1,10,0:0:0:0:
303,86,185429,1,2,0:0:0:0:
413,191,185644,1,2,0:0:0:0:
377,338,185858,1,2,0:0:0:0:
512,176,186072,6,0,B|546:7|447:-1|447:-1|389:40|419:95,1,330,4|0,1:2|1:0,0:0:0:0:
464,341,186929,6,0,P|463:310|456:280,1,61.875002360344,10|0,1:0|0:0,0:0:0:0:
334,191,187144,2,0,P|334:221|342:251,1,61.875002360344,2|0,1:0|0:0,0:0:0:0:
264,382,187358,2,0,P|263:351|255:321,1,61.875002360344,2|0,1:0|0:0,0:0:0:0:
133,231,187572,2,0,P|133:261|141:291,1,61.875002360344,2|0,1:0|0:0,0:0:0:0:
224,160,187787,6,0,L|208:51,1,110,4|0,1:2|0:0,0:0:0:0:
344,0,188108,2,0,L|328:108,1,110,4|0,1:2|0:0,0:0:0:0:
405,181,188429,5,2,1:2:0:0:
412,215,188501,5,2,0:0:0:0:
417,248,188572,5,2,0:0:0:0:
448,295,188644,6,0,L|393:300,1,55,10|0,1:2|0:0,0:0:0:0:
255,363,188858,2,2,P|237:303|256:243,2,128.150005132961,2|2|2,0:1|0:1|0:1,0:1:0:0:
120,192,189501,6,0,B|154:361|55:369|55:369|-3:328|27:273,1,330,4|0,1:2|1:0,0:0:0:0:
152,56,190358,6,0,P|61:58|-1:124,2,185.625007081032,8|0|0,1:0|1:0|1:0,0:0:0:0:
414,46,191215,6,0,P|370:97|359:164,1,137.5,4|0,1:2|0:0,0:0:0:0:
437,272,191537,2,0,P|384:228|360:165,1,137.5,4|0,1:2|0:0,0:0:0:0:
439,24,191858,1,4,1:2:0:0:
280,272,192072,6,0,P|161:255|104:151,2,247.500009441376,8|0|0,1:1|0:0|0:0,0:0:0:0:
512,192,192944,5,8,1:3:0:0:
512,192,193158,1,2,0:0:0:0:
489,302,193372,1,2,0:0:0:0:
380,343,193586,1,2,0:0:0:0:
280,272,193801,2,0,L|270:231,1,41.2500015735627,2|0,3:2|0:0,0:0:0:0:
300,144,194015,1,2,0:0:0:0:
200,61,194229,1,2,0:0:0:0:
64,16,194443,5,2,0:0:0:0:
96,147,194658,1,2,0:0:0:0:
10,271,194872,1,2,0:0:0:0:
107,176,195086,1,2,0:0:0:0:
258,191,195301,1,2,0:0:0:0:
127,152,195515,1,2,0:0:0:0:
163,22,195729,1,2,0:0:0:0:
289,58,195943,2,0,P|322:111|324:172,1,123.750004720688,2|0,0:0|0:0,0:0:0:0:
288,256,196373,5,8,3:0:0:0:
288,256,196587,1,2,0:0:0:0:
212,171,196802,1,2,0:0:0:0:
107,217,197016,1,2,0:0:0:0:
118,331,197230,2,0,L|146:360,1,41.2500015735627,2|0,3:2|0:0,0:0:0:0:
229,355,197444,2,0,L|266:336,1,41.2500015735627,2|0,3:2|0:0,0:0:0:0:
286,256,197659,1,2,0:0:0:0:
212,171,197873,1,2,0:0:0:0:
328,56,198087,5,2,0:0:0:0:
499,153,198302,1,2,0:0:0:0:
301,173,198516,1,2,0:0:0:0:
450,41,198730,1,2,0:0:0:0:
408,234,198944,2,0,L|379:263,1,41.2500015735627,2|0,3:2|0:0,0:0:0:0:
296,368,199159,2,0,L|258:349,1,41.2500015735627,2|0,3:2|0:0,0:0:0:0:
128,328,199373,2,0,P|129:266|101:212,1,123.750004720688,2|0,3:2|0:0,0:0:0:0:
0,192,199802,5,8,3:0:0:0:
0,192,200016,1,2,0:0:0:0:
56,62,200230,1,2,0:0:0:0:
199,76,200444,1,2,0:0:0:0:
228,220,200659,1,2,0:0:0:0:
364,266,200873,1,2,0:0:0:0:
472,171,201087,1,2,0:0:0:0:
443,29,201302,1,2,0:0:0:0:
256,0,201516,5,2,0:0:0:0:
213,148,201730,1,2,0:0:0:0:
27,93,201944,1,2,0:0:0:0:
176,56,202159,1,2,0:0:0:0:
223,245,202373,6,2,L|224:263,2,18.3333333333333
305,257,202587,2,2,L|296:275,2,18.3333333333333
370,308,202802,2,2,L|354:318,2,18.3333333333333
404,375,203016,1,2,0:0:0:0:
467,238,203230,6,0,L|488:239,1,20.6250007867813,0|0,3:0|0:0,0:0:0:0:
439,150,203444,2,0,L|459:139,1,20.6250007867813,0|0,3:0|0:0,0:0:0:0:
371,86,203659,2,0,L|382:68,1,20.6250007867813,0|0,3:0|0:0,0:0:0:0:
280,65,203873,2,0,L|281:44,1,20.6250007867813,0|0,3:0|0:0,0:0:0:0:
200,152,204087,6,2,L|198:165,4,13.75
148,40,204409,2,0,L|153:27,4,13.75,2|2|2|2|2,0:0|0:0|0:0|0:0|0:0,0:0:0:0:
40,80,204730,6,2,L|42:93,2,13.75
0,0,204944,5,8,1:3:0:0:
256,192,205052,12,0,206552,0:0:0:0:
175,31,206659,6,0,B|215:128|135:175|190:301,1,275,4|0,1:2|1:0,0:0:0:0:
32,240,207302,1,0,1:0:0:0:
208,304,207516,6,0,L|269:311,1,61.875002360344,10|0,0:1|0:0,0:0:0:0:
416,240,207730,2,0,L|354:232,1,61.875002360344,2|0,0:1|0:0,0:0:0:0:
344,376,207944,2,0,L|351:314,1,61.875002360344,2|0,0:1|0:0,0:0:0:0:
280,168,208159,2,0,L|272:229,1,61.875002360344,2|0,0:1|0:0,0:0:0:0:
440,327,208373,6,0,P|483:300|504:248,1,110,0|0,1:0|0:0,0:0:0:0:
382,141,208694,2,0,P|383:195|415:239,1,110,0|0,1:0|0:0,0:0:0:0:
510,152,209016,5,2,1:2:0:0:
491,122,209087,5,2,0:0:0:0:
473,94,209158,5,2,0:0:0:0:
424,72,209230,6,0,L|281:51,1,144.375001376867,10|0,0:0|0:0,0:0:0:0:
272,229,209659,2,0,L|185:113,1,144.375001376867,2|0,1:2|0:0,0:0:0:0:
32,352,210087,6,0,L|55:188,1,165.000006294251,8|0,1:3|1:0,0:0:0:0:
144,288,210730,1,0,1:0:0:0:
272,176,210944,2,0,L|284:266,2,91.3000013234711,8|0|0,0:0|0:0|0:0,0:0:0:0:
224,336,211587,5,2,1:2:0:0:
256,352,211694,1,2,0:0:0:0:
288,368,211802,2,0,P|357:363|390:302,1,144.375001376867,2|0,1:2|0:0,0:0:0:0:
512,216,212230,2,0,P|442:220|409:281,1,144.375001376867,0|0,1:0|0:0,0:0:0:0:
249,271,212659,6,0,L|283:283,1,36.6666666666667,8|0,1:0|0:0,0:0:0:0:
144,152,212944,6,0,L|110:165,1,36.6666666666667,0|0,1:0|0:0,0:0:0:0:
144,360,213230,6,0,L|178:372,1,36.6666666666667,0|0,1:0|0:0,0:0:0:0:
274,112,213516,6,0,B|144:68|136:156|4:112,1,275,4|0,1:2|1:0,0:0:0:0:
168,0,214159,1,0,1:0:0:0:
264,192,214373,6,0,P|294:193|322:180,1,61.875002360344,10|0,0:1|0:0,0:0:0:0:
415,271,214587,2,0,P|416:241|403:213,1,61.875002360344,2|0,0:1|0:0,0:0:0:0:
496,120,214802,2,0,P|465:118|437:131,1,61.875002360344,2|0,0:1|0:0,0:0:0:0:
344,39,215016,2,0,P|342:70|355:98,1,61.875002360344,2|0,0:1|0:0,0:0:0:0:
255,240,215230,6,0,P|211:256|167:239,1,96.2500009179115,0|0,1:0|0:0,0:0:0:0:
48,160,215552,2,0,P|84:190|91:236,1,96.2500009179115,0|0,1:0|0:0,0:0:0:0:
32,352,215873,5,2,1:2:0:0:
68,345,215944,5,2,0:0:0:0:
105,339,216015,5,2,0:0:0:0:
160,336,216087,6,0,P|230:348|296:320,1,144.375001376867,10|0,0:0|0:0,0:0:0:0:
448,352,216516,2,0,P|460:281|432:216,1,144.375001376867,2|0,1:2|0:0,0:0:0:0:
255,55,216944,6,0,P|269:136|237:211,1,165.000006294251,8|0,1:3|1:0,0:0:0:0:
120,256,217587,1,0,1:0:0:0:
8,152,217802,2,0,L|1:61,2,91.3000013234711,8|0|0,0:0|0:0|0:0,0:0:0:0:
120,256,218444,1,0,1:0:0:0:
256,191,218659,6,0,P|259:168|258:144,1,48.1250004589558,2|0,1:2|0:0,0:0:0:0:
336,96,218873,2,0,P|322:76|303:60,1,48.1250004589558,2|0,1:2|0:0,0:0:0:0:
216,16,219087,2,0,P|212:39|213:63,1,48.1250004589558,2|0,1:2|0:0,0:0:0:0:
136,112,219302,2,0,P|149:131|168:147,1,48.1250004589558,2|0,1:2|0:0,0:0:0:0:
114,273,219516,6,0,L|148:259,1,36.6666666666667,8|0,1:0|0:0,0:0:0:0:
43,314,219801,6,0,L|65:284,1,36.6666666666667,0|0,1:0|0:0,0:0:0:0:
0,384,220087,6,0,L|4:347,1,36.6666666666667,0|0,1:0|0:0,0:0:0:0:
187,371,220373,6,0,P|307:374|382:281,1,247.500009441376,4|0,1:2|1:0,0:0:0:0:
512,384,221016,1,0,1:0:0:0:
384,256,221230,6,0,L|371:195,1,61.875002360344,10|0,0:1|0:0,0:0:0:0:
400,32,221444,2,0,L|412:92,1,61.875002360344,2|0,0:1|0:0,0:0:0:0:
280,136,221659,2,0,L|340:123,1,61.875002360344,2|0,0:1|0:0,0:0:0:0:
504,152,221873,2,0,L|443:164,1,61.875002360344,2|0,0:1|0:0,0:0:0:0:
288,239,222087,6,0,P|236:256|183:244,1,110,0|0,1:0|0:0,0:0:0:0:
48,131,222409,2,0,P|11:170|0:224,1,110,0|0,1:0|0:0,0:0:0:0:
78,384,222730,5,2,1:2:0:0:
93,347,222801,5,2,0:0:0:0:
107,310,222873,5,2,0:0:0:0:
144,271,222944,6,0,L|240:256,2,96.2500009179115,10|0|0,0:0|0:0|0:0,0:0:0:0:
0,144,223587,5,2,0:0:0:0:
48,148,223694,1,2,0:0:0:0:
92,132,223802,2,0,P|144:76|144:0,2,156.749995814324,8|0|0,1:3|0:0|1:0,0:0:0:0:
288,16,224659,2,0,P|304:104|274:189,2,181.500005538941,8|0|0,1:0|0:0|1:0,0:0:0:0:
447,0,225516,6,0,P|484:82|477:171,1,181.500005538941,0|0,1:0|0:0,0:0:0:0:
397,363,225944,2,0,P|404:274|368:192,1,181.500005538941,0|0,1:0|0:0,0:0:0:0:
192,184,226373,6,0,L|204:218,1,36.6666666666667,8|0,1:0|0:0,0:0:0:0:
368,96,226658,6,0,L|381:62,1,36.6666666666667,0|0,1:0|0:0,0:0:0:0:
192,6,226944,6,0,L|204:40,1,36.6666666666667,0|0,1:0|0:0,0:0:0:0:
0,0,227230,6,0,P|48:128|0:256,1,275,4|0,1:2|1:0,0:0:0:0:
128,120,227873,1,0,1:0:0:0:
336,144,228087,6,0,L|400:152,1,60.5000018463135,10|0,0:1|0:0,0:0:0:0:
200,208,228302,2,0,L|139:200,1,61.875002360344,2|0,0:1|0:0,0:0:0:0:
304,256,228516,2,0,L|296:320,1,61.875002360344,2|0,0:1|0:0,0:0:0:0:
232,96,228730,2,0,L|239:35,1,61.875002360344,2|0,0:1|0:0,0:0:0:0:
424,0,228944,6,0,P|424:47|406:92,1,96.2500009179115,0|0,1:0|0:0,0:0:0:0:
424,304,229266,2,0,P|424:256|407:211,1,96.2500009179115,0|0,1:0|0:0,0:0:0:0:
322,384,229587,5,2,1:2:0:0:
283,377,229658,5,2,0:0:0:0:
244,370,229730,5,2,0:0:0:0:
192,384,229802,6,0,P|144:336|144:240,1,144.375001376867,10|0,0:0|0:0,0:0:0:0:
288,166,230230,2,0,P|281:237|232:288,1,144.375001376867,2|0,1:2|0:0,0:0:0:0:
96,144,230659,6,0,B|164:112|196:192|280:144,1,192.500001835823,8|0,1:3|1:0,0:0:0:0:
160,48,231302,1,0,1:0:0:0:
352,80,231516,6,0,B|401:141|354:211|391:264,1,192.500001835823,8|0,0:0|1:0,0:0:0:0:
288,368,232158,1,2,1:2:0:0:
240,368,232266,1,2,0:0:0:0:
191,351,232373,2,0,P|154:292|173:225,1,144.375001376867,0|0,1:0|0:0,0:0:0:0:
160,80,232802,2,0,P|197:139|178:206,1,144.375001376867,0|0,1:0|0:0,0:0:0:0:
16,208,233230,6,0,L|2:173,1,36.6666666666667,8|0,1:0|0:0,0:0:0:0:
173,224,233515,6,0,L|168:260,1,36.6666666666667,0|0,1:0|0:0,0:0:0:0:
0,32,233801,6,0,L|24:4,1,36.6666666666667,0|0,1:0|0:0,0:0:0:0:
256,0,234087,6,0,B|256:87|317:81|318:170,1,185.625007081032,4|0,1:2|0:0,0:0:0:0:
311,249,234515,1,0,1:0:0:0:
234,384,234730,1,0,1:0:0:0:
415,320,234944,6,0,P|435:296|446:267,1,61.875002360344,10|0,0:1|0:0,0:0:0:0:
400,112,235159,2,0,P|380:135|369:164,1,61.875002360344,2|0,0:1|0:0,0:0:0:0:
511,208,235373,2,0,P|488:188|459:177,1,61.875002360344,2|0,0:1|0:0,0:0:0:0:
303,223,235587,2,0,P|327:243|356:254,1,61.875002360344,2|0,0:1|0:0,0:0:0:0:
480,96,235802,6,0,P|450:50|401:27,1,110,0|0,1:0|0:0,0:0:0:0:
256,96,236123,2,0,P|233:145|187:174,1,110,0|0,1:0|0:0,0:0:0:0:
39,211,236444,5,2,1:2:0:0:
34,166,236515,5,2,0:0:0:0:
31,122,236587,5,2,0:0:0:0:
79,96,236659,6,0,P|63:165|77:235,1,144.375001376867,10|0,0:0|0:0,0:0:0:0:
112,384,237086,2,0,P|85:380|61:367,1,48.1250004589558,2|0,1:2|0:0,0:0:0:0:
136,285,237301,2,0,P|119:263|111:236,1,48.1250004589558,2|0,1:2|0:0,0:0:0:0:
256,151,237516,6,0,P|244:212|253:273,1,123.750004720688,8|0,1:3|0:0,3:0:0:0:
280,348,237944,1,0,1:0:0:0:
400,240,238159,1,0,1:0:0:0:
496,368,238373,2,0,L|405:375,2,91.3000013234711,8|0|0,0:0|0:0|0:0,0:0:0:0:
281,352,239016,5,2,1:2:0:0:
266,314,239123,1,2,0:0:0:0:
256,273,239230,2,0,P|266:205|328:174,1,144.375001376867,2|0,1:2|0:0,0:0:0:0:
439,92,239659,2,0,P|430:160|367:191,1,144.375001376867,0|0,1:0|0:0,0:0:0:0:
184,120,240087,6,0,L|207:91,1,36.6666666666667,8|0,1:0|0:0,0:0:0:0:
256,280,240373,6,0,L|252:317,1,36.6666666666667,0|0,1:0|0:0,0:0:0:0:
88,144,240658,6,0,L|74:110,1,36.6666666666667,0|0,1:0|0:0,0:0:0:0:
0,336,240944,6,0,B|87:329|85:391|174:385,1,185.625007081032,4|0,1:2|0:0,0:0:0:0:
256,380,241372,1,0,1:0:0:0:
368,272,241587,1,0,1:0:0:0:
176,192,241802,6,0,L|114:183,1,61.875002360344,10|0,0:1|0:0,0:0:0:0:
273,282,242016,2,0,L|334:290,1,61.875002360344,2|0,0:1|0:0,0:0:0:0:
179,285,242230,2,0,L|170:346,1,61.875002360344,2|0,0:1|0:0,0:0:0:0:
269,188,242444,2,0,L|278:127,1,61.875002360344,2|0,0:1|0:0,0:0:0:0:
392,0,242659,6,0,P|376:64|392:96,1,96.2500009179115,0|0,1:0|0:0,0:0:0:0:
480,224,242980,2,0,P|467:178|484:134,1,96.2500009179115,0|0,1:0|0:0,0:0:0:0:
504,350,243302,5,2,1:2:0:0:
463,336,243373,5,2,0:0:0:0:
426,320,243444,5,2,0:0:0:0:
399,272,243516,6,0,P|329:271|278:223,1,144.375001376867,10|0,0:0|0:0,0:0:0:0:
124,304,243944,2,0,P|147:298|168:287,1,48.1250004589558,2|0,1:2|0:0,0:0:0:0:
240,376,244158,2,0,P|257:359|270:339,1,48.1250004589558,2|0,1:2|3:0,3:0:0:0:
111,208,244372,6,0,P|53:226|23:279,1,123.750004720688,8|0,1:3|0:0,0:0:0:0:
23,311,244801,1,0,1:0:0:0:
0,160,245016,1,0,1:0:0:0:
143,208,245230,6,0,P|205:186|228:123,1,136.950001985207,8|0,0:0|0:0,0:0:0:0:
229,92,245658,1,0,1:0:0:0:
256,256,245873,1,0,1:0:0:0:
144,352,246087,2,0,L|48:338,2,96.2500009179115,0|0|0,1:0|0:0|1:0,0:0:0:0:
304,360,246730,1,0,1:0:0:0:
368,176,246944,6,0,L|380:141,1,36.6666666666667,8|0,1:0|0:0,0:0:0:0:
304,352,247230,6,0,L|291:317,1,36.6666666666667,0|0,1:0|0:0,0:0:0:0:
496,304,247515,6,0,L|508:269,1,36.6666666666667,0|0,1:0|0:0,0:0:0:0:
191,375,247802,6,0,P|172:289|235:227,1,185.625007081032,4|0,1:2|0:0,0:0:0:0:
320,216,248229,1,0,1:0:0:0:
160,384,248444,1,0,1:0:0:0:
64,224,248659,6,0,P|49:197|46:166,1,61.875002360344,10|0,0:1|0:0,0:0:0:0:
144,16,248873,2,0,P|158:42|161:73,1,61.875002360344,2|0,0:1|0:0,0:0:0:0:
0,80,249087,2,0,P|26:65|57:62,1,61.875002360344,2|0,0:1|0:0,0:0:0:0:
208,160,249302,2,0,P|181:174|150:177,1,61.875002360344,2|0,0:1|0:0,0:0:0:0:
128,0,249516,6,0,P|181:9|230:34,1,110,0|0,1:0|0:0,0:0:0:0:
400,64,249837,2,0,P|364:106|318:135,1,110,0|0,1:0|0:0,0:0:0:0:
186,175,250159,5,2,1:2:0:0:
177,216,250230,5,2,0:0:0:0:
170,258,250301,5,2,0:0:0:0:
159,311,250373,6,0,L|51:295,2,96.2500009179115,10|0|0,0:0|0:0|0:0,0:0:0:0:
400,344,251016,5,2,0:0:0:0:
446,329,251123,1,2,0:0:0:0:
480,295,251230,2,0,P|505:217|489:137,2,165,8|0|0,1:3|0:0|1:0,0:0:0:0:
297,77,252087,2,0,P|369:131|400:216,2,181.500005538941,8|0|0,1:0|0:0|1:0,0:0:0:0:
64,32,252944,6,0,P|124:80|151:153,1,156.749995814324,0|0,1:0|0:0,0:0:0:0:
104,368,253372,2,0,P|83:352|58:343,1,52.2499986047745,2|0,1:2|0:0,0:0:0:0:
67,244,253586,2,0,P|41:240|15:245,1,52.2499986047745,2|0,1:2|0:0,0:0:0:0:
160,144,253802,6,0,L|173:110,1,36.6666666666667,8|0,1:0|0:0,0:0:0:0:
344,264,254087,6,0,L|349:301,1,36.6666666666667,0|0,1:0|0:0,0:0:0:0:
136,384,254373,6,0,L|112:355,1,36.6666666666667,0|0,1:0|0:0,0:0:0:0:
366,360,254659,6,0,P|380:270|320:200,1,185.625007081032,4|0,1:2|3:0,0:0:0:0:
248,176,255086,1,0,1:0:0:0:
416,320,255302,1,0,1:0:0:0:
512,176,255516,6,0,L|502:114,1,61.875002360344,10|0,0:1|0:0,0:0:0:0:
354,52,255730,2,0,L|363:113,1,61.875002360344,2|0,0:1|0:0,0:0:0:0:
495,35,255944,2,0,L|433:44,1,61.875002360344,2|0,0:1|0:0,0:0:0:0:
371,192,256159,2,0,L|432:182,1,61.875002360344,2|0,0:1|0:0,0:0:0:0:
352,24,256373,6,0,P|304:26|260:46,1,96.2500009179115,0|0,1:0|0:0,0:0:0:0:
88,96,256694,2,0,P|135:98|179:118,1,96.2500009179115,0|0,1:0|0:0,0:0:0:0:
362,177,257016,5,2,1:2:0:0:
325,186,257087,5,2,0:0:0:0:
289,197,257158,5,2,0:0:0:0:
232,192,257230,6,0,P|183:220|86:211,1,144.375001376867,10|0,0:0|0:0,0:0:0:0:
0,312,257658,2,0,P|23:314|45:323,1,48.1250004589558,2|0,1:2|0:0,0:0:0:0:
136,260,257872,2,0,P|155:273|170:292,1,48.1250004589558,2|0,1:2|0:0,0:0:0:0:
256,368,258087,5,8,1:3:0:0:
376,344,258302,1,2,0:0:0:0:
352,224,258516,1,2,0:0:0:0:
232,248,258730,1,2,0:0:0:0:
424,280,258944,6,0,P|430:183|347:135,1,203.499999223709,8|0,0:0|0:0,0:0:0:0:
304,136,259480,1,2,0:0:0:0:
264,148,259586,2,0,P|244:165|229:185,1,50.8749998059273,2|0,0:0|0:0,0:0:0:0:
224,224,259802,6,0,L|232:288,2,48.1250004589558,0|0|0,1:0|0:0|0:0,0:0:0:0:
72,224,260230,2,0,L|66:271,2,48.1250004589558,0|0|0,1:0|0:0|0:0,0:0:0:0:
32,52,260659,6,0,L|19:17,1,36.6666666666667,8|0,1:0|0:0,0:0:0:0:
232,96,260944,6,0,L|220:131,1,36.6666666666667,0|0,1:0|0:0,0:0:0:0:
32,230,261230,6,0,L|19:195,1,36.6666666666667,0|0,1:0|0:0,0:0:0:0:
0,384,261515,5,8,1:3:0:0:
256,192,261623,12,0,272123,0:0:0:0:
299,51,272230,6,2,P|256:335|212:52,1,825,0|0,0:1|0:0,0:0:0:0:
