osu file format v14

[General]
AudioFilename: perl.mp3
AudioLeadIn: 0
PreviewTime: 99
Countdown: 0
SampleSet: Normal
StackLeniency: 0
Mode: 1
LetterboxInBreaks: 0
WidescreenStoryboard: 1

[Editor]
Bookmarks: 34696,65510,65645,65780,65915,66050,66186,66321,66456,66591,66726,66861,66996,67132,88755,110379,140652,170925
DistanceSpacing: 1
BeatDivisor: 1
GridSize: 32
TimelineZoom: 0.1

[Metadata]
Title:Perlence
TitleUnicode:Perlence
Artist:Autechre
ArtistUnicode:Autechre
Creator:giyokon
Version:Oni
Source:
Tags:6-36 Range Suns Losid Subrange Quaristice abstract ambient aquatic complex concept drone electronic experimental glitch idm instrumental
BeatmapID:3786509
BeatmapSetID:1802768

[Difficulty]
HPDrainRate:5
CircleSize:5
OverallDifficulty:5
ApproachRate:5
SliderMultiplier:1.4
SliderTickRate:1

[Events]
//Background and Video events
0,0,"quar.png",0,0
//Break Periods
//Storyboard Layer 0 (Background)
//Storyboard Layer 1 (Fail)
//Storyboard Layer 2 (Pass)
//Storyboard Layer 3 (Foreground)
//Storyboard Layer 4 (Overlay)
//Storyboard Sound Samples

[TimingPoints]
99,540.589242274079,4,1,0,50,1,0
99,-71.4285714285714,4,1,0,50,0,0
65442,-41.6666666666667,4,1,0,5,0,0
65577,-71.4285714285714,4,1,0,5,0,0
67064,-71.4285714285714,4,1,0,50,0,0
188201,540.589242274079,4,1,0,50,1,0
188201,-71.4285714285714,4,1,0,50,0,0

[HitObjects]
256,192,99,5,8,0:0:0:0:
256,192,369,1,0,0:0:0:0:
256,192,639,1,0,0:0:0:0:
256,192,909,1,8,0:0:0:0:
256,192,1180,1,0,0:0:0:0:
256,192,1720,1,8,0:0:0:0:
256,192,1991,1,0,0:0:0:0:
256,192,2531,1,8,0:0:0:0:
256,192,2801,1,0,0:0:0:0:
256,192,3342,1,8,0:0:0:0:
256,192,3612,1,0,0:0:0:0:
256,192,4153,1,0,0:0:0:0:
256,192,4423,1,8,0:0:0:0:
256,192,4694,1,8,0:0:0:0:
256,192,4964,1,0,0:0:0:0:
256,192,5234,1,8,0:0:0:0:
256,192,5504,1,0,0:0:0:0:
256,192,6045,1,8,0:0:0:0:
256,192,6315,1,0,0:0:0:0:
256,192,6856,1,8,0:0:0:0:
256,192,7126,1,0,0:0:0:0:
256,192,7667,1,8,0:0:0:0:
256,192,7937,1,0,0:0:0:0:
256,192,8478,1,0,0:0:0:0:
256,192,8748,1,8,0:0:0:0:
256,192,9018,1,0,0:0:0:0:
256,192,9289,1,0,0:0:0:0:
256,192,9559,1,8,0:0:0:0:
256,192,9829,1,0,0:0:0:0:
256,192,10370,1,8,0:0:0:0:
256,192,10640,1,0,0:0:0:0:
256,192,11181,1,8,0:0:0:0:
256,192,11451,1,0,0:0:0:0:
256,192,11991,1,8,0:0:0:0:
256,192,12262,1,0,0:0:0:0:
256,192,12802,1,0,0:0:0:0:
256,192,13073,1,8,0:0:0:0:
256,192,13343,1,8,0:0:0:0:
256,192,13613,1,0,0:0:0:0:
256,192,13884,1,8,0:0:0:0:
256,192,14154,1,0,0:0:0:0:
256,192,14694,1,8,0:0:0:0:
256,192,14965,1,0,0:0:0:0:
256,192,15505,1,8,0:0:0:0:
256,192,15776,1,0,0:0:0:0:
256,192,16316,1,8,0:0:0:0:
256,192,16586,1,0,0:0:0:0:
256,192,17127,1,0,0:0:0:0:
256,192,17397,1,8,0:0:0:0:
256,192,17668,1,0,0:0:0:0:
256,192,17938,1,0,0:0:0:0:
256,192,18208,1,8,0:0:0:0:
256,192,18479,1,0,0:0:0:0:
256,192,19019,1,8,0:0:0:0:
256,192,19289,1,0,0:0:0:0:
256,192,19830,1,8,0:0:0:0:
256,192,20100,1,0,0:0:0:0:
256,192,20641,1,8,0:0:0:0:
256,192,20911,1,0,0:0:0:0:
256,192,21452,1,0,0:0:0:0:
256,192,21722,1,8,0:0:0:0:
256,192,21992,1,8,0:0:0:0:
256,192,22263,1,0,0:0:0:0:
256,192,22533,1,8,0:0:0:0:
256,192,22803,1,0,0:0:0:0:
256,192,23344,1,8,0:0:0:0:
256,192,23614,1,0,0:0:0:0:
256,192,23884,1,0,0:0:0:0:
256,192,24155,1,8,0:0:0:0:
256,192,24425,1,0,0:0:0:0:
256,192,24966,1,8,0:0:0:0:
256,192,25236,1,0,0:0:0:0:
256,192,25776,1,0,0:0:0:0:
256,192,26047,1,8,0:0:0:0:
256,192,26317,1,0,0:0:0:0:
256,192,26587,1,0,0:0:0:0:
256,192,26858,1,8,0:0:0:0:
256,192,27128,1,0,0:0:0:0:
256,192,27669,1,8,0:0:0:0:
256,192,27939,1,0,0:0:0:0:
256,192,28209,1,0,0:0:0:0:
256,192,28479,1,8,0:0:0:0:
256,192,28750,1,0,0:0:0:0:
256,192,29020,1,0,0:0:0:0:
256,192,29290,1,8,0:0:0:0:
256,192,29561,1,0,0:0:0:0:
256,192,30101,1,0,0:0:0:0:
256,192,30371,1,8,0:0:0:0:
256,192,30642,1,8,0:0:0:0:
256,192,30912,1,0,0:0:0:0:
256,192,31182,1,8,0:0:0:0:
256,192,31453,1,0,0:0:0:0:
256,192,31993,1,8,0:0:0:0:
256,192,32264,1,0,0:0:0:0:
256,192,32534,1,0,0:0:0:0:
256,192,32804,1,8,0:0:0:0:
256,192,33074,1,0,0:0:0:0:
256,192,33615,1,8,0:0:0:0:
256,192,33885,1,0,0:0:0:0:
256,192,34156,1,8,0:0:0:0:
256,192,34426,1,8,0:0:0:0:
256,192,34696,1,0,0:0:0:0:
256,192,34786,1,0,0:0:0:0:
256,192,34967,1,8,0:0:0:0:
256,192,35057,1,8,0:0:0:0:
256,192,35507,1,0,0:0:0:0:
256,192,36138,1,8,0:0:0:0:
256,192,36228,1,8,0:0:0:0:
256,192,36318,1,0,0:0:0:0:
256,192,36588,1,0,0:0:0:0:
256,192,36859,1,0,0:0:0:0:
256,192,36949,1,0,0:0:0:0:
256,192,37399,1,0,0:0:0:0:
256,192,37669,1,0,0:0:0:0:
256,192,37760,1,8,0:0:0:0:
256,192,37940,1,0,0:0:0:0:
256,192,39021,1,0,0:0:0:0:
256,192,39111,1,0,0:0:0:0:
256,192,39291,1,8,0:0:0:0:
256,192,39381,1,8,0:0:0:0:
256,192,39832,1,0,0:0:0:0:
256,192,40462,1,8,0:0:0:0:
256,192,40553,1,8,0:0:0:0:
256,192,40643,1,0,0:0:0:0:
256,192,40913,1,0,0:0:0:0:
256,192,41183,1,0,0:0:0:0:
256,192,41273,1,0,0:0:0:0:
256,192,41724,1,0,0:0:0:0:
256,192,41994,1,0,0:0:0:0:
256,192,42084,1,8,0:0:0:0:
256,192,42264,1,0,0:0:0:0:
256,192,43346,1,0,0:0:0:0:
256,192,43436,1,0,0:0:0:0:
256,192,43616,1,8,0:0:0:0:
256,192,43706,1,8,0:0:0:0:
256,192,44157,1,0,0:0:0:0:
256,192,44787,1,8,0:0:0:0:
256,192,44877,1,8,0:0:0:0:
256,192,44967,1,0,0:0:0:0:
256,192,45238,1,0,0:0:0:0:
256,192,45508,1,0,0:0:0:0:
256,192,45598,1,0,0:0:0:0:
256,192,46049,1,0,0:0:0:0:
256,192,46319,1,0,0:0:0:0:
256,192,46409,1,8,0:0:0:0:
256,192,46589,1,0,0:0:0:0:
256,192,47670,1,0,0:0:0:0:
256,192,47760,1,0,0:0:0:0:
256,192,47941,1,8,0:0:0:0:
256,192,48031,1,8,0:0:0:0:
256,192,48211,1,0,0:0:0:0:
256,192,48481,1,0,0:0:0:0:
256,192,49112,1,8,0:0:0:0:
256,192,49202,1,8,0:0:0:0:
256,192,49292,1,0,0:0:0:0:
256,192,49562,1,0,0:0:0:0:
256,192,50373,1,0,0:0:0:0:
256,192,50734,1,8,0:0:0:0:
256,192,51454,1,0,0:0:0:0:
256,192,51995,1,8,0:0:0:0:
256,192,52085,1,0,0:0:0:0:
256,192,52265,1,8,0:0:0:0:
256,192,52355,1,8,0:0:0:0:
256,192,52536,1,0,0:0:0:0:
256,192,52806,1,0,0:0:0:0:
256,192,53617,1,8,0:0:0:0:
256,192,53887,1,0,0:0:0:0:
256,192,54157,1,0,0:0:0:0:
256,192,54248,1,0,0:0:0:0:
256,192,54698,1,0,0:0:0:0:
256,192,55058,1,8,0:0:0:0:
256,192,55779,1,0,0:0:0:0:
256,192,56320,1,8,0:0:0:0:
256,192,56500,1,0,0:0:0:0:
256,192,56590,1,8,0:0:0:0:
256,192,56680,1,8,0:0:0:0:
256,192,56860,1,0,0:0:0:0:
256,192,57063,1,8,0:0:0:0:
256,192,57761,1,8,0:0:0:0:
256,192,57851,1,8,0:0:0:0:
256,192,57942,1,0,0:0:0:0:
256,192,58347,1,8,0:0:0:0:
256,192,58482,1,8,0:0:0:0:
256,192,58572,1,0,0:0:0:0:
256,192,58752,1,0,0:0:0:0:
256,192,59023,1,8,0:0:0:0:
256,192,59158,1,8,0:0:0:0:
256,192,59293,1,0,0:0:0:0:
256,192,59383,1,8,0:0:0:0:
256,192,59563,1,0,0:0:0:0:
256,192,59834,1,0,0:0:0:0:
256,192,60104,1,8,0:0:0:0:
256,192,60509,1,8,0:0:0:0:
256,192,60644,1,0,0:0:0:0:
256,192,60735,1,0,0:0:0:0:
256,192,60915,1,8,0:0:0:0:
256,192,61005,1,8,0:0:0:0:
256,192,61185,1,0,0:0:0:0:
256,192,61388,1,8,0:0:0:0:
256,192,61591,1,8,0:0:0:0:
256,192,61726,1,0,0:0:0:0:
256,192,61861,1,8,0:0:0:0:
256,192,61996,1,0,0:0:0:0:
256,192,62176,1,8,0:0:0:0:
256,192,62266,1,0,0:0:0:0:
256,192,62672,1,8,0:0:0:0:
256,192,62807,1,0,0:0:0:0:
256,192,62897,1,0,0:0:0:0:
256,192,63077,1,0,0:0:0:0:
256,192,63347,1,8,0:0:0:0:
256,192,63483,1,8,0:0:0:0:
256,192,63618,1,0,0:0:0:0:
256,192,63708,1,0,0:0:0:0:
256,192,63888,1,0,0:0:0:0:
256,192,64429,1,8,0:0:0:0:
256,192,64969,1,0,0:0:0:0:
256,192,65059,1,0,0:0:0:0:
256,192,65240,1,8,0:0:0:0:
256,192,65330,1,8,0:0:0:0:
256,192,65510,12,0,66996,0:0:0:0:
256,192,67132,5,0,0:0:0:0:
256,192,67222,1,0,0:0:0:0:
256,192,67402,1,8,0:0:0:0:
256,192,67492,1,8,0:0:0:0:
256,192,67672,1,0,0:0:0:0:
256,192,67942,1,0,0:0:0:0:
256,192,68573,1,8,0:0:0:0:
256,192,68663,1,8,0:0:0:0:
256,192,68753,1,0,0:0:0:0:
256,192,69024,1,0,0:0:0:0:
256,192,69294,1,8,0:0:0:0:
256,192,69384,1,8,0:0:0:0:
256,192,69835,1,8,0:0:0:0:
256,192,70105,1,8,0:0:0:0:
256,192,70195,1,8,0:0:0:0:
256,192,70375,1,0,0:0:0:0:
256,192,70916,1,8,0:0:0:0:
256,192,71456,1,8,0:0:0:0:
256,192,71546,1,0,0:0:0:0:
256,192,71727,1,8,0:0:0:0:
256,192,71817,1,8,0:0:0:0:
256,192,71997,1,8,0:0:0:0:
256,192,72267,1,0,0:0:0:0:
256,192,72537,1,8,0:0:0:0:
256,192,72808,1,8,0:0:0:0:
256,192,72988,1,8,0:0:0:0:
256,192,73078,1,0,0:0:0:0:
256,192,73348,1,0,0:0:0:0:
256,192,73619,1,0,0:0:0:0:
256,192,73709,1,0,0:0:0:0:
256,192,73889,1,0,0:0:0:0:
256,192,74159,1,8,0:0:0:0:
256,192,74520,1,8,0:0:0:0:
256,192,74970,1,8,0:0:0:0:
256,192,75240,1,0,0:0:0:0:
256,192,75331,1,8,0:0:0:0:
256,192,75511,1,8,0:0:0:0:
256,192,75781,1,0,0:0:0:0:
256,192,75871,1,0,0:0:0:0:
256,192,76051,1,8,0:0:0:0:
256,192,76141,1,8,0:0:0:0:
256,192,76322,1,8,0:0:0:0:
256,192,76592,1,0,0:0:0:0:
256,192,76862,1,8,0:0:0:0:
256,192,77132,1,8,0:0:0:0:
256,192,77313,1,8,0:0:0:0:
256,192,77403,1,0,0:0:0:0:
256,192,77673,1,0,0:0:0:0:
256,192,77943,1,8,0:0:0:0:
256,192,78033,1,8,0:0:0:0:
256,192,78214,1,0,0:0:0:0:
256,192,78394,1,8,0:0:0:0:
256,192,78484,1,0,0:0:0:0:
256,192,78844,1,8,0:0:0:0:
256,192,78934,1,0,0:0:0:0:
256,192,79025,1,8,0:0:0:0:
256,192,79430,1,0,0:0:0:0:
256,192,79565,1,8,0:0:0:0:
256,192,79745,1,0,0:0:0:0:
256,192,79835,1,8,0:0:0:0:
256,192,79926,1,8,0:0:0:0:
256,192,80106,1,0,0:0:0:0:
256,192,80196,1,0,0:0:0:0:
256,192,80376,1,8,0:0:0:0:
256,192,80466,1,8,0:0:0:0:
256,192,80646,1,0,0:0:0:0:
256,192,80917,1,0,0:0:0:0:
256,192,81187,1,8,0:0:0:0:
256,192,81547,1,8,0:0:0:0:
256,192,81637,1,8,0:0:0:0:
256,192,81727,1,0,0:0:0:0:
256,192,81998,1,0,0:0:0:0:
256,192,82268,1,0,0:0:0:0:
256,192,82358,1,0,0:0:0:0:
256,192,82809,1,8,0:0:0:0:
256,192,83079,1,8,0:0:0:0:
256,192,83169,1,8,0:0:0:0:
256,192,83349,1,0,0:0:0:0:
256,192,83890,1,8,0:0:0:0:
256,192,84250,1,0,0:0:0:0:
256,192,84430,1,0,0:0:0:0:
256,192,84521,1,0,0:0:0:0:
256,192,84701,1,8,0:0:0:0:
256,192,84791,1,8,0:0:0:0:
256,192,84971,1,0,0:0:0:0:
256,192,85151,1,8,0:0:0:0:
256,192,85241,1,0,0:0:0:0:
256,192,85872,1,8,0:0:0:0:
256,192,85962,1,8,0:0:0:0:
256,192,86052,1,0,0:0:0:0:
256,192,86322,1,0,0:0:0:0:
256,192,86593,1,8,0:0:0:0:
256,192,86683,1,8,0:0:0:0:
256,192,87133,1,8,0:0:0:0:
256,192,87404,1,0,0:0:0:0:
256,192,87494,1,0,0:0:0:0:
256,192,87674,1,0,0:0:0:0:
256,192,87944,1,8,0:0:0:0:
256,192,88215,1,0,0:0:0:0:
256,192,88305,1,8,0:0:0:0:
256,192,88485,1,8,0:0:0:0:
256,192,88755,1,8,0:0:0:0:
256,192,88845,1,0,0:0:0:0:
256,192,89025,1,8,0:0:0:0:
256,192,89116,1,8,0:0:0:0:
256,192,89296,1,0,0:0:0:0:
256,192,89634,1,8,0:0:0:0:
256,192,89836,1,8,0:0:0:0:
256,192,90107,1,0,0:0:0:0:
256,192,90287,1,8,0:0:0:0:
256,192,90377,1,0,0:0:0:0:
256,192,90701,1,8,0:0:0:0:
256,192,90917,1,0,0:0:0:0:
256,192,91008,1,0,0:0:0:0:
256,192,91458,1,0,0:0:0:0:
256,192,91728,1,8,0:0:0:0:
256,192,91818,1,8,0:0:0:0:
256,192,91999,1,0,0:0:0:0:
256,192,92539,1,0,0:0:0:0:
256,192,92674,1,8,0:0:0:0:
256,192,93080,1,0,0:0:0:0:
256,192,93170,1,0,0:0:0:0:
256,192,93350,1,8,0:0:0:0:
256,192,93440,1,8,0:0:0:0:
256,192,93620,1,0,0:0:0:0:
256,192,93823,1,8,0:0:0:0:
256,192,94161,1,0,0:0:0:0:
256,192,94521,1,8,0:0:0:0:
256,192,94612,1,8,0:0:0:0:
256,192,94702,1,0,0:0:0:0:
256,192,95026,1,8,0:0:0:0:
256,192,95242,1,0,0:0:0:0:
256,192,95332,1,0,0:0:0:0:
256,192,95783,1,0,0:0:0:0:
256,192,96154,1,8,0:0:0:0:
256,192,96594,1,8,0:0:0:0:
256,192,96999,1,8,0:0:0:0:
256,192,97202,1,0,0:0:0:0:
256,192,97405,1,8,0:0:0:0:
256,192,97495,1,0,0:0:0:0:
256,192,97675,1,0,0:0:0:0:
256,192,97765,1,8,0:0:0:0:
256,192,97945,1,0,0:0:0:0:
256,192,98148,1,8,0:0:0:0:
256,192,98283,1,8,0:0:0:0:
256,192,98486,1,8,0:0:0:0:
256,192,98621,1,8,0:0:0:0:
256,192,98756,1,0,0:0:0:0:
256,192,98936,1,0,0:0:0:0:
256,192,99026,1,8,0:0:0:0:
256,192,99297,1,0,0:0:0:0:
256,192,99477,1,8,0:0:0:0:
256,192,99567,1,8,0:0:0:0:
256,192,99837,1,0,0:0:0:0:
256,192,100108,1,8,0:0:0:0:
256,192,100378,1,8,0:0:0:0:
256,192,100494,1,0,0:0:0:0:
256,192,100648,1,8,0:0:0:0:
256,192,100918,1,0,0:0:0:0:
256,192,101054,1,8,0:0:0:0:
256,192,101189,1,0,0:0:0:0:
256,192,101324,1,0,0:0:0:0:
256,192,101527,1,8,0:0:0:0:
256,192,101729,1,8,0:0:0:0:
256,192,101819,1,0,0:0:0:0:
256,192,102000,1,8,0:0:0:0:
256,192,102090,1,8,0:0:0:0:
256,192,102270,1,0,0:0:0:0:
256,192,102540,1,0,0:0:0:0:
256,192,102810,1,8,0:0:0:0:
256,192,103081,1,0,0:0:0:0:
256,192,103261,1,8,0:0:0:0:
256,192,103351,1,0,0:0:0:0:
256,192,103531,1,0,0:0:0:0:
256,192,103675,1,8,0:0:0:0:
256,192,103892,1,0,0:0:0:0:
256,192,104072,1,8,0:0:0:0:
256,192,104230,1,0,0:0:0:0:
256,192,104432,1,8,0:0:0:0:
256,192,104973,1,0,0:0:0:0:
256,192,105513,1,0,0:0:0:0:
256,192,105649,1,8,0:0:0:0:
256,192,105716,1,8,0:0:0:0:
256,192,105851,1,0,0:0:0:0:
256,192,105919,1,0,0:0:0:0:
256,192,106054,1,8,0:0:0:0:
256,192,106595,1,0,0:0:0:0:
256,192,106865,1,8,0:0:0:0:
256,192,106932,1,8,0:0:0:0:
256,192,107135,1,8,0:0:0:0:
256,192,107203,1,8,0:0:0:0:
256,192,107405,1,0,0:0:0:0:
256,192,107676,1,8,0:0:0:0:
256,192,107946,1,0,0:0:0:0:
256,192,108216,1,0,0:0:0:0:
256,192,108385,1,8,0:0:0:0:
256,192,108487,1,0,0:0:0:0:
256,192,108656,1,8,0:0:0:0:
256,192,108757,1,0,0:0:0:0:
256,192,109298,1,0,0:0:0:0:
256,192,109838,1,8,0:0:0:0:
256,192,110379,1,0,0:0:0:0:
256,192,110469,1,0,0:0:0:0:
256,192,110649,1,8,0:0:0:0:
256,192,110739,1,8,0:0:0:0:
256,192,110919,1,0,0:0:0:0:
256,192,111190,1,0,0:0:0:0:
256,192,111820,1,8,0:0:0:0:
256,192,111910,1,8,0:0:0:0:
256,192,112000,1,0,0:0:0:0:
256,192,112271,1,0,0:0:0:0:
256,192,112541,1,8,0:0:0:0:
256,192,112631,1,0,0:0:0:0:
256,192,113082,1,8,0:0:0:0:
256,192,113442,1,8,0:0:0:0:
256,192,113622,1,0,0:0:0:0:
256,192,114163,1,8,0:0:0:0:
256,192,114523,1,0,0:0:0:0:
256,192,114703,1,0,0:0:0:0:
256,192,114794,1,0,0:0:0:0:
256,192,114974,1,8,0:0:0:0:
256,192,115064,1,8,0:0:0:0:
256,192,115244,1,0,0:0:0:0:
256,192,115514,1,0,0:0:0:0:
256,192,116145,1,8,0:0:0:0:
256,192,116235,1,8,0:0:0:0:
256,192,116325,1,0,0:0:0:0:
256,192,116595,1,0,0:0:0:0:
256,192,116866,1,0,0:0:0:0:
256,192,116956,1,0,0:0:0:0:
256,192,117406,1,8,0:0:0:0:
256,192,117767,1,8,0:0:0:0:
256,192,117947,1,0,0:0:0:0:
256,192,118488,1,8,0:0:0:0:
256,192,119028,1,0,0:0:0:0:
256,192,119298,1,8,0:0:0:0:
256,192,119389,1,8,0:0:0:0:
256,192,119569,1,0,0:0:0:0:
256,192,119749,1,8,0:0:0:0:
256,192,119929,1,0,0:0:0:0:
256,192,120019,1,0,0:0:0:0:
256,192,120109,1,0,0:0:0:0:
256,192,120199,1,8,0:0:0:0:
256,192,120470,1,8,0:0:0:0:
256,192,120560,1,8,0:0:0:0:
256,192,120650,1,0,0:0:0:0:
256,192,120920,1,8,0:0:0:0:
256,192,121326,1,8,0:0:0:0:
256,192,121731,1,8,0:0:0:0:
256,192,122091,1,8,0:0:0:0:
256,192,122407,1,0,0:0:0:0:
256,192,122812,1,8,0:0:0:0:
256,192,123218,1,0,0:0:0:0:
256,192,123353,1,8,0:0:0:0:
256,192,123623,1,0,0:0:0:0:
256,192,123758,1,8,0:0:0:0:
256,192,123893,1,8,0:0:0:0:
256,192,124029,1,0,0:0:0:0:
256,192,124164,1,8,0:0:0:0:
256,192,124434,1,0,0:0:0:0:
256,192,124502,1,8,0:0:0:0:
256,192,124975,1,0,0:0:0:0:
256,192,125245,1,8,0:0:0:0:
256,192,125650,1,8,0:0:0:0:
256,192,126056,1,8,0:0:0:0:
256,192,126416,1,8,0:0:0:0:
256,192,126732,1,0,0:0:0:0:
256,192,127137,1,8,0:0:0:0:
256,192,127542,1,0,0:0:0:0:
256,192,127678,1,8,0:0:0:0:
256,192,127948,1,8,0:0:0:0:
256,192,128083,1,8,0:0:0:0:
256,192,128353,1,8,0:0:0:0:
256,192,128488,1,0,0:0:0:0:
256,192,128759,1,0,0:0:0:0:
256,192,128826,1,8,0:0:0:0:
256,192,129119,1,8,0:0:0:0:
256,192,129209,1,8,0:0:0:0:
256,192,129299,1,0,0:0:0:0:
256,192,129570,1,8,0:0:0:0:
256,192,129975,1,8,0:0:0:0:
256,192,130245,1,0,0:0:0:0:
256,192,130561,1,0,0:0:0:0:
256,192,130651,1,0,0:0:0:0:
256,192,130741,1,8,0:0:0:0:
256,192,131056,1,0,0:0:0:0:
256,192,131462,1,8,0:0:0:0:
256,192,131867,1,0,0:0:0:0:
256,192,132002,1,8,0:0:0:0:
256,192,132273,1,0,0:0:0:0:
256,192,132408,1,8,0:0:0:0:
256,192,132543,1,0,0:0:0:0:
256,192,132678,1,8,0:0:0:0:
256,192,132813,1,8,0:0:0:0:
256,192,133083,1,0,0:0:0:0:
256,192,133151,1,8,0:0:0:0:
256,192,133444,1,8,0:0:0:0:
256,192,133534,1,8,0:0:0:0:
256,192,133624,1,0,0:0:0:0:
256,192,133894,1,8,0:0:0:0:
256,192,134300,1,8,0:0:0:0:
256,192,134570,1,0,0:0:0:0:
256,192,134976,1,0,0:0:0:0:
256,192,135066,1,8,0:0:0:0:
256,192,135381,1,0,0:0:0:0:
256,192,135786,1,8,0:0:0:0:
256,192,136192,1,0,0:0:0:0:
256,192,136327,1,8,0:0:0:0:
256,192,136597,1,8,0:0:0:0:
256,192,136732,1,8,0:0:0:0:
256,192,136868,1,0,0:0:0:0:
256,192,137003,1,8,0:0:0:0:
256,192,137138,1,0,0:0:0:0:
256,192,137408,1,0,0:0:0:0:
256,192,137476,1,8,0:0:0:0:
256,192,137949,1,0,0:0:0:0:
256,192,138219,1,8,0:0:0:0:
256,192,138489,1,8,0:0:0:0:
256,192,138579,1,8,0:0:0:0:
256,192,138670,1,0,0:0:0:0:
256,192,138895,1,0,0:0:0:0:
256,192,139390,1,8,0:0:0:0:
256,192,139706,1,0,0:0:0:0:
256,192,140111,1,8,0:0:0:0:
256,192,140517,1,8,0:0:0:0:
256,192,140652,1,0,0:0:0:0:
256,192,140787,1,8,0:0:0:0:
256,192,140922,1,0,0:0:0:0:
256,192,141057,1,8,0:0:0:0:
256,192,141192,1,8,0:0:0:0:
256,192,141463,1,0,0:0:0:0:
256,192,141598,1,8,0:0:0:0:
256,192,141733,1,0,0:0:0:0:
256,192,141868,1,8,0:0:0:0:
256,192,142003,1,0,0:0:0:0:
256,192,142273,1,8,0:0:0:0:
256,192,142544,1,0,0:0:0:0:
256,192,143084,1,0,0:0:0:0:
256,192,143355,1,8,0:0:0:0:
256,192,143760,1,8,0:0:0:0:
256,192,143895,1,0,0:0:0:0:
256,192,144166,1,0,0:0:0:0:
256,192,144436,1,8,0:0:0:0:
256,192,144571,1,8,0:0:0:0:
256,192,144841,1,8,0:0:0:0:
256,192,144976,1,0,0:0:0:0:
256,192,145112,1,8,0:0:0:0:
256,192,145247,1,0,0:0:0:0:
256,192,145382,1,8,0:0:0:0:
256,192,145517,1,0,0:0:0:0:
256,192,145697,1,8,0:0:0:0:
256,192,145787,1,0,0:0:0:0:
256,192,146058,1,0,0:0:0:0:
256,192,146193,1,8,0:0:0:0:
256,192,146328,1,0,0:0:0:0:
256,192,146598,1,8,0:0:0:0:
256,192,146868,1,0,0:0:0:0:
256,192,147139,1,8,0:0:0:0:
256,192,147409,1,8,0:0:0:0:
256,192,147589,1,8,0:0:0:0:
256,192,147679,1,0,0:0:0:0:
256,192,148220,1,0,0:0:0:0:
256,192,148490,1,0,0:0:0:0:
256,192,148693,1,8,0:0:0:0:
256,192,148806,1,8,0:0:0:0:
256,192,149166,1,8,0:0:0:0:
256,192,149301,1,0,0:0:0:0:
256,192,149571,1,8,0:0:0:0:
256,192,149842,1,0,0:0:0:0:
256,192,150044,1,8,0:0:0:0:
256,192,150247,1,8,0:0:0:0:
256,192,150382,1,0,0:0:0:0:
256,192,150517,1,8,0:0:0:0:
256,192,150653,1,0,0:0:0:0:
256,192,150923,1,8,0:0:0:0:
256,192,151193,1,0,0:0:0:0:
256,192,151328,1,8,0:0:0:0:
256,192,151463,1,0,0:0:0:0:
256,192,151734,1,0,0:0:0:0:
256,192,152004,1,8,0:0:0:0:
256,192,152139,1,8,0:0:0:0:
256,192,152410,1,8,0:0:0:0:
256,192,152545,1,0,0:0:0:0:
256,192,152815,1,8,0:0:0:0:
256,192,153085,1,0,0:0:0:0:
256,192,153265,1,0,0:0:0:0:
256,192,153356,1,8,0:0:0:0:
256,192,153446,1,8,0:0:0:0:
256,192,153536,1,0,0:0:0:0:
256,192,153626,1,8,0:0:0:0:
256,192,153896,1,8,0:0:0:0:
256,192,154166,1,0,0:0:0:0:
256,192,154347,1,8,0:0:0:0:
256,192,154437,1,0,0:0:0:0:
256,192,154730,1,8,0:0:0:0:
256,192,155000,1,8,0:0:0:0:
256,192,155248,1,0,0:0:0:0:
256,192,155518,1,0,0:0:0:0:
256,192,155811,1,8,0:0:0:0:
256,192,156081,1,8,0:0:0:0:
256,192,156329,1,0,0:0:0:0:
256,192,156869,1,0,0:0:0:0:
256,192,157140,1,0,0:0:0:0:
256,192,157275,1,8,0:0:0:0:
256,192,157410,1,8,0:0:0:0:
256,192,157590,1,0,0:0:0:0:
256,192,157680,1,8,0:0:0:0:
256,192,157770,1,0,0:0:0:0:
256,192,157951,1,8,0:0:0:0:
256,192,158131,1,8,0:0:0:0:
256,192,158221,1,8,0:0:0:0:
256,192,158311,1,8,0:0:0:0:
256,192,158491,1,0,0:0:0:0:
256,192,158671,1,8,0:0:0:0:
256,192,158761,1,8,0:0:0:0:
256,192,158852,1,8,0:0:0:0:
256,192,159032,1,0,0:0:0:0:
256,192,159167,1,8,0:0:0:0:
256,192,159302,1,8,0:0:0:0:
256,192,159572,1,8,0:0:0:0:
256,192,159843,1,0,0:0:0:0:
256,192,159933,1,0,0:0:0:0:
256,192,160023,1,8,0:0:0:0:
256,192,160113,1,8,0:0:0:0:
256,192,160383,1,0,0:0:0:0:
256,192,160654,1,0,0:0:0:0:
256,192,160789,1,8,0:0:0:0:
256,192,161194,1,8,0:0:0:0:
256,192,161600,1,8,0:0:0:0:
256,192,161735,1,0,0:0:0:0:
256,192,161915,1,0,0:0:0:0:
256,192,162005,1,0,0:0:0:0:
256,192,162140,1,8,0:0:0:0:
256,192,162275,1,0,0:0:0:0:
256,192,162410,1,8,0:0:0:0:
256,192,162546,1,0,0:0:0:0:
256,192,162681,1,8,0:0:0:0:
256,192,162816,1,0,0:0:0:0:
256,192,162996,1,8,0:0:0:0:
256,192,163086,1,0,0:0:0:0:
256,192,163379,1,8,0:0:0:0:
256,192,163649,1,8,0:0:0:0:
256,192,163897,1,0,0:0:0:0:
256,192,164167,1,0,0:0:0:0:
256,192,164460,1,8,0:0:0:0:
256,192,164730,1,8,0:0:0:0:
256,192,164978,1,0,0:0:0:0:
256,192,165519,1,0,0:0:0:0:
256,192,165789,1,8,0:0:0:0:
256,192,166059,1,0,0:0:0:0:
256,192,166195,1,0,0:0:0:0:
256,192,166465,1,8,0:0:0:0:
256,192,166600,1,0,0:0:0:0:
256,192,166735,1,8,0:0:0:0:
256,192,166870,1,0,0:0:0:0:
256,192,167005,1,8,0:0:0:0:
256,192,167141,1,0,0:0:0:0:
256,192,167321,1,8,0:0:0:0:
256,192,167411,1,0,0:0:0:0:
256,192,167681,1,8,0:0:0:0:
256,192,167951,1,8,0:0:0:0:
256,192,168132,1,8,0:0:0:0:
256,192,168222,1,0,0:0:0:0:
256,192,168492,1,0,0:0:0:0:
256,192,168582,1,8,0:0:0:0:
256,192,168762,1,0,0:0:0:0:
256,192,168943,1,8,0:0:0:0:
256,192,169033,1,0,0:0:0:0:
256,192,169303,1,8,0:0:0:0:
256,192,169708,1,8,0:0:0:0:
256,192,169844,1,0,0:0:0:0:
256,192,170114,1,8,0:0:0:0:
256,192,170384,1,0,0:0:0:0:
256,192,170519,1,8,0:0:0:0:
256,192,170925,1,8,0:0:0:0:
256,192,171465,1,0,0:0:0:0:
256,192,171736,1,8,0:0:0:0:
256,192,172546,1,8,0:0:0:0:
256,192,172817,1,0,0:0:0:0:
256,192,173628,1,0,0:0:0:0:
256,192,174168,1,0,0:0:0:0:
256,192,174709,1,0,0:0:0:0:
256,192,174844,1,8,0:0:0:0:
256,192,175249,1,8,0:0:0:0:
256,192,175520,1,8,0:0:0:0:
256,192,175790,1,8,0:0:0:0:
256,192,176060,1,8,0:0:0:0:
256,192,176871,1,8,0:0:0:0:
256,192,177141,1,0,0:0:0:0:
256,192,177952,1,0,0:0:0:0:
256,192,178358,1,8,0:0:0:0:
256,192,178493,1,0,0:0:0:0:
256,192,178763,1,8,0:0:0:0:
256,192,178898,1,0,0:0:0:0:
256,192,179034,1,0,0:0:0:0:
256,192,179169,1,8,0:0:0:0:
256,192,179574,1,8,0:0:0:0:
256,192,180115,1,0,0:0:0:0:
256,192,180385,1,8,0:0:0:0:
256,192,181196,1,8,0:0:0:0:
256,192,181466,1,0,0:0:0:0:
256,192,182277,1,0,0:0:0:0:
256,192,182818,1,0,0:0:0:0:
256,192,183358,1,0,0:0:0:0:
256,192,183493,1,8,0:0:0:0:
256,192,183899,1,8,0:0:0:0:
256,192,184169,1,8,0:0:0:0:
256,192,184439,1,8,0:0:0:0:
256,192,184710,1,8,0:0:0:0:
256,192,185521,1,8,0:0:0:0:
256,192,185791,1,0,0:0:0:0:
256,192,186602,1,0,0:0:0:0:
256,192,187007,1,8,0:0:0:0:
256,192,187142,1,0,0:0:0:0:
256,192,187413,1,8,0:0:0:0:
256,192,187683,1,0,0:0:0:0:
256,192,187818,1,8,0:0:0:0:
256,192,188201,1,8,0:0:0:0:
256,192,188741,1,0,0:0:0:0:
256,192,189011,1,8,0:0:0:0:
256,192,189822,1,8,0:0:0:0:
256,192,190093,1,0,0:0:0:0:
256,192,190903,1,0,0:0:0:0:
256,192,191444,1,0,0:0:0:0:
256,192,191985,1,0,0:0:0:0:
256,192,192120,1,8,0:0:0:0:
256,192,192525,1,8,0:0:0:0:
256,192,192796,1,8,0:0:0:0:
256,192,193066,1,8,0:0:0:0:
256,192,193336,1,8,0:0:0:0:
256,192,194147,1,8,0:0:0:0:
256,192,194417,1,0,0:0:0:0:
256,192,195228,1,0,0:0:0:0:
256,192,195634,1,8,0:0:0:0:
256,192,195769,1,0,0:0:0:0:
256,192,196039,1,8,0:0:0:0:
256,192,196309,1,0,0:0:0:0:
256,192,196444,1,8,0:0:0:0:
256,192,196850,1,8,0:0:0:0:
256,192,197391,1,0,0:0:0:0:
256,192,197661,1,8,0:0:0:0:
256,192,198472,1,8,0:0:0:0:
256,192,198742,1,0,0:0:0:0:
256,192,199553,1,0,0:0:0:0:
256,192,200093,1,0,0:0:0:0:
256,192,200634,1,0,0:0:0:0:
256,192,200769,1,8,0:0:0:0:
256,192,201175,1,8,0:0:0:0:
256,192,201445,1,8,0:0:0:0:
256,192,201715,1,8,0:0:0:0:
256,192,201986,1,8,0:0:0:0:
256,192,202796,1,8,0:0:0:0:
256,192,203067,1,0,0:0:0:0:
256,192,203878,1,0,0:0:0:0:
256,192,204283,1,8,0:0:0:0:
256,192,204418,1,0,0:0:0:0:
256,192,204688,1,8,0:0:0:0:
256,192,204959,1,0,0:0:0:0:
256,192,205094,1,8,0:0:0:0:
