osu file format v14

[General]
AudioFilename: audio.mp3
AudioLeadIn: 0
PreviewTime: 151231
Countdown: 0
SampleSet: Normal
StackLeniency: 0.3
Mode: 0
LetterboxInBreaks: 0
WidescreenStoryboard: 0

[Editor]
DistanceSpacing: 0.5
BeatDivisor: 4
GridSize: 8
TimelineZoom: 3.100005

[Metadata]
Title:Infinite Potential
TitleUnicode:Infinite Potential
Artist:Aura of Birth
ArtistUnicode:Aura of Birth
Creator:Nyxi
Version:Extra
Source:
Tags:
BeatmapID:1989234
BeatmapSetID:952682

[Difficulty]
HPDrainRate:6
CircleSize:4.3
OverallDifficulty:8
ApproachRate:9.5
SliderMultiplier:1.5
SliderTickRate:1

[Events]
//Background and Video events
0,0,"0013435673_10.jpg",0,0
//Break Periods
//Storyboard Layer 0 (Background)
//Storyboard Layer 1 (Fail)
//Storyboard Layer 2 (Pass)
//Storyboard Layer 3 (Foreground)
//Storyboard Sound Samples

[TimingPoints]
66569,315.789473684211,7,1,1,100,1,0
66569,-100,4,1,1,5,0,0
70990,-71.4285714285714,4,1,1,100,0,0
86779,-71.4285714285714,4,1,1,10,0,0
86937,-71.4285714285714,4,1,1,20,0,0
87095,-71.4285714285714,4,1,1,30,0,0
87253,-71.4285714285714,4,1,1,40,0,0
87411,-71.4285714285714,4,1,1,50,0,0
87568,-71.4285714285714,4,1,1,60,0,0
87726,-71.4285714285714,4,1,1,70,0,0
87884,-71.4285714285714,4,1,1,80,0,0
88042,-71.4285714285714,4,1,1,90,0,0
88200,-71.4285714285714,4,1,1,100,0,0
106358,461.538461538462,4,1,1,100,1,0
124726,451.127819548872,4,1,1,100,1,0
131192,-66.6666666666667,4,1,1,100,0,0
131944,-71.4285714285714,4,1,1,100,0,0
135553,-66.6666666666667,4,1,1,100,0,0
136455,-62.5,4,1,1,100,0,0
137357,-58.8235294117647,4,1,1,100,0,0
139162,-50,4,1,1,100,0,0
141899,461.538461538462,4,1,1,100,1,0
141899,-83.3333333333333,4,1,1,100,0,0
151106,502.092050209205,4,1,1,100,1,0
151106,-83.3333333333333,4,1,1,100,0,0
151670,-83.3333333333333,4,1,1,5,0,0
151733,-83.3333333333333,4,1,1,100,0,0
151921,-83.3333333333333,4,1,1,5,0,0
151984,-83.3333333333333,4,1,1,100,0,0
152047,-83.3333333333333,4,1,1,5,0,0
152110,-83.3333333333333,4,1,1,100,0,0
153177,-83.3333333333333,4,1,1,5,0,0
153239,-83.3333333333333,4,1,1,100,0,0
153428,-83.3333333333333,4,1,1,5,0,0
153490,-83.3333333333333,4,1,1,100,0,0
153553,-83.3333333333333,4,1,1,5,0,0
153616,-83.3333333333333,4,1,1,100,0,0
155059,-83.3333333333333,4,1,1,5,0,0
155122,-83.3333333333333,4,1,1,100,0,0
155311,-83.3333333333333,4,1,1,5,0,0
155373,-83.3333333333333,4,1,1,100,0,0
155436,-83.3333333333333,4,1,1,5,0,0
155499,-83.3333333333333,4,1,1,100,0,0
156566,-83.3333333333333,4,1,1,5,0,0
156629,-83.3333333333333,4,1,1,100,0,0
156817,-83.3333333333333,4,1,1,5,0,0
156880,-83.3333333333333,4,1,1,100,0,0
156942,-83.3333333333333,4,1,1,5,0,0
157005,-83.3333333333333,4,1,1,100,0,0
158449,-83.3333333333333,4,1,1,5,0,0
158511,-83.3333333333333,4,1,1,100,0,0
158700,-83.3333333333333,4,1,1,5,0,0
158762,-83.3333333333333,4,1,1,100,0,0
158825,-83.3333333333333,4,1,1,5,0,0
158888,-83.3333333333333,4,1,1,100,0,0
159955,-83.3333333333333,4,1,1,5,0,0
160018,-83.3333333333333,4,1,1,100,0,0
160206,-83.3333333333333,4,1,1,5,0,0
160269,-83.3333333333333,4,1,1,100,0,0
160331,-83.3333333333333,4,1,1,5,0,0
160394,-83.3333333333333,4,1,1,100,0,0
161838,-83.3333333333333,4,1,1,5,0,0
161900,-83.3333333333333,4,1,1,100,0,0
162089,-83.3333333333333,4,1,1,5,0,0
162152,-83.3333333333333,4,1,1,100,0,0
162214,-83.3333333333333,4,1,1,5,0,0
162277,-83.3333333333333,4,1,1,100,0,0
163344,-83.3333333333333,4,1,1,5,0,0
163407,-83.3333333333333,4,1,1,100,0,0
163595,-83.3333333333333,4,1,1,5,0,0
163658,-83.3333333333333,4,1,1,100,0,0
163721,-83.3333333333333,4,1,1,5,0,0
163783,-83.3333333333333,4,1,1,100,0,0
164635,521.734503000261,4,1,1,100,1,0
164895,-100,4,1,1,5,0,0
165026,-100,4,1,1,100,0,0
165287,-100,4,1,1,5,0,0
165417,-100,4,1,1,100,0,0
166461,-100,4,1,1,5,0,0
166591,-100,4,1,1,100,0,0
166852,-100,4,1,1,5,0,0
166982,-100,4,1,1,100,0,0
169069,-100,4,1,1,5,0,0
169200,-100,4,1,1,100,0,0
169461,-100,4,1,1,5,0,0
169591,-100,4,1,1,100,0,0
170634,-100,4,1,1,5,0,0
170765,-100,4,1,1,100,0,0
171026,-100,4,1,1,5,0,0
171156,-100,4,1,1,100,0,0
173243,-100,4,1,1,5,0,0
173374,-100,4,1,1,100,0,0
173634,-100,4,1,1,5,0,0
173765,-100,4,1,1,100,0,0
174808,-100,4,1,1,5,0,0
174939,-100,4,1,1,100,0,0
175200,-100,4,1,1,5,0,0
175330,-100,4,1,1,100,0,0
177417,-100,4,1,1,5,0,0
177547,-100,4,1,1,100,0,0
177808,-100,4,1,1,5,0,0
177939,-100,4,1,1,100,0,0
178982,-100,4,1,1,5,0,0
179113,-100,4,1,1,100,0,0
179373,-100,4,1,1,5,0,0
179504,-100,4,1,1,100,0,0
181591,-100,4,1,1,5,0,0
181721,-100,4,1,1,100,0,0
181982,-100,4,1,1,5,0,0
182113,-100,4,1,1,100,0,0
183156,-100,4,1,1,5,0,0
183287,-100,4,1,1,100,0,0
183547,-100,4,1,1,5,0,0
183678,-100,4,1,1,100,0,0
185765,-100,4,1,1,5,0,0
185895,-100,4,1,1,100,0,0
186156,-100,4,1,1,5,0,0
186286,-100,4,1,1,100,0,0
187330,-100,4,1,1,5,0,0
187460,-100,4,1,1,100,0,0
187721,-100,4,1,1,5,0,0
187852,-100,4,1,1,100,0,0
189939,-100,4,1,1,5,0,0
190069,-100,4,1,1,100,0,0
190330,-100,4,1,1,5,0,0
190460,-100,4,1,1,100,0,0
191504,-100,4,1,1,5,0,0
191634,-100,4,1,1,100,0,0
191895,-100,4,1,1,5,0,0
192026,-100,4,1,1,100,0,0
194112,-100,4,1,1,5,0,0
194243,-100,4,1,1,100,0,0
194504,-100,4,1,1,5,0,0
194634,-100,4,1,1,100,0,0
195678,-100,4,1,1,5,0,0
195808,-100,4,1,1,100,0,0
196069,-100,4,1,1,5,0,0
196199,-100,4,1,1,100,0,0

[HitObjects]
256,192,66569,12,0,70833,0:0:0:0:
379,104,70990,6,0,P|385:167|370:226,1,104.999996795654,8|0,0:0|0:0,0:0:0:0:
330,351,71306,1,0,0:0:0:0:
99,115,71621,5,8,0:0:0:0:
115,350,71780,2,0,P|143:306|158:256,1,104.999996795654
191,113,72096,1,0,0:0:0:0:
304,275,72254,1,8,0:0:0:0:
155,257,72411,1,0,0:0:0:0:
298,151,72569,1,0,0:0:0:0:
153,185,72727,5,0,0:0:0:0:
100,194,72806,1,0,0:0:0:0:
48,188,72885,2,0,P|-7:161|-21:150,1,52.4999983978272,8|0,0:0|0:0,0:0:0:0:
22,33,73043,1,0,0:0:0:0:
75,24,73122,1,0,0:0:0:0:
127,30,73201,2,0,P|182:56|196:67,1,52.4999983978272,8|0,0:0|0:0,0:0:0:0:
326,337,73517,6,0,P|354:293|369:243,1,104.999996795654
408,53,73833,1,8,0:0:0:0:
280,147,73990,1,0,0:0:0:0:
442,178,74148,1,0,0:0:0:0:
307,59,74306,1,0,0:0:0:0:
251,263,74464,1,8,0:0:0:0:
475,280,74622,6,0,L|401:280,1,52.4999983978272,8|0,0:0|0:0,0:0:0:0:
308,211,74780,2,0,L|375:210,1,52.4999983978272,8|0,0:0|0:0,0:0:0:0:
365,341,74938,2,0,L|266:343,1,52.4999983978272,8|0,0:0|0:0,0:0:0:0:
259,341,75096,1,0,0:0:0:0:
208,336,75174,1,0,0:0:0:0:
170,301,75253,1,0,0:0:0:0:
161,251,75332,1,0,0:0:0:0:
201,188,75411,1,8,0:0:0:0:
355,273,75569,1,0,0:0:0:0:
266,137,75726,1,0,0:0:0:0:
21,368,76042,6,0,L|28:229,1,104.999996795654,8|0,0:0|0:0,0:0:0:0:
59,122,76358,1,0,0:0:0:0:
161,251,76516,1,0,0:0:0:0:
164,52,76674,1,8,0:0:0:0:
264,162,76832,1,0,0:0:0:0:
306,191,76910,1,0,0:0:0:0:
357,206,76989,1,0,0:0:0:0:
509,158,77147,1,0,0:0:0:0:
264,78,77305,2,0,L|160:50,1,104.999996795654,12|0,0:0|0:0,0:0:0:0:
248,306,77621,2,0,L|352:334,1,104.999996795654,12|0,0:0|0:0,0:0:0:0:
494,353,77937,1,0,0:0:0:0:
264,78,78253,6,0,P|258:129|238:178,1,104.999996795654,8|0,0:0|0:0,0:0:0:0:
156,320,78568,1,0,0:0:0:0:
107,191,78726,1,0,0:0:0:0:
384,277,78884,2,0,L|284:242,1,104.999996795654,8|0,0:0|0:0,0:0:0:0:
76,77,79200,2,0,L|174:114,1,104.999996795654,8|0,0:0|0:0,0:0:0:0:
220,132,79437,1,0,0:0:0:0:
272,144,79515,1,0,0:0:0:0:
324,142,79594,1,0,0:0:0:0:
374,127,79673,1,0,0:0:0:0:
419,100,79752,1,0,0:0:0:0:
472,48,79832,6,0,P|488:95|473:156,1,104.999996795654,4|0,0:0|0:0,0:0:0:0:
411,278,80147,1,0,0:0:0:0:
411,278,80621,5,0,0:0:0:0:
281,360,80779,1,0,0:0:0:0:
311,207,80937,1,0,0:0:0:0:
119,311,81095,2,0,P|103:264|118:203,1,104.999996795654,8|0,0:0|0:0,0:0:0:0:
201,104,81411,1,0,0:0:0:0:
191,249,81568,1,0,0:0:0:0:
0,107,81726,2,0,L|119:102,1,104.999996795654,8|0,0:0|0:0,0:0:0:0:
295,249,82042,2,0,L|175:245,1,104.999996795654
13,231,82358,1,0,0:0:0:0:
13,231,82832,5,0,0:0:0:0:
166,180,82990,1,0,0:0:0:0:
221,324,83147,1,0,0:0:0:0:
256,359,83226,1,0,0:0:0:0:
309,383,83305,1,8,0:0:0:0:
466,258,83463,1,0,0:0:0:0:
310,285,83621,1,0,0:0:0:0:
475,134,83779,1,8,0:0:0:0:
166,180,83937,1,8,0:0:0:0:
273,76,84095,1,0,0:0:0:0:
388,173,84253,6,0,P|394:236|379:295,1,104.999996795654
309,383,84568,1,0,0:0:0:0:
309,383,85042,5,0,0:0:0:0:
230,274,85200,1,0,0:0:0:0:
53,378,85358,1,0,0:0:0:0:
96,350,85436,1,0,0:0:0:0:
122,305,85515,1,8,0:0:0:0:
157,178,85674,1,0,0:0:0:0:
37,282,85832,1,0,0:0:0:0:
39,140,85990,1,0,0:0:0:0:
51,89,86068,1,0,0:0:0:0:
82,47,86147,1,8,0:0:0:0:
241,27,86305,1,0,0:0:0:0:
325,134,86463,6,0,P|331:197|316:256,1,104.999996795654
260,357,86779,5,8,0:0:0:0:
211,348,86937,5,8,0:0:0:0:
173,328,87095,5,8,0:0:0:0:
122,291,87253,5,8,0:0:0:0:
85,234,87411,5,8,0:0:0:0:
73,137,87568,5,8,0:0:0:0:
122,36,87726,5,8,0:0:0:0:
288,0,87884,5,8,0:0:0:0:
451,58,88042,5,8,0:0:0:0:
456,220,88199,5,8,0:0:0:0:
354,333,88358,5,8,0:0:0:0:
306,351,88436,1,0,0:0:0:0:
254,360,88515,1,0,0:0:0:0:
202,357,88594,1,0,0:0:0:0:
136,331,88673,1,12,0:0:0:0:
244,258,88832,1,0,0:0:0:0:
413,269,88990,1,0,0:0:0:0:
413,269,89306,5,8,0:0:0:0:
397,34,89464,2,0,P|369:78|354:128,1,104.999996795654
321,271,89780,1,0,0:0:0:0:
208,109,89938,1,8,0:0:0:0:
357,127,90095,1,0,0:0:0:0:
214,233,90253,1,0,0:0:0:0:
359,199,90411,5,0,0:0:0:0:
142,141,90568,2,0,L|33:124,1,104.999996795654,12|0,0:0|0:0,0:0:0:0:
176,309,90884,2,0,L|285:326,1,104.999996795654,12|0,0:0|0:0,0:0:0:0:
427,275,91201,6,0,P|446:226|451:174,1,104.999996795654
375,0,91517,1,8,0:0:0:0:
313,124,91674,1,0,0:0:0:0:
461,55,91832,1,0,0:0:0:0:
253,43,91990,1,0,0:0:0:0:
237,254,92147,2,0,P|184:248|136:229,1,104.999996795654,8|0,0:0|0:0,0:0:0:0:
72,352,92463,1,0,0:0:0:0:
225,353,92621,1,0,0:0:0:0:
199,120,92779,2,0,L|182:11,1,104.999996795654,12|0,0:0|0:0,0:0:0:0:
372,169,93095,2,0,L|389:278,1,104.999996795654,12|0,0:0|0:0,0:0:0:0:
464,377,93411,1,0,0:0:0:0:
491,16,93726,6,0,L|484:155,1,104.999996795654,8|0,0:0|0:0,0:0:0:0:
479,282,94042,1,0,0:0:0:0:
372,169,94200,1,0,0:0:0:0:
348,332,94358,1,8,0:0:0:0:
248,222,94516,1,0,0:0:0:0:
206,193,94594,1,0,0:0:0:0:
155,178,94673,1,0,0:0:0:0:
3,226,94831,1,0,0:0:0:0:
248,306,94989,2,0,L|352:334,1,104.999996795654,12|0,0:0|0:0,0:0:0:0:
264,78,95305,2,0,L|160:50,1,104.999996795654,12|0,0:0|0:0,0:0:0:0:
18,31,95621,1,0,0:0:0:0:
248,306,95937,6,0,P|254:255|274:206,1,104.999996795654,8|0,0:0|0:0,0:0:0:0:
356,64,96252,1,0,0:0:0:0:
405,193,96410,1,0,0:0:0:0:
121,103,96568,2,0,L|221:138,1,104.999996795654,12|0,0:0|0:0,0:0:0:0:
436,307,96884,2,0,L|353:276,1,52.4999983978272,8|8,0:0|0:0,0:0:0:0:
337,269,97042,1,0,0:0:0:0:
292,252,97121,1,0,0:0:0:0:
240,240,97199,1,0,0:0:0:0:
188,242,97278,1,0,0:0:0:0:
138,257,97357,1,0,0:0:0:0:
93,284,97436,1,0,0:0:0:0:
40,336,97516,6,0,P|24:289|39:228,1,104.999996795654,4|0,0:0|0:0,0:0:0:0:
121,103,97831,1,0,0:0:0:0:
297,352,98147,6,0,P|281:305|296:244,1,104.999996795654,8|0,0:0|0:0,0:0:0:0:
231,24,98463,1,0,0:0:0:0:
201,177,98621,1,0,0:0:0:0:
385,113,98779,2,0,P|401:160|386:221,1,104.999996795654,8|0,0:0|0:0,0:0:0:0:
348,296,99095,1,0,0:0:0:0:
303,87,99252,1,0,0:0:0:0:
512,291,99410,2,0,L|393:296,1,104.999996795654,12|0,0:0|0:0,0:0:0:0:
201,177,99726,2,0,L|320:172,1,104.999996795654,12|0,0:0|0:0,0:0:0:0:
499,153,100042,1,0,0:0:0:0:
62,205,100358,5,0,0:0:0:0:
122,66,100516,1,0,0:0:0:0:
173,219,100674,1,0,0:0:0:0:
196,265,100752,1,0,0:0:0:0:
231,304,100831,1,0,0:0:0:0:
276,331,100910,1,0,0:0:0:0:
338,351,100989,1,8,0:0:0:0:
436,198,101147,1,0,0:0:0:0:
290,241,101305,1,0,0:0:0:0:
381,9,101463,2,0,P|387:72|372:131,1,104.999996795654,12|0,0:0|0:0,0:0:0:0:
352,158,101700,1,0,0:0:0:0:
325,203,101778,1,0,0:0:0:0:
290,241,101857,1,0,0:0:0:0:
230,303,101937,6,0,P|195:265|171:219,1,104.999996795654,12|0,0:0|0:0,0:0:0:0:
131,28,102252,1,0,0:0:0:0:
131,28,102726,5,0,0:0:0:0:
210,137,102884,1,0,0:0:0:0:
387,33,103042,1,0,0:0:0:0:
344,61,103120,1,0,0:0:0:0:
318,106,103199,1,12,0:0:0:0:
283,233,103358,1,0,0:0:0:0:
403,129,103516,1,0,0:0:0:0:
401,271,103674,1,0,0:0:0:0:
389,322,103752,1,0,0:0:0:0:
358,364,103831,1,12,0:0:0:0:
199,384,103989,1,0,0:0:0:0:
115,277,104147,6,0,P|109:214|124:155,1,104.999996795654,8|0,0:0|0:0,0:0:0:0:
188,50,104463,1,0,0:0:0:0:
188,50,104937,5,0,0:0:0:0:
366,129,105095,1,0,0:0:0:0:
266,355,105253,1,8,0:0:0:0:
224,308,105331,1,8,0:0:0:0:
203,249,105410,1,8,0:0:0:0:
194,193,105490,5,0,0:0:0:0:
157,161,105568,1,0,0:0:0:0:
107,155,105647,1,0,0:0:0:0:
63,176,105726,1,0,0:0:0:0:
38,219,105805,1,0,0:0:0:0:
40,269,105884,1,0,0:0:0:0:
69,309,105963,1,0,0:0:0:0:
120,319,106042,5,8,0:0:0:0:
112,257,106120,1,8,0:0:0:0:
114,195,106199,1,8,0:0:0:0:
124,133,106278,1,8,0:0:0:0:
142,73,106358,6,0,P|189:42|233:39,1,75,4|0,0:0|0:0,0:0:0:0:
341,36,106819,1,0,0:0:0:0:
247,147,107050,1,0,0:0:0:0:
247,147,107165,1,0,0:0:0:0:
247,147,107281,2,0,L|274:203,1,37.5,8|0,0:0|0:0,0:0:0:0:
292,299,107511,1,0,0:0:0:0:
292,299,107627,1,0,0:0:0:0:
292,299,107742,2,0,P|237:282|200:258,1,75
143,218,108204,1,0,0:0:0:0:
283,218,108434,5,0,0:0:0:0:
283,218,108550,1,0,0:0:0:0:
283,218,108665,1,0,0:0:0:0:
283,218,108781,1,0,0:0:0:0:
283,218,108896,1,0,0:0:0:0:
283,218,109011,1,0,0:0:0:0:
283,218,109127,2,0,L|327:160,1,37.5,8|0,0:0|0:0,0:0:0:0:
373,279,109358,2,0,L|329:221,1,37.5
265,317,109588,2,0,L|309:259,1,37.5
355,378,109819,2,0,L|311:320,1,37.5
209,259,110050,6,0,L|121:302,1,75,4|0,0:0|0:0,0:0:0:0:
32,346,110511,1,0,0:0:0:0:
35,207,110742,1,0,0:0:0:0:
35,207,110858,1,0,0:0:0:0:
35,207,110973,2,0,L|41:151,1,37.5,8|0,0:0|0:0,0:0:0:0:
86,74,111204,1,0,0:0:0:0:
86,74,111320,1,0,0:0:0:0:
86,74,111435,2,0,P|120:120|136:161,1,75
156,224,111896,1,0,0:0:0:0:
337,214,112126,5,0,0:0:0:0:
337,214,112242,1,0,0:0:0:0:
337,214,112357,1,0,0:0:0:0:
337,214,112473,1,0,0:0:0:0:
337,214,112588,1,0,0:0:0:0:
337,214,112703,1,0,0:0:0:0:
337,214,112819,2,0,L|404:186,1,37.5,8|0,0:0|0:0,0:0:0:0:
301,111,113050,2,0,L|346:168,1,37.5
237,205,113280,2,0,L|304:178,1,37.5
201,103,113511,2,0,L|246:160,1,37.5
104,197,113742,6,0,L|120:100,1,75,4|0,0:0|0:0,0:0:0:0:
170,15,114204,1,0,0:0:0:0:
286,105,114435,1,0,0:0:0:0:
286,105,114550,1,0,0:0:0:0:
286,105,114666,2,0,L|285:167,1,37.5,8|0,0:0|0:0,0:0:0:0:
309,261,114896,1,0,0:0:0:0:
309,261,115012,1,0,0:0:0:0:
309,261,115127,2,0,P|351:222|375:184,1,75
436,125,115589,1,0,0:0:0:0:
467,257,115819,5,0,0:0:0:0:
467,257,115935,1,0,0:0:0:0:
467,257,116050,1,0,0:0:0:0:
467,257,116166,1,0,0:0:0:0:
467,257,116281,1,0,0:0:0:0:
467,257,116396,1,0,0:0:0:0:
467,257,116512,2,0,L|455:185,1,37.5,12|0,0:0|0:0,0:0:0:0:
358,268,116743,2,0,L|424:237,1,37.5
436,352,116973,2,0,L|424:280,1,37.5
328,364,117204,2,0,L|394:333,1,37.5
258,285,117434,6,0,P|211:254|167:251,1,75,4|0,0:0|0:0,0:0:0:0:
75,242,117895,1,0,0:0:0:0:
164,361,118126,1,0,0:0:0:0:
164,361,118241,1,0,0:0:0:0:
164,361,118357,2,0,L|191:305,1,37.5,8|0,0:0|0:0,0:0:0:0:
263,205,118587,1,0,0:0:0:0:
263,205,118703,1,0,0:0:0:0:
263,205,118819,2,0,P|318:222|355:246,1,75
427,303,119280,1,0,0:0:0:0:
385,182,119510,5,0,0:0:0:0:
385,182,119626,1,0,0:0:0:0:
385,182,119741,1,0,0:0:0:0:
385,182,119857,1,0,0:0:0:0:
385,182,119972,1,0,0:0:0:0:
385,182,120087,1,0,0:0:0:0:
385,182,120203,6,0,L|429:240,1,37.5,12|0,0:0|0:0,0:0:0:0:
484,87,120434,2,0,L|426:131,1,37.5,12|0,0:0|0:0,0:0:0:0:
288,19,120665,2,0,L|332:77,1,37.5,12|0,0:0|0:0,0:0:0:0:
341,91,120896,1,0,0:0:0:0:
351,148,121011,1,0,0:0:0:0:
339,201,121127,1,0,0:0:0:0:
464,221,124726,5,8,0:0:0:0:
445,236,124801,1,0,0:0:0:0:
423,248,124876,1,0,0:0:0:0:
400,257,124951,1,0,0:0:0:0:
375,262,125026,1,0,0:0:0:0:
350,263,125101,1,0,0:0:0:0:
325,261,125177,5,8,0:0:0:0:
301,254,125252,1,0,0:0:0:0:
278,245,125327,1,0,0:0:0:0:
257,232,125402,1,0,0:0:0:0:
238,215,125477,1,0,0:0:0:0:
221,197,125553,1,0,0:0:0:0:
208,176,125628,5,8,0:0:0:0:
199,152,125703,1,0,0:0:0:0:
198,127,125778,1,0,0:0:0:0:
189,104,125853,1,0,0:0:0:0:
172,85,125928,1,0,0:0:0:0:
151,72,126003,1,0,0:0:0:0:
127,67,126078,5,8,0:0:0:0:
102,71,126154,1,0,0:0:0:0:
80,82,126229,1,0,0:0:0:0:
62,100,126304,1,0,0:0:0:0:
52,122,126379,1,0,0:0:0:0:
49,147,126454,1,0,0:0:0:0:
59,238,126530,6,0,L|63:276,17,25,8|0|0|0|0|0|8|0|0|0|0|0|8|0|0|0|0|0,0:0|0:0|0:0|0:0|0:0|0:0|0:0|0:0|0:0|0:0|0:0|0:0|0:0|0:0|0:0|0:0|0:0|0:0,0:0:0:0:
189,164,127883,6,0,L|231:160,5,25,8|0|0|0|0|0,0:0|0:0|0:0|0:0|0:0|0:0,0:0:0:0:
105,264,128335,5,8,0:0:0:0:
125,279,128410,1,0,0:0:0:0:
148,289,128485,1,0,0:0:0:0:
173,292,128560,1,0,0:0:0:0:
197,289,128635,1,0,0:0:0:0:
220,280,128710,1,0,0:0:0:0:
240,264,128786,5,8,0:0:0:0:
255,244,128861,1,0,0:0:0:0:
264,221,128936,1,0,0:0:0:0:
267,196,129011,1,0,0:0:0:0:
263,172,129086,1,0,0:0:0:0:
261,147,129161,1,0,0:0:0:0:
264,122,129236,5,8,0:0:0:0:
274,99,129311,1,0,0:0:0:0:
288,79,129386,1,0,0:0:0:0:
307,63,129461,1,0,0:0:0:0:
330,52,129537,1,0,0:0:0:0:
354,47,129612,1,0,0:0:0:0:
379,48,129687,5,8,0:0:0:0:
403,55,129762,1,0,0:0:0:0:
424,68,129837,1,0,0:0:0:0:
442,86,129913,1,0,0:0:0:0:
455,107,129988,1,0,0:0:0:0:
462,131,130063,1,0,0:0:0:0:
474,165,130139,6,0,L|485:203,1,25,8|0,0:0|0:0,0:0:0:0:
497,312,130289,2,0,L|491:287,1,25,8|0,0:0|0:0,0:0:0:0:
391,193,130440,2,0,L|402:231,1,25,8|0,0:0|0:0,0:0:0:0:
414,340,130590,2,0,L|408:315,1,25,8|0,0:0|0:0,0:0:0:0:
295,226,130741,2,0,L|310:262,1,25,8|0,0:0|0:0,0:0:0:0:
332,369,130891,2,0,L|323:345,1,25,8|0,0:0|0:0,0:0:0:0:
216,260,131042,2,0,L|231:296,1,25,8|0,0:0|0:0,0:0:0:0:
238,321,131192,5,8,0:0:0:0:
216,350,131267,1,0,0:0:0:0:
185,372,131342,1,0,0:0:0:0:
150,383,131417,1,0,0:0:0:0:
112,384,131492,1,0,0:0:0:0:
77,374,131567,1,0,0:0:0:0:
45,353,131643,1,0,0:0:0:0:
21,325,131718,1,0,0:0:0:0:
7,290,131793,1,0,0:0:0:0:
4,253,131868,1,0,0:0:0:0:
11,216,131944,5,12,0:0:0:0:
26,184,132019,1,0,0:0:0:0:
48,156,132094,1,0,0:0:0:0:
76,136,132169,1,0,0:0:0:0:
108,123,132244,1,0,0:0:0:0:
143,119,132319,1,0,0:0:0:0:
177,124,132395,5,8,0:0:0:0:
210,138,132470,1,0,0:0:0:0:
237,159,132545,1,0,0:0:0:0:
263,182,132620,1,0,0:0:0:0:
294,199,132695,1,0,0:0:0:0:
328,206,132770,1,0,0:0:0:0:
363,204,132845,5,8,0:0:0:0:
396,193,132920,1,0,0:0:0:0:
425,174,132996,1,0,0:0:0:0:
448,148,133071,1,0,0:0:0:0:
463,116,133146,1,0,0:0:0:0:
469,82,133221,1,0,0:0:0:0:
471,34,133297,6,0,L|471:-6,5,34.9999989318848,8|0|0|0|0|0,0:0|0:0|0:0|0:0|0:0|0:0,0:0:0:0:
361,96,133748,6,0,L|362:136,5,34.9999989318848,8|0|0|0|0|0,0:0|0:0|0:0|0:0|0:0|0:0,0:0:0:0:
264,35,134199,6,0,L|264:-5,5,34.9999989318848,8|0|0|0|0|0,0:0|0:0|0:0|0:0|0:0|0:0,0:0:0:0:
154,97,134650,6,0,L|155:137,5,34.9999989318848,8|0|0|0|0|0,0:0|0:0|0:0|0:0|0:0|0:0,0:0:0:0:
28,43,135101,6,0,L|28:2,5,34.9999989318848,8|0|0|0|0|0,0:0|0:0|0:0|0:0|0:0|0:0,0:0:0:0:
30,131,135553,5,8,0:0:0:0:
44,166,135628,1,0,0:0:0:0:
65,197,135703,1,0,0:0:0:0:
92,222,135778,1,0,0:0:0:0:
125,240,135853,1,0,0:0:0:0:
161,250,135928,1,0,0:0:0:0:
198,252,136004,1,8,0:0:0:0:
235,245,136079,1,0,0:0:0:0:
269,230,136154,1,0,0:0:0:0:
299,207,136229,1,0,0:0:0:0:
322,178,136304,1,0,0:0:0:0:
339,144,136380,1,0,0:0:0:0:
347,108,136455,5,8,0:0:0:0:
307,103,136530,1,0,0:0:0:0:
268,110,136605,1,0,0:0:0:0:
233,130,136680,1,0,0:0:0:0:
206,159,136755,1,0,0:0:0:0:
190,195,136830,1,0,0:0:0:0:
186,235,136906,1,8,0:0:0:0:
194,274,136981,1,0,0:0:0:0:
214,308,137056,1,0,0:0:0:0:
244,334,137131,1,0,0:0:0:0:
281,350,137206,1,0,0:0:0:0:
321,353,137282,1,0,0:0:0:0:
359,344,137357,5,0,0:0:0:0:
339,306,137432,1,0,0:0:0:0:
308,277,137507,1,8,0:0:0:0:
270,258,137582,1,8,0:0:0:0:
229,252,137657,1,8,0:0:0:0:
187,258,137733,1,8,0:0:0:0:
146,264,137808,1,8,0:0:0:0:
104,258,137883,1,8,0:0:0:0:
67,238,137958,1,0,0:0:0:0:
38,207,138033,1,0,0:0:0:0:
20,168,138109,1,0,0:0:0:0:
17,125,138184,1,0,0:0:0:0:
26,84,138259,5,12,0:0:0:0:
49,48,138334,1,0,0:0:0:0:
81,22,138409,1,0,0:0:0:0:
121,7,138485,1,0,0:0:0:0:
164,3,138560,1,0,0:0:0:0:
205,13,138635,1,0,0:0:0:0:
241,35,138710,1,8,0:0:0:0:
269,67,138785,1,8,0:0:0:0:
285,106,138860,1,8,0:0:0:0:
288,148,138936,1,8,0:0:0:0:
278,189,139011,1,0,0:0:0:0:
255,225,139086,1,0,0:0:0:0:
221,260,139161,5,0,0:0:0:0:
170,279,139237,1,8,0:0:0:0:
117,268,139312,1,0,0:0:0:0:
77,232,139387,1,0,0:0:0:0:
62,180,139462,1,8,0:0:0:0:
77,128,139537,1,8,0:0:0:0:
116,91,139613,1,0,0:0:0:0:
169,80,139688,1,0,0:0:0:0:
220,98,139763,1,0,0:0:0:0:
254,140,139838,5,0,0:0:0:0:
288,182,139913,1,0,0:0:0:0:
339,201,139988,1,0,0:0:0:0:
392,190,140063,1,0,0:0:0:0:
432,153,140138,1,0,0:0:0:0:
446,101,140213,1,0,0:0:0:0:
431,49,140289,1,8,0:0:0:0:
392,12,140364,1,8,0:0:0:0:
338,2,140439,1,8,0:0:0:0:
288,21,140515,5,0,0:0:0:0:
249,59,140590,1,0,0:0:0:0:
237,111,140665,1,0,0:0:0:0:
255,162,140740,1,0,0:0:0:0:
298,195,140816,1,0,0:0:0:0:
338,231,140891,1,0,0:0:0:0:
351,283,140966,1,0,0:0:0:0:
333,334,141041,1,8,0:0:0:0:
290,366,141116,1,8,0:0:0:0:
237,368,141192,5,0,0:0:0:0:
189,342,141267,1,0,0:0:0:0:
151,302,141342,1,8,0:0:0:0:
128,253,141417,1,8,0:0:0:0:
120,199,141492,1,0,0:0:0:0:
130,145,141567,1,0,0:0:0:0:
155,97,141643,1,0,0:0:0:0:
194,59,141718,1,0,0:0:0:0:
243,35,141793,1,0,0:0:0:0:
317,26,141899,6,0,L|401:25,1,44.999998626709,4|0,0:0|0:0,0:0:0:0:
428,24,142129,1,0,0:0:0:0:
429,171,142360,5,0,0:0:0:0:
428,216,142475,1,0,0:0:0:0:
418,260,142590,1,0,0:0:0:0:
399,301,142706,1,0,0:0:0:0:
372,336,142822,2,0,L|338:370,1,44.999998626709,8|0,0:0|0:0,0:0:0:0:
75,339,143283,5,0,0:0:0:0:
76,294,143398,1,0,0:0:0:0:
86,250,143513,1,0,0:0:0:0:
105,209,143629,1,0,0:0:0:0:
132,174,143745,1,0,0:0:0:0:
164,142,143860,1,0,0:0:0:0:
295,72,144091,5,0,0:0:0:0:
295,116,144206,1,0,0:0:0:0:
285,160,144321,1,0,0:0:0:0:
266,201,144437,1,0,0:0:0:0:
239,236,144553,1,0,0:0:0:0:
208,267,144668,2,0,L|175:300,1,44.999998626709,8|0,0:0|0:0,0:0:0:0:
135,337,144899,1,0,0:0:0:0:
90,366,145014,5,0,0:0:0:0:
39,369,145129,1,0,0:0:0:0:
37,319,145245,5,8,0:0:0:0:
47,253,145360,1,8,0:0:0:0:
58,187,145475,1,8,0:0:0:0:
65,131,145591,6,0,L|119:150,1,44.999998626709
151,156,145821,1,0,0:0:0:0:
331,204,146052,5,0,0:0:0:0:
371,223,146167,1,0,0:0:0:0:
407,249,146282,1,0,0:0:0:0:
436,283,146398,1,0,0:0:0:0:
457,322,146514,2,0,L|474:366,1,44.999998626709,8|0,0:0|0:0,0:0:0:0:
191,340,146975,5,0,0:0:0:0:
151,317,147090,1,0,0:0:0:0:
117,288,147205,1,0,0:0:0:0:
90,252,147321,1,0,0:0:0:0:
72,212,147437,1,0,0:0:0:0:
58,168,147552,1,0,0:0:0:0:
68,43,147783,5,0,0:0:0:0:
108,26,147898,1,0,0:0:0:0:
152,17,148013,1,0,0:0:0:0:
198,19,148129,1,0,0:0:0:0:
240,31,148245,1,0,0:0:0:0:
281,47,148360,2,0,L|324:64,1,44.999998626709,8|0,0:0|0:0,0:0:0:0:
373,86,148591,1,0,0:0:0:0:
416,104,148706,1,0,0:0:0:0:
319,187,148822,6,0,L|310:228,7,22.4999993133545
454,292,149283,6,0,L|521:326,1,44.999998626709
354,381,149514,2,0,L|421:347,1,44.999998626709
306,271,149745,2,0,L|373:305,1,44.999998626709
206,360,149976,2,0,L|273:326,1,44.999998626709
89,318,150206,6,0,L|123:385,1,44.999998626709
178,218,150437,2,0,L|144:285,1,44.999998626709
68,170,150668,2,0,L|102:237,1,44.999998626709
157,70,150899,2,0,L|123:137,1,44.999998626709
283,197,151106,5,0,0:0:0:0:
283,197,151357,1,0,0:0:0:0:
354,142,151482,2,0,L|384:210,1,67.4999979400635
436,267,151733,2,0,L|368:297,1,67.4999979400635
294,296,151984,2,0,L|308:335,1,22.4999993133545
176,318,152110,1,8,0:0:0:0:
176,318,152361,5,0,0:0:0:0:
176,318,152612,1,0,0:0:0:0:
176,318,152863,1,0,0:0:0:0:
105,373,152988,2,0,L|75:305,1,67.4999979400635
23,248,153239,2,0,L|91:218,1,67.4999979400635
165,219,153490,2,0,L|151:180,1,22.4999993133545
131,125,153616,1,0,0:0:0:0:
131,125,153867,1,0,0:0:0:0:
372,109,154118,5,8,0:0:0:0:
292,201,154244,1,0,0:0:0:0:
413,217,154369,1,8,0:0:0:0:
333,309,154495,1,4,0:0:0:0:
333,309,154746,5,0,0:0:0:0:
262,364,154871,2,0,L|232:296,1,67.4999979400635
180,239,155122,2,0,L|248:209,1,67.4999979400635
322,210,155373,2,0,L|308:171,1,22.4999993133545
440,188,155499,1,8,0:0:0:0:
440,188,155750,5,0,0:0:0:0:
440,188,156001,1,0,0:0:0:0:
440,188,156252,1,0,0:0:0:0:
495,117,156377,2,0,L|427:87,1,67.4999979400635
370,35,156628,2,0,L|340:103,1,67.4999979400635
341,177,156879,2,0,L|302:163,1,22.4999993133545
247,143,157005,1,0,0:0:0:0:
247,143,157256,1,0,0:0:0:0:
111,246,157507,6,0,L|113:188,1,44.999998626709,8|0,0:0|0:0,0:0:0:0:
224,267,157758,1,0,0:0:0:0:
121,349,157884,5,4,0:0:0:0:
121,349,158135,1,0,0:0:0:0:
32,367,158260,2,0,L|34:292,1,67.4999979400635
13,219,158511,2,0,L|87:221,1,67.4999979400635
153,255,158762,2,0,L|157:213,1,22.4999993133545
270,287,158888,1,8,0:0:0:0:
270,287,159139,5,0,0:0:0:0:
270,287,159390,1,0,0:0:0:0:
270,287,159641,1,0,0:0:0:0:
341,342,159766,2,0,L|371:274,1,67.4999979400635
423,217,160017,2,0,L|355:187,1,67.4999979400635
281,188,160268,2,0,L|295:149,1,22.4999993133545
315,94,160394,1,0,0:0:0:0:
315,94,160645,1,0,0:0:0:0:
123,56,160896,6,0,L|206:57,1,44.999998626709,8|0,0:0|0:0,0:0:0:0:
191,150,161147,1,0,0:0:0:0:
101,217,161273,5,4,0:0:0:0:
101,217,161524,1,0,0:0:0:0:
17,249,161649,2,0,L|59:309,1,67.4999979400635
81,384,161900,2,0,L|141:341,1,67.4999979400635
179,277,162151,2,0,L|205:309,1,22.4999993133545
259,186,162277,1,8,0:0:0:0:
259,186,162528,5,0,0:0:0:0:
259,186,162779,1,0,0:0:0:0:
259,186,163030,1,0,0:0:0:0:
343,154,163155,2,0,L|300:93,1,67.4999979400635
278,20,163406,2,0,L|217:62,1,67.4999979400635
179,126,163658,2,0,L|152:93,1,22.4999993133545
116,49,163783,1,0,0:0:0:0:
116,49,164034,1,0,0:0:0:0:
103,239,164244,6,0,L|100:297,1,44.999998626709,8|0,0:0|0:0,0:0:0:0:
225,272,164495,1,0,0:0:0:0:
67,353,164635,6,0,L|175:353,1,75,4|0,0:0|0:0,0:0:0:0:
300,272,165026,6,0,L|225:272,1,75
103,239,165417,1,0,0:0:0:0:
103,239,165548,1,0,0:0:0:0:
213,145,165678,1,8,0:0:0:0:
213,145,165808,1,0,0:0:0:0:
213,145,166200,6,0,L|213:253,1,75
294,378,166591,6,0,L|294:303,1,75
327,181,166982,1,0,0:0:0:0:
327,181,167113,1,0,0:0:0:0:
421,291,167243,1,0,0:0:0:0:
421,291,167374,1,0,0:0:0:0:
421,291,167765,6,0,L|421:226,1,37.5,12|0,0:0|0:0,0:0:0:0:
420,154,168026,1,0,0:0:0:0:
420,154,168156,1,0,0:0:0:0:
239,23,168287,6,0,L|239:60,1,37.5,12|0,0:0|0:0,0:0:0:0:
240,159,168548,1,0,0:0:0:0:
240,159,168678,1,8,0:0:0:0:
79,157,168808,6,0,L|187:157,1,75
312,238,169200,6,0,L|237:238,1,75
115,271,169591,1,0,0:0:0:0:
115,271,169721,1,0,0:0:0:0:
225,365,169852,1,8,0:0:0:0:
225,365,169982,1,0,0:0:0:0:
225,365,170374,6,0,L|225:257,1,75
306,132,170765,6,0,L|306:207,1,75
339,329,171156,1,0,0:0:0:0:
339,329,171287,1,0,0:0:0:0:
433,219,171417,1,0,0:0:0:0:
433,219,171547,1,0,0:0:0:0:
306,207,171678,6,8,L|275:196,3,18.75
234,181,171939,1,8,0:0:0:0:
163,281,172069,1,0,0:0:0:0:
259,366,172200,1,0,0:0:0:0:
138,191,172330,1,0,0:0:0:0:
67,291,172461,2,8,L|37:328,1,37.5,8|0,0:0|0:0,0:0:0:0:
32,215,172721,1,0,0:0:0:0:
22,178,172852,1,0,0:0:0:0:
24,141,172982,6,0,L|31:66,1,75,4|0,0:0|0:0,0:0:0:0:
136,135,173374,6,0,L|128:209,1,75
31,235,173765,1,0,0:0:0:0:
31,235,173895,1,0,0:0:0:0:
125,345,174026,1,8,0:0:0:0:
125,345,174156,1,0,0:0:0:0:
125,345,174547,6,0,L|200:345,1,75
358,264,174939,6,0,L|283:264,1,75
161,231,175330,1,0,0:0:0:0:
161,231,175460,1,0,0:0:0:0:
271,137,175591,1,0,0:0:0:0:
271,137,175721,1,0,0:0:0:0:
271,137,176113,6,0,L|270:196,1,37.5,12|0,0:0|0:0,0:0:0:0:
271,264,176374,1,0,0:0:0:0:
271,264,176504,1,0,0:0:0:0:
271,264,176765,5,0,0:0:0:0:
271,264,176895,1,0,0:0:0:0:
271,264,177026,1,0,0:0:0:0:
271,264,177156,6,0,L|379:264,1,75,4|0,0:0|0:0,0:0:0:0:
504,183,177547,6,0,L|429:183,1,75
307,150,177939,1,0,0:0:0:0:
307,150,178069,1,0,0:0:0:0:
417,56,178200,1,8,0:0:0:0:
417,56,178330,1,0,0:0:0:0:
417,56,178721,6,0,L|309:56,1,75
184,137,179113,6,0,L|259:137,1,75
381,170,179504,1,0,0:0:0:0:
381,170,179634,1,0,0:0:0:0:
271,264,179765,1,0,0:0:0:0:
271,264,179895,1,0,0:0:0:0:
191,149,180026,6,0,L|191:183,1,18.75
149,250,180156,2,0,L|149:231,1,18.75
146,86,180287,1,8,0:0:0:0:
36,170,180417,1,8,0:0:0:0:
46,15,180547,2,0,L|45:84,1,37.5
198,10,180808,2,0,L|129:9,1,37.5
241,92,181069,1,0,0:0:0:0:
241,92,181200,1,0,0:0:0:0:
241,92,181330,6,0,L|133:92,1,75
8,173,181721,6,0,L|83:173,1,75
205,206,182113,1,0,0:0:0:0:
205,206,182243,1,0,0:0:0:0:
95,300,182373,1,8,0:0:0:0:
95,300,182504,1,0,0:0:0:0:
95,300,182895,6,0,L|95:192,1,75
176,67,183287,6,0,L|176:142,1,75
209,264,183678,1,0,0:0:0:0:
209,264,183808,1,0,0:0:0:0:
303,154,183939,1,0,0:0:0:0:
303,154,184069,1,0,0:0:0:0:
303,154,184460,6,0,L|303:219,1,37.5,8|0,0:0|0:0,0:0:0:0:
302,291,184721,1,0,0:0:0:0:
302,291,184852,1,0,0:0:0:0:
105,365,184982,6,0,L|105:327,1,37.5,12|0,0:0|0:0,0:0:0:0:
106,229,185243,1,0,0:0:0:0:
106,229,185373,1,8,0:0:0:0:
273,217,185504,6,0,L|165:217,1,75
40,136,185895,6,0,L|115:136,1,75
237,103,186286,1,0,0:0:0:0:
237,103,186417,1,0,0:0:0:0:
127,9,186547,1,8,0:0:0:0:
127,9,186678,1,0,0:0:0:0:
127,9,187069,6,0,L|127:117,1,75
208,242,187460,6,0,L|208:167,1,75
241,45,187852,1,0,0:0:0:0:
241,45,187982,1,0,0:0:0:0:
335,155,188113,2,0,L|361:177,7,18.75
383,201,188634,5,8,0:0:0:0:
389,219,188700,1,8,0:0:0:0:
391,238,188765,1,8,0:0:0:0:
390,257,188830,1,8,0:0:0:0:
386,275,188895,1,8,0:0:0:0:
378,292,188960,1,8,0:0:0:0:
368,308,189026,1,8,0:0:0:0:
355,321,189091,1,8,0:0:0:0:
340,332,189156,5,8,0:0:0:0:
323,341,189221,1,0,0:0:0:0:
305,346,189286,1,0,0:0:0:0:
287,348,189352,1,0,0:0:0:0:
268,346,189417,1,0,0:0:0:0:
250,342,189482,1,0,0:0:0:0:
233,334,189547,1,0,0:0:0:0:
217,323,189613,1,0,0:0:0:0:
203,313,189678,6,0,L|127:235,1,75,4|0,0:0|0:0,0:0:0:0:
98,88,190069,6,0,L|150:141,1,75
259,207,190460,1,0,0:0:0:0:
259,207,190591,1,0,0:0:0:0:
251,62,190721,1,8,0:0:0:0:
251,62,190851,1,0,0:0:0:0:
251,62,191243,6,0,L|245:169,1,75
320,298,191634,6,0,L|323:223,1,75
363,103,192025,1,0,0:0:0:0:
363,103,192156,1,0,0:0:0:0:
452,218,192286,1,0,0:0:0:0:
452,218,192417,1,0,0:0:0:0:
452,218,192547,1,0,0:0:0:0:
452,218,192678,1,0,0:0:0:0:
257,191,192808,6,0,L|258:250,1,37.5,12|0,0:0|0:0,0:0:0:0:
257,318,193069,1,0,0:0:0:0:
257,318,193199,1,0,0:0:0:0:
257,318,193460,5,0,0:0:0:0:
257,318,193590,1,0,0:0:0:0:
257,318,193721,1,0,0:0:0:0:
257,318,193851,6,0,L|149:318,1,75,4|0,0:0|0:0,0:0:0:0:
91,201,194243,6,0,L|166:201,1,75
288,168,194634,1,0,0:0:0:0:
288,168,194764,1,0,0:0:0:0:
178,74,194895,1,8,0:0:0:0:
178,74,195025,1,0,0:0:0:0:
178,74,195417,6,0,L|286:74,1,75
411,155,195808,6,0,L|336:155,1,75
214,188,196199,1,0,0:0:0:0:
214,188,196329,1,0,0:0:0:0:
324,282,196460,1,0,0:0:0:0:
324,282,196590,1,0,0:0:0:0:
347,159,196721,6,0,L|391:158,1,25
451,155,196895,1,0,0:0:0:0:
275,54,196982,5,8,0:0:0:0:
91,173,197373,5,8,0:0:0:0:
417,319,197765,5,8,0:0:0:0:
