osu file format v14

[General]
AudioFilename: audio.mp3
AudioLeadIn: 0
PreviewTime: 91453
Countdown: 0
SampleSet: Soft
StackLeniency: 0.4
Mode: 0
LetterboxInBreaks: 0
WidescreenStoryboard: 1

[Editor]
Bookmarks: 73146,121808
DistanceSpacing: 1.6
BeatDivisor: 4
GridSize: 16
TimelineZoom: 1

[Metadata]
Title:Sweet Cat Dreaming
TitleUnicode:Sweet Cat Dreaming
Artist:Aura Qualic feat. Hatsune Miku
ArtistUnicode:Aura Qualic feat. 初音ミク
Creator:Log Off Now
Version:Mnyui's Hard
Source:
Tags:japanese vocaloid electronic electropop uplifting progressive house trance edm elate johnsu mnyui
BeatmapID:2262001
BeatmapSetID:1078893

[Difficulty]
HPDrainRate:4
CircleSize:3.5
OverallDifficulty:6
ApproachRate:7
SliderMultiplier:1.25
SliderTickRate:1

[Events]
//Background and Video events
0,0,"cutemiku.jpg",0,0
Video,53,"sweet cat dreaming_edit.avi"
//Break Periods
2,122061,127339
//Storyboard Layer 0 (Background)
//Storyboard Layer 1 (Fail)
//Storyboard Layer 2 (Pass)
//Storyboard Layer 3 (Foreground)
//Storyboard Layer 4 (Overlay)
//Storyboard Sound Samples

[TimingPoints]
916.438568434233,472.44094488189,4,2,1,60,1,0
46270,-90.9090909090909,4,2,1,70,0,0
57609,-111.111111111111,4,2,1,60,0,0
61388,-83.3333333333333,4,2,1,80,0,0
128239,-125,4,2,1,60,0,0
129184,-166.666666666667,4,2,1,60,0,0
132491,-125,4,2,1,60,0,0
133199,-166.666666666667,4,2,1,60,0,0

[Colours]
Combo1 : 0,155,78
Combo2 : 90,237,204
Combo3 : 108,174,255
Combo4 : 47,92,168

[HitObjects]
75,89,16034,6,0,L|167:81,1,62.5,0|0,1:0|0:0,0:0:0:0:
214,125,16506,2,0,L|276:129,1,62.5,8|0,0:0|0:0,0:0:0:0:
358,100,16979,1,2,1:2:0:0:
358,100,17215,2,0,P|365:146|346:180,1,62.5,0|10,0:0|0:0,0:0:0:0:
431,212,17688,2,0,P|393:241|355:242,1,62.5,2|0,0:0|1:0,0:0:0:0:
358,329,18160,2,0,P|313:311|293:278,1,62.5,2|8,0:0|0:0,0:0:0:0:
242,238,18633,6,0,L|173:241,1,62.5,2|0,0:0|1:0,0:0:0:0:
117,302,19105,1,2,0:0:0:0:
95,217,19341,1,10,0:0:0:0:
95,217,19577,2,0,L|104:133,1,62.5,2|0,0:0|1:0,0:0:0:0:
167,97,20050,1,2,0:0:0:0:
167,97,20286,2,0,P|200:120|247:107,1,62.5,8|0,0:0|0:0,0:0:0:0:
294,71,20758,6,0,L|286:1,2,62.5,0|2|10,1:2|0:0|0:0,0:0:0:0:
346,142,21467,2,0,L|338:204,1,62.5,2|0,0:0|1:0,0:0:0:0:
279,268,21940,2,0,L|293:355,1,62.5,2|8,0:0|0:0,0:0:0:0:
365,287,22412,5,2,0:0:0:0:
365,287,22648,2,0,L|440:272,1,62.5,0|2,1:2|0:0,0:0:0:0:
512,253,23121,1,10,0:0:0:0:
512,253,23357,1,2,0:0:0:0:
468,82,23829,6,0,L|389:93,1,62.5,2|10,0:0|0:3,0:0:0:0:
318,108,24302,1,2,0:0:0:0:
380,169,24538,2,0,L|388:230,2,62.5,2|2|8,1:3|0:0|0:0,0:0:0:0:
307,218,25247,6,0,B|240:203|251:246|180:227,1,125,2|0,0:0|0:0,0:0:0:0:
98,217,25955,1,8,0:0:0:0:
47,144,26192,2,0,P|5:210|29:271,1,125,2|2,0:0|0:0,0:0:0:0:
77,315,26900,1,10,0:0:0:0:
220,214,27373,5,0,1:0:0:0:
220,214,27609,2,0,L|209:124,1,62.5,2|10,0:0|0:3,0:0:0:0:
201,64,28081,1,2,0:0:0:0:
283,93,28318,1,2,1:3:0:0:
283,93,28554,2,0,L|345:85,1,62.5,2|8,0:0|0:0,0:0:0:0:
411,27,29026,6,0,B|440:61|440:61|428:146,1,125,2|0,0:0|0:0,0:0:0:0:
449,226,29735,1,8,0:0:0:0:
449,226,29971,2,0,L|360:210,1,62.5,0|0,0:0|1:0,0:0:0:0:
299,204,30443,2,0,P|245:252|297:320,1,156.25,2|0,0:0|0:0,0:0:0:0:
319,344,31152,6,0,L|165:337,1,125,6|8,1:2|0:0,0:0:0:0:
100,335,31861,1,0,0:0:0:0:
148,254,32097,2,0,L|139:175,1,62.5,2|0,1:2|0:0,0:0:0:0:
71,128,32569,1,10,0:0:0:0:
71,128,32806,6,0,L|62:49,2,62.5,2|0|2,0:0|1:0|0:0,0:0:0:0:
51,219,33514,1,8,0:0:0:0:
141,191,33751,2,0,B|189:180|189:180|220:198|220:198|280:181,1,125,2|2,0:0|0:0,0:0:0:0:
348,160,34459,1,8,0:0:0:0:
401,236,34695,2,0,L|396:308,2,62.5,2|2|2,0:0|1:2|0:0,0:0:0:0:
464,165,35404,1,8,0:0:0:0:
319,42,35877,6,0,L|306:114,1,62.5,2|2,1:2|0:0,0:0:0:0:
363,180,36349,2,0,P|309:196|241:163,1,125,8|0,0:0|1:0,0:0:0:0:
182,103,37058,2,0,B|147:151|147:151|165:243,1,125,2|0,0:0|0:0,0:0:0:0:
139,307,37766,6,0,P|191:309|219:288,1,62.5,2|0,1:2|0:0,0:0:0:0:
268,242,38239,1,8,0:0:0:0:
268,242,38475,2,0,B|302:225|302:225|394:267,1,125,2|0,0:0|0:0,0:0:0:0:
442,334,39184,1,10,0:0:0:0:
442,334,39420,6,0,P|473:281|455:210,1,125,2|0,0:0|0:0,0:0:0:0:
381,171,40129,2,0,L|296:183,1,62.5,8|0,0:0|0:0,0:0:0:0:
240,128,40601,2,0,L|177:118,1,62.5,0|0,1:0|0:0,0:0:0:0:
88,102,41073,1,8,0:0:0:0:
116,191,41310,5,2,0:0:0:0:
116,191,41546,2,0,L|136:334,1,125,2|8,1:2|0:0,0:0:0:0:
212,262,42255,2,0,B|289:243|267:294|353:274,1,125,2|0,0:0|0:0,0:0:0:0:
417,236,42963,5,10,0:0:0:0:
417,236,43199,2,0,L|409:144,2,62.5,2|0|0,0:0|1:0|0:0,0:0:0:0:
427,329,43908,1,10,0:0:0:0:
427,329,44144,1,2,0:0:0:0:
341,288,44381,6,0,B|280:270|280:323|203:299,2,125,0|8|0,1:0|0:0|1:0,0:0:0:0:
427,329,45562,1,0,0:0:0:0:
417,236,45798,1,8,0:0:0:0:
261,121,46270,6,0,L|269:194,1,68.7500020980836,4|0,1:2|0:0,0:0:0:0:
315,273,46743,1,10,0:0:0:0:
315,273,46979,1,2,0:0:0:0:
261,352,47215,2,0,B|213:346|213:346|186:366|186:366|120:359,1,137.500004196167,2|10,1:2|0:0,0:0:0:0:
34,380,47924,2,0,P|43:330|26:299,1,68.7500020980836,2|0,0:0|1:0,0:0:0:0:
86,231,48396,6,0,B|113:263|113:263|217:247,1,137.500004196167,2|0,0:0|0:0,0:0:0:0:
285,305,49105,2,0,P|303:231|255:164,1,137.500004196167,2|10,1:2|0:0,0:0:0:0:
188,139,49814,1,0,0:0:0:0:
188,139,50050,6,0,L|98:142,1,68.7500020980836,2|2,1:2|0:0,0:0:0:0:
22,147,50522,1,8,0:0:0:0:
22,147,50758,1,2,0:0:0:0:
80,224,50995,2,0,L|88:298,1,68.7500020980836,2|0,1:2|0:0,0:0:0:0:
172,336,51467,1,10,0:0:0:0:
172,336,51703,2,0,L|246:327,1,68.7500020980836,2|0,0:0|1:0,0:0:0:0:
325,374,52176,6,0,B|347:328|321:285|321:285|340:227,1,137.500004196167,2|0,0:0|0:0,0:0:0:0:
262,180,52884,2,0,L|257:101,1,68.7500020980836,2|2,1:2|0:0,0:0:0:0:
349,144,53357,1,8,0:0:0:0:
334,50,53593,1,2,0:0:0:0:
244,14,53829,6,0,P|187:6|105:74,1,137.500004196167,2|8,1:2|0:0,0:0:0:0:
68,130,54538,1,2,0:0:0:0:
68,130,54774,2,0,L|-1:122,2,68.7500020980836,2|0|8,1:2|0:0|0:0,0:0:0:0:
154,175,55483,2,0,L|223:167,1,68.7500020980836,2|0,0:0|1:0,0:0:0:0:
298,226,55955,2,0,L|290:295,2,68.7500020980836,2|8|0,0:0|0:0|0:0,0:0:0:0:
363,154,56664,6,0,P|359:113|327:85,1,68.7500020980836,2|0,1:2|0:0,0:0:0:0:
262,38,57136,2,0,L|161:48,1,68.7500020980836,10|0,0:0|0:0,0:0:0:0:
129,109,57609,6,0,B|66:97|85:138|8:124,2,112.499996566773,2|0|0,0:0|0:0|0:0,0:0:0:0:
214,138,58790,2,0,L|273:130,1,56.2499982833863,2|0,0:0|0:0,0:0:0:0:
348,86,59262,2,0,P|364:125|321:199,1,112.499996566773,2|0,0:0|0:0,0:0:0:0:
172,256,60207,1,2,0:0:0:0:
246,306,60443,1,0,0:0:0:0:
246,306,60680,2,0,L|243:362,2,56.2499982833863,2|2|2,0:0|0:0|0:0,0:0:0:0:
343,245,61388,6,0,L|336:169,1,74.9999977111817,4|0,1:0|0:0,0:0:0:0:
403,97,61861,2,0,P|361:81|323:89,1,74.9999977111817,8|0,0:0|0:0,0:0:0:0:
246,147,62333,2,0,P|204:162|166:154,1,74.9999977111817,0|0,1:0|0:0,0:0:0:0:
94,87,62806,2,0,L|80:185,1,74.9999977111817,8|0,0:0|0:0,0:0:0:0:
23,248,63278,6,0,P|59:243|94:258,1,74.9999977111817,2|0,1:2|0:0,0:0:0:0:
178,323,63751,2,0,P|214:326|249:311,1,74.9999977111817,8|0,0:0|0:0,0:0:0:0:
330,378,64223,2,0,P|351:346|356:310,1,74.9999977111817,0|0,1:0|0:0,0:0:0:0:
459,287,64695,2,0,P|442:252|413:229,1,74.9999977111817,10|0,0:0|0:0,0:0:0:0:
342,153,65168,6,0,P|319:183|314:219,1,74.9999977111817,2|0,1:2|0:0,0:0:0:0:
356,311,65640,1,8,0:0:0:0:
356,311,65877,2,0,L|280:304,1,74.9999977111817,2|0,0:0|1:0,0:0:0:0:
180,334,66349,1,0,0:0:0:0:
180,334,66585,2,0,P|195:299|175:239,1,74.9999977111817,10|0,0:0|0:0,0:0:0:0:
96,215,67058,6,0,L|89:126,1,74.9999977111817,0|0,1:0|0:0,0:0:0:0:
188,178,67530,2,0,L|181:89,1,74.9999977111817,8|0,0:0|0:0,0:0:0:0:
280,141,68003,2,0,L|273:52,1,74.9999977111817,0|0,1:0|0:0,0:0:0:0:
362,123,68475,6,0,P|352:188|258:221,1,149.999995422363,10|0,0:0|1:0,0:0:0:0:
198,286,69184,1,2,0:0:0:0:
198,286,69420,2,0,P|175:248|181:204,1,74.9999977111817,8|2,0:0|0:0,0:0:0:0:
77,185,69892,2,0,P|98:146|139:129,1,74.9999977111817,0|0,1:0|0:0,0:0:0:0:
230,131,70365,1,8,0:0:0:0:
265,229,70601,6,0,L|369:217,1,74.9999977111817,2|0,0:0|1:0,0:0:0:0:
430,167,71073,1,0,0:0:0:0:
430,167,71310,2,0,P|450:204|433:257,1,74.9999977111817,8|0,0:0|0:0,0:0:0:0:
374,312,71782,2,0,L|287:309,1,74.9999977111817,0|0,1:0|0:0,0:0:0:0:
200,346,72255,1,8,0:0:0:0:
200,346,72491,6,0,P|190:312|208:261,1,74.9999977111817,2|0,0:0|1:0,0:0:0:0:
257,186,72963,1,0,0:0:0:0:
257,186,73199,2,0,P|223:166|186:166,1,74.9999977111817,8|0,0:0|0:0,0:0:0:0:
103,230,73672,2,0,P|83:196|83:159,1,74.9999977111817,0|0,1:0|0:0,0:0:0:0:
141,71,74144,1,8,0:0:0:0:
245,71,74381,6,0,L|337:76,1,74.9999977111817,2|0,0:0|1:0,0:0:0:0:
375,163,74853,1,0,0:0:0:0:
270,171,75089,2,0,L|287:253,1,74.9999977111817,8|0,0:0|0:0,0:0:0:0:
312,341,75562,1,0,1:0:0:0:
211,310,75798,2,0,L|107:308,2,74.9999977111817,2|8|0,0:0|0:0|0:0,0:0:0:0:
312,341,76506,6,0,B|384:310|391:364|473:332,1,149.999995422363,4|8,1:0|0:0,0:0:0:0:
406,246,77215,2,0,L|413:157,1,74.9999977111817,2|0,0:0|1:0,0:0:0:0:
314,210,77688,2,0,L|321:121,1,74.9999977111817,2|8,0:0|0:0,0:0:0:0:
221,171,78160,1,2,0:0:0:0:
221,171,78396,6,0,L|140:159,1,74.9999977111817,0|0,1:0|0:0,0:0:0:0:
40,149,78869,2,0,P|53:185|32:247,1,74.9999977111817,8|0,0:0|0:0,0:0:0:0:
8,317,79341,1,0,1:0:0:0:
8,317,79577,2,0,L|96:309,1,74.9999977111817,2|8,0:0|0:0,0:0:0:0:
164,378,80050,1,0,0:0:0:0:
174,273,80286,6,0,L|160:181,1,74.9999977111817,2|0,1:2|0:0,0:0:0:0:
61,169,80758,2,0,L|74:77,1,74.9999977111817,8|0,0:0|0:0,0:0:0:0:
165,100,81231,2,0,L|256:86,1,74.9999977111817,0|0,1:0|0:0,0:0:0:0:
343,75,81703,1,8,0:0:0:0:
404,161,81940,2,0,L|395:261,1,74.9999977111817,2|0,0:0|1:0,0:0:0:0:
442,331,82412,5,0,0:0:0:0:
442,331,82648,2,0,L|339:324,1,74.9999977111817,8|0,0:0|0:0,0:0:0:0:
269,284,83121,2,0,L|193:288,1,74.9999977111817,0|0,1:0|0:0,0:0:0:0:
115,357,83593,2,0,P|90:301|101:259,1,74.9999977111817,10|0,0:0|0:0,0:0:0:0:
7,225,84066,6,0,P|72:188|162:218,1,149.999995422363,2|8,1:2|0:0,0:0:0:0:
200,291,84774,2,0,B|291:261|258:320|365:289,1,149.999995422363,2|2,0:2|0:0,0:0:0:0:
441,342,85483,1,8,0:0:0:0:
436,237,85719,2,0,L|461:148,1,74.9999977111817,2|0,0:0|1:0,0:0:0:0:
387,83,86192,5,0,0:0:0:0:
387,83,86428,2,0,P|342:62|299:73,1,74.9999977111817,8|0,0:0|0:0,0:0:0:0:
237,134,86900,2,0,L|136:118,1,74.9999977111817,0|0,1:0|0:0,0:0:0:0:
71,68,87373,2,0,P|56:106|60:165,1,74.9999977111817,10|0,0:0|0:0,0:0:0:0:
127,219,87845,6,0,L|113:300,1,74.9999977111817,2|0,1:2|0:0,0:0:0:0:
214,257,88318,2,0,L|201:331,1,74.9999977111817,8|0,0:0|0:0,0:0:0:0:
301,295,88790,2,0,L|288:369,1,74.9999977111817,0|0,1:0|0:0,0:0:0:0:
189,337,89262,6,0,B|108:313|128:370|39:349,1,149.999995422363,10|2,0:0|1:2,0:0:0:0:
70,248,89971,2,0,L|58:140,2,74.9999977111817,2|8|2,0:0|0:0|0:0,0:0:0:0:
167,204,90680,1,0,1:0:0:0:
157,308,90916,1,0,0:0:0:0:
157,308,91152,2,0,L|267:292,1,74.9999977111817,8|0,0:0|0:0,0:0:0:0:
314,362,91625,6,0,P|391:371|452:309,1,149.999995422363,4|10,1:0|0:0,0:0:0:0:
349,253,92333,1,2,0:0:0:0:
467,232,92569,2,0,L|476:152,1,74.9999977111817,0|2,1:0|0:0,0:0:0:0:
355,164,93042,1,8,0:0:0:0:
429,70,93278,2,0,P|379:51|339:64,1,74.9999977111817,2|0,0:0|1:0,0:0:0:0:
265,130,93751,6,0,B|182:110|215:179|104:156,1,149.999995422363,2|0,0:0|0:0,0:0:0:0:
31,236,94459,2,0,P|36:198|22:163,1,74.9999977111817,0|0,1:0|0:0,0:0:0:0:
7,45,94932,1,8,0:0:0:0:
7,45,95168,1,2,0:0:0:0:
126,58,95404,6,0,L|234:43,1,74.9999977111817,0|2,1:0|0:0,0:0:0:0:
286,132,95877,2,0,L|360:141,1,74.9999977111817,8|2,0:0|0:0,0:0:0:0:
459,74,96349,2,0,L|453:-7,2,74.9999977111817,0|2|8,1:0|0:0|0:0,0:0:0:0:
435,192,97058,2,0,L|429:266,1,74.9999977111817,2|0,0:0|1:0,0:0:0:0:
509,355,97530,6,0,P|469:369|420:355,1,74.9999977111817,2|8,0:0|0:0,0:0:0:0:
342,290,98003,2,0,L|346:214,2,74.9999977111817,2|0|2,0:0|1:0|0:0,0:0:0:0:
254,371,98711,1,8,0:0:0:0:
342,290,98947,1,2,0:0:0:0:
229,248,99184,6,0,P|176:225|109:307,1,149.999995422363,0|8,1:0|0:0,0:0:0:0:
42,376,99892,1,2,0:0:0:0:
18,252,100129,2,0,L|15:170,2,74.9999977111817,0|2|8,1:0|0:0|0:0,0:0:0:0:
128,298,100837,2,0,L|146:135,1,149.999995422363,2|2,0:0|0:0,0:0:0:0:
133,28,101546,2,0,P|181:64|210:61,1,74.9999977111817,8|0,0:0|0:0,0:0:0:0:
310,44,102018,6,0,L|314:126,1,74.9999977111817,2|0,1:2|0:0,0:0:0:0:
230,206,102491,2,0,L|243:283,1,74.9999977111817,10|0,0:0|0:0,0:0:0:0:
346,339,102963,2,0,P|397:306|376:203,1,149.999995422363,2|8,1:2|0:0,0:0:0:0:
457,119,103672,2,0,L|367:104,1,74.9999977111817,0|0,0:0|1:0,0:0:0:0:
289,31,104144,2,0,L|213:18,2,74.9999977111817,2|8|2,0:0|0:0|0:0,0:0:0:0:
276,150,104853,2,0,B|232:175|232:175|124:162,1,149.999995422363,0|8,1:0|0:0,0:0:0:0:
123,43,105562,5,2,0:0:0:0:
23,109,105798,2,0,L|20:21,2,74.9999977111817,0|2|10,1:0|0:0|0:0,0:0:0:0:
75,219,106506,1,2,0:0:0:0:
8,319,106743,6,0,L|88:313,1,74.9999977111817,4|2,1:0|0:0,0:0:0:0:
176,238,107215,1,8,0:0:0:0:
163,357,107451,1,2,0:0:0:0:
273,310,107688,2,0,P|337:269|428:303,1,149.999995422363,0|8,1:0|0:0,0:0:0:0:
485,373,108396,2,0,P|476:333|508:277,1,74.9999977111817,2|0,0:0|1:0,0:0:0:0:
493,181,108869,6,0,B|437:161|402:198|402:198|349:187,1,149.999995422363,2|0,0:0|0:0,0:0:0:0:
260,110,109577,2,0,L|173:123,1,74.9999977111817,0|0,1:0|0:0,0:0:0:0:
72,80,110050,1,8,0:0:0:0:
124,188,110286,1,2,0:0:0:0:
6,166,110522,6,0,P|26:230|13:318,1,149.999995422363,0|8,1:0|0:0,0:0:0:0:
117,375,111231,1,2,0:0:0:0:
144,258,111467,2,0,L|131:176,2,74.9999977111817,0|2|8,1:0|0:0|0:0,0:0:0:0:
236,334,112176,2,0,P|296:304|333:320,1,74.9999977111817,2|0,0:0|1:0,0:0:0:0:
407,359,112648,6,0,P|382:273|426:216,1,149.999995422363,2|2,0:0|0:0,0:0:0:0:
501,146,113357,1,0,1:0:0:0:
390,99,113593,2,0,L|373:19,2,74.9999977111817,2|8|2,0:0|0:0|0:0,0:0:0:0:
312,191,114302,6,0,B|264:161|264:161|221:201|162:185,1,149.999995422363,0|8,1:0|0:0,0:0:0:0:
86,109,115010,1,2,0:0:0:0:
32,216,115247,2,0,L|34:290,2,74.9999977111817,0|2|8,1:0|0:0|0:0,0:0:0:0:
0,100,115955,2,0,P|25:47|122:27,1,149.999995422363,2|2,0:0|0:0,0:0:0:0:
208,88,116664,2,0,L|315:74,1,74.9999977111817,8|0,0:0|0:0,0:0:0:0:
390,26,117136,6,0,P|401:69|394:108,1,74.9999977111817,2|0,1:2|0:0,0:0:0:0:
486,179,117609,2,0,P|455:201|418:210,1,74.9999977111817,10|0,0:0|0:0,0:0:0:0:
301,233,118081,2,0,P|284:278|379:334,1,149.999995422363,2|8,1:2|0:0,0:0:0:0:
469,346,118790,2,0,L|475:257,1,74.9999977111817,0|0,0:0|1:0,0:0:0:0:
381,194,119263,2,0,L|387:105,2,74.9999977111817,2|8|2,0:0|0:0|0:0,0:0:0:0:
290,272,119971,2,0,B|235:290|235:290|187:264|138:284,1,149.999995422363,0|8,1:0|0:0,0:0:0:0:
28,309,120680,5,2,0:0:0:0:
66,195,120916,2,0,L|29:117,2,74.9999977111817,0|2|10,1:0|0:0|0:0,0:0:0:0:
184,185,121624,1,2,0:0:0:0:
237,292,121861,1,4,0:0:0:0:
455,137,128239,5,2,0:0:0:0:
455,137,128475,2,0,L|460:201,2,50,0|2|0,0:0|0:0|0:0,0:0:0:0:
368,167,129184,2,0,B|321:177|264:154|264:154|196:86|264:51|332:86|264:154|264:154|206:142|150:177,1,412.499987411499,2|0,0:0|0:0,0:0:0:0:
39,279,132491,6,0,P|42:335|90:348,1,100,2|0,0:0|0:0,0:0:0:0:
172,300,133199,2,0,B|245:266|309:302|309:302|378:346|451:294|451:294|387:312|364:281,1,374.999988555909,2|0,0:0|0:0,0:0:0:0:
414,214,135798,1,2,0:0:0:0:
172,300,136506,5,2,0:0:0:0:
