osu file format v14

[General]
AudioFilename: audio.mp3
AudioLeadIn: 0
PreviewTime: 91453
Countdown: 0
SampleSet: Soft
StackLeniency: 0.4
Mode: 0
LetterboxInBreaks: 0
WidescreenStoryboard: 0

[Editor]
DistanceSpacing: 1.2
BeatDivisor: 4
GridSize: 4
TimelineZoom: 1

[Metadata]
Title:Sweet Cat Dreaming
TitleUnicode:Sweet Cat Dreaming
Artist:Aura Qualic feat. Hatsune Miku
ArtistUnicode:Aura Qualic feat. 初音ミク
Creator:Log Off Now
Version:Dreams
Source:
Tags:japanese vocaloid electronic electropop uplifting progressive house trance edm elate johnsu mnyui
BeatmapID:2257384
BeatmapSetID:1078893

[Difficulty]
HPDrainRate:5
CircleSize:4
OverallDifficulty:8
ApproachRate:8.5
SliderMultiplier:1.4
SliderTickRate:1

[Events]
//Background and Video events
0,0,"cutemiku.jpg",0,0
Video,53,"sweet cat dreaming_edit.avi"
//Break Periods
2,122061,127564
//Storyboard Layer 0 (Background)
//Storyboard Layer 1 (Fail)
//Storyboard Layer 2 (Pass)
//Storyboard Layer 3 (Foreground)
//Storyboard Layer 4 (Overlay)
//Storyboard Sound Samples

[TimingPoints]
916.438568434233,472.44094488189,4,2,1,60,1,0
46270,-83.3333333333333,4,2,1,70,0,0
57609,-100,4,2,1,60,0,0
61388,-76.9230769230769,4,2,1,80,0,0
128239,-111.111111111111,4,2,1,60,0,0
129184,-142.857142857143,4,2,1,60,0,0
132491,-111.111111111111,4,2,1,60,0,0
133199,-142.857142857143,4,2,1,60,0,0

[Colours]
Combo1 : 0,155,78
Combo2 : 90,237,204
Combo3 : 108,174,255
Combo4 : 47,92,168

[HitObjects]
164,110,16034,6,0,L|177:206,1,70,0|0,1:0|0:0,0:0:0:0:
268,300,16506,2,0,L|281:204,1,70,8|0,0:0|0:0,0:0:0:0:
336,171,16979,1,2,1:2:0:0:
361,259,17215,1,0,0:0:0:0:
254,151,17451,1,10,0:0:0:0:
431,116,17688,2,0,L|421:185,1,70,2|0,0:0|1:0,0:0:0:0:
361,259,18160,2,0,L|370:328,1,70,2|8,0:0|0:0,0:0:0:0:
282,227,18632,5,2,0:0:0:0:
421,185,18869,1,0,1:0:0:0:
441,270,19105,1,2,0:0:0:0:
341,146,19341,1,10,0:0:0:0:
485,162,19577,2,0,P|445:183|414:184,1,70,2|0,0:0|1:0,0:0:0:0:
328,77,20050,1,2,0:0:0:0:
328,77,20286,2,0,P|337:112|341:156,1,70,8|0,0:0|0:0,0:0:0:0:
282,227,20758,5,0,1:2:0:0:
253,137,20995,1,2,0:0:0:0:
414,78,21231,1,10,0:0:0:0:
401,168,21467,2,0,L|324:158,1,70,2|0,0:0|1:0,0:0:0:0:
288,56,21940,2,0,L|211:66,1,70,2|8,0:0|0:0,0:0:0:0:
134,80,22412,5,2,0:0:0:0:
219,158,22648,1,0,1:2:0:0:
93,249,22884,1,2,0:0:0:0:
138,165,23121,1,10,0:0:0:0:
180,316,23357,1,2,0:0:0:0:
184,339,23829,5,2,0:0:0:0:
133,141,24066,1,10,0:3:0:0:
83,269,24302,1,2,0:0:0:0:
131,118,24538,1,2,1:3:0:0:
186,363,24774,2,0,L|199:269,1,70,2|8,0:0|0:0,0:0:0:0:
182,199,25247,6,0,B|258:191|234:240|337:225,1,140,2|0,0:0|0:0,0:0:0:0:
343,95,25955,1,8,0:0:0:0:
343,95,26192,2,0,P|299:135|293:174,1,70,2|0,0:0|1:0,0:0:0:0:
348,291,26664,1,2,0:0:0:0:
442,159,26900,2,0,L|363:168,1,70,10|0,0:0|0:0,0:0:0:0:
269,295,27373,1,0,1:0:0:0:
219,113,27609,5,2,0:0:0:0:
289,171,27845,1,10,0:3:0:0:
377,39,28081,1,2,0:0:0:0:
295,86,28318,1,2,1:3:0:0:
383,187,28554,2,0,L|370:105,1,70,2|8,0:0|0:0,0:0:0:0:
309,8,29026,6,0,B|233:0|257:49|154:34,1,140,2|0,0:0|0:0,0:0:0:0:
84,0,29735,1,8,0:0:0:0:
16,47,29971,2,0,L|25:119,1,70,0|0,0:0|1:0,0:0:0:0:
154,224,30443,2,0,P|109:187|17:220,1,140,2|0,0:0|0:0,0:0:0:0:
57,384,31152,6,0,B|92:354|92:354|85:258,1,140,6|8,1:2|0:0,0:0:0:0:
24,116,31861,1,0,0:0:0:0:
140,204,32097,2,0,P|102:185|72:185,1,70,2|0,1:2|0:0,0:0:0:0:
207,96,32569,1,10,0:0:0:0:
108,35,32806,2,0,L|117:117,1,70,2|0,0:0|1:0,0:0:0:0:
222,183,33278,2,0,P|260:164|290:164,1,70,2|8,0:0|0:0,0:0:0:0:
375,30,33751,5,2,0:0:0:0:
296,84,33987,1,0,1:0:0:0:
381,184,34223,2,0,L|373:109,1,70,2|8,0:0|0:0,0:0:0:0:
297,3,34695,1,2,0:0:0:0:
449,82,34932,1,2,1:2:0:0:
237,203,35168,1,2,0:0:0:0:
296,84,35404,2,0,L|303:153,1,70,8|0,0:0|0:0,0:0:0:0:
312,308,35877,5,2,1:2:0:0:
237,203,36113,1,2,0:0:0:0:
383,135,36349,1,8,0:0:0:0:
312,308,36585,2,0,L|322:224,1,70,2|0,0:0|1:0,0:0:0:0:
258,121,37058,2,0,P|224:158|120:151,1,140,2|0,0:0|0:0,0:0:0:0:
136,32,37766,6,0,P|175:69|178:97,1,70,2|0,1:2|0:0,0:0:0:0:
106,234,38239,1,8,0:0:0:0:
13,127,38475,2,0,B|89:119|65:168|168:153,1,140,2|0,0:0|0:0,0:0:0:0:
260,78,39184,1,10,0:0:0:0:
225,211,39420,2,0,P|267:166|360:178,1,140,2|0,0:0|0:0,0:0:0:0:
310,310,40129,2,0,L|302:231,1,70,8|0,0:0|0:0,0:0:0:0:
377,103,40601,2,0,L|369:182,2,70,0|0|8,1:0|0:0|0:0,0:0:0:0:
242,19,41310,5,2,0:0:0:0:
296,149,41546,1,2,1:2:0:0:
384,11,41782,2,0,P|352:30|300:38,1,70,2|8,0:0|0:0,0:0:0:0:
137,12,42255,2,0,P|174:63|160:151,1,140,2|0,0:0|0:0,0:0:0:0:
117,209,42963,5,10,0:0:0:0:
26,84,43199,2,0,L|116:93,1,70,2|0,0:0|1:0,0:0:0:0:
250,104,43672,1,0,0:0:0:0:
137,12,43908,1,10,0:0:0:0:
192,168,44144,1,2,0:0:0:0:
276,93,44381,6,0,B|352:85|328:134|431:119,2,140,0|8|0,1:0|0:0|1:0,0:0:0:0:
207,152,45562,1,0,0:0:0:0:
297,283,45798,2,0,P|289:232|286:176,1,105,8|0,0:0|0:0,0:0:0:0:
202,57,46270,6,0,P|148:88|107:87,1,83.9999974365235,4|0,1:2|0:0,0:0:0:0:
7,52,46743,1,10,0:0:0:0:
132,4,46979,1,2,0:0:0:0:
48,152,47215,2,0,L|35:64,1,83.9999974365235,2|0,1:2|0:0,0:0:0:0:
220,32,47688,1,10,0:0:0:0:
145,190,47924,2,0,L|132:102,1,83.9999974365235,2|0,0:0|1:0,0:0:0:0:
308,28,48396,6,0,B|406:14|360:75|471:62,1,167.999994873047,2|0,0:0|0:0,0:0:0:0:
349,183,49105,2,0,P|327:135|332:97,1,83.9999974365235,2|0,1:2|0:0,0:0:0:0:
426,208,49577,2,0,P|395:251|360:265,1,83.9999974365235,10|0,0:0|0:0,0:0:0:0:
409,122,50050,5,2,1:2:0:0:
472,287,50286,1,2,0:0:0:0:
493,150,50522,1,8,0:0:0:0:
334,185,50758,1,2,0:0:0:0:
386,322,50995,2,0,L|400:232,1,83.9999974365235,2|0,1:2|0:0,0:0:0:0:
270,113,51467,1,10,0:0:0:0:
304,289,51703,2,0,L|318:199,1,83.9999974365235,2|0,0:0|1:0,0:0:0:0:
294,36,52176,6,0,B|196:22|232:84|131:70,1,167.999994873047,2|0,0:0|0:0,0:0:0:0:
3,12,52884,2,0,P|46:51|52:94,1,83.9999974365235,2|2,1:2|0:0,0:0:0:0:
30,242,53357,1,8,0:0:0:0:
0,151,53593,1,2,0:0:0:0:
135,70,53829,6,0,P|126:134|114:242,1,167.999994873047,2|8,1:2|0:0,0:0:0:0:
14,137,54538,1,2,0:0:0:0:
140,252,54774,2,0,P|189:237|238:234,1,83.9999974365235,2|0,1:2|0:0,0:0:0:0:
308,155,55247,1,8,0:0:0:0:
352,323,55483,2,0,P|303:308|254:305,1,83.9999974365235,2|0,0:0|1:0,0:0:0:0:
394,160,55955,1,2,0:0:0:0:
397,164,56192,2,0,P|388:222|401:263,1,83.9999974365235,8|0,0:0|0:0,0:0:0:0:
470,63,56664,6,0,L|365:75,1,83.9999974365235,2|0,1:2|0:0,0:0:0:0:
308,155,57136,2,0,L|203:143,1,83.9999974365235,10|0,0:0|0:0,0:0:0:0:
113,22,57609,2,0,B|189:14|165:63|268:48,2,140,2|0|0,0:0|0:0|0:0,0:0:0:0:
65,120,58790,2,0,P|124:109|142:92,1,70,2|0,0:0|0:0,0:0:0:0:
6,61,59262,1,2,0:0:0:0:
6,61,59499,6,0,P|21:114|34:214,1,140
16,286,60207,1,2,0:0:0:0:
113,178,60443,1,0,0:0:0:0:
176,340,60680,1,2,0:0:0:0:
106,270,60916,1,2,0:0:0:0:
195,159,61152,1,2,0:0:0:0:
283,249,61388,6,0,L|176:240,1,90.9999958343508,4|0,1:0|0:0,0:0:0:0:
93,182,61743,1,0,0:0:0:0:
93,182,61861,2,0,P|111:131|104:77,1,90.9999958343508,8|0,0:0|0:0,0:0:0:0:
270,20,62333,2,0,B|219:33|219:33|159:23,1,90.9999958343508,0|0,1:0|0:0,0:0:0:0:
314,169,62806,2,0,L|331:70,1,90.9999958343508,8|0,0:0|0:0,0:0:0:0:
487,30,63278,6,0,L|380:39,1,90.9999958343508,2|0,1:2|0:0,0:0:0:0:
270,20,63633,1,0,0:0:0:0:
270,20,63751,2,0,P|288:71|281:125,1,90.9999958343508,8|0,0:0|0:0,0:0:0:0:
258,233,64223,1,0,1:0:0:0:
203,81,64459,1,0,0:0:0:0:
384,19,64695,2,0,L|368:108,1,90.9999958343508,10|0,0:0|0:0,0:0:0:0:
193,185,65168,6,0,P|260:153|304:164,1,90.9999958343508,2|0,1:2|0:0,0:0:0:0:
325,287,65640,1,8,0:0:0:0:
325,287,65877,2,0,P|263:244|251:201,1,90.9999958343508,2|0,0:0|1:0,0:0:0:0:
349,123,66349,1,0,0:0:0:0:
349,123,66585,2,0,P|342:198|311:230,1,90.9999958343508,10|0,0:0|0:0,0:0:0:0:
203,309,67058,6,0,L|312:320,1,90.9999958343508,0|0,1:0|0:0,0:0:0:0:
357,376,67413,1,0,0:0:0:0:
357,376,67530,2,0,P|424:354|462:354,1,90.9999958343508,8|0,0:0|0:0,0:0:0:0:
334,195,68003,2,0,P|358:242|367:294,1,90.9999958343508,0|0,1:0|0:0,0:0:0:0:
460,99,68475,5,10,0:0:0:0:
387,142,68711,2,0,L|277:130,1,90.9999958343508,2|0,0:0|1:0,0:0:0:0:
180,10,69184,2,0,P|221:44|230:98,1,90.9999958343508,2|8,0:0|0:0,0:0:0:0:
115,167,69656,2,0,P|123:114|166:79,1,90.9999958343508,2|0,0:0|1:0,0:0:0:0:
199,159,70129,1,0,0:0:0:0:
52,82,70365,1,8,0:0:0:0:
63,235,70601,2,0,L|165:222,1,90.9999958343508,2|0,0:0|1:0,0:0:0:0:
289,107,71073,5,0,0:0:0:0:
289,107,71192,1,0,0:0:0:0:
289,107,71310,2,0,P|277:160|274:205,1,90.9999958343508,8|0,0:0|0:0,0:0:0:0:
140,313,71782,2,0,L|242:300,1,90.9999958343508,0|0,1:0|0:0,0:0:0:0:
373,219,72255,1,8,0:0:0:0:
324,371,72491,2,0,L|311:278,1,90.9999958343508,2|0,0:0|1:0,0:0:0:0:
173,167,72963,5,0,0:0:0:0:
173,167,73082,1,0,0:0:0:0:
173,167,73200,2,0,P|221:190|271:182,1,90.9999958343508,8|0,0:0|0:0,0:0:0:0:
258,17,73672,2,0,P|244:78|237:114,1,90.9999958343508,0|0,1:0|0:0,0:0:0:0:
321,247,74144,1,8,0:0:0:0:
410,103,74381,2,0,L|319:117,1,90.9999958343508,2|0,0:0|1:0,0:0:0:0:
145,50,74853,5,0,0:0:0:0:
145,50,74972,1,0,0:0:0:0:
145,50,75090,2,0,P|156:103|160:148,1,90.9999958343508,8|0,0:0|0:0,0:0:0:0:
126,254,75562,1,0,1:0:0:0:
68,128,75798,1,2,0:0:0:0:
223,212,76034,2,0,P|273:201|364:200,1,136.499993751526,8|0,0:0|0:0,0:0:0:0:
441,70,76506,6,0,L|427:172,1,90.9999958343508,4|0,1:0|0:0,0:0:0:0:
405,335,76979,1,8,0:0:0:0:
508,247,77215,2,0,L|417:257,1,90.9999958343508,2|0,0:0|1:0,0:0:0:0:
322,337,77688,2,0,L|231:327,1,90.9999958343508,2|8,0:0|0:0,0:0:0:0:
165,267,78160,1,2,0:0:0:0:
81,345,78396,6,0,P|86:300|81:245,1,90.9999958343508,0|0,1:0|0:0,0:0:0:0:
64,164,78751,1,0,0:0:0:0:
64,164,78869,2,0,P|106:179|174:168,1,90.9999958343508,8|0,0:0|0:0,0:0:0:0:
201,108,79341,1,0,1:0:0:0:
109,6,79577,2,0,L|119:112,1,90.9999958343508,2|8,0:0|0:0,0:0:0:0:
222,209,80050,1,0,0:0:0:0:
316,81,80286,6,0,L|207:92,1,90.9999958343508,2|0,1:2|0:0,0:0:0:0:
162,148,80641,1,0,0:0:0:0:
162,148,80758,2,0,P|95:126|57:126,1,90.9999958343508,8|0,0:0|0:0,0:0:0:0:
37,277,81231,2,0,P|85:244|96:204,1,90.9999958343508,0|0,1:0|0:0,0:0:0:0:
31,61,81703,1,8,0:0:0:0:
181,172,81940,2,0,P|248:150|286:150,1,90.9999958343508,2|0,0:0|1:0,0:0:0:0:
373,23,82412,5,0,0:0:0:0:
373,23,82531,1,0,0:0:0:0:
373,23,82649,2,0,P|356:75|358:121,1,90.9999958343508,8|0,0:0|0:0,0:0:0:0:
384,244,83121,1,0,1:0:0:0:
447,83,83357,1,0,0:0:0:0:
289,228,83593,2,0,L|299:318,1,90.9999958343508,10|0,0:0|0:0,0:0:0:0:
459,200,84066,6,0,P|424:233|372:243,1,90.9999958343508,2|0,1:2|0:0,0:0:0:0:
304,112,84538,1,8,0:0:0:0:
304,112,84774,2,0,P|350:125|384:165,1,90.9999958343508,2|0,0:2|1:0,0:0:0:0:
331,312,85247,1,2,0:0:0:0:
291,204,85483,1,8,0:0:0:0:
478,126,85719,2,0,L|467:220,1,90.9999958343508,2|0,0:0|1:0,0:0:0:0:
363,345,86192,5,0,0:0:0:0:
363,345,86310,1,0,0:0:0:0:
363,345,86428,2,0,P|309:323|265:325,1,90.9999958343508,8|0,0:0|0:0,0:0:0:0:
135,372,86900,2,0,P|169:324|173:283,1,90.9999958343508,0|0,1:0|0:0,0:0:0:0:
82,178,87373,2,0,L|192:188,1,90.9999958343508,10|0,0:0|0:0,0:0:0:0:
242,239,87727,1,2,0:0:0:0:
242,239,87845,6,0,L|352:229,1,90.9999958343508,2|0,1:2|0:0,0:0:0:0:
446,87,88318,2,0,P|412:135|408:176,1,90.9999958343508,8|0,0:0|0:0,0:0:0:0:
451,304,88790,1,0,1:0:0:0:
499,161,89026,1,0,0:0:0:0:
332,258,89262,2,0,L|315:151,1,90.9999958343508,10|0,0:0|0:0,0:0:0:0:
288,10,89735,5,2,1:2:0:0:
443,100,89971,2,0,L|328:88,1,90.9999958343508,2|8,0:0|0:0,0:0:0:0:
180,13,90443,2,0,P|210:56|215:104,1,90.9999958343508,2|0,0:0|1:0,0:0:0:0:
157,226,90916,1,0,0:0:0:0:
0,106,91152,2,0,P|62:90|138:85,1,136.499993751526,8|0,0:0|0:0,0:0:0:0:
198,149,91625,6,0,L|183:251,1,90.9999958343508,4|0,1:0|0:0,0:0:0:0:
166,362,92097,1,10,0:0:0:0:
89,255,92333,1,2,0:0:0:0:
285,160,92569,5,0,1:0:0:0:
262,306,92806,1,2,0:0:0:0:
99,161,93042,1,8,0:0:0:0:
203,77,93278,2,0,L|188:179,1,90.9999958343508,2|0,0:0|1:0,0:0:0:0:
258,326,93751,1,2,0:0:0:0:
363,205,93987,6,0,L|256:219,1,90.9999958343508,8|0,0:0|0:0,0:0:0:0:
142,352,94459,2,0,P|167:312|167:257,1,90.9999958343508,0|0,1:0|0:0,0:0:0:0:
60,179,94932,1,8,0:0:0:0:
89,279,95168,1,2,0:0:0:0:
250,136,95404,5,0,1:0:0:0:
157,96,95640,1,2,0:0:0:0:
327,61,95877,1,8,0:0:0:0:
282,218,96113,1,2,0:0:0:0:
230,37,96349,5,0,1:0:0:0:
351,149,96585,1,2,0:0:0:0:
409,11,96821,1,8,0:0:0:0:
250,136,97058,2,0,P|194:126|135:121,1,90.9999958343508,2|0,0:0|1:0,0:0:0:0:
367,282,97530,2,0,L|351:162,1,90.9999958343508,2|8,0:0|0:0,0:0:0:0:
230,37,98003,5,2,0:0:0:0:
268,243,98239,1,0,1:0:0:0:
372,49,98475,1,2,0:0:0:0:
284,128,98711,1,8,0:0:0:0:
428,236,98947,1,2,0:0:0:0:
262,121,99184,6,0,P|274:211|280:305,1,181.999991668702,0|8,1:0|0:0,0:0:0:0:
210,365,99892,1,2,0:0:0:0:
363,290,100129,1,0,1:0:0:0:
171,168,100365,1,2,0:0:0:0:
191,269,100601,1,8,0:0:0:0:
333,86,100837,6,0,L|232:103,1,90.9999958343508,2|0,0:0|1:0,0:0:0:0:
148,188,101310,1,2,0:0:0:0:
68,49,101546,2,0,L|169:66,1,90.9999958343508,8|0,0:0|0:0,0:0:0:0:
95,265,102018,5,2,1:2:0:0:
59,138,102255,1,0,0:0:0:0:
237,172,102491,2,0,L|136:189,1,90.9999958343508,10|0,0:0|0:0,0:0:0:0:
316,91,102963,6,0,P|278:167|336:261,1,181.999991668702,2|8,1:2|0:0,0:0:0:0:
463,126,103672,1,0,0:0:0:0:
369,168,103908,1,0,1:0:0:0:
503,220,104144,5,2,0:0:0:0:
335,82,104381,1,8,0:0:0:0:
470,5,104617,2,0,L|454:103,1,90.9999958343508,2|0,0:0|1:0,0:0:0:0:
360,182,105089,2,0,L|374:271,1,90.9999958343508,2|8,0:0|0:0,0:0:0:0:
311,361,105562,5,2,0:0:0:0:
467,282,105798,1,0,1:0:0:0:
270,155,106034,1,2,0:0:0:0:
374,271,106270,1,10,0:0:0:0:
447,89,106506,1,2,0:0:0:0:
274,255,106743,5,4,1:0:0:0:
221,56,106979,1,2,0:0:0:0:
170,264,107215,1,8,0:0:0:0:
323,138,107451,1,2,0:0:0:0:
111,60,107688,5,0,1:0:0:0:
256,230,107924,1,2,0:0:0:0:
312,29,108160,1,8,0:0:0:0:
155,172,108396,2,0,P|94:154|56:154,1,90.9999958343508,2|0,0:0|1:0,0:0:0:0:
212,11,108869,2,0,P|229:76|234:119,1,90.9999958343508,2|8,0:0|0:0,0:0:0:0:
180,271,109341,5,0,0:0:0:0:
304,190,109577,2,0,P|349:190|417:203,1,90.9999958343508,0|0,1:0|0:0,0:0:0:0:
486,298,110050,1,8,0:0:0:0:
446,99,110286,1,2,0:0:0:0:
317,285,110522,5,0,1:0:0:0:
364,58,110758,1,2,0:0:0:0:
442,235,110995,1,8,0:0:0:0:
264,148,111231,1,2,0:0:0:0:
463,42,111467,5,0,1:0:0:0:
350,196,111703,1,2,0:0:0:0:
284,10,111940,1,8,0:0:0:0:
512,138,112176,2,0,P|446:129|398:128,1,90.9999958343508,2|0,0:0|1:0,0:0:0:0:
243,304,112648,2,0,P|257:239|262:191,1,90.9999958343508,2|8,0:0|0:0,0:0:0:0:
188,53,113121,5,2,0:0:0:0:
334,168,113357,1,0,1:0:0:0:
287,13,113593,1,2,0:0:0:0:
229,214,113829,1,8,0:0:0:0:
167,34,114066,1,2,0:0:0:0:
43,149,114302,6,0,P|102:139|238:130,1,181.999991668702,0|8,1:0|0:0,0:0:0:0:
352,201,115010,1,2,0:0:0:0:
212,264,115247,1,0,1:0:0:0:
313,98,115483,1,2,0:0:0:0:
340,297,115719,1,8,0:0:0:0:
204,145,115955,6,0,L|190:246,1,90.9999958343508,2|0,0:0|1:0,0:0:0:0:
172,380,116428,1,2,0:0:0:0:
26,287,116664,2,0,P|63:290|127:301,1,90.9999958343508,8|0,0:0|0:0,0:0:0:0:
281,215,117136,5,2,1:2:0:0:
262,364,117373,1,0,0:0:0:0:
103,212,117609,2,0,P|140:215|204:226,1,90.9999958343508,10|0,0:0|0:0,0:0:0:0:
384,124,118081,6,0,P|374:191|366:314,2,181.999991668702,2|8|0,1:2|0:0|1:0,0:0:0:0:
451,48,119262,1,2,0:0:0:0:
471,186,119499,1,8,0:0:0:0:
304,82,119735,1,2,0:0:0:0:
205,181,119971,6,0,B|93:174|138:226|19:219,1,181.999991668702,0|8,1:0|0:0,0:0:0:0:
179,270,120680,1,2,0:0:0:0:
60,137,120916,1,0,1:0:0:0:
92,338,121152,1,2,0:0:0:0:
232,164,121388,1,10,0:0:0:0:
190,362,121625,1,2,0:0:0:0:
118,215,121861,1,4,0:0:0:0:
65,170,128239,6,0,P|84:211|84:240,1,62.9999980773926,2|0,0:0|0:0,0:0:0:0:
27,299,128711,1,2,0:0:0:0:
75,369,128947,1,0,0:0:0:0:
149,328,129184,2,0,B|221:289|277:293|322:378|354:372|435:374|480:349|499:304|484:235|456:169|404:169|361:235|384:275,1,538.999983551026,2|0,0:0|0:0,0:0:0:0:
383,274,132491,6,0,P|366:227|401:153,1,125.999996154785,2|0,0:0|0:0,0:0:0:0:
431,90,133199,2,0,B|332:54|351:150|260:106|260:106|242:128|197:190|148:208|118:68|227:70|206:132,1,391.99998803711,2|2,0:0|0:0,0:0:0:0:
193,137,135798,1,2,0:0:0:0:
181,122,136506,1,2,0:0:0:0:
