osu file format v14

[General]
AudioFilename: audio.mp3
AudioLeadIn: 0
PreviewTime: 110854
Countdown: 0
SampleSet: Normal
StackLeniency: 0.7
Mode: 1
LetterboxInBreaks: 0
WidescreenStoryboard: 1

[Editor]
Bookmarks: 8317,16186,24055,39798,55535,60217,69583,78949,90656,98469,106283,110854,119997,129140,134854,140568,149711,158854,167997,180518,197214,205562
DistanceSpacing: 1.2
BeatDivisor: 4
GridSize: 16
TimelineZoom: 4.299997

[Metadata]
Title:White Washed (2022)
TitleUnicode:White Washed (2022)
Artist:August Burns Red
ArtistUnicode:August Burns Red
Creator:Caelan
Version:Muzukashii
Source:
Tags:zth abr whitewashed constellations remaster remix english metal metalcore deathcore christian melodic riffs breakdowns blasts screamo
BeatmapID:3954527
BeatmapSetID:1916295

[Difficulty]
HPDrainRate:5
CircleSize:4
OverallDifficulty:5
ApproachRate:10
SliderMultiplier:1.4
SliderTickRate:1

[Events]
//Background and Video events
0,0,"abr white washed bg.jpg",0,80
//Break Periods
//Storyboard Layer 0 (Background)
//Storyboard Layer 1 (Fail)
//Storyboard Layer 2 (Pass)
//Storyboard Layer 3 (Foreground)
//Storyboard Layer 4 (Overlay)
//Storyboard Sound Samples

[TimingPoints]
467,491.803278688525,4,1,0,50,1,0
467,-117.647058823529,4,1,0,50,0,0
8330,-100,4,1,0,60,0,0
16199,-91.1161731207289,4,1,0,80,0,0
24068,-83.5147487555539,4,1,0,90,0,0
47675,-80.1603205934075,4,1,0,90,0,0
55548,292.682926829268,4,1,0,100,1,0
60230,-100,4,1,0,100,0,1
78962,292.682926829268,6,1,0,100,1,1
80718,292.682926829268,4,1,0,100,1,1
81888,292.682926829268,6,1,0,100,1,9
81889,292.682926829268,6,1,0,100,1,1
83645,292.682926829268,4,1,0,100,1,1
84815,292.682926829268,6,1,0,100,1,9
84816,292.682926829268,6,1,0,100,1,1
86572,292.682926829268,4,1,0,100,1,1
87742,292.682926829268,6,1,0,100,1,9
87743,292.682926829268,6,1,0,100,1,1
89499,292.682926829268,4,1,0,100,1,1
89639,-102.049934109707,6,1,0,100,0,1
89785,-104.185671731967,6,1,0,100,0,1
90079,-108.769592975846,6,1,0,100,0,1
90224,-111.18219147382,6,1,0,100,0,1
90371,-113.739831758468,6,1,0,100,0,1
90517,-116.399270639186,6,1,0,100,0,1
90669,558.139534883721,4,1,0,100,1,0
90669,-63.2911392405063,4,1,0,100,0,0
91222,-62.5,4,1,0,100,0,0
94575,558.139534883721,4,1,0,100,1,0
94575,-62.5,4,1,0,100,0,0
98481,558.139534883721,4,1,0,100,1,0
98481,-62.5,4,1,0,100,0,0
102387,558.139534883721,4,1,0,100,1,0
102387,-62.5,4,1,0,100,0,0
105524,-61.7283950617284,4,1,0,100,0,0
105594,-60.6060606060606,4,1,0,100,0,0
105733,-58.4795321637427,4,1,0,100,0,0
105873,-56.4971751412429,4,1,0,100,0,0
106012,-54.6448087431694,4,1,0,100,0,0
106082,-53.475935828877,4,1,0,100,0,0
106152,-52.3560209424084,4,1,0,100,0,0
106293,285.714285714286,4,1,0,100,1,8
106296,285.714285714286,4,1,0,100,1,0
110867,-100,4,1,0,100,0,1
129153,285.714285714286,6,1,0,100,1,1
130867,285.714285714286,4,1,0,100,1,1
132009,285.714285714286,6,1,0,100,1,9
132010,285.714285714286,6,1,0,100,1,1
133724,285.714285714286,4,1,0,100,1,1
134433,-106.392489941886,4,1,0,100,0,1
134719,-113.658070678128,4,1,0,100,0,1
134866,285.714285714286,6,1,0,100,1,9
134867,285.714285714286,6,1,0,100,1,1
134867,-117.647058823529,4,1,0,100,0,1
136580,285.714285714286,4,1,0,100,1,9
136581,285.714285714286,4,1,0,100,1,1
136581,-117.647058823529,4,1,0,100,0,1
137723,285.714285714286,6,1,0,100,1,9
137724,285.714285714286,6,1,0,100,1,1
137724,-117.647058823529,6,1,0,100,0,1
139433,-111.731843305681,6,1,0,100,0,1
139438,285.714285714286,4,1,0,100,1,1
140578,-100,4,1,0,100,0,1
149723,-125.391849190056,4,1,0,100,0,0
167432,-125.391849529781,4,1,0,100,0,0
167575,-126.576663167078,4,1,0,100,0,0
167718,-127.792665357887,4,1,0,100,0,0
167861,-129.032258064516,4,1,0,100,0,0
168009,521.739130434783,4,1,0,80,1,8
168010,521.739130434783,4,1,0,80,1,0
168010,-71.5563502446252,4,1,0,80,0,0
178569,-72.1918636275979,4,1,0,80,0,0
178700,-72.8437872486724,4,1,0,80,0,0
178961,-74.178399584146,4,1,0,80,0,0
179221,-75.5574260875862,4,1,0,80,0,0
179352,-76.2718523242449,4,1,0,80,0,0
179482,-76.9943075123866,4,1,0,80,0,0
179743,-78.4868989495279,4,1,0,80,0,0
180004,-80.0385043883114,4,1,0,80,0,0
180531,-83.3333333333333,4,1,0,80,0,1
204526,-83.3333333333333,4,1,0,100,0,1
204657,-82.4766724656018,4,1,0,100,0,1
204787,-81.6374452097683,4,1,0,100,0,1
205048,-80.0030681905346,4,1,0,100,0,1
205178,-79.2071688942892,4,1,0,100,0,1
205309,-78.4328470446684,4,1,0,100,0,1
205570,-76.9230769230769,4,1,0,100,0,1
213923,-76.9230769230769,4,1,0,100,0,0
214053,-55.6328233657859,4,1,0,100,0,0
216003,-76.9230769230769,4,1,0,90,0,0
218093,-76.9230769230769,4,1,0,80,0,0
220180,-76.9230769230769,4,1,0,70,0,0
222267,-76.9230769230769,4,1,0,60,0,0
224354,-76.9230769230769,4,1,0,50,0,0
226441,-76.9230769230769,4,1,0,40,0,0
228528,-76.9230769230769,4,1,0,30,0,0
230615,-76.9230769230769,4,1,0,20,0,0
232702,-76.9230769230769,4,1,0,10,0,0

[HitObjects]
256,192,467,5,0,0:0:0:0:
256,192,712,1,8,0:0:0:0:
256,192,958,1,8,0:0:0:0:
256,192,1204,1,0,0:0:0:0:
256,192,1450,1,8,0:0:0:0:
256,192,1942,1,0,0:0:0:0:
256,192,2434,1,0,0:0:0:0:
256,192,2680,1,8,0:0:0:0:
256,192,2926,1,8,0:0:0:0:
256,192,3171,1,0,0:0:0:0:
256,192,3417,1,8,0:0:0:0:
256,192,3909,1,8,0:0:0:0:
256,192,4401,1,0,0:0:0:0:
256,192,4647,1,8,0:0:0:0:
256,192,4893,1,8,0:0:0:0:
256,192,5139,1,0,0:0:0:0:
256,192,5385,1,8,0:0:0:0:
256,192,5876,1,0,0:0:0:0:
256,192,6368,1,0,0:0:0:0:
256,192,6614,1,8,0:0:0:0:
256,192,6860,1,8,0:0:0:0:
256,192,7106,1,0,0:0:0:0:
256,192,7352,1,8,0:0:0:0:
256,192,7844,1,8,0:0:0:0:
256,192,8335,1,0,0:0:0:0:
256,192,8704,1,0,0:0:0:0:
256,192,9073,1,8,0:0:0:0:
256,192,9196,1,8,0:0:0:0:
256,192,9319,1,8,0:0:0:0:
256,192,9565,1,0,0:0:0:0:
256,192,9934,1,0,0:0:0:0:
256,192,10303,1,0,0:0:0:0:
256,192,10671,1,0,0:0:0:0:
256,192,11040,1,8,0:0:0:0:
256,192,11163,1,8,0:0:0:0:
256,192,11286,1,8,0:0:0:0:
256,192,12270,1,0,0:0:0:0:
256,192,12639,1,0,0:0:0:0:
256,192,13007,1,8,0:0:0:0:
256,192,13130,1,8,0:0:0:0:
256,192,13253,1,8,0:0:0:0:
256,192,13499,1,0,0:0:0:0:
256,192,13868,1,0,0:0:0:0:
256,192,14237,1,0,0:0:0:0:
256,192,14606,1,0,0:0:0:0:
256,192,14975,1,8,0:0:0:0:
256,192,15098,1,8,0:0:0:0:
256,192,15221,1,8,0:0:0:0:
256,192,16204,1,12,0:0:0:0:
256,192,16573,1,0,0:0:0:0:
256,192,16942,1,8,0:0:0:0:
256,192,17065,1,8,0:0:0:0:
256,192,17188,1,8,0:0:0:0:
256,192,17434,1,8,0:0:0:0:
256,192,17680,1,0,0:0:0:0:
256,192,17926,1,0,0:0:0:0:
256,192,18171,1,8,0:0:0:0:
256,192,18540,1,0,0:0:0:0:
256,192,18909,1,8,0:0:0:0:
256,192,19032,1,8,0:0:0:0:
256,192,19155,1,8,0:0:0:0:
256,192,19401,1,0,0:0:0:0:
256,192,19647,1,0,0:0:0:0:
256,192,20139,1,12,0:0:0:0:
256,192,20508,1,0,0:0:0:0:
256,192,20877,1,8,0:0:0:0:
256,192,21000,1,8,0:0:0:0:
256,192,21123,1,8,0:0:0:0:
256,192,21369,1,8,0:0:0:0:
256,192,21615,1,0,0:0:0:0:
256,192,21860,1,0,0:0:0:0:
256,192,22106,1,8,0:0:0:0:
256,192,22229,1,8,0:0:0:0:
256,192,22352,1,8,0:0:0:0:
256,192,22598,1,0,0:0:0:0:
256,192,22844,1,0,0:0:0:0:
256,192,22967,1,0,0:0:0:0:
256,192,23089,1,0,0:0:0:0:
256,192,23335,1,0,0:0:0:0:
256,192,23581,1,8,0:0:0:0:
256,192,24073,1,4,0:0:0:0:
256,192,24442,1,0,0:0:0:0:
256,192,24811,1,0,0:0:0:0:
256,192,25057,1,8,0:0:0:0:
256,192,25303,1,0,0:0:0:0:
256,192,25671,1,0,0:0:0:0:
256,192,25794,1,0,0:0:0:0:
256,192,26040,1,0,0:0:0:0:
256,192,26409,1,0,0:0:0:0:
256,192,26778,1,0,0:0:0:0:
256,192,27024,1,8,0:0:0:0:
256,192,27516,1,0,0:0:0:0:
256,192,28007,1,4,0:0:0:0:
256,192,28376,1,0,0:0:0:0:
256,192,28745,1,0,0:0:0:0:
256,192,28991,1,8,0:0:0:0:
256,192,29237,1,0,0:0:0:0:
256,192,29606,1,0,0:0:0:0:
256,192,29729,1,0,0:0:0:0:
256,192,29975,1,0,0:0:0:0:
256,192,30344,1,0,0:0:0:0:
256,192,30712,1,0,0:0:0:0:
256,192,30958,1,8,0:0:0:0:
256,192,31204,1,0,0:0:0:0:
256,192,31450,1,0,0:0:0:0:
256,192,31573,1,8,0:0:0:0:
256,192,31942,1,4,0:0:0:0:
256,192,32311,1,8,0:0:0:0:
256,192,32680,1,8,0:0:0:0:
256,192,32926,1,0,0:0:0:0:
256,192,33171,1,8,0:0:0:0:
256,192,33540,1,8,0:0:0:0:
256,192,33663,1,8,0:0:0:0:
256,192,33909,1,8,0:0:0:0:
256,192,34278,1,8,0:0:0:0:
256,192,34647,1,8,0:0:0:0:
256,192,34893,1,0,0:0:0:0:
256,192,35385,1,8,0:0:0:0:
256,192,35876,1,4,0:0:0:0:
256,192,36245,1,8,0:0:0:0:
256,192,36614,1,8,0:0:0:0:
256,192,36860,1,0,0:0:0:0:
256,192,37106,1,8,0:0:0:0:
256,192,37475,1,8,0:0:0:0:
256,192,37598,1,8,0:0:0:0:
256,192,37844,1,8,0:0:0:0:
256,192,38212,1,8,0:0:0:0:
256,192,38581,1,8,0:0:0:0:
256,192,38827,1,0,0:0:0:0:
256,192,39073,1,0,0:0:0:0:
256,192,39319,1,8,0:0:0:0:
256,192,39442,1,0,0:0:0:0:
256,192,39811,1,0,0:0:0:0:
256,192,40180,1,0,0:0:0:0:
256,192,40548,1,0,0:0:0:0:
256,192,40794,1,8,0:0:0:0:
256,192,40917,1,8,0:0:0:0:
256,192,41040,1,0,0:0:0:0:
256,192,41286,1,8,0:0:0:0:
256,192,41409,1,0,0:0:0:0:
256,192,41778,1,0,0:0:0:0:
256,192,42147,1,0,0:0:0:0:
256,192,42516,1,0,0:0:0:0:
256,192,42762,1,8,0:0:0:0:
256,192,42885,1,8,0:0:0:0:
256,192,43007,1,0,0:0:0:0:
256,192,43253,1,8,0:0:0:0:
256,192,43376,1,8,0:0:0:0:
256,192,43745,1,0,0:0:0:0:
256,192,44114,1,0,0:0:0:0:
256,192,44483,1,0,0:0:0:0:
256,192,44729,1,8,0:0:0:0:
256,192,44852,1,8,0:0:0:0:
256,192,44975,1,0,0:0:0:0:
256,192,45221,1,8,0:0:0:0:
256,192,45344,1,0,0:0:0:0:
256,192,45712,1,0,0:0:0:0:
256,192,46081,1,0,0:0:0:0:
256,192,46450,1,0,0:0:0:0:
256,192,46696,1,8,0:0:0:0:
256,192,46942,1,0,0:0:0:0:
256,192,47188,1,8,0:0:0:0:
256,192,47311,1,0,0:0:0:0:
256,192,47680,1,4,0:0:0:0:
256,192,48048,1,0,0:0:0:0:
256,192,48417,1,0,0:0:0:0:
256,192,48663,1,8,0:0:0:0:
256,192,48909,1,0,0:0:0:0:
256,192,49278,1,0,0:0:0:0:
256,192,49401,1,0,0:0:0:0:
256,192,49647,1,0,0:0:0:0:
256,192,50016,1,0,0:0:0:0:
256,192,50385,1,0,0:0:0:0:
256,192,50630,1,8,0:0:0:0:
256,192,51122,1,0,0:0:0:0:
256,192,51614,1,12,0:0:0:0:
256,192,51983,1,12,0:0:0:0:
256,192,52352,1,12,0:0:0:0:
256,192,52598,1,0,0:0:0:0:
256,192,52721,1,0,0:0:0:0:
256,192,52844,1,0,0:0:0:0:
256,192,53212,1,8,0:0:0:0:
256,192,53335,1,8,0:0:0:0:
256,192,53581,1,8,0:0:0:0:
256,192,53950,1,0,0:0:0:0:
256,192,54319,1,0,0:0:0:0:
256,192,54565,1,8,0:0:0:0:
256,192,54811,1,0,0:0:0:0:
256,192,55057,1,0,0:0:0:0:
256,192,55180,1,8,0:0:0:0:
256,192,55548,1,0,0:0:0:0:
256,192,55621,1,0,0:0:0:0:
256,192,55694,1,0,0:0:0:0:
256,192,55840,1,8,0:0:0:0:
256,192,55987,1,8,0:0:0:0:
256,192,56133,1,8,0:0:0:0:
256,192,56426,1,0,0:0:0:0:
256,192,56572,1,0,0:0:0:0:
256,192,56718,1,0,0:0:0:0:
256,192,56865,1,8,0:0:0:0:
256,192,57157,1,0,0:0:0:0:
256,192,57304,1,8,0:0:0:0:
256,192,57596,1,8,0:0:0:0:
256,192,57743,1,8,0:0:0:0:
256,192,57889,1,0,0:0:0:0:
256,192,58035,1,0,0:0:0:0:
256,192,58182,1,0,0:0:0:0:
256,192,58328,1,0,0:0:0:0:
256,192,58474,1,0,0:0:0:0:
256,192,58767,1,8,0:0:0:0:
256,192,58913,1,0,0:0:0:0:
256,192,59060,1,8,0:0:0:0:
256,192,59133,1,8,0:0:0:0:
256,192,59206,1,8,0:0:0:0:
256,192,59352,1,0,0:0:0:0:
256,192,59499,1,0,0:0:0:0:
256,192,59791,1,8,0:0:0:0:
256,192,59938,1,8,0:0:0:0:
256,192,60011,1,8,0:0:0:0:
256,192,60084,1,8,0:0:0:0:
256,192,60230,1,4,0:0:0:0:
256,192,60669,1,8,0:0:0:0:
256,192,60816,1,0,0:0:0:0:
256,192,60962,1,8,0:0:0:0:
256,192,61108,1,0,0:0:0:0:
256,192,61255,1,0,0:0:0:0:
256,192,61401,1,8,0:0:0:0:
256,192,61694,1,8,0:0:0:0:
256,192,61840,1,0,0:0:0:0:
256,192,61987,1,8,0:0:0:0:
256,192,62133,1,0,0:0:0:0:
256,192,62279,1,0,0:0:0:0:
256,192,62572,1,8,0:0:0:0:
256,192,62718,1,0,0:0:0:0:
256,192,62865,1,0,0:0:0:0:
256,192,63011,1,8,0:0:0:0:
256,192,63304,1,8,0:0:0:0:
256,192,63596,1,0,0:0:0:0:
256,192,63743,1,8,0:0:0:0:
256,192,63816,1,8,0:0:0:0:
256,192,63889,1,8,0:0:0:0:
256,192,64035,1,0,0:0:0:0:
256,192,64182,1,8,0:0:0:0:
256,192,64328,1,0,0:0:0:0:
256,192,64401,1,0,0:0:0:0:
256,192,64474,1,0,0:0:0:0:
256,192,64621,1,8,0:0:0:0:
256,192,64767,1,8,0:0:0:0:
256,192,64913,1,4,0:0:0:0:
256,192,65352,1,8,0:0:0:0:
256,192,65499,1,0,0:0:0:0:
256,192,65645,1,8,0:0:0:0:
256,192,65791,1,0,0:0:0:0:
256,192,65938,1,0,0:0:0:0:
256,192,66084,1,8,0:0:0:0:
256,192,66377,1,8,0:0:0:0:
256,192,66523,1,0,0:0:0:0:
256,192,66669,1,8,0:0:0:0:
256,192,66816,1,8,0:0:0:0:
256,192,66962,1,0,0:0:0:0:
256,192,67255,1,8,0:0:0:0:
256,192,67401,1,0,0:0:0:0:
256,192,67547,1,0,0:0:0:0:
256,192,67694,1,8,0:0:0:0:
256,192,67987,1,8,0:0:0:0:
256,192,68279,1,8,0:0:0:0:
256,192,68426,1,0,0:0:0:0:
256,192,68499,1,0,0:0:0:0:
256,192,68572,1,0,0:0:0:0:
256,192,68718,1,0,0:0:0:0:
256,192,69011,1,8,0:0:0:0:
256,192,69108,1,8,0:0:0:0:
256,192,69206,1,8,0:0:0:0:
256,192,69304,1,8,0:0:0:0:
256,192,69596,1,4,0:0:0:0:
256,192,70084,1,0,0:0:0:0:
256,192,70182,1,8,0:0:0:0:
256,192,70474,1,0,0:0:0:0:
256,192,70669,1,8,0:0:0:0:
256,192,70767,1,8,0:0:0:0:
256,192,71060,1,0,0:0:0:0:
256,192,71352,1,8,0:0:0:0:
256,192,71450,1,8,0:0:0:0:
256,192,71547,1,8,0:0:0:0:
256,192,71645,1,8,0:0:0:0:
256,192,71938,1,0,0:0:0:0:
256,192,72133,1,8,0:0:0:0:
256,192,72230,1,8,0:0:0:0:
256,192,72523,1,0,0:0:0:0:
256,192,72718,1,8,0:0:0:0:
256,192,73108,1,0,0:0:0:0:
256,192,73206,1,0,0:0:0:0:
256,192,73304,1,8,0:0:0:0:
256,192,73401,1,8,0:0:0:0:
256,192,73694,1,0,0:0:0:0:
256,192,73791,1,0,0:0:0:0:
256,192,73889,1,8,0:0:0:0:
256,192,73987,1,8,0:0:0:0:
256,192,74279,1,4,0:0:0:0:
256,192,74767,1,0,0:0:0:0:
256,192,74865,1,8,0:0:0:0:
256,192,75157,1,0,0:0:0:0:
256,192,75352,1,8,0:0:0:0:
256,192,75450,1,8,0:0:0:0:
256,192,75743,1,0,0:0:0:0:
256,192,76035,1,8,0:0:0:0:
256,192,76133,1,8,0:0:0:0:
256,192,76230,1,8,0:0:0:0:
256,192,76328,1,8,0:0:0:0:
256,192,76621,1,0,0:0:0:0:
256,192,76718,1,0,0:0:0:0:
256,192,76816,1,0,0:0:0:0:
256,192,76913,1,0,0:0:0:0:
256,192,77206,1,8,0:0:0:0:
256,192,77304,1,8,0:0:0:0:
256,192,77401,1,8,0:0:0:0:
256,192,77499,1,8,0:0:0:0:
256,192,77791,1,0,0:0:0:0:
256,192,78084,1,12,0:0:0:0:
256,192,78377,1,12,0:0:0:0:
256,192,78669,1,4,0:0:0:0:
256,192,78962,1,8,0:0:0:0:
256,192,79108,1,0,0:0:0:0:
256,192,79254,1,8,0:0:0:0:
256,192,79401,1,8,0:0:0:0:
256,192,79547,1,0,0:0:0:0:
256,192,79693,1,8,0:0:0:0:
256,192,79986,1,8,0:0:0:0:
256,192,80132,1,0,0:0:0:0:
256,192,80279,1,8,0:0:0:0:
256,192,80425,1,8,0:0:0:0:
256,192,80571,1,0,0:0:0:0:
256,192,80718,1,8,0:0:0:0:
256,192,80864,1,8,0:0:0:0:
256,192,81157,1,8,0:0:0:0:
256,192,81303,1,0,0:0:0:0:
256,192,81449,1,8,0:0:0:0:
256,192,81596,1,0,0:0:0:0:
256,192,81742,1,8,0:0:0:0:
256,192,81889,1,8,0:0:0:0:
256,192,82035,1,0,0:0:0:0:
256,192,82181,1,8,0:0:0:0:
256,192,82328,1,8,0:0:0:0:
256,192,82474,1,0,0:0:0:0:
256,192,82620,1,8,0:0:0:0:
256,192,82913,1,8,0:0:0:0:
256,192,83059,1,0,0:0:0:0:
256,192,83206,1,8,0:0:0:0:
256,192,83352,1,8,0:0:0:0:
256,192,83645,1,0,0:0:0:0:
256,192,83791,1,8,0:0:0:0:
256,192,84084,1,8,0:0:0:0:
256,192,84376,1,0,0:0:0:0:
256,192,84669,1,0,0:0:0:0:
256,192,84816,1,8,0:0:0:0:
256,192,85108,1,8,0:0:0:0:
256,192,85255,1,8,0:0:0:0:
256,192,85401,1,0,0:0:0:0:
256,192,85547,1,8,0:0:0:0:
256,192,85694,1,0,0:0:0:0:
256,192,85840,1,8,0:0:0:0:
256,192,86133,1,8,0:0:0:0:
256,192,86279,1,8,0:0:0:0:
256,192,86425,1,0,0:0:0:0:
256,192,86572,1,8,0:0:0:0:
256,192,86718,1,8,0:0:0:0:
256,192,86864,1,0,0:0:0:0:
256,192,87011,1,8,0:0:0:0:
256,192,87303,1,8,0:0:0:0:
256,192,87450,1,0,0:0:0:0:
256,192,87596,1,8,0:0:0:0:
256,192,87743,1,8,0:0:0:0:
256,192,88035,1,8,0:0:0:0:
256,192,88182,1,8,0:0:0:0:
256,192,88328,1,0,0:0:0:0:
256,192,88474,1,8,0:0:0:0:
256,192,88621,1,0,0:0:0:0:
256,192,88767,1,8,0:0:0:0:
256,192,88913,1,0,0:0:0:0:
256,192,89060,1,0,0:0:0:0:
256,192,89206,1,8,0:0:0:0:
256,192,89499,1,8,0:0:0:0:
256,192,89645,1,8,0:0:0:0:
256,192,89791,1,8,0:0:0:0:
256,192,90084,1,8,0:0:0:0:
256,192,90230,1,0,0:0:0:0:
256,192,90377,1,0,0:0:0:0:
256,192,90523,1,8,0:0:0:0:
256,192,90669,1,4,0:0:0:0:
256,192,91227,1,0,0:0:0:0:
256,192,91320,1,0,0:0:0:0:
256,192,91413,1,0,0:0:0:0:
256,192,91506,1,0,0:0:0:0:
256,192,91785,1,12,0:0:0:0:
256,192,92064,1,0,0:0:0:0:
256,192,92203,1,0,0:0:0:0:
256,192,92343,1,8,0:0:0:0:
256,192,92482,1,0,0:0:0:0:
256,192,92622,1,8,0:0:0:0:
256,192,92762,1,8,0:0:0:0:
256,192,92901,1,8,0:0:0:0:
256,192,93180,1,0,0:0:0:0:
256,192,93273,1,0,0:0:0:0:
256,192,93366,1,0,0:0:0:0:
256,192,93459,1,0,0:0:0:0:
256,192,93738,1,8,0:0:0:0:
256,192,93878,1,0,0:0:0:0:
256,192,94017,1,12,0:0:0:0:
256,192,94296,1,8,0:0:0:0:
256,192,94575,1,4,0:0:0:0:
256,192,95133,1,0,0:0:0:0:
256,192,95226,1,0,0:0:0:0:
256,192,95319,1,0,0:0:0:0:
256,192,95412,1,0,0:0:0:0:
256,192,95691,1,12,0:0:0:0:
256,192,95970,1,0,0:0:0:0:
256,192,96109,1,0,0:0:0:0:
256,192,96249,1,8,0:0:0:0:
256,192,96388,1,0,0:0:0:0:
256,192,96528,1,8,0:0:0:0:
256,192,96668,1,8,0:0:0:0:
256,192,96807,1,8,0:0:0:0:
256,192,97086,1,0,0:0:0:0:
256,192,97179,1,0,0:0:0:0:
256,192,97272,1,0,0:0:0:0:
256,192,97365,1,0,0:0:0:0:
256,192,97644,1,8,0:0:0:0:
256,192,97784,1,0,0:0:0:0:
256,192,97923,1,12,0:0:0:0:
256,192,98202,1,0,0:0:0:0:
256,192,98481,1,12,0:0:0:0:
256,192,99039,1,0,0:0:0:0:
256,192,99132,1,0,0:0:0:0:
256,192,99225,1,0,0:0:0:0:
256,192,99318,1,0,0:0:0:0:
256,192,99597,1,12,0:0:0:0:
256,192,99876,1,0,0:0:0:0:
256,192,100015,1,8,0:0:0:0:
256,192,100155,1,0,0:0:0:0:
256,192,100434,1,12,0:0:0:0:
256,192,100992,1,0,0:0:0:0:
256,192,101085,1,0,0:0:0:0:
256,192,101178,1,0,0:0:0:0:
256,192,101271,1,0,0:0:0:0:
256,192,101550,1,0,0:0:0:0:
256,192,101690,1,0,0:0:0:0:
256,192,101829,1,12,0:0:0:0:
256,192,102108,1,0,0:0:0:0:
256,192,102387,1,12,0:0:0:0:
256,192,102945,1,0,0:0:0:0:
256,192,103038,1,0,0:0:0:0:
256,192,103131,1,0,0:0:0:0:
256,192,103224,1,0,0:0:0:0:
256,192,103503,1,12,0:0:0:0:
256,192,103782,1,0,0:0:0:0:
256,192,103921,1,8,0:0:0:0:
256,192,104061,1,0,0:0:0:0:
256,192,104340,1,12,0:0:0:0:
256,192,104898,1,0,0:0:0:0:
256,192,104991,1,0,0:0:0:0:
256,192,105084,1,0,0:0:0:0:
256,192,105177,1,0,0:0:0:0:
256,192,105456,1,8,0:0:0:0:
256,192,105526,1,8,0:0:0:0:
256,192,105596,1,8,0:0:0:0:
256,192,105735,1,8,0:0:0:0:
256,192,105875,1,0,0:0:0:0:
256,192,106014,1,8,0:0:0:0:
256,192,106084,1,8,0:0:0:0:
256,192,106154,1,8,0:0:0:0:
256,192,106296,1,8,0:0:0:0:
256,192,106581,1,0,0:0:0:0:
256,192,106724,1,8,0:0:0:0:
256,192,107010,1,0,0:0:0:0:
256,192,107081,1,0,0:0:0:0:
256,192,107153,1,0,0:0:0:0:
256,192,107296,1,8,0:0:0:0:
256,192,107581,1,8,0:0:0:0:
256,192,107653,1,8,0:0:0:0:
256,192,107724,1,8,0:0:0:0:
256,192,107867,1,0,0:0:0:0:
256,192,108153,1,0,0:0:0:0:
256,192,108224,1,0,0:0:0:0:
256,192,108296,1,0,0:0:0:0:
256,192,108438,1,8,0:0:0:0:
256,192,108724,1,8,0:0:0:0:
256,192,108867,1,0,0:0:0:0:
256,192,109010,1,0,0:0:0:0:
256,192,109153,1,0,0:0:0:0:
256,192,109296,1,0,0:0:0:0:
256,192,109438,1,0,0:0:0:0:
256,192,109724,1,8,0:0:0:0:
256,192,109796,1,8,0:0:0:0:
256,192,109867,1,8,0:0:0:0:
256,192,110010,1,0,0:0:0:0:
256,192,110153,1,8,0:0:0:0:
256,192,110438,1,0,0:0:0:0:
256,192,110581,1,0,0:0:0:0:
256,192,110867,1,8,0:0:0:0:
256,192,111010,1,0,0:0:0:0:
256,192,111153,1,8,0:0:0:0:
256,192,111296,1,0,0:0:0:0:
256,192,111581,1,0,0:0:0:0:
256,192,111724,1,8,0:0:0:0:
256,192,111867,1,0,0:0:0:0:
256,192,112010,1,0,0:0:0:0:
256,192,112153,1,8,0:0:0:0:
256,192,112296,1,8,0:0:0:0:
256,192,112581,1,8,0:0:0:0:
256,192,112867,1,0,0:0:0:0:
256,192,113153,1,0,0:0:0:0:
256,192,113296,1,0,0:0:0:0:
256,192,113438,1,8,0:0:0:0:
256,192,113581,1,8,0:0:0:0:
256,192,113867,1,8,0:0:0:0:
256,192,114010,1,0,0:0:0:0:
256,192,114153,1,8,0:0:0:0:
256,192,114296,1,0,0:0:0:0:
256,192,114438,1,0,0:0:0:0:
256,192,114581,1,8,0:0:0:0:
256,192,114724,1,8,0:0:0:0:
256,192,114867,1,0,0:0:0:0:
256,192,115010,1,0,0:0:0:0:
256,192,115153,1,8,0:0:0:0:
256,192,115224,1,8,0:0:0:0:
256,192,115296,1,8,0:0:0:0:
256,192,115438,1,8,0:0:0:0:
256,192,115581,1,0,0:0:0:0:
256,192,115724,1,8,0:0:0:0:
256,192,115867,1,8,0:0:0:0:
256,192,116153,1,8,0:0:0:0:
256,192,116296,1,0,0:0:0:0:
256,192,116438,1,8,0:0:0:0:
256,192,116581,1,0,0:0:0:0:
256,192,116724,1,0,0:0:0:0:
256,192,116867,1,8,0:0:0:0:
256,192,117153,1,8,0:0:0:0:
256,192,117438,1,0,0:0:0:0:
256,192,117724,1,8,0:0:0:0:
256,192,117796,1,8,0:0:0:0:
256,192,117867,1,8,0:0:0:0:
256,192,118010,1,0,0:0:0:0:
256,192,118153,1,8,0:0:0:0:
256,192,118438,1,0,0:0:0:0:
256,192,118510,1,0,0:0:0:0:
256,192,118581,1,0,0:0:0:0:
256,192,118724,1,8,0:0:0:0:
256,192,118867,1,0,0:0:0:0:
272,192,118938,1,0,0:0:0:0:
256,192,119010,1,0,0:0:0:0:
256,192,119153,1,8,0:0:0:0:
256,192,119296,1,0,0:0:0:0:
256,192,119581,1,8,0:0:0:0:
256,192,119653,1,8,0:0:0:0:
256,192,119724,1,8,0:0:0:0:
256,192,119867,1,8,0:0:0:0:
256,192,120010,1,0,0:0:0:0:
256,192,120153,1,0,0:0:0:0:
256,192,120296,1,8,0:0:0:0:
256,192,120438,1,0,0:0:0:0:
256,192,120724,1,0,0:0:0:0:
256,192,120867,1,8,0:0:0:0:
256,192,121010,1,0,0:0:0:0:
256,192,121296,1,0,0:0:0:0:
256,192,121438,1,8,0:0:0:0:
256,192,121724,1,8,0:0:0:0:
256,192,122010,1,0,0:0:0:0:
256,192,122296,1,8,0:0:0:0:
256,192,122438,1,8,0:0:0:0:
256,192,122581,1,0,0:0:0:0:
256,192,122724,1,8,0:0:0:0:
256,192,123010,1,8,0:0:0:0:
256,192,123153,1,0,0:0:0:0:
256,192,123296,1,8,0:0:0:0:
256,192,123581,1,0,0:0:0:0:
256,192,123724,1,8,0:0:0:0:
256,192,124010,1,0,0:0:0:0:
256,192,124153,1,0,0:0:0:0:
256,192,124296,1,8,0:0:0:0:
256,192,124438,1,8,0:0:0:0:
256,192,124581,1,0,0:0:0:0:
256,192,124724,1,0,0:0:0:0:
256,192,124867,1,8,0:0:0:0:
256,192,125010,1,0,0:0:0:0:
256,192,125296,1,0,0:0:0:0:
256,192,125438,1,8,0:0:0:0:
256,192,125581,1,0,0:0:0:0:
256,192,125867,1,0,0:0:0:0:
256,192,126010,1,8,0:0:0:0:
256,192,126296,1,8,0:0:0:0:
256,192,126581,1,0,0:0:0:0:
256,192,126867,1,0,0:0:0:0:
256,192,126938,1,0,0:0:0:0:
256,192,127010,1,0,0:0:0:0:
256,192,127153,1,8,0:0:0:0:
256,192,127296,1,0,0:0:0:0:
256,192,127581,1,8,0:0:0:0:
256,192,127653,1,8,0:0:0:0:
256,192,127724,1,8,0:0:0:0:
256,192,127867,1,0,0:0:0:0:
256,192,128010,1,8,0:0:0:0:
256,192,128081,1,8,0:0:0:0:
256,192,128153,1,8,0:0:0:0:
256,192,128296,1,0,0:0:0:0:
256,192,128438,1,8,0:0:0:0:
256,192,128724,1,0,0:0:0:0:
256,192,128796,1,0,0:0:0:0:
256,192,128867,1,0,0:0:0:0:
256,192,129010,1,0,0:0:0:0:
256,192,129153,1,8,0:0:0:0:
256,192,129295,1,0,0:0:0:0:
256,192,129438,1,8,0:0:0:0:
256,192,129581,1,8,0:0:0:0:
256,192,129867,1,0,0:0:0:0:
256,192,130153,1,8,0:0:0:0:
256,192,130438,1,0,0:0:0:0:
256,192,130581,1,8,0:0:0:0:
256,192,130724,1,0,0:0:0:0:
256,192,130867,1,8,0:0:0:0:
256,192,131009,1,8,0:0:0:0:
256,192,131295,1,8,0:0:0:0:
256,192,131438,1,0,0:0:0:0:
256,192,131581,1,8,0:0:0:0:
256,192,131724,1,0,0:0:0:0:
256,192,131867,1,8,0:0:0:0:
256,192,132010,1,8,0:0:0:0:
256,192,132152,1,0,0:0:0:0:
256,192,132295,1,8,0:0:0:0:
256,192,132438,1,8,0:0:0:0:
256,192,132724,1,0,0:0:0:0:
256,192,133010,1,8,0:0:0:0:
256,192,133295,1,0,0:0:0:0:
256,192,133438,1,8,0:0:0:0:
256,192,133581,1,0,0:0:0:0:
256,192,133724,1,8,0:0:0:0:
256,192,133795,1,8,0:0:0:0:
256,192,133866,1,8,0:0:0:0:
256,192,134009,1,8,0:0:0:0:
256,192,134152,1,8,0:0:0:0:
256,192,134438,1,8,0:0:0:0:
256,192,134724,1,0,0:0:0:0:
256,192,134867,1,8,0:0:0:0:
256,192,135152,1,0,0:0:0:0:
256,192,135295,1,8,0:0:0:0:
256,192,135581,1,0,0:0:0:0:
256,192,135867,1,8,0:0:0:0:
256,192,136152,1,0,0:0:0:0:
256,192,136295,1,8,0:0:0:0:
256,192,136581,1,8,0:0:0:0:
256,192,136723,1,8,0:0:0:0:
256,192,137009,1,8,0:0:0:0:
256,192,137152,1,0,0:0:0:0:
256,192,137295,1,8,0:0:0:0:
256,192,137438,1,0,0:0:0:0:
256,192,137581,1,8,0:0:0:0:
256,192,137724,1,8,0:0:0:0:
256,192,138009,1,0,0:0:0:0:
256,192,138152,1,8,0:0:0:0:
256,192,138438,1,0,0:0:0:0:
256,192,138724,1,8,0:0:0:0:
256,192,139009,1,0,0:0:0:0:
256,192,139152,1,8,0:0:0:0:
256,192,139438,1,12,0:0:0:0:
256,192,139580,1,12,0:0:0:0:
256,192,139866,1,12,0:0:0:0:
256,192,140152,1,12,0:0:0:0:
256,192,140438,1,12,0:0:0:0:
256,192,140580,1,0,0:0:0:0:
256,192,140723,1,0,0:0:0:0:
256,192,140866,1,8,0:0:0:0:
256,192,141009,1,8,0:0:0:0:
256,192,141152,1,0,0:0:0:0:
256,192,141438,1,8,0:0:0:0:
256,192,141580,1,0,0:0:0:0:
256,192,141723,1,8,0:0:0:0:
256,192,141866,1,8,0:0:0:0:
256,192,142009,1,0,0:0:0:0:
256,192,142295,1,8,0:0:0:0:
256,192,142438,1,0,0:0:0:0:
256,192,142580,1,0,0:0:0:0:
256,192,142866,1,0,0:0:0:0:
256,192,143009,1,0,0:0:0:0:
256,192,143152,1,8,0:0:0:0:
256,192,143295,1,8,0:0:0:0:
256,192,143438,1,0,0:0:0:0:
256,192,143723,1,8,0:0:0:0:
256,192,143866,1,0,0:0:0:0:
256,192,144009,1,8,0:0:0:0:
256,192,144295,1,0,0:0:0:0:
256,192,144580,1,8,0:0:0:0:
256,192,144866,1,0,0:0:0:0:
256,192,145152,1,8,0:0:0:0:
256,192,145295,1,0,0:0:0:0:
256,192,145438,1,8,0:0:0:0:
256,192,145580,1,8,0:0:0:0:
256,192,145723,1,0,0:0:0:0:
256,192,146009,1,8,0:0:0:0:
256,192,146152,1,0,0:0:0:0:
256,192,146295,1,8,0:0:0:0:
256,192,146438,1,8,0:0:0:0:
256,192,146580,1,0,0:0:0:0:
256,192,146866,1,8,0:0:0:0:
256,192,147009,1,0,0:0:0:0:
256,192,147152,1,0,0:0:0:0:
256,192,147438,1,8,0:0:0:0:
256,192,147580,1,8,0:0:0:0:
256,192,147723,1,0,0:0:0:0:
256,192,147866,1,0,0:0:0:0:
256,192,148009,1,8,0:0:0:0:
256,192,148295,1,0,0:0:0:0:
256,192,148580,1,8,0:0:0:0:
256,192,148652,1,8,0:0:0:0:
256,192,148723,1,8,0:0:0:0:
256,192,148866,1,8,0:0:0:0:
256,192,149152,1,0,0:0:0:0:
256,192,149247,1,0,0:0:0:0:
256,192,149342,1,0,0:0:0:0:
256,192,149438,1,0,0:0:0:0:
256,192,149723,1,8,0:0:0:0:
256,192,149866,1,0,0:0:0:0:
256,192,150009,1,0,0:0:0:0:
256,192,150295,1,8,0:0:0:0:
256,192,150580,1,0,0:0:0:0:
256,192,150866,1,8,0:0:0:0:
256,192,151009,1,8,0:0:0:0:
256,192,151152,1,0,0:0:0:0:
256,192,151438,1,8,0:0:0:0:
256,192,151580,1,0,0:0:0:0:
256,192,151723,1,0,0:0:0:0:
256,192,152009,1,0,0:0:0:0:
256,192,152152,1,0,0:0:0:0:
256,192,152295,1,0,0:0:0:0:
256,192,152580,1,8,0:0:0:0:
256,192,152866,1,0,0:0:0:0:
256,192,153152,1,8,0:0:0:0:
256,192,153295,1,8,0:0:0:0:
256,192,153438,1,8,0:0:0:0:
256,192,153723,1,8,0:0:0:0:
256,192,153866,1,8,0:0:0:0:
256,192,154009,1,0,0:0:0:0:
256,192,154295,1,8,0:0:0:0:
256,192,154438,1,0,0:0:0:0:
256,192,154580,1,0,0:0:0:0:
256,192,154866,1,8,0:0:0:0:
256,192,155152,1,0,0:0:0:0:
256,192,155295,1,0,0:0:0:0:
256,192,155438,1,8,0:0:0:0:
256,192,155580,1,8,0:0:0:0:
256,192,155723,1,0,0:0:0:0:
256,192,156009,1,8,0:0:0:0:
256,192,156152,1,0,0:0:0:0:
256,192,156295,1,0,0:0:0:0:
256,192,156580,1,8,0:0:0:0:
256,192,156723,1,8,0:0:0:0:
256,192,156866,1,8,0:0:0:0:
256,192,157152,1,0,0:0:0:0:
256,192,157438,1,0,0:0:0:0:
256,192,157723,1,8,0:0:0:0:
256,192,157818,1,8,0:0:0:0:
256,192,157914,1,8,0:0:0:0:
256,192,158009,1,8,0:0:0:0:
256,192,158295,1,8,0:0:0:0:
256,192,158866,1,0,0:0:0:0:
256,192,158961,1,0,0:0:0:0:
256,192,159057,1,0,0:0:0:0:
256,192,159152,1,0,0:0:0:0:
256,192,159438,1,0,0:0:0:0:
256,192,159723,1,8,0:0:0:0:
256,192,159818,1,8,0:0:0:0:
256,192,159914,1,8,0:0:0:0:
256,192,160009,1,8,0:0:0:0:
256,192,160295,1,8,0:0:0:0:
256,192,160580,1,0,0:0:0:0:
256,192,160676,1,0,0:0:0:0:
256,192,160771,1,0,0:0:0:0:
256,192,160866,1,0,0:0:0:0:
256,192,161152,1,8,0:0:0:0:
256,192,161247,1,8,0:0:0:0:
256,192,161342,1,8,0:0:0:0:
256,192,161438,1,8,0:0:0:0:
256,192,161723,1,0,0:0:0:0:
256,192,162009,1,8,0:0:0:0:
256,192,162152,1,8,0:0:0:0:
256,192,162223,1,8,0:0:0:0:
256,192,162295,1,8,0:0:0:0:
256,192,162580,1,0,0:0:0:0:
256,192,162866,1,8,0:0:0:0:
256,192,163152,1,0,0:0:0:0:
256,192,163295,1,8,0:0:0:0:
256,192,163438,1,0,0:0:0:0:
256,192,163533,1,0,0:0:0:0:
256,192,163628,1,0,0:0:0:0:
256,192,163723,1,0,0:0:0:0:
256,192,164009,1,0,0:0:0:0:
256,192,164295,1,8,0:0:0:0:
256,192,164390,1,8,0:0:0:0:
256,192,164485,1,8,0:0:0:0:
256,192,164580,1,8,0:0:0:0:
256,192,164866,1,8,0:0:0:0:
256,192,165152,1,0,0:0:0:0:
256,192,165247,1,0,0:0:0:0:
256,192,165342,1,0,0:0:0:0:
256,192,165438,1,0,0:0:0:0:
256,192,165723,1,8,0:0:0:0:
256,192,165818,1,8,0:0:0:0:
256,192,165914,1,8,0:0:0:0:
256,192,166009,1,8,0:0:0:0:
256,192,166295,1,0,0:0:0:0:
256,192,166580,1,8,0:0:0:0:
256,192,166866,1,0,0:0:0:0:
256,192,166938,1,0,0:0:0:0:
256,192,167009,1,0,0:0:0:0:
256,192,167152,1,0,0:0:0:0:
256,192,167438,1,8,0:0:0:0:
256,192,167580,1,8,0:0:0:0:
256,192,167723,1,8,0:0:0:0:
256,192,167866,1,8,0:0:0:0:
256,192,168010,1,0,0:0:0:0:
256,192,168401,1,0,0:0:0:0:
256,192,168792,1,8,0:0:0:0:
256,192,168923,1,8,0:0:0:0:
256,192,169053,1,8,0:0:0:0:
256,192,169314,1,0,0:0:0:0:
256,192,169705,1,0,0:0:0:0:
256,192,170096,1,0,0:0:0:0:
256,192,170488,1,0,0:0:0:0:
256,192,170879,1,8,0:0:0:0:
256,192,171010,1,8,0:0:0:0:
256,192,171140,1,8,0:0:0:0:
256,192,172183,1,4,0:0:0:0:
256,192,172444,1,8,0:0:0:0:
256,192,172705,1,8,0:0:0:0:
256,192,172966,1,0,0:0:0:0:
256,192,173227,1,8,0:0:0:0:
256,192,173488,1,0,0:0:0:0:
256,192,173749,1,0,0:0:0:0:
256,192,174270,1,0,0:0:0:0:
256,192,174531,1,8,0:0:0:0:
256,192,174792,1,8,0:0:0:0:
256,192,175053,1,0,0:0:0:0:
256,192,175314,1,8,0:0:0:0:
256,192,175575,1,0,0:0:0:0:
256,192,175836,1,8,0:0:0:0:
256,192,176357,1,4,0:0:0:0:
256,192,176618,1,8,0:0:0:0:
256,192,176879,1,8,0:0:0:0:
256,192,177140,1,0,0:0:0:0:
256,192,177401,1,8,0:0:0:0:
256,192,177662,1,0,0:0:0:0:
256,192,177923,1,0,0:0:0:0:
256,192,178444,1,8,0:0:0:0:
256,192,178575,1,8,0:0:0:0:
256,192,178705,1,8,0:0:0:0:
256,192,178966,1,0,0:0:0:0:
256,192,179227,1,8,0:0:0:0:
256,192,179357,1,8,0:0:0:0:
256,192,179488,1,0,0:0:0:0:
256,192,179749,1,0,0:0:0:0:
256,192,180010,1,8,0:0:0:0:
256,192,180531,1,4,0:0:0:0:
256,192,180923,1,8,0:0:0:0:
256,192,181053,1,8,0:0:0:0:
256,192,181314,1,0,0:0:0:0:
256,192,181575,1,8,0:0:0:0:
256,192,181705,1,8,0:0:0:0:
256,192,181836,1,8,0:0:0:0:
256,192,182096,1,0,0:0:0:0:
256,192,182618,1,8,0:0:0:0:
256,192,183010,1,8,0:0:0:0:
256,192,183140,1,8,0:0:0:0:
256,192,183401,1,0,0:0:0:0:
256,192,183662,1,8,0:0:0:0:
256,192,183792,1,8,0:0:0:0:
256,192,183923,1,0,0:0:0:0:
256,192,184183,1,8,0:0:0:0:
256,192,184705,1,4,0:0:0:0:
256,192,185096,1,8,0:0:0:0:
256,192,185227,1,8,0:0:0:0:
256,192,185488,1,0,0:0:0:0:
256,192,185749,1,8,0:0:0:0:
256,192,185879,1,8,0:0:0:0:
256,192,186010,1,8,0:0:0:0:
256,192,186270,1,0,0:0:0:0:
256,192,186792,1,8,0:0:0:0:
256,192,187183,1,8,0:0:0:0:
256,192,187314,1,8,0:0:0:0:
256,192,187575,1,0,0:0:0:0:
256,192,187836,1,8,0:0:0:0:
256,192,187966,1,0,0:0:0:0:
256,192,188096,1,0,0:0:0:0:
256,192,188357,1,0,0:0:0:0:
256,192,188488,1,8,0:0:0:0:
256,192,188879,1,4,0:0:0:0:
256,192,189270,1,8,0:0:0:0:
256,192,189401,1,8,0:0:0:0:
256,192,189662,1,0,0:0:0:0:
256,192,189923,1,8,0:0:0:0:
256,192,190053,1,8,0:0:0:0:
256,192,190183,1,8,0:0:0:0:
256,192,190444,1,0,0:0:0:0:
256,192,190966,1,8,0:0:0:0:
256,192,191227,1,8,0:0:0:0:
256,192,191357,1,8,0:0:0:0:
256,192,191749,1,0,0:0:0:0:
256,192,192010,1,8,0:0:0:0:
256,192,192140,1,8,0:0:0:0:
256,192,192270,1,0,0:0:0:0:
256,192,192662,1,8,0:0:0:0:
256,192,193053,1,4,0:0:0:0:
256,192,193444,1,8,0:0:0:0:
256,192,193575,1,8,0:0:0:0:
256,192,193836,1,0,0:0:0:0:
256,192,194096,1,8,0:0:0:0:
256,192,194227,1,8,0:0:0:0:
256,192,194357,1,8,0:0:0:0:
256,192,194618,1,0,0:0:0:0:
256,192,195140,1,8,0:0:0:0:
256,192,195531,1,8,0:0:0:0:
256,192,195662,1,8,0:0:0:0:
256,192,195923,1,0,0:0:0:0:
256,192,196183,1,8,0:0:0:0:
256,192,196314,1,0,0:0:0:0:
256,192,196444,1,0,0:0:0:0:
256,192,196705,1,0,0:0:0:0:
256,192,196836,1,8,0:0:0:0:
256,192,197227,1,0,0:0:0:0:
256,192,197618,1,0,0:0:0:0:
256,192,198010,1,0,0:0:0:0:
256,192,198270,1,8,0:0:0:0:
256,192,198401,1,8,0:0:0:0:
256,192,198531,1,0,0:0:0:0:
256,192,198792,1,8,0:0:0:0:
256,192,198923,1,0,0:0:0:0:
256,192,199314,1,0,0:0:0:0:
256,192,199705,1,0,0:0:0:0:
256,192,200096,1,0,0:0:0:0:
256,192,200357,1,8,0:0:0:0:
256,192,200488,1,8,0:0:0:0:
256,192,200618,1,0,0:0:0:0:
256,192,200879,1,8,0:0:0:0:
256,192,201010,1,8,0:0:0:0:
256,192,201401,1,0,0:0:0:0:
256,192,201792,1,0,0:0:0:0:
256,192,202183,1,0,0:0:0:0:
256,192,202444,1,8,0:0:0:0:
256,192,202575,1,8,0:0:0:0:
256,192,202705,1,0,0:0:0:0:
256,192,202966,1,8,0:0:0:0:
256,192,203096,1,0,0:0:0:0:
256,192,203488,1,0,0:0:0:0:
256,192,203879,1,0,0:0:0:0:
256,192,204270,1,0,0:0:0:0:
256,192,204531,1,8,0:0:0:0:
256,192,204662,1,8,0:0:0:0:
256,192,204792,1,0,0:0:0:0:
256,192,205053,1,8,0:0:0:0:
256,192,205575,1,4,0:0:0:0:
256,192,205836,1,8,0:0:0:0:
256,192,205966,1,8,0:0:0:0:
256,192,206096,1,8,0:0:0:0:
256,192,206357,1,0,0:0:0:0:
256,192,206618,1,0,0:0:0:0:
256,192,206879,1,8,0:0:0:0:
256,192,207010,1,8,0:0:0:0:
256,192,207140,1,8,0:0:0:0:
256,192,207401,1,0,0:0:0:0:
256,192,207662,1,0,0:0:0:0:
256,192,207923,1,8,0:0:0:0:
256,192,208053,1,8,0:0:0:0:
256,192,208183,1,8,0:0:0:0:
256,192,208444,1,0,0:0:0:0:
256,192,208705,1,8,0:0:0:0:
256,192,209227,1,0,0:0:0:0:
256,192,209749,1,8,0:0:0:0:
256,192,210010,1,0,0:0:0:0:
256,192,210140,1,0,0:0:0:0:
256,192,210270,1,0,0:0:0:0:
256,192,210531,1,8,0:0:0:0:
256,192,210792,1,8,0:0:0:0:
256,192,211053,1,0,0:0:0:0:
256,192,211183,1,0,0:0:0:0:
256,192,211314,1,0,0:0:0:0:
256,192,211575,1,8,0:0:0:0:
256,192,211836,1,8,0:0:0:0:
256,192,212096,1,0,0:0:0:0:
256,192,212227,1,0,0:0:0:0:
256,192,212357,1,0,0:0:0:0:
256,192,212618,1,8,0:0:0:0:
256,192,212879,1,8,0:0:0:0:
256,192,212966,1,8,0:0:0:0:
256,192,213053,1,8,0:0:0:0:
256,192,213140,1,8,0:0:0:0:
256,192,213401,1,0,0:0:0:0:
256,192,213488,1,0,0:0:0:0:
256,192,213575,1,0,0:0:0:0:
256,192,213662,1,0,0:0:0:0:
256,192,213923,1,12,0:0:0:0:
256,192,214183,12,0,232705,0:0:0:0:
