osu file format v14

[General]
AudioFilename: audio.mp3
AudioLeadIn: 0
PreviewTime: 110854
Countdown: 0
SampleSet: Normal
StackLeniency: 0.7
Mode: 1
LetterboxInBreaks: 0
WidescreenStoryboard: 0

[Editor]
Bookmarks: 8317,16186,24055,39798,55535,60217,69583,78949,90656,98469,106283,110854,119997,129140,134854,140568,149711,158854,167997,180518,197214,205562
DistanceSpacing: 1.2
BeatDivisor: 4
GridSize: 16
TimelineZoom: 4.023198

[Metadata]
Title:White Washed (2022)
TitleUnicode:White Washed (2022)
Artist:August Burns Red
ArtistUnicode:August Burns Red
Creator:Caelan
Version:Manipulated Despair
Source:
Tags:zth abr whitewashed constellations remaster remix english metal metalcore deathcore christian melodic riffs breakdowns blasts screamo
BeatmapID:3953960
BeatmapSetID:1916295

[Difficulty]
HPDrainRate:6.6
CircleSize:4
OverallDifficulty:6.6
ApproachRate:10
SliderMultiplier:1.4
SliderTickRate:1

[Events]
//Background and Video events
0,0,"abr white washed bg.jpg",0,80
//Break Periods
//Storyboard Layer 0 (Background)
//Storyboard Layer 1 (Fail)
//Storyboard Layer 2 (Pass)
//Storyboard Layer 3 (Foreground)
//Storyboard Layer 4 (Overlay)
//Storyboard Sound Samples

[TimingPoints]
467,491.803278688525,4,1,0,50,1,0
467,-117.647058823529,4,1,0,50,0,0
8330,-100,4,1,0,60,0,0
16199,-83.5073068893528,4,1,0,80,0,0
23576,-82.6092431683667,4,1,0,80,0,0
23699,-81.7231627860622,4,1,0,80,0,0
23822,-81.3008130081301,4,1,0,80,0,0
23945,-80.855889168269,4,1,0,80,0,0
24068,-80,4,1,0,90,0,0
39562,-79.3650793650794,4,1,0,90,0,0
39623,-78.7401574803149,4,1,0,90,0,0
39685,-78.125,4,1,0,90,0,0
39746,-77.5193798449612,4,1,0,90,0,0
39806,-76.9230769230769,4,1,0,90,0,0
47185,-77.5193798449612,4,1,0,90,0,0
47308,-78.125,4,1,0,90,0,0
47431,-78.7401574803149,4,1,0,90,0,0
47554,-79.3650793650794,4,1,0,90,0,0
47675,-80,4,1,0,90,0,0
47921,-80.1603206436763,4,1,0,90,0,0
51609,-74.0740739923119,4,1,0,90,0,0
51855,-79.8403193589028,4,1,0,90,0,0
51978,-74.0740739923119,4,1,0,90,0,0
52224,-79.8403193589028,4,1,0,90,0,0
52347,-74.0740739923119,4,1,0,90,0,0
52593,-66.6666666666667,4,1,0,90,0,0
52716,-68.9655172413793,4,1,0,90,0,0
52839,-71.4285714285714,4,1,0,90,0,0
53084,-76.9230769230769,4,1,0,90,0,0
53207,-77.5193798449612,4,1,0,90,0,0
53330,-78.125,4,1,0,90,0,0
53453,-78.7401574803149,4,1,0,90,0,0
53576,-79.3650793650794,4,1,0,90,0,0
53822,-80,4,1,0,90,0,0
55548,292.682926829268,4,1,0,100,1,0
60230,-100,4,1,0,100,0,1
78962,292.682926829268,6,1,0,100,1,1
80718,292.682926829268,4,1,0,100,1,1
81888,292.682926829268,6,1,0,100,1,9
81889,292.682926829268,6,1,0,100,1,1
83645,292.682926829268,4,1,0,100,1,1
84815,292.682926829268,6,1,0,100,1,9
84816,292.682926829268,6,1,0,100,1,1
86572,292.682926829268,4,1,0,100,1,1
87742,292.682926829268,6,1,0,100,1,9
87743,292.682926829268,6,1,0,100,1,1
89499,292.682926829268,4,1,0,100,1,1
89530,-100.489627814182,4,1,0,100,0,1
89640,-102.015871959723,4,1,0,100,0,1
89786,-104.114690817873,4,1,0,100,0,1
89933,-106.316979880617,4,1,0,100,0,1
90079,-108.598485795795,4,1,0,100,0,1
90225,-110.980058910026,4,1,0,100,0,1
90372,-113.485858744877,4,1,0,100,0,1
90518,-116.089185675805,4,1,0,100,0,1
90669,558.139534883721,4,1,0,100,1,0
90669,-62.5,4,1,0,100,0,0
91780,-57.1428571428571,4,1,0,100,0,0
91919,-62.5,4,1,0,100,0,0
94012,-57.1428571428571,4,1,0,100,0,0
94152,-62.5,4,1,0,100,0,0
94575,558.139534883721,4,1,0,100,1,0
94575,-57.1428571428571,4,1,0,100,0,0
95129,-62.5,4,1,0,100,0,0
95687,-57.1428571428571,4,1,0,100,0,0
95826,-62.5,4,1,0,100,0,0
97919,-57.1428571428571,4,1,0,100,0,0
98059,-62.5,4,1,0,100,0,0
98481,558.139534883721,4,1,0,100,1,0
98481,-57.1428571428571,4,1,0,100,0,0
99036,-62.5,4,1,0,100,0,0
99594,-57.1428571428571,4,1,0,100,0,0
99733,-62.5,4,1,0,100,0,0
100431,-57.1428571428571,4,1,0,100,0,0
100710,-62.5,4,1,0,100,0,0
101826,-57.1428571428571,4,1,0,100,0,0
101966,-62.5,4,1,0,100,0,0
102387,558.139534883721,4,1,0,100,1,0
102387,-57.1428571428571,4,1,0,100,0,0
102943,-62.5,4,1,0,100,0,0
103501,-57.1428571428571,4,1,0,100,0,0
103640,-62.5,4,1,0,100,0,0
104338,-57.1428571428571,4,1,0,100,0,0
104617,-62.5,4,1,0,100,0,0
105524,-61.7283950617284,4,1,0,100,0,0
105594,-60.6060606060606,4,1,0,100,0,0
105663,-59.5238095238095,4,1,0,100,0,0
105733,-58.4795321637427,4,1,0,100,0,0
105804,-57.4712643678161,4,1,0,100,0,0
105873,-56.4971751412429,4,1,0,100,0,0
105944,-55.5555555555556,4,1,0,100,0,0
106012,-54.6448087431694,4,1,0,100,0,0
106082,-53.475935828877,4,1,0,100,0,0
106152,-52.3560209424084,4,1,0,100,0,0
106222,-51.2820512820513,4,1,0,100,0,0
106293,285.714285714286,4,1,0,100,1,8
106296,285.714285714286,4,1,0,100,1,0
110867,-100,4,1,0,100,0,1
129153,285.714285714286,6,1,0,100,1,1
130867,285.714285714286,4,1,0,100,1,1
132009,285.714285714286,6,1,0,100,1,9
132010,285.714285714286,6,1,0,100,1,1
133724,285.714285714286,4,1,0,100,1,1
133791,-101.574403250381,4,1,0,100,0,1
133862,-103.204047217538,4,1,0,100,0,1
133933,-104.886835331096,4,1,0,100,0,1
134005,-106.650308972219,4,1,0,100,0,1
134148,-110.334681868334,4,1,0,100,0,1
134220,-112.260208892036,4,1,0,100,0,1
134291,-114.282726502015,4,1,0,100,0,1
134433,-118.493047246198,4,1,0,100,0,1
134506,-120.748641577782,4,1,0,100,0,1
134576,-123.058609679002,4,1,0,100,0,1
134719,-127.990095406996,4,1,0,100,0,1
134861,-133.333333333333,4,1,0,100,0,1
134866,285.714285714286,6,1,0,100,1,9
134867,285.714285714286,6,1,0,100,1,1
134867,-133.333333333333,6,1,0,100,0,1
136580,285.714285714286,4,1,0,100,1,9
136581,285.714285714286,4,1,0,100,1,1
136581,-133.333333333333,4,1,0,100,0,1
137723,285.714285714286,6,1,0,100,1,9
137724,285.714285714286,6,1,0,100,1,1
137724,-133.333333333333,6,1,0,100,0,1
139438,285.714285714286,4,1,0,100,1,1
139438,-111.731843305681,4,1,0,100,0,1
140577,-100,4,1,0,100,0,1
149723,-100.250626195761,4,1,0,100,0,0
149862,-101.82062859199,4,1,0,100,0,0
150005,-103.452178834182,4,1,0,100,0,0
150291,-106.877334287512,4,1,0,100,0,0
150576,-110.523827316798,4,1,0,100,0,0
150719,-112.448850536531,4,1,0,100,0,0
150862,-114.442119708461,4,1,0,100,0,0
151005,-116.507329509242,4,1,0,100,0,0
151148,-118.648446211623,4,1,0,100,0,0
151433,-123.159347174611,4,1,0,100,0,0
151576,-125.554452031743,4,1,0,100,0,0
151719,-128.044560627839,4,1,0,100,0,0
151862,-130.635439936998,4,1,0,100,0,0
152005,-133.333333333333,4,1,0,100,0,0
154433,-131.966798989535,4,1,0,100,0,0
154576,-130.618659808544,4,1,0,100,0,0
154862,-128.003360403248,4,1,0,100,0,0
155148,-125.490734385724,4,1,0,100,0,0
155291,-124.27105281044,4,1,0,100,0,0
155432,-123.083136990912,4,1,0,100,0,0
155576,-121.909587945059,4,1,0,100,0,0
155719,-120.758206195099,4,1,0,100,0,0
156005,-118.519478835807,4,1,0,100,0,0
156148,-117.430956968529,4,1,0,100,0,0
156291,-116.362247820276,4,1,0,100,0,0
156433,-115.320088300221,4,1,0,100,0,0
156575,-114.28928616077,4,1,0,100,0,0
156719,-113.2767486525,4,1,0,100,0,0
156862,-112.281994595922,4,1,0,100,0,0
157148,-110.343995171998,4,1,0,100,0,0
157433,-108.478196380896,4,1,0,100,0,0
157576,-107.565595952465,4,1,0,100,0,0
157718,-106.668222390759,4,1,0,100,0,0
157719,-106.661999766655,4,1,0,100,0,0
157814,-106.080297052681,4,1,0,100,0,0
157910,-105.492730210016,4,1,0,100,0,0
158005,-104.917656510013,4,1,0,100,0,0
158100,-104.348818628011,4,1,0,100,0,0
158195,-103.786115683715,4,1,0,100,0,0
158291,-103.223621069271,4,1,0,100,0,0
158386,-102.672955974843,4,1,0,100,0,0
158481,-102.12813494945,4,1,0,100,0,0
158576,-101.589065451717,4,1,0,100,0,0
158671,-101.055656883878,4,1,0,100,0,0
158767,-100.522293693991,4,1,0,100,0,0
158862,-100,4,1,0,100,0,0
166933,-101.513567288268,4,1,0,100,0,0
167005,-103.095972040372,4,1,0,100,0,0
167076,-104.705463531087,4,1,0,100,0,0
167148,-106.389769559759,4,1,0,100,0,0
167219,-108.104602012908,4,1,0,100,0,0
167291,-109.900979217725,4,1,0,100,0,0
167362,-111.731843575419,4,1,0,100,0,0
167433,-113.624742924019,4,1,0,100,0,0
167576,-117.638754911418,4,1,0,100,0,0
167719,-121.946758045437,4,1,0,100,0,0
167862,-126.582278481013,4,1,0,100,0,0
168009,521.739130434783,4,1,0,80,1,8
168010,521.739130434783,4,1,0,80,1,0
168010,-71.5563502446252,4,1,0,80,0,0
178505,-72.1959218125431,4,1,0,81,0,0
178570,-72.8369231198773,4,1,0,82,0,0
178700,-74.1746427213244,4,1,0,83,0,0
178831,-75.5841747671269,4,1,0,84,0,0
178961,-77.014409296344,4,1,0,85,0,0
179026,-77.7672924629632,4,1,0,86,0,0
179091,-78.5232954951633,4,1,0,87,0,0
179222,-80.0802721271154,4,1,0,88,0,0
179352,-81.7129572984216,4,1,0,89,0,0
179418,-82.5610133602867,4,1,0,90,0,0
179483,-83.4003526632066,4,1,0,91,0,0
179613,-85.1589078686301,4,1,0,92,0,0
179744,-87.022058861854,4,1,0,93,0,0
179874,-88.9233542042595,4,1,0,94,0,0
180005,-90.9410789394275,4,1,0,95,0,0
180135,-93.0360074312901,4,1,0,96,0,0
180265,-95.2470055610195,4,1,0,97,0,0
180396,-97.5475234520699,4,1,0,98,0,0
180531,-100,4,1,0,100,0,1
196309,-97.5678203928906,4,1,0,100,0,1
196439,-95.2511415525114,4,1,0,100,0,1
196570,-93.0253300035676,4,1,0,100,0,1
196700,-90.9328683522232,4,1,0,100,0,1
196831,-88.886995057099,4,1,0,100,0,1
196961,-86.9601467400367,4,1,0,100,0,1
197091,-85.1150644687449,4,1,0,100,0,1
197222,-83.3333333333333,4,1,0,100,0,1
204657,-82.4766724656018,4,1,0,100,0,1
204787,-81.6374452097683,4,1,0,100,0,1
204918,-80.8088634074533,4,1,0,100,0,1
205048,-80.0030681905346,4,1,0,100,0,1
205178,-79.2071688942892,4,1,0,100,0,1
205309,-78.4328470446684,4,1,0,100,0,1
205439,-77.6735180220435,4,1,0,100,0,1
205570,-76.9230769230769,4,1,0,100,0,1
213923,-76.9230769230769,4,1,0,100,0,0
214053,-40,4,1,0,100,0,0
216003,-76.9230769230769,4,1,0,90,0,0
218093,-76.9230769230769,4,1,0,80,0,0
220180,-76.9230769230769,4,1,0,70,0,0
222267,-76.9230769230769,4,1,0,60,0,0
224354,-76.9230769230769,4,1,0,50,0,0
226441,-76.9230769230769,4,1,0,40,0,0
228528,-76.9230769230769,4,1,0,30,0,0
230615,-76.9230769230769,4,1,0,20,0,0
232702,-76.9230769230769,4,1,0,10,0,0

[HitObjects]
256,192,467,5,0,0:0:0:0:
256,192,712,1,8,0:0:0:0:
256,192,958,1,8,0:0:0:0:
256,192,1204,1,0,0:0:0:0:
256,192,1450,1,8,0:0:0:0:
256,192,1696,1,8,0:0:0:0:
256,192,1942,1,0,0:0:0:0:
256,192,2188,1,0,0:0:0:0:
256,192,2434,1,0,0:0:0:0:
256,192,2680,1,8,0:0:0:0:
256,192,2926,1,8,0:0:0:0:
256,192,3171,1,0,0:0:0:0:
256,192,3417,1,8,0:0:0:0:
256,192,3663,1,0,0:0:0:0:
256,192,3909,1,8,0:0:0:0:
256,192,4155,1,0,0:0:0:0:
256,192,4401,1,0,0:0:0:0:
256,192,4647,1,8,0:0:0:0:
256,192,4893,1,8,0:0:0:0:
256,192,5139,1,0,0:0:0:0:
256,192,5385,1,8,0:0:0:0:
256,192,5630,1,8,0:0:0:0:
256,192,5876,1,0,0:0:0:0:
256,192,6122,1,0,0:0:0:0:
256,192,6368,1,0,0:0:0:0:
256,192,6614,1,8,0:0:0:0:
256,192,6860,1,8,0:0:0:0:
256,192,7106,1,0,0:0:0:0:
256,192,7352,1,8,0:0:0:0:
256,192,7598,1,0,0:0:0:0:
256,192,7844,1,8,0:0:0:0:
256,192,8089,1,0,0:0:0:0:
256,192,8335,1,8,0:0:0:0:
256,192,8458,1,0,0:0:0:0:
256,192,8581,1,0,0:0:0:0:
256,192,8704,1,8,0:0:0:0:
256,192,8827,1,0,0:0:0:0:
256,192,8950,1,0,0:0:0:0:
256,192,9073,1,8,0:0:0:0:
256,192,9196,1,8,0:0:0:0:
256,192,9319,1,8,0:0:0:0:
256,192,9442,1,0,0:0:0:0:
256,192,9565,1,8,0:0:0:0:
256,192,9688,1,0,0:0:0:0:
256,192,9811,1,0,0:0:0:0:
256,192,9934,1,8,0:0:0:0:
256,192,10057,1,0,0:0:0:0:
256,192,10180,1,0,0:0:0:0:
256,192,10303,1,8,0:0:0:0:
256,192,10426,1,0,0:0:0:0:
256,192,10548,1,0,0:0:0:0:
256,192,10671,1,8,0:0:0:0:
256,192,10794,1,0,0:0:0:0:
256,192,10917,1,8,0:0:0:0:
256,192,11040,1,8,0:0:0:0:
256,192,11163,1,0,0:0:0:0:
256,192,11286,1,8,0:0:0:0:
256,192,11409,1,0,0:0:0:0:
256,192,11532,1,8,0:0:0:0:
256,192,11655,1,0,0:0:0:0:
256,192,11778,1,0,0:0:0:0:
256,192,11901,1,8,0:0:0:0:
256,192,12024,1,0,0:0:0:0:
256,192,12147,1,0,0:0:0:0:
256,192,12270,1,8,0:0:0:0:
256,192,12393,1,0,0:0:0:0:
256,192,12516,1,0,0:0:0:0:
256,192,12639,1,8,0:0:0:0:
256,192,12762,1,0,0:0:0:0:
256,192,12885,1,0,0:0:0:0:
256,192,13007,1,8,0:0:0:0:
256,192,13130,1,8,0:0:0:0:
256,192,13253,1,8,0:0:0:0:
256,192,13376,1,0,0:0:0:0:
256,192,13499,1,8,0:0:0:0:
256,192,13622,1,0,0:0:0:0:
256,192,13745,1,0,0:0:0:0:
256,192,13868,1,8,0:0:0:0:
256,192,13991,1,0,0:0:0:0:
256,192,14114,1,0,0:0:0:0:
256,192,14237,1,8,0:0:0:0:
256,192,14360,1,0,0:0:0:0:
256,192,14483,1,0,0:0:0:0:
256,192,14606,1,8,0:0:0:0:
256,192,14729,1,0,0:0:0:0:
256,192,14852,1,8,0:0:0:0:
256,192,14975,1,8,0:0:0:0:
256,192,15098,1,0,0:0:0:0:
256,192,15221,1,8,0:0:0:0:
256,192,15344,1,0,0:0:0:0:
256,192,15467,1,8,0:0:0:0:
256,192,15589,1,0,0:0:0:0:
256,192,15712,1,0,0:0:0:0:
256,192,15835,1,8,0:0:0:0:
256,192,15958,1,0,0:0:0:0:
256,192,16081,1,0,0:0:0:0:
256,192,16204,1,8,0:0:0:0:
256,192,16327,1,0,0:0:0:0:
256,192,16450,1,0,0:0:0:0:
256,192,16573,1,8,0:0:0:0:
256,192,16696,1,0,0:0:0:0:
256,192,16819,1,0,0:0:0:0:
256,192,16942,1,8,0:0:0:0:
256,192,17065,1,8,0:0:0:0:
256,192,17188,1,8,0:0:0:0:
256,192,17311,1,0,0:0:0:0:
256,192,17434,1,8,0:0:0:0:
256,192,17557,1,0,0:0:0:0:
256,192,17680,1,0,0:0:0:0:
256,192,17803,1,8,0:0:0:0:
256,192,17926,1,0,0:0:0:0:
256,192,18048,1,0,0:0:0:0:
256,192,18171,1,8,0:0:0:0:
256,192,18294,1,0,0:0:0:0:
256,192,18417,1,0,0:0:0:0:
256,192,18540,1,8,0:0:0:0:
256,192,18663,1,0,0:0:0:0:
256,192,18786,1,8,0:0:0:0:
256,192,18909,1,8,0:0:0:0:
256,192,19032,1,0,0:0:0:0:
256,192,19155,1,8,0:0:0:0:
256,192,19278,1,0,0:0:0:0:
256,192,19401,1,8,0:0:0:0:
256,192,19524,1,0,0:0:0:0:
256,192,19647,1,0,0:0:0:0:
256,192,19770,1,8,0:0:0:0:
256,192,19893,1,0,0:0:0:0:
256,192,20016,1,0,0:0:0:0:
256,192,20139,1,8,0:0:0:0:
256,192,20262,1,0,0:0:0:0:
256,192,20385,1,0,0:0:0:0:
256,192,20507,1,8,0:0:0:0:
256,192,20630,1,0,0:0:0:0:
256,192,20753,1,0,0:0:0:0:
256,192,20876,1,8,0:0:0:0:
256,192,20999,1,8,0:0:0:0:
256,192,21122,1,8,0:0:0:0:
256,192,21245,1,0,0:0:0:0:
256,192,21368,1,8,0:0:0:0:
256,192,21491,1,0,0:0:0:0:
256,192,21614,1,0,0:0:0:0:
256,192,21737,1,8,0:0:0:0:
256,192,21860,1,0,0:0:0:0:
256,192,21983,1,0,0:0:0:0:
256,192,22106,1,8,0:0:0:0:
256,192,22167,1,0,0:0:0:0:
256,192,22229,1,0,0:0:0:0:
256,192,22352,1,0,0:0:0:0:
256,192,22475,1,0,0:0:0:0:
256,192,22598,1,8,0:0:0:0:
256,192,22659,1,0,0:0:0:0:
256,192,22721,1,0,0:0:0:0:
256,192,22844,1,0,0:0:0:0:
256,192,22967,1,8,0:0:0:0:
256,192,23028,1,0,0:0:0:0:
256,192,23089,1,0,0:0:0:0:
256,192,23212,1,0,0:0:0:0:
256,192,23335,1,0,0:0:0:0:
256,192,23458,1,0,0:0:0:0:
256,192,23581,1,8,0:0:0:0:
256,192,23704,1,0,0:0:0:0:
256,192,23827,1,0,0:0:0:0:
256,192,23950,1,8,0:0:0:0:
256,192,24073,1,4,0:0:0:0:
256,192,24319,1,8,0:0:0:0:
256,192,24442,1,0,0:0:0:0:
256,192,24688,1,8,0:0:0:0:
256,192,24811,1,0,0:0:0:0:
256,192,25057,1,8,0:0:0:0:
256,192,25180,1,0,0:0:0:0:
256,192,25303,1,0,0:0:0:0:
256,192,25548,1,8,0:0:0:0:
256,192,25671,1,0,0:0:0:0:
256,192,25794,1,0,0:0:0:0:
256,192,25917,1,0,0:0:0:0:
256,192,26040,1,8,0:0:0:0:
256,192,26286,1,0,0:0:0:0:
256,192,26409,1,8,0:0:0:0:
256,192,26655,1,0,0:0:0:0:
256,192,26778,1,8,0:0:0:0:
256,192,27024,1,8,0:0:0:0:
256,192,27147,1,0,0:0:0:0:
256,192,27270,1,0,0:0:0:0:
256,192,27516,1,0,0:0:0:0:
256,192,27639,1,8,0:0:0:0:
256,192,28007,1,4,0:0:0:0:
256,192,28253,1,8,0:0:0:0:
256,192,28376,1,0,0:0:0:0:
256,192,28622,1,8,0:0:0:0:
256,192,28745,1,0,0:0:0:0:
256,192,28991,1,8,0:0:0:0:
256,192,29114,1,0,0:0:0:0:
256,192,29237,1,0,0:0:0:0:
256,192,29483,1,8,0:0:0:0:
256,192,29606,1,0,0:0:0:0:
256,192,29729,1,0,0:0:0:0:
256,192,29852,1,0,0:0:0:0:
256,192,29975,1,8,0:0:0:0:
256,192,30221,1,0,0:0:0:0:
256,192,30344,1,8,0:0:0:0:
256,192,30589,1,0,0:0:0:0:
256,192,30712,1,8,0:0:0:0:
256,192,30958,1,8,0:0:0:0:
256,192,31081,1,8,0:0:0:0:
256,192,31204,1,0,0:0:0:0:
256,192,31327,1,0,0:0:0:0:
256,192,31450,1,8,0:0:0:0:
256,192,31532,1,8,0:0:0:0:
256,192,31614,1,8,0:0:0:0:
256,192,31696,1,0,0:0:0:0:
256,192,31778,1,0,0:0:0:0:
256,192,31860,1,0,0:0:0:0:
256,192,31942,1,12,0:0:0:0:
256,192,32188,1,0,0:0:0:0:
256,192,32311,1,8,0:0:0:0:
256,192,32557,1,0,0:0:0:0:
256,192,32680,1,8,0:0:0:0:
256,192,32926,1,8,0:0:0:0:
256,192,33048,1,0,0:0:0:0:
256,192,33171,1,0,0:0:0:0:
256,192,33417,1,8,0:0:0:0:
256,192,33540,1,0,0:0:0:0:
256,192,33663,1,0,0:0:0:0:
256,192,33786,1,0,0:0:0:0:
256,192,33909,1,8,0:0:0:0:
256,192,34155,1,0,0:0:0:0:
256,192,34278,1,8,0:0:0:0:
256,192,34524,1,0,0:0:0:0:
256,192,34647,1,8,0:0:0:0:
256,192,34893,1,8,0:0:0:0:
256,192,35016,1,0,0:0:0:0:
256,192,35139,1,0,0:0:0:0:
256,192,35385,1,0,0:0:0:0:
256,192,35507,1,8,0:0:0:0:
256,192,35876,1,4,0:0:0:0:
256,192,36122,1,8,0:0:0:0:
256,192,36245,1,0,0:0:0:0:
256,192,36491,1,8,0:0:0:0:
256,192,36614,1,0,0:0:0:0:
256,192,36860,1,8,0:0:0:0:
256,192,36983,1,0,0:0:0:0:
256,192,37106,1,0,0:0:0:0:
256,192,37352,1,8,0:0:0:0:
256,192,37475,1,0,0:0:0:0:
256,192,37598,1,0,0:0:0:0:
256,192,37721,1,0,0:0:0:0:
256,192,37844,1,8,0:0:0:0:
256,192,38089,1,0,0:0:0:0:
256,192,38212,1,8,0:0:0:0:
256,192,38458,1,0,0:0:0:0:
256,192,38581,1,8,0:0:0:0:
256,192,38827,1,8,0:0:0:0:
256,192,38950,1,8,0:0:0:0:
256,192,39073,1,0,0:0:0:0:
256,192,39196,1,0,0:0:0:0:
256,192,39319,1,8,0:0:0:0:
256,192,39442,1,0,0:0:0:0:
256,192,39565,1,8,0:0:0:0:
256,192,39626,1,8,0:0:0:0:
256,192,39688,1,0,0:0:0:0:
256,192,39749,1,0,0:0:0:0:
256,192,39811,1,8,0:0:0:0:
256,192,39934,1,0,0:0:0:0:
256,192,40057,1,0,0:0:0:0:
256,192,40180,1,8,0:0:0:0:
256,192,40303,1,0,0:0:0:0:
256,192,40426,1,0,0:0:0:0:
256,192,40548,1,8,0:0:0:0:
256,192,40671,1,0,0:0:0:0:
256,192,40794,1,8,0:0:0:0:
256,192,40917,1,8,0:0:0:0:
256,192,41040,1,0,0:0:0:0:
256,192,41163,1,8,0:0:0:0:
256,192,41286,1,8,0:0:0:0:
256,192,41409,1,0,0:0:0:0:
256,192,41532,1,8,0:0:0:0:
256,192,41655,1,0,0:0:0:0:
256,192,41778,1,8,0:0:0:0:
256,192,41901,1,0,0:0:0:0:
256,192,42024,1,0,0:0:0:0:
256,192,42147,1,8,0:0:0:0:
256,192,42270,1,0,0:0:0:0:
256,192,42393,1,0,0:0:0:0:
256,192,42516,1,8,0:0:0:0:
256,192,42639,1,0,0:0:0:0:
256,192,42762,1,8,0:0:0:0:
256,192,42885,1,8,0:0:0:0:
256,192,43007,1,0,0:0:0:0:
256,192,43130,1,8,0:0:0:0:
256,192,43253,1,8,0:0:0:0:
256,192,43376,1,0,0:0:0:0:
256,192,43499,1,8,0:0:0:0:
256,192,43622,1,0,0:0:0:0:
256,192,43745,1,8,0:0:0:0:
256,192,43868,1,0,0:0:0:0:
256,192,43991,1,0,0:0:0:0:
256,192,44114,1,8,0:0:0:0:
256,192,44237,1,0,0:0:0:0:
256,192,44360,1,0,0:0:0:0:
256,192,44483,1,8,0:0:0:0:
256,192,44606,1,0,0:0:0:0:
256,192,44729,1,8,0:0:0:0:
256,192,44852,1,8,0:0:0:0:
256,192,44975,1,0,0:0:0:0:
256,192,45098,1,8,0:0:0:0:
256,192,45221,1,8,0:0:0:0:
256,192,45344,1,0,0:0:0:0:
256,192,45467,1,8,0:0:0:0:
256,192,45589,1,0,0:0:0:0:
256,192,45712,1,8,0:0:0:0:
256,192,45835,1,0,0:0:0:0:
256,192,45958,1,0,0:0:0:0:
256,192,46081,1,8,0:0:0:0:
256,192,46204,1,0,0:0:0:0:
256,192,46327,1,0,0:0:0:0:
256,192,46450,1,8,0:0:0:0:
256,192,46573,1,8,0:0:0:0:
256,192,46696,1,8,0:0:0:0:
256,192,46819,1,0,0:0:0:0:
256,192,46942,1,0,0:0:0:0:
256,192,47065,1,0,0:0:0:0:
256,192,47188,1,8,0:0:0:0:
256,192,47311,1,0,0:0:0:0:
256,192,47434,1,0,0:0:0:0:
256,192,47557,1,8,0:0:0:0:
256,192,47680,1,4,0:0:0:0:
256,192,47926,1,8,0:0:0:0:
256,192,48048,1,0,0:0:0:0:
256,192,48294,1,8,0:0:0:0:
256,192,48417,1,0,0:0:0:0:
256,192,48663,1,8,0:0:0:0:
256,192,48786,1,0,0:0:0:0:
256,192,48909,1,0,0:0:0:0:
256,192,49155,1,8,0:0:0:0:
256,192,49278,1,0,0:0:0:0:
256,192,49401,1,0,0:0:0:0:
256,192,49524,1,0,0:0:0:0:
256,192,49647,1,8,0:0:0:0:
256,192,49893,1,0,0:0:0:0:
256,192,50016,1,8,0:0:0:0:
256,192,50262,1,0,0:0:0:0:
256,192,50385,1,8,0:0:0:0:
256,192,50630,1,8,0:0:0:0:
256,192,50753,1,0,0:0:0:0:
256,192,50876,1,0,0:0:0:0:
256,192,51122,1,0,0:0:0:0:
256,192,51245,1,8,0:0:0:0:
256,192,51614,1,4,0:0:0:0:
256,192,51860,1,8,0:0:0:0:
256,192,51983,1,4,0:0:0:0:
256,192,52229,1,8,0:0:0:0:
256,192,52352,1,4,0:0:0:0:
256,192,52598,1,12,0:0:0:0:
256,192,52721,1,0,0:0:0:0:
256,192,52844,1,0,0:0:0:0:
256,192,53089,1,8,0:0:0:0:
256,192,53212,1,0,0:0:0:0:
256,192,53335,1,0,0:0:0:0:
256,192,53458,1,0,0:0:0:0:
256,192,53581,1,8,0:0:0:0:
256,192,53827,1,0,0:0:0:0:
256,192,53950,1,8,0:0:0:0:
256,192,54196,1,0,0:0:0:0:
256,192,54319,1,8,0:0:0:0:
256,192,54565,1,8,0:0:0:0:
256,192,54688,1,8,0:0:0:0:
256,192,54811,1,0,0:0:0:0:
256,192,54934,1,0,0:0:0:0:
256,192,55057,1,8,0:0:0:0:
256,192,55180,1,0,0:0:0:0:
256,192,55303,1,8,0:0:0:0:
256,192,55426,1,8,0:0:0:0:
256,192,55548,1,0,0:0:0:0:
256,192,55621,1,0,0:0:0:0:
256,192,55694,1,8,0:0:0:0:
256,192,55767,1,8,0:0:0:0:
256,192,55840,1,8,0:0:0:0:
256,192,55987,1,8,0:0:0:0:
256,192,56133,1,8,0:0:0:0:
256,192,56279,1,8,0:0:0:0:
256,192,56426,1,0,0:0:0:0:
256,192,56499,1,0,0:0:0:0:
256,192,56572,1,8,0:0:0:0:
256,192,56645,1,8,0:0:0:0:
256,192,56718,1,0,0:0:0:0:
256,192,56865,1,8,0:0:0:0:
256,192,56938,1,8,0:0:0:0:
256,192,57011,1,8,0:0:0:0:
256,192,57084,1,8,0:0:0:0:
256,192,57157,1,0,0:0:0:0:
256,192,57230,1,0,0:0:0:0:
256,192,57304,1,8,0:0:0:0:
256,192,57377,1,8,0:0:0:0:
256,192,57450,1,8,0:0:0:0:
256,192,57523,1,8,0:0:0:0:
256,192,57596,1,8,0:0:0:0:
256,192,57669,1,8,0:0:0:0:
256,192,57743,1,8,0:0:0:0:
256,192,57816,1,8,0:0:0:0:
256,192,57889,1,0,0:0:0:0:
256,192,57962,1,0,0:0:0:0:
256,192,58035,1,0,0:0:0:0:
256,192,58108,1,0,0:0:0:0:
256,192,58182,1,0,0:0:0:0:
256,192,58255,1,0,0:0:0:0:
256,192,58328,1,0,0:0:0:0:
256,192,58401,1,0,0:0:0:0:
256,192,58474,1,8,0:0:0:0:
256,192,58548,1,8,0:0:0:0:
256,192,58621,1,0,0:0:0:0:
256,192,58694,1,0,0:0:0:0:
256,192,58767,1,8,0:0:0:0:
256,192,58840,1,8,0:0:0:0:
256,192,58913,1,0,0:0:0:0:
256,192,58987,1,0,0:0:0:0:
256,192,59060,1,8,0:0:0:0:
256,192,59133,1,0,0:0:0:0:
256,192,59206,1,8,0:0:0:0:
256,192,59279,1,8,0:0:0:0:
256,192,59352,1,0,0:0:0:0:
256,192,59426,1,0,0:0:0:0:
256,192,59499,1,8,0:0:0:0:
256,192,59572,1,0,0:0:0:0:
256,192,59645,1,8,0:0:0:0:
256,192,59718,1,8,0:0:0:0:
256,192,59791,1,0,0:0:0:0:
256,192,59865,1,0,0:0:0:0:
256,192,59938,1,8,0:0:0:0:
256,192,60011,1,8,0:0:0:0:
256,192,60084,1,8,0:0:0:0:
256,192,60157,1,8,0:0:0:0:
256,192,60230,1,0,0:0:0:0:
256,192,60377,1,8,0:0:0:0:
256,192,60523,1,0,0:0:0:0:
256,192,60596,1,8,0:0:0:0:
256,192,60669,1,0,0:0:0:0:
256,192,60816,1,8,0:0:0:0:
256,192,60962,1,0,0:0:0:0:
256,192,61035,1,8,0:0:0:0:
256,192,61108,1,0,0:0:0:0:
256,192,61182,1,0,0:0:0:0:
256,192,61255,1,8,0:0:0:0:
256,192,61401,1,8,0:0:0:0:
256,192,61547,1,0,0:0:0:0:
256,192,61694,1,8,0:0:0:0:
256,192,61767,1,0,0:0:0:0:
256,192,61840,1,8,0:0:0:0:
256,192,61987,1,8,0:0:0:0:
256,192,62060,1,8,0:0:0:0:
256,192,62133,1,0,0:0:0:0:
256,192,62279,1,8,0:0:0:0:
256,192,62352,1,0,0:0:0:0:
256,192,62426,1,0,0:0:0:0:
256,192,62572,1,8,0:0:0:0:
256,192,62645,1,0,0:0:0:0:
256,192,62718,1,8,0:0:0:0:
256,192,62791,1,8,0:0:0:0:
256,192,62865,1,0,0:0:0:0:
256,192,62938,1,0,0:0:0:0:
256,192,63011,1,8,0:0:0:0:
256,192,63157,1,0,0:0:0:0:
256,192,63230,1,0,0:0:0:0:
256,192,63304,1,8,0:0:0:0:
256,192,63450,1,0,0:0:0:0:
256,192,63523,1,0,0:0:0:0:
256,192,63596,1,8,0:0:0:0:
256,192,63669,1,8,0:0:0:0:
256,192,63743,1,8,0:0:0:0:
256,192,63816,1,0,0:0:0:0:
256,192,63889,1,8,0:0:0:0:
256,192,63962,1,0,0:0:0:0:
256,192,64035,1,8,0:0:0:0:
256,192,64108,1,8,0:0:0:0:
256,192,64182,1,0,0:0:0:0:
256,192,64328,1,8,0:0:0:0:
256,192,64401,1,0,0:0:0:0:
256,192,64474,1,8,0:0:0:0:
256,192,64621,1,0,0:0:0:0:
256,192,64694,1,0,0:0:0:0:
256,192,64767,1,8,0:0:0:0:
256,192,64840,1,8,0:0:0:0:
256,192,64913,1,0,0:0:0:0:
256,192,65060,1,8,0:0:0:0:
256,192,65206,1,0,0:0:0:0:
256,192,65279,1,8,0:0:0:0:
256,192,65352,1,0,0:0:0:0:
256,192,65499,1,8,0:0:0:0:
256,192,65645,1,0,0:0:0:0:
256,192,65718,1,8,0:0:0:0:
256,192,65791,1,0,0:0:0:0:
256,192,65865,1,0,0:0:0:0:
256,192,65938,1,8,0:0:0:0:
256,192,66084,1,8,0:0:0:0:
256,192,66230,1,0,0:0:0:0:
256,192,66377,1,8,0:0:0:0:
256,192,66450,1,0,0:0:0:0:
256,192,66523,1,8,0:0:0:0:
256,192,66669,1,8,0:0:0:0:
256,192,66743,1,8,0:0:0:0:
256,192,66816,1,0,0:0:0:0:
256,192,66962,1,8,0:0:0:0:
256,192,67035,1,0,0:0:0:0:
256,192,67108,1,0,0:0:0:0:
256,192,67255,1,8,0:0:0:0:
256,192,67328,1,0,0:0:0:0:
256,192,67401,1,8,0:0:0:0:
256,192,67474,1,8,0:0:0:0:
256,192,67547,1,0,0:0:0:0:
256,192,67621,1,0,0:0:0:0:
256,192,67694,1,8,0:0:0:0:
256,192,67840,1,0,0:0:0:0:
256,192,67913,1,0,0:0:0:0:
256,192,67987,1,8,0:0:0:0:
256,192,68133,1,8,0:0:0:0:
256,192,68279,1,0,0:0:0:0:
256,192,68352,1,0,0:0:0:0:
256,192,68426,1,8,0:0:0:0:
256,192,68499,1,0,0:0:0:0:
256,192,68572,1,8,0:0:0:0:
256,192,68645,1,8,0:0:0:0:
256,192,68718,1,0,0:0:0:0:
256,192,68791,1,0,0:0:0:0:
256,192,68865,1,0,0:0:0:0:
256,192,68938,1,0,0:0:0:0:
256,192,69011,1,8,0:0:0:0:
256,192,69108,1,8,0:0:0:0:
256,192,69206,1,8,0:0:0:0:
256,192,69304,1,8,0:0:0:0:
256,192,69401,1,8,0:0:0:0:
256,192,69499,1,8,0:0:0:0:
256,192,69596,1,8,0:0:0:0:
256,192,69694,1,0,0:0:0:0:
256,192,69791,1,0,0:0:0:0:
256,192,69889,1,8,0:0:0:0:
256,192,69987,1,0,0:0:0:0:
256,192,70084,1,0,0:0:0:0:
256,192,70182,1,8,0:0:0:0:
256,192,70279,1,0,0:0:0:0:
256,192,70377,1,8,0:0:0:0:
256,192,70474,1,8,0:0:0:0:
256,192,70572,1,0,0:0:0:0:
256,192,70669,1,8,0:0:0:0:
256,192,70767,1,8,0:0:0:0:
256,192,70865,1,0,0:0:0:0:
256,192,70962,1,0,0:0:0:0:
256,192,71060,1,8,0:0:0:0:
256,192,71157,1,0,0:0:0:0:
256,192,71255,1,0,0:0:0:0:
256,192,71352,1,8,0:0:0:0:
256,192,71450,1,8,0:0:0:0:
256,192,71547,1,0,0:0:0:0:
256,192,71645,1,8,0:0:0:0:
256,192,71743,1,0,0:0:0:0:
256,192,71840,1,0,0:0:0:0:
256,192,71938,1,8,0:0:0:0:
256,192,72035,1,0,0:0:0:0:
256,192,72133,1,0,0:0:0:0:
256,192,72230,1,8,0:0:0:0:
256,192,72328,1,0,0:0:0:0:
256,192,72426,1,8,0:0:0:0:
256,192,72523,1,8,0:0:0:0:
256,192,72621,1,0,0:0:0:0:
256,192,72718,1,0,0:0:0:0:
256,192,72816,1,8,0:0:0:0:
256,192,72913,1,0,0:0:0:0:
256,192,73011,1,8,0:0:0:0:
256,192,73108,1,0,0:0:0:0:
256,192,73206,1,0,0:0:0:0:
256,192,73304,1,8,0:0:0:0:
256,192,73401,1,8,0:0:0:0:
256,192,73499,1,8,0:0:0:0:
256,192,73596,1,8,0:0:0:0:
256,192,73694,1,0,0:0:0:0:
256,192,73791,1,0,0:0:0:0:
256,192,73889,1,8,0:0:0:0:
256,192,73987,1,8,0:0:0:0:
256,192,74084,1,8,0:0:0:0:
256,192,74182,1,8,0:0:0:0:
256,192,74279,1,8,0:0:0:0:
256,192,74377,1,0,0:0:0:0:
256,192,74474,1,0,0:0:0:0:
256,192,74572,1,8,0:0:0:0:
256,192,74669,1,0,0:0:0:0:
256,192,74767,1,0,0:0:0:0:
256,192,74865,1,8,0:0:0:0:
256,192,74962,1,0,0:0:0:0:
256,192,75060,1,8,0:0:0:0:
256,192,75157,1,8,0:0:0:0:
256,192,75255,1,0,0:0:0:0:
256,192,75352,1,8,0:0:0:0:
256,192,75450,1,8,0:0:0:0:
256,192,75547,1,0,0:0:0:0:
256,192,75645,1,0,0:0:0:0:
256,192,75743,1,8,0:0:0:0:
256,192,75840,1,0,0:0:0:0:
256,192,75938,1,0,0:0:0:0:
256,192,76035,1,8,0:0:0:0:
256,192,76133,1,8,0:0:0:0:
256,192,76230,1,0,0:0:0:0:
256,192,76328,1,8,0:0:0:0:
256,192,76426,1,0,0:0:0:0:
256,192,76523,1,8,0:0:0:0:
256,192,76621,1,0,0:0:0:0:
256,192,76718,1,0,0:0:0:0:
256,192,76816,1,0,0:0:0:0:
256,192,76913,1,0,0:0:0:0:
256,192,77011,1,0,0:0:0:0:
256,192,77108,1,0,0:0:0:0:
256,192,77206,1,8,0:0:0:0:
256,192,77304,1,8,0:0:0:0:
256,192,77401,1,8,0:0:0:0:
256,192,77499,1,8,0:0:0:0:
256,192,77596,1,8,0:0:0:0:
256,192,77694,1,8,0:0:0:0:
256,192,77791,1,0,0:0:0:0:
256,192,78084,1,12,0:0:0:0:
256,192,78377,1,12,0:0:0:0:
256,192,78669,1,4,0:0:0:0:
256,192,78962,1,8,0:0:0:0:
256,192,79035,1,8,0:0:0:0:
256,192,79108,1,0,0:0:0:0:
256,192,79181,1,0,0:0:0:0:
256,192,79254,1,8,0:0:0:0:
256,192,79327,1,0,0:0:0:0:
256,192,79401,1,8,0:0:0:0:
256,192,79474,1,8,0:0:0:0:
256,192,79547,1,0,0:0:0:0:
256,192,79620,1,0,0:0:0:0:
256,192,79693,1,8,0:0:0:0:
256,192,79766,1,0,0:0:0:0:
256,192,79840,1,0,0:0:0:0:
256,192,79913,1,0,0:0:0:0:
256,192,79986,1,8,0:0:0:0:
256,192,80059,1,8,0:0:0:0:
256,192,80132,1,0,0:0:0:0:
256,192,80205,1,0,0:0:0:0:
256,192,80279,1,8,0:0:0:0:
256,192,80352,1,0,0:0:0:0:
256,192,80425,1,8,0:0:0:0:
256,192,80498,1,8,0:0:0:0:
256,192,80571,1,0,0:0:0:0:
256,192,80644,1,0,0:0:0:0:
256,192,80718,1,8,0:0:0:0:
256,192,80791,1,0,0:0:0:0:
256,192,80864,1,8,0:0:0:0:
256,192,80937,1,8,0:0:0:0:
256,192,81010,1,8,0:0:0:0:
256,192,81083,1,0,0:0:0:0:
256,192,81157,1,8,0:0:0:0:
256,192,81230,1,8,0:0:0:0:
256,192,81303,1,0,0:0:0:0:
256,192,81376,1,0,0:0:0:0:
256,192,81449,1,8,0:0:0:0:
256,192,81522,1,8,0:0:0:0:
256,192,81596,1,0,0:0:0:0:
256,192,81669,1,0,0:0:0:0:
256,192,81742,1,8,0:0:0:0:
256,192,81815,1,0,0:0:0:0:
256,192,81889,1,8,0:0:0:0:
256,192,81962,1,8,0:0:0:0:
256,192,82035,1,0,0:0:0:0:
256,192,82108,1,0,0:0:0:0:
256,192,82181,1,8,0:0:0:0:
256,192,82254,1,0,0:0:0:0:
256,192,82328,1,8,0:0:0:0:
256,192,82401,1,8,0:0:0:0:
256,192,82474,1,0,0:0:0:0:
256,192,82547,1,0,0:0:0:0:
256,192,82620,1,8,0:0:0:0:
256,192,82693,1,0,0:0:0:0:
256,192,82767,1,0,0:0:0:0:
256,192,82840,1,0,0:0:0:0:
256,192,82913,1,8,0:0:0:0:
256,192,82986,1,8,0:0:0:0:
256,192,83059,1,0,0:0:0:0:
256,192,83132,1,0,0:0:0:0:
256,192,83206,1,8,0:0:0:0:
256,192,83279,1,0,0:0:0:0:
256,192,83352,1,8,0:0:0:0:
256,192,83425,1,8,0:0:0:0:
256,192,83498,1,0,0:0:0:0:
256,192,83571,1,0,0:0:0:0:
256,192,83645,1,8,0:0:0:0:
256,192,83718,1,0,0:0:0:0:
256,192,83791,1,8,0:0:0:0:
256,192,83864,1,8,0:0:0:0:
256,192,83937,1,8,0:0:0:0:
256,192,84010,1,0,0:0:0:0:
256,192,84084,1,8,0:0:0:0:
256,192,84157,1,8,0:0:0:0:
256,192,84230,1,0,0:0:0:0:
256,192,84303,1,0,0:0:0:0:
256,192,84376,1,8,0:0:0:0:
256,192,84449,1,8,0:0:0:0:
256,192,84523,1,0,0:0:0:0:
256,192,84596,1,0,0:0:0:0:
256,192,84669,1,8,0:0:0:0:
256,192,84742,1,0,0:0:0:0:
256,192,84816,1,8,0:0:0:0:
256,192,84889,1,8,0:0:0:0:
256,192,84962,1,0,0:0:0:0:
256,192,85035,1,0,0:0:0:0:
256,192,85108,1,8,0:0:0:0:
256,192,85181,1,0,0:0:0:0:
256,192,85255,1,8,0:0:0:0:
256,192,85328,1,8,0:0:0:0:
256,192,85401,1,0,0:0:0:0:
256,192,85474,1,0,0:0:0:0:
256,192,85547,1,8,0:0:0:0:
256,192,85620,1,0,0:0:0:0:
256,192,85694,1,0,0:0:0:0:
256,192,85767,1,0,0:0:0:0:
256,192,85840,1,8,0:0:0:0:
256,192,85913,1,8,0:0:0:0:
256,192,85986,1,0,0:0:0:0:
256,192,86059,1,0,0:0:0:0:
256,192,86133,1,8,0:0:0:0:
256,192,86206,1,0,0:0:0:0:
256,192,86279,1,8,0:0:0:0:
256,192,86352,1,8,0:0:0:0:
256,192,86425,1,0,0:0:0:0:
256,192,86498,1,0,0:0:0:0:
256,192,86572,1,8,0:0:0:0:
256,192,86645,1,0,0:0:0:0:
256,192,86718,1,8,0:0:0:0:
256,192,86791,1,8,0:0:0:0:
256,192,86864,1,8,0:0:0:0:
256,192,86937,1,0,0:0:0:0:
256,192,87011,1,8,0:0:0:0:
256,192,87084,1,8,0:0:0:0:
256,192,87157,1,0,0:0:0:0:
256,192,87230,1,0,0:0:0:0:
256,192,87303,1,8,0:0:0:0:
256,192,87376,1,8,0:0:0:0:
256,192,87450,1,0,0:0:0:0:
256,192,87523,1,0,0:0:0:0:
256,192,87596,1,8,0:0:0:0:
256,192,87669,1,0,0:0:0:0:
256,192,87743,1,8,0:0:0:0:
256,192,87816,1,8,0:0:0:0:
256,192,87889,1,0,0:0:0:0:
256,192,87962,1,0,0:0:0:0:
256,192,88035,1,8,0:0:0:0:
256,192,88182,1,8,0:0:0:0:
256,192,88255,1,8,0:0:0:0:
256,192,88328,1,0,0:0:0:0:
256,192,88401,1,0,0:0:0:0:
256,192,88474,1,8,0:0:0:0:
256,192,88621,1,0,0:0:0:0:
256,192,88767,1,0,0:0:0:0:
256,192,88840,1,8,0:0:0:0:
256,192,88913,1,0,0:0:0:0:
256,192,89060,1,0,0:0:0:0:
256,192,89133,1,0,0:0:0:0:
256,192,89206,1,8,0:0:0:0:
256,192,89352,1,0,0:0:0:0:
256,192,89499,1,8,0:0:0:0:
256,192,89535,1,8,0:0:0:0:
256,192,89645,1,8,0:0:0:0:
256,192,89791,1,8,0:0:0:0:
256,192,89938,1,8,0:0:0:0:
256,192,90084,1,8,0:0:0:0:
256,192,90230,1,0,0:0:0:0:
256,192,90377,1,0,0:0:0:0:
256,192,90523,1,8,0:0:0:0:
256,192,90669,1,4,0:0:0:0:
256,192,91227,1,8,0:0:0:0:
256,192,91320,1,8,0:0:0:0:
256,192,91413,1,0,0:0:0:0:
256,192,91506,1,0,0:0:0:0:
256,192,91785,1,12,0:0:0:0:
256,192,91924,1,0,0:0:0:0:
256,192,92064,1,0,0:0:0:0:
256,192,92203,1,0,0:0:0:0:
256,192,92343,1,8,0:0:0:0:
256,192,92482,1,0,0:0:0:0:
256,192,92622,1,8,0:0:0:0:
256,192,92762,1,8,0:0:0:0:
256,192,92901,1,8,0:0:0:0:
256,192,93180,1,0,0:0:0:0:
256,192,93273,1,0,0:0:0:0:
256,192,93366,1,8,0:0:0:0:
256,192,93459,1,8,0:0:0:0:
256,192,93738,1,0,0:0:0:0:
256,192,93878,1,0,0:0:0:0:
256,192,94017,1,12,0:0:0:0:
256,192,94157,1,0,0:0:0:0:
256,192,94296,1,8,0:0:0:0:
256,192,94389,1,8,0:0:0:0:
256,192,94482,1,8,0:0:0:0:
256,192,94575,1,4,0:0:0:0:
256,192,95133,1,8,0:0:0:0:
256,192,95226,1,8,0:0:0:0:
256,192,95319,1,0,0:0:0:0:
256,192,95412,1,0,0:0:0:0:
256,192,95691,1,12,0:0:0:0:
256,192,95830,1,0,0:0:0:0:
256,192,95970,1,0,0:0:0:0:
256,192,96109,1,0,0:0:0:0:
256,192,96249,1,8,0:0:0:0:
256,192,96388,1,0,0:0:0:0:
256,192,96528,1,8,0:0:0:0:
256,192,96668,1,8,0:0:0:0:
256,192,96807,1,8,0:0:0:0:
256,192,97086,1,0,0:0:0:0:
256,192,97179,1,0,0:0:0:0:
256,192,97272,1,8,0:0:0:0:
256,192,97365,1,8,0:0:0:0:
256,192,97644,1,0,0:0:0:0:
256,192,97784,1,0,0:0:0:0:
256,192,97923,1,12,0:0:0:0:
256,192,98063,1,0,0:0:0:0:
256,192,98202,1,8,0:0:0:0:
256,192,98295,1,8,0:0:0:0:
256,192,98388,1,8,0:0:0:0:
256,192,98481,1,4,0:0:0:0:
256,192,99039,1,8,0:0:0:0:
256,192,99132,1,8,0:0:0:0:
256,192,99225,1,0,0:0:0:0:
256,192,99318,1,0,0:0:0:0:
256,192,99597,1,12,0:0:0:0:
256,192,99736,1,0,0:0:0:0:
256,192,99876,1,0,0:0:0:0:
256,192,100015,1,0,0:0:0:0:
256,192,100155,1,8,0:0:0:0:
256,192,100434,1,4,0:0:0:0:
256,192,100713,1,8,0:0:0:0:
256,192,100992,1,0,0:0:0:0:
256,192,101085,1,0,0:0:0:0:
256,192,101178,1,8,0:0:0:0:
256,192,101271,1,8,0:0:0:0:
256,192,101550,1,0,0:0:0:0:
256,192,101690,1,0,0:0:0:0:
256,192,101829,1,12,0:0:0:0:
256,192,101969,1,0,0:0:0:0:
256,192,102108,1,8,0:0:0:0:
256,192,102201,1,8,0:0:0:0:
256,192,102294,1,8,0:0:0:0:
256,192,102387,1,4,0:0:0:0:
256,192,102945,1,8,0:0:0:0:
256,192,103038,1,8,0:0:0:0:
256,192,103131,1,0,0:0:0:0:
256,192,103224,1,0,0:0:0:0:
256,192,103503,1,12,0:0:0:0:
256,192,103642,1,0,0:0:0:0:
256,192,103782,1,0,0:0:0:0:
256,192,103921,1,0,0:0:0:0:
256,192,104061,1,8,0:0:0:0:
256,192,104340,1,4,0:0:0:0:
256,192,104619,1,8,0:0:0:0:
256,192,104898,1,0,0:0:0:0:
256,192,104991,1,0,0:0:0:0:
256,192,105084,1,8,0:0:0:0:
256,192,105177,1,8,0:0:0:0:
256,192,105456,1,8,0:0:0:0:
256,192,105526,1,8,0:0:0:0:
256,192,105596,1,8,0:0:0:0:
256,192,105666,1,8,0:0:0:0:
256,192,105735,1,8,0:0:0:0:
256,192,105805,1,8,0:0:0:0:
256,192,105875,1,0,0:0:0:0:
256,192,105945,1,0,0:0:0:0:
256,192,106014,1,8,0:0:0:0:
256,192,106084,1,8,0:0:0:0:
256,192,106154,1,8,0:0:0:0:
256,192,106224,1,8,0:0:0:0:
256,192,106296,1,0,0:0:0:0:
256,192,106438,1,8,0:0:0:0:
256,192,106581,1,8,0:0:0:0:
256,192,106724,1,0,0:0:0:0:
256,192,107010,1,8,0:0:0:0:
256,192,107081,1,8,0:0:0:0:
256,192,107153,1,0,0:0:0:0:
256,192,107224,1,0,0:0:0:0:
256,192,107296,1,8,0:0:0:0:
256,192,107581,1,0,0:0:0:0:
256,192,107653,1,0,0:0:0:0:
256,192,107724,1,8,0:0:0:0:
256,192,107796,1,8,0:0:0:0:
256,192,107867,1,0,0:0:0:0:
256,192,108153,1,0,0:0:0:0:
256,192,108224,1,0,0:0:0:0:
256,192,108296,1,0,0:0:0:0:
256,192,108367,1,0,0:0:0:0:
256,192,108438,1,8,0:0:0:0:
256,192,108724,1,4,0:0:0:0:
256,192,108867,1,4,0:0:0:0:
256,192,109010,1,4,0:0:0:0:
256,192,109153,1,4,0:0:0:0:
256,192,109296,1,4,0:0:0:0:
256,192,109438,1,4,0:0:0:0:
256,192,109581,1,4,0:0:0:0:
256,192,109724,1,8,0:0:0:0:
256,192,109796,1,8,0:0:0:0:
256,192,109867,1,0,0:0:0:0:
256,192,109938,1,0,0:0:0:0:
256,192,110010,1,0,0:0:0:0:
256,192,110081,1,0,0:0:0:0:
256,192,110153,1,8,0:0:0:0:
256,192,110224,1,0,0:0:0:0:
256,192,110296,1,8,0:0:0:0:
256,192,110367,1,8,0:0:0:0:
256,192,110438,1,0,0:0:0:0:
256,192,110510,1,8,0:0:0:0:
256,192,110581,1,0,0:0:0:0:
256,192,110653,1,0,0:0:0:0:
256,192,110724,1,0,0:0:0:0:
256,192,110796,1,0,0:0:0:0:
256,192,110867,1,8,0:0:0:0:
256,192,110938,1,0,0:0:0:0:
256,192,111010,1,8,0:0:0:0:
256,192,111081,1,8,0:0:0:0:
256,192,111153,1,0,0:0:0:0:
256,192,111224,1,0,0:0:0:0:
256,192,111296,1,8,0:0:0:0:
256,192,111438,1,0,0:0:0:0:
256,192,111510,1,0,0:0:0:0:
256,192,111581,1,8,0:0:0:0:
256,192,111724,1,0,0:0:0:0:
256,192,111796,1,0,0:0:0:0:
256,192,111867,1,8,0:0:0:0:
256,192,111938,1,8,0:0:0:0:
256,192,112010,1,0,0:0:0:0:
256,192,112081,1,8,0:0:0:0:
256,192,112153,1,0,0:0:0:0:
256,192,112296,1,8,0:0:0:0:
256,192,112367,1,0,0:0:0:0:
256,192,112438,1,0,0:0:0:0:
256,192,112581,1,8,0:0:0:0:
256,192,112653,1,8,0:0:0:0:
256,192,112724,1,0,0:0:0:0:
256,192,112867,1,8,0:0:0:0:
256,192,112938,1,0,0:0:0:0:
256,192,113010,1,0,0:0:0:0:
256,192,113153,1,8,0:0:0:0:
256,192,113224,1,8,0:0:0:0:
256,192,113296,1,0,0:0:0:0:
256,192,113367,1,0,0:0:0:0:
256,192,113438,1,8,0:0:0:0:
256,192,113510,1,0,0:0:0:0:
256,192,113581,1,8,0:0:0:0:
256,192,113724,1,0,0:0:0:0:
256,192,113796,1,0,0:0:0:0:
256,192,113867,1,8,0:0:0:0:
256,192,114010,1,0,0:0:0:0:
256,192,114081,1,8,0:0:0:0:
256,192,114153,1,8,0:0:0:0:
256,192,114296,1,0,0:0:0:0:
256,192,114438,1,0,0:0:0:0:
256,192,114581,1,8,0:0:0:0:
256,192,114653,1,0,0:0:0:0:
256,192,114724,1,0,0:0:0:0:
256,192,114867,1,8,0:0:0:0:
256,192,114938,1,8,0:0:0:0:
256,192,115010,1,0,0:0:0:0:
256,192,115153,1,8,0:0:0:0:
256,192,115224,1,0,0:0:0:0:
256,192,115296,1,8,0:0:0:0:
256,192,115438,1,8,0:0:0:0:
256,192,115510,1,0,0:0:0:0:
256,192,115581,1,8,0:0:0:0:
256,192,115653,1,8,0:0:0:0:
256,192,115724,1,0,0:0:0:0:
256,192,115796,1,0,0:0:0:0:
256,192,115867,1,8,0:0:0:0:
256,192,116010,1,0,0:0:0:0:
256,192,116081,1,0,0:0:0:0:
256,192,116153,1,8,0:0:0:0:
256,192,116296,1,0,0:0:0:0:
256,192,116367,1,0,0:0:0:0:
256,192,116438,1,8,0:0:0:0:
256,192,116510,1,8,0:0:0:0:
256,192,116581,1,0,0:0:0:0:
256,192,116653,1,8,0:0:0:0:
256,192,116724,1,0,0:0:0:0:
256,192,116867,1,8,0:0:0:0:
256,192,116938,1,0,0:0:0:0:
256,192,117010,1,0,0:0:0:0:
256,192,117153,1,8,0:0:0:0:
256,192,117224,1,8,0:0:0:0:
256,192,117296,1,0,0:0:0:0:
256,192,117438,1,8,0:0:0:0:
256,192,117510,1,0,0:0:0:0:
256,192,117581,1,0,0:0:0:0:
256,192,117724,1,8,0:0:0:0:
256,192,117796,1,8,0:0:0:0:
256,192,117867,1,8,0:0:0:0:
256,192,117938,1,8,0:0:0:0:
256,192,118010,1,0,0:0:0:0:
256,192,118081,1,8,0:0:0:0:
256,192,118153,1,0,0:0:0:0:
256,192,118224,1,0,0:0:0:0:
256,192,118296,1,0,0:0:0:0:
256,192,118367,1,0,0:0:0:0:
256,192,118438,1,8,0:0:0:0:
256,192,118510,1,8,0:0:0:0:
256,192,118581,1,8,0:0:0:0:
256,192,118653,1,8,0:0:0:0:
256,192,118724,1,8,0:0:0:0:
256,192,118796,1,8,0:0:0:0:
256,192,118867,1,0,0:0:0:0:
256,192,118938,1,0,0:0:0:0:
256,192,119010,1,0,0:0:0:0:
256,192,119081,1,0,0:0:0:0:
256,192,119153,1,8,0:0:0:0:
256,192,119224,1,0,0:0:0:0:
256,192,119296,1,8,0:0:0:0:
256,192,119367,1,8,0:0:0:0:
256,192,119438,1,8,0:0:0:0:
256,192,119510,1,8,0:0:0:0:
256,192,119581,1,0,0:0:0:0:
256,192,119653,1,0,0:0:0:0:
256,192,119724,1,0,0:0:0:0:
256,192,119796,1,0,0:0:0:0:
256,192,119867,1,0,0:0:0:0:
256,192,119938,1,0,0:0:0:0:
256,192,120010,1,8,0:0:0:0:
256,192,120153,1,0,0:0:0:0:
256,192,120296,1,8,0:0:0:0:
256,192,120367,1,8,0:0:0:0:
256,192,120438,1,0,0:0:0:0:
256,192,120581,1,8,0:0:0:0:
256,192,120724,1,0,0:0:0:0:
256,192,120867,1,8,0:0:0:0:
256,192,120938,1,0,0:0:0:0:
256,192,121010,1,8,0:0:0:0:
256,192,121153,1,0,0:0:0:0:
256,192,121296,1,0,0:0:0:0:
256,192,121438,1,8,0:0:0:0:
256,192,121510,1,0,0:0:0:0:
256,192,121581,1,0,0:0:0:0:
256,192,121724,1,8,0:0:0:0:
256,192,121867,1,0,0:0:0:0:
256,192,122010,1,8,0:0:0:0:
256,192,122081,1,8,0:0:0:0:
256,192,122153,1,8,0:0:0:0:
256,192,122296,1,0,0:0:0:0:
256,192,122438,1,8,0:0:0:0:
256,192,122581,1,0,0:0:0:0:
256,192,122653,1,0,0:0:0:0:
256,192,122724,1,8,0:0:0:0:
256,192,122867,1,0,0:0:0:0:
256,192,123010,1,8,0:0:0:0:
256,192,123153,1,0,0:0:0:0:
256,192,123224,1,8,0:0:0:0:
256,192,123296,1,8,0:0:0:0:
256,192,123438,1,0,0:0:0:0:
256,192,123581,1,0,0:0:0:0:
256,192,123724,1,8,0:0:0:0:
256,192,123796,1,0,0:0:0:0:
256,192,123867,1,0,0:0:0:0:
256,192,124010,1,8,0:0:0:0:
256,192,124153,1,0,0:0:0:0:
256,192,124224,1,0,0:0:0:0:
256,192,124296,1,8,0:0:0:0:
256,192,124367,1,0,0:0:0:0:
256,192,124438,1,8,0:0:0:0:
256,192,124581,1,0,0:0:0:0:
256,192,124724,1,0,0:0:0:0:
256,192,124867,1,8,0:0:0:0:
256,192,124938,1,8,0:0:0:0:
256,192,125010,1,0,0:0:0:0:
256,192,125153,1,8,0:0:0:0:
256,192,125296,1,0,0:0:0:0:
256,192,125438,1,8,0:0:0:0:
256,192,125510,1,0,0:0:0:0:
256,192,125581,1,8,0:0:0:0:
256,192,125724,1,0,0:0:0:0:
256,192,125867,1,0,0:0:0:0:
256,192,126010,1,8,0:0:0:0:
256,192,126081,1,0,0:0:0:0:
256,192,126153,1,0,0:0:0:0:
256,192,126296,1,8,0:0:0:0:
256,192,126438,1,0,0:0:0:0:
256,192,126510,1,0,0:0:0:0:
256,192,126581,1,8,0:0:0:0:
256,192,126724,1,8,0:0:0:0:
256,192,126867,1,0,0:0:0:0:
256,192,126938,1,0,0:0:0:0:
256,192,127010,1,0,0:0:0:0:
256,192,127081,1,0,0:0:0:0:
256,192,127153,1,8,0:0:0:0:
256,192,127224,1,0,0:0:0:0:
256,192,127296,1,8,0:0:0:0:
256,192,127367,1,8,0:0:0:0:
256,192,127438,1,8,0:0:0:0:
256,192,127510,1,8,0:0:0:0:
256,192,127581,1,0,0:0:0:0:
256,192,127653,1,0,0:0:0:0:
256,192,127724,1,0,0:0:0:0:
256,192,127796,1,0,0:0:0:0:
256,192,127867,1,0,0:0:0:0:
256,192,127938,1,0,0:0:0:0:
256,192,128010,1,8,0:0:0:0:
256,192,128081,1,8,0:0:0:0:
256,192,128153,1,8,0:0:0:0:
256,192,128224,1,8,0:0:0:0:
256,192,128296,1,0,0:0:0:0:
256,192,128367,1,8,0:0:0:0:
256,192,128438,1,0,0:0:0:0:
256,192,128510,1,0,0:0:0:0:
256,192,128581,1,0,0:0:0:0:
256,192,128653,1,0,0:0:0:0:
256,192,128724,1,8,0:0:0:0:
256,192,128796,1,8,0:0:0:0:
256,192,128867,1,8,0:0:0:0:
256,192,128938,1,8,0:0:0:0:
256,192,129010,1,8,0:0:0:0:
256,192,129081,1,8,0:0:0:0:
256,192,129153,1,0,0:0:0:0:
256,192,129295,1,8,0:0:0:0:
256,192,129367,1,8,0:0:0:0:
256,192,129438,1,0,0:0:0:0:
256,192,129581,1,8,0:0:0:0:
256,192,129653,1,8,0:0:0:0:
256,192,129724,1,8,0:0:0:0:
256,192,129867,1,0,0:0:0:0:
256,192,130010,1,0,0:0:0:0:
256,192,130081,1,0,0:0:0:0:
256,192,130153,1,8,0:0:0:0:
256,192,130295,1,0,0:0:0:0:
256,192,130438,1,0,0:0:0:0:
256,192,130510,1,8,0:0:0:0:
256,192,130581,1,8,0:0:0:0:
256,192,130724,1,0,0:0:0:0:
256,192,130867,1,8,0:0:0:0:
256,192,130938,1,0,0:0:0:0:
256,192,131009,1,8,0:0:0:0:
256,192,131152,1,0,0:0:0:0:
256,192,131224,1,0,0:0:0:0:
256,192,131295,1,8,0:0:0:0:
256,192,131438,1,0,0:0:0:0:
256,192,131509,1,0,0:0:0:0:
256,192,131581,1,8,0:0:0:0:
256,192,131652,1,0,0:0:0:0:
256,192,131724,1,8,0:0:0:0:
256,192,131795,1,8,0:0:0:0:
256,192,131867,1,0,0:0:0:0:
256,192,131938,1,0,0:0:0:0:
256,192,132010,1,8,0:0:0:0:
256,192,132152,1,8,0:0:0:0:
256,192,132224,1,8,0:0:0:0:
256,192,132295,1,0,0:0:0:0:
256,192,132438,1,8,0:0:0:0:
256,192,132510,1,8,0:0:0:0:
256,192,132581,1,8,0:0:0:0:
256,192,132724,1,0,0:0:0:0:
256,192,132867,1,0,0:0:0:0:
256,192,132938,1,0,0:0:0:0:
256,192,133010,1,8,0:0:0:0:
256,192,133152,1,0,0:0:0:0:
256,192,133295,1,0,0:0:0:0:
256,192,133367,1,8,0:0:0:0:
256,192,133438,1,8,0:0:0:0:
256,192,133581,1,0,0:0:0:0:
256,192,133724,1,8,0:0:0:0:
256,192,133795,1,8,0:0:0:0:
256,192,133866,1,0,0:0:0:0:
256,192,133938,1,0,0:0:0:0:
256,192,134009,1,8,0:0:0:0:
256,192,134152,1,8,0:0:0:0:
256,192,134224,1,0,0:0:0:0:
256,192,134295,1,8,0:0:0:0:
256,192,134438,1,0,0:0:0:0:
256,192,134509,1,0,0:0:0:0:
256,192,134581,1,8,0:0:0:0:
256,192,134724,1,0,0:0:0:0:
256,192,134867,1,12,0:0:0:0:
256,192,135009,1,0,0:0:0:0:
256,192,135152,1,8,0:0:0:0:
256,192,135295,1,8,0:0:0:0:
256,192,135438,1,0,0:0:0:0:
256,192,135581,1,8,0:0:0:0:
256,192,135724,1,0,0:0:0:0:
256,192,135867,1,8,0:0:0:0:
256,192,136009,1,0,0:0:0:0:
256,192,136152,1,8,0:0:0:0:
256,192,136295,1,8,0:0:0:0:
256,192,136438,1,0,0:0:0:0:
256,192,136581,1,8,0:0:0:0:
256,192,136723,1,8,0:0:0:0:
256,192,136866,1,0,0:0:0:0:
256,192,137009,1,8,0:0:0:0:
256,192,137152,1,0,0:0:0:0:
256,192,137295,1,8,0:0:0:0:
256,192,137438,1,0,0:0:0:0:
256,192,137581,1,8,0:0:0:0:
256,192,137724,1,8,0:0:0:0:
256,192,137866,1,0,0:0:0:0:
256,192,138009,1,8,0:0:0:0:
256,192,138152,1,8,0:0:0:0:
256,192,138295,1,0,0:0:0:0:
256,192,138438,1,8,0:0:0:0:
256,192,138581,1,0,0:0:0:0:
256,192,138724,1,8,0:0:0:0:
256,192,138866,1,0,0:0:0:0:
256,192,139009,1,8,0:0:0:0:
256,192,139152,1,8,0:0:0:0:
256,192,139295,1,0,0:0:0:0:
256,192,139438,1,12,0:0:0:0:
256,192,139580,1,12,0:0:0:0:
256,192,139723,1,0,0:0:0:0:
256,192,139866,1,12,0:0:0:0:
256,192,140009,1,0,0:0:0:0:
256,192,140152,1,12,0:0:0:0:
256,192,140295,1,0,0:0:0:0:
256,192,140438,1,0,0:0:0:0:
256,192,140580,1,8,0:0:0:0:
256,192,140652,1,8,0:0:0:0:
256,192,140723,1,8,0:0:0:0:
256,192,140795,1,8,0:0:0:0:
256,192,140866,1,0,0:0:0:0:
256,192,140938,1,0,0:0:0:0:
256,192,141009,1,0,0:0:0:0:
256,192,141080,1,0,0:0:0:0:
256,192,141152,1,8,0:0:0:0:
256,192,141223,1,8,0:0:0:0:
256,192,141295,1,8,0:0:0:0:
256,192,141366,1,8,0:0:0:0:
256,192,141438,1,0,0:0:0:0:
256,192,141509,1,0,0:0:0:0:
256,192,141580,1,0,0:0:0:0:
256,192,141652,1,0,0:0:0:0:
256,192,141723,1,8,0:0:0:0:
256,192,141795,1,0,0:0:0:0:
256,192,141866,1,8,0:0:0:0:
256,192,141938,1,8,0:0:0:0:
256,192,142009,1,0,0:0:0:0:
256,192,142080,1,0,0:0:0:0:
256,192,142152,1,0,0:0:0:0:
256,192,142223,1,0,0:0:0:0:
256,192,142295,1,8,0:0:0:0:
256,192,142366,1,0,0:0:0:0:
256,192,142438,1,8,0:0:0:0:
256,192,142509,1,8,0:0:0:0:
256,192,142580,1,0,0:0:0:0:
256,192,142652,1,0,0:0:0:0:
256,192,142723,1,0,0:0:0:0:
256,192,142795,1,0,0:0:0:0:
256,192,142866,1,8,0:0:0:0:
256,192,142938,1,8,0:0:0:0:
256,192,143009,1,8,0:0:0:0:
256,192,143080,1,8,0:0:0:0:
256,192,143152,1,0,0:0:0:0:
256,192,143223,1,0,0:0:0:0:
256,192,143295,1,0,0:0:0:0:
256,192,143366,1,0,0:0:0:0:
256,192,143438,1,8,0:0:0:0:
256,192,143509,1,8,0:0:0:0:
256,192,143580,1,8,0:0:0:0:
256,192,143652,1,8,0:0:0:0:
256,192,143723,1,0,0:0:0:0:
256,192,143795,1,0,0:0:0:0:
256,192,143866,1,0,0:0:0:0:
256,192,143938,1,0,0:0:0:0:
256,192,144009,1,8,0:0:0:0:
256,192,144080,1,8,0:0:0:0:
256,192,144152,1,0,0:0:0:0:
256,192,144223,1,8,0:0:0:0:
256,192,144295,1,8,0:0:0:0:
256,192,144366,1,8,0:0:0:0:
256,192,144438,1,0,0:0:0:0:
256,192,144509,1,0,0:0:0:0:
256,192,144580,1,8,0:0:0:0:
256,192,144652,1,8,0:0:0:0:
256,192,144723,1,0,0:0:0:0:
256,192,144795,1,8,0:0:0:0:
256,192,144866,1,8,0:0:0:0:
256,192,144938,1,8,0:0:0:0:
256,192,145009,1,0,0:0:0:0:
256,192,145080,1,0,0:0:0:0:
256,192,145152,1,8,0:0:0:0:
256,192,145223,1,8,0:0:0:0:
256,192,145295,1,0,0:0:0:0:
256,192,145366,1,0,0:0:0:0:
256,192,145438,1,8,0:0:0:0:
256,192,145509,1,0,0:0:0:0:
256,192,145580,1,0,0:0:0:0:
256,192,145652,1,0,0:0:0:0:
256,192,145723,1,8,0:0:0:0:
256,192,145795,1,8,0:0:0:0:
256,192,145866,1,0,0:0:0:0:
256,192,145938,1,0,0:0:0:0:
256,192,146009,1,8,0:0:0:0:
256,192,146080,1,0,0:0:0:0:
256,192,146152,1,0,0:0:0:0:
256,192,146223,1,0,0:0:0:0:
256,192,146295,1,8,0:0:0:0:
256,192,146366,1,8,0:0:0:0:
256,192,146438,1,0,0:0:0:0:
256,192,146509,1,8,0:0:0:0:
256,192,146580,1,0,0:0:0:0:
256,192,146652,1,0,0:0:0:0:
256,192,146723,1,0,0:0:0:0:
256,192,146795,1,0,0:0:0:0:
256,192,146866,1,8,0:0:0:0:
256,192,146938,1,8,0:0:0:0:
256,192,147009,1,0,0:0:0:0:
256,192,147080,1,8,0:0:0:0:
256,192,147152,1,0,0:0:0:0:
256,192,147223,1,0,0:0:0:0:
256,192,147295,1,0,0:0:0:0:
256,192,147366,1,0,0:0:0:0:
256,192,147438,1,8,0:0:0:0:
256,192,147509,1,8,0:0:0:0:
256,192,147580,1,8,0:0:0:0:
256,192,147652,1,0,0:0:0:0:
256,192,147723,1,8,0:0:0:0:
256,192,147795,1,8,0:0:0:0:
256,192,147866,1,0,0:0:0:0:
256,192,147938,1,0,0:0:0:0:
256,192,148009,1,8,0:0:0:0:
256,192,148080,1,8,0:0:0:0:
256,192,148152,1,8,0:0:0:0:
256,192,148223,1,0,0:0:0:0:
256,192,148295,1,8,0:0:0:0:
256,192,148366,1,8,0:0:0:0:
256,192,148438,1,0,0:0:0:0:
256,192,148509,1,0,0:0:0:0:
256,192,148580,1,8,0:0:0:0:
256,192,148652,1,8,0:0:0:0:
256,192,148723,1,8,0:0:0:0:
256,192,148795,1,8,0:0:0:0:
256,192,148866,1,8,0:0:0:0:
256,192,148938,1,8,0:0:0:0:
256,192,149009,1,0,0:0:0:0:
256,192,149080,1,0,0:0:0:0:
256,192,149152,1,8,0:0:0:0:
256,192,149247,1,8,0:0:0:0:
256,192,149342,1,8,0:0:0:0:
256,192,149438,1,0,0:0:0:0:
256,192,149533,1,0,0:0:0:0:
256,192,149628,1,0,0:0:0:0:
256,192,149723,1,12,0:0:0:0:
256,192,149866,1,0,0:0:0:0:
256,192,150009,1,0,0:0:0:0:
256,192,150295,1,8,0:0:0:0:
256,192,150580,1,0,0:0:0:0:
256,192,150723,1,0,0:0:0:0:
256,192,150866,1,12,0:0:0:0:
256,192,151009,1,0,0:0:0:0:
256,192,151152,1,0,0:0:0:0:
256,192,151438,1,8,0:0:0:0:
256,192,151580,1,0,0:0:0:0:
256,192,151723,1,0,0:0:0:0:
256,192,151866,1,8,0:0:0:0:
256,192,152009,1,12,0:0:0:0:
256,192,152152,1,0,0:0:0:0:
256,192,152295,1,0,0:0:0:0:
256,192,152580,1,8,0:0:0:0:
256,192,152866,1,0,0:0:0:0:
256,192,153009,1,0,0:0:0:0:
256,192,153152,1,12,0:0:0:0:
256,192,153295,1,8,0:0:0:0:
256,192,153438,1,0,0:0:0:0:
256,192,153580,1,0,0:0:0:0:
256,192,153723,1,8,0:0:0:0:
256,192,153866,1,8,0:0:0:0:
256,192,154009,1,0,0:0:0:0:
256,192,154152,1,8,0:0:0:0:
256,192,154295,1,12,0:0:0:0:
256,192,154438,1,0,0:0:0:0:
256,192,154580,1,0,0:0:0:0:
256,192,154866,1,8,0:0:0:0:
256,192,155152,1,0,0:0:0:0:
256,192,155295,1,0,0:0:0:0:
256,192,155438,1,12,0:0:0:0:
256,192,155580,1,8,0:0:0:0:
256,192,155723,1,0,0:0:0:0:
256,192,156009,1,8,0:0:0:0:
256,192,156152,1,0,0:0:0:0:
256,192,156295,1,0,0:0:0:0:
256,192,156438,1,8,0:0:0:0:
256,192,156580,1,12,0:0:0:0:
256,192,156723,1,0,0:0:0:0:
256,192,156866,1,8,0:0:0:0:
256,192,157152,1,0,0:0:0:0:
256,192,157438,1,0,0:0:0:0:
256,192,157580,1,0,0:0:0:0:
256,192,157723,1,8,0:0:0:0:
256,192,157818,1,0,0:0:0:0:
256,192,157914,1,8,0:0:0:0:
256,192,158009,1,8,0:0:0:0:
256,192,158104,1,0,0:0:0:0:
256,192,158199,1,0,0:0:0:0:
256,192,158295,1,8,0:0:0:0:
256,192,158390,1,8,0:0:0:0:
256,192,158485,1,8,0:0:0:0:
256,192,158580,1,0,0:0:0:0:
256,192,158676,1,0,0:0:0:0:
256,192,158771,1,0,0:0:0:0:
256,192,158866,1,8,0:0:0:0:
256,192,158961,1,0,0:0:0:0:
256,192,159057,1,0,0:0:0:0:
256,192,159152,1,8,0:0:0:0:
256,192,159438,1,0,0:0:0:0:
256,192,159723,1,8,0:0:0:0:
256,192,159818,1,8,0:0:0:0:
256,192,159914,1,0,0:0:0:0:
256,192,160009,1,8,0:0:0:0:
256,192,160104,1,8,0:0:0:0:
256,192,160199,1,0,0:0:0:0:
256,192,160295,1,8,0:0:0:0:
256,192,160580,1,0,0:0:0:0:
256,192,160676,1,8,0:0:0:0:
256,192,160771,1,8,0:0:0:0:
256,192,160866,1,0,0:0:0:0:
256,192,161152,1,8,0:0:0:0:
256,192,161247,1,0,0:0:0:0:
256,192,161342,1,0,0:0:0:0:
256,192,161438,1,8,0:0:0:0:
256,192,161723,1,0,0:0:0:0:
256,192,162009,1,8,0:0:0:0:
256,192,162080,1,8,0:0:0:0:
256,192,162152,1,0,0:0:0:0:
256,192,162223,1,0,0:0:0:0:
256,192,162295,1,8,0:0:0:0:
256,192,162438,1,8,0:0:0:0:
256,192,162580,1,0,0:0:0:0:
256,192,162723,1,0,0:0:0:0:
256,192,162866,1,8,0:0:0:0:
256,192,163009,1,8,0:0:0:0:
256,192,163152,1,0,0:0:0:0:
256,192,163295,1,0,0:0:0:0:
256,192,163438,1,8,0:0:0:0:
256,192,163533,1,0,0:0:0:0:
256,192,163628,1,0,0:0:0:0:
256,192,163723,1,8,0:0:0:0:
256,192,164009,1,0,0:0:0:0:
256,192,164295,1,8,0:0:0:0:
256,192,164390,1,8,0:0:0:0:
256,192,164485,1,0,0:0:0:0:
256,192,164580,1,8,0:0:0:0:
256,192,164676,1,8,0:0:0:0:
256,192,164771,1,0,0:0:0:0:
256,192,164866,1,8,0:0:0:0:
256,192,165152,1,0,0:0:0:0:
256,192,165247,1,8,0:0:0:0:
256,192,165342,1,8,0:0:0:0:
256,192,165438,1,0,0:0:0:0:
256,192,165723,1,8,0:0:0:0:
256,192,165818,1,0,0:0:0:0:
256,192,165914,1,0,0:0:0:0:
256,192,166009,1,8,0:0:0:0:
256,192,166295,1,0,0:0:0:0:
256,192,166580,1,8,0:0:0:0:
256,192,166723,1,8,0:0:0:0:
256,192,166866,1,0,0:0:0:0:
256,192,166938,1,0,0:0:0:0:
256,192,167009,1,8,0:0:0:0:
256,192,167080,1,8,0:0:0:0:
256,192,167152,1,0,0:0:0:0:
256,192,167223,1,0,0:0:0:0:
256,192,167295,1,0,0:0:0:0:
256,192,167366,1,0,0:0:0:0:
256,192,167438,1,8,0:0:0:0:
256,192,167580,1,8,0:0:0:0:
256,192,167723,1,8,0:0:0:0:
256,192,167866,1,8,0:0:0:0:
256,192,168010,1,8,0:0:0:0:
256,192,168140,1,0,0:0:0:0:
256,192,168270,1,0,0:0:0:0:
256,192,168401,1,8,0:0:0:0:
256,192,168531,1,0,0:0:0:0:
256,192,168662,1,0,0:0:0:0:
256,192,168792,1,8,0:0:0:0:
256,192,168923,1,8,0:0:0:0:
256,192,169053,1,8,0:0:0:0:
256,192,169183,1,0,0:0:0:0:
256,192,169314,1,8,0:0:0:0:
256,192,169444,1,0,0:0:0:0:
256,192,169575,1,0,0:0:0:0:
256,192,169705,1,8,0:0:0:0:
256,192,169836,1,0,0:0:0:0:
256,192,169966,1,0,0:0:0:0:
256,192,170096,1,8,0:0:0:0:
256,192,170227,1,0,0:0:0:0:
256,192,170357,1,0,0:0:0:0:
256,192,170488,1,8,0:0:0:0:
256,192,170618,1,0,0:0:0:0:
256,192,170749,1,8,0:0:0:0:
256,192,170879,1,8,0:0:0:0:
256,192,171010,1,0,0:0:0:0:
256,192,171140,1,8,0:0:0:0:
256,192,171270,1,0,0:0:0:0:
256,192,171401,1,8,0:0:0:0:
256,192,171531,1,0,0:0:0:0:
256,192,171662,1,0,0:0:0:0:
256,192,171792,1,8,0:0:0:0:
256,192,171923,1,0,0:0:0:0:
256,192,172053,1,0,0:0:0:0:
256,192,172183,1,8,0:0:0:0:
256,192,172314,1,0,0:0:0:0:
256,192,172444,1,0,0:0:0:0:
256,192,172575,1,8,0:0:0:0:
256,192,172705,1,0,0:0:0:0:
256,192,172836,1,0,0:0:0:0:
256,192,172966,1,8,0:0:0:0:
256,192,173096,1,8,0:0:0:0:
256,192,173227,1,8,0:0:0:0:
256,192,173357,1,0,0:0:0:0:
256,192,173488,1,8,0:0:0:0:
256,192,173618,1,0,0:0:0:0:
256,192,173749,1,0,0:0:0:0:
256,192,173879,1,8,0:0:0:0:
256,192,174010,1,0,0:0:0:0:
256,192,174140,1,0,0:0:0:0:
256,192,174270,1,8,0:0:0:0:
256,192,174401,1,0,0:0:0:0:
256,192,174531,1,0,0:0:0:0:
256,192,174662,1,8,0:0:0:0:
256,192,174792,1,0,0:0:0:0:
256,192,174923,1,8,0:0:0:0:
256,192,175053,1,8,0:0:0:0:
256,192,175183,1,0,0:0:0:0:
256,192,175314,1,8,0:0:0:0:
256,192,175444,1,0,0:0:0:0:
256,192,175575,1,8,0:0:0:0:
256,192,175705,1,0,0:0:0:0:
256,192,175836,1,0,0:0:0:0:
256,192,175966,1,8,0:0:0:0:
256,192,176096,1,0,0:0:0:0:
256,192,176227,1,0,0:0:0:0:
256,192,176357,1,8,0:0:0:0:
256,192,176488,1,0,0:0:0:0:
256,192,176618,1,0,0:0:0:0:
256,192,176749,1,8,0:0:0:0:
256,192,176879,1,0,0:0:0:0:
256,192,177010,1,0,0:0:0:0:
256,192,177140,1,8,0:0:0:0:
256,192,177270,1,8,0:0:0:0:
256,192,177401,1,8,0:0:0:0:
256,192,177531,1,0,0:0:0:0:
256,192,177662,1,8,0:0:0:0:
256,192,177792,1,0,0:0:0:0:
256,192,177923,1,0,0:0:0:0:
256,192,178053,1,8,0:0:0:0:
256,192,178183,1,0,0:0:0:0:
256,192,178314,1,0,0:0:0:0:
256,192,178444,1,8,0:0:0:0:
256,192,178510,1,0,0:0:0:0:
256,192,178575,1,0,0:0:0:0:
256,192,178705,1,0,0:0:0:0:
256,192,178836,1,0,0:0:0:0:
256,192,178966,1,8,0:0:0:0:
256,192,179031,1,0,0:0:0:0:
256,192,179096,1,0,0:0:0:0:
256,192,179227,1,0,0:0:0:0:
256,192,179357,1,8,0:0:0:0:
256,192,179423,1,0,0:0:0:0:
256,192,179488,1,0,0:0:0:0:
256,192,179618,1,0,0:0:0:0:
256,192,179749,1,0,0:0:0:0:
256,192,179879,1,0,0:0:0:0:
256,192,180010,1,8,0:0:0:0:
256,192,180140,1,0,0:0:0:0:
256,192,180270,1,0,0:0:0:0:
256,192,180401,1,8,0:0:0:0:
256,192,180531,1,4,0:0:0:0:
256,192,180923,1,0,0:0:0:0:
256,192,181053,1,8,0:0:0:0:
256,192,181314,1,0,0:0:0:0:
256,192,181575,1,8,0:0:0:0:
256,192,181705,1,0,0:0:0:0:
256,192,181836,1,0,0:0:0:0:
256,192,182096,1,8,0:0:0:0:
256,192,182227,1,0,0:0:0:0:
256,192,182357,1,0,0:0:0:0:
256,192,182488,1,0,0:0:0:0:
256,192,182618,1,8,0:0:0:0:
256,192,183010,1,0,0:0:0:0:
256,192,183140,1,8,0:0:0:0:
256,192,183401,1,0,0:0:0:0:
256,192,183662,1,8,0:0:0:0:
256,192,183792,1,0,0:0:0:0:
256,192,183923,1,0,0:0:0:0:
256,192,184183,1,8,0:0:0:0:
256,192,184314,1,0,0:0:0:0:
256,192,184705,1,12,0:0:0:0:
256,192,185096,1,0,0:0:0:0:
256,192,185227,1,8,0:0:0:0:
256,192,185488,1,0,0:0:0:0:
256,192,185749,1,8,0:0:0:0:
256,192,185879,1,0,0:0:0:0:
256,192,186010,1,0,0:0:0:0:
256,192,186270,1,8,0:0:0:0:
256,192,186401,1,0,0:0:0:0:
256,192,186531,1,0,0:0:0:0:
256,192,186662,1,0,0:0:0:0:
256,192,186792,1,8,0:0:0:0:
256,192,187183,1,0,0:0:0:0:
256,192,187314,1,8,0:0:0:0:
256,192,187575,1,0,0:0:0:0:
256,192,187836,1,8,0:0:0:0:
256,192,187966,1,8,0:0:0:0:
256,192,188096,1,0,0:0:0:0:
256,192,188227,1,0,0:0:0:0:
256,192,188357,1,8,0:0:0:0:
256,192,188444,1,8,0:0:0:0:
256,192,188531,1,8,0:0:0:0:
256,192,188618,1,0,0:0:0:0:
256,192,188705,1,0,0:0:0:0:
256,192,188792,1,0,0:0:0:0:
256,192,188879,1,12,0:0:0:0:
256,192,189270,1,0,0:0:0:0:
256,192,189401,1,8,0:0:0:0:
256,192,189662,1,0,0:0:0:0:
256,192,189923,1,8,0:0:0:0:
256,192,190053,1,0,0:0:0:0:
256,192,190183,1,0,0:0:0:0:
256,192,190444,1,8,0:0:0:0:
256,192,190575,1,0,0:0:0:0:
256,192,190705,1,0,0:0:0:0:
256,192,190836,1,0,0:0:0:0:
256,192,190966,1,8,0:0:0:0:
256,192,191096,1,0,0:0:0:0:
256,192,191227,1,0,0:0:0:0:
256,192,191357,1,8,0:0:0:0:
256,192,191488,1,0,0:0:0:0:
256,192,191618,1,0,0:0:0:0:
256,192,191749,1,8,0:0:0:0:
256,192,191879,1,0,0:0:0:0:
256,192,192010,1,8,0:0:0:0:
256,192,192140,1,8,0:0:0:0:
256,192,192270,1,8,0:0:0:0:
256,192,192401,1,0,0:0:0:0:
256,192,192531,1,0,0:0:0:0:
256,192,192662,1,8,0:0:0:0:
256,192,192792,1,0,0:0:0:0:
256,192,192923,1,0,0:0:0:0:
256,192,193053,1,12,0:0:0:0:
256,192,193444,1,0,0:0:0:0:
256,192,193575,1,8,0:0:0:0:
256,192,193836,1,0,0:0:0:0:
256,192,194096,1,8,0:0:0:0:
256,192,194227,1,0,0:0:0:0:
256,192,194357,1,0,0:0:0:0:
256,192,194618,1,8,0:0:0:0:
256,192,194749,1,0,0:0:0:0:
256,192,194879,1,0,0:0:0:0:
256,192,195010,1,0,0:0:0:0:
256,192,195140,1,8,0:0:0:0:
256,192,195531,1,0,0:0:0:0:
256,192,195662,1,8,0:0:0:0:
256,192,195923,1,0,0:0:0:0:
256,192,196183,1,8,0:0:0:0:
256,192,196314,1,8,0:0:0:0:
256,192,196444,1,0,0:0:0:0:
256,192,196575,1,0,0:0:0:0:
256,192,196705,1,8,0:0:0:0:
256,192,196836,1,0,0:0:0:0:
256,192,196966,1,0,0:0:0:0:
256,192,197096,1,0,0:0:0:0:
256,192,197227,1,8,0:0:0:0:
256,192,197357,1,0,0:0:0:0:
256,192,197488,1,8,0:0:0:0:
256,192,197618,1,0,0:0:0:0:
256,192,197749,1,8,0:0:0:0:
256,192,197879,1,0,0:0:0:0:
256,192,198010,1,8,0:0:0:0:
256,192,198140,1,0,0:0:0:0:
256,192,198270,1,8,0:0:0:0:
256,192,198401,1,0,0:0:0:0:
256,192,198531,1,8,0:0:0:0:
256,192,198662,1,8,0:0:0:0:
256,192,198792,1,0,0:0:0:0:
256,192,198923,1,8,0:0:0:0:
256,192,199053,1,8,0:0:0:0:
256,192,199183,1,0,0:0:0:0:
256,192,199314,1,8,0:0:0:0:
256,192,199444,1,0,0:0:0:0:
256,192,199575,1,8,0:0:0:0:
256,192,199705,1,0,0:0:0:0:
256,192,199836,1,8,0:0:0:0:
256,192,199966,1,0,0:0:0:0:
256,192,200096,1,8,0:0:0:0:
256,192,200227,1,0,0:0:0:0:
256,192,200357,1,8,0:0:0:0:
256,192,200488,1,0,0:0:0:0:
256,192,200618,1,8,0:0:0:0:
256,192,200749,1,8,0:0:0:0:
256,192,200879,1,0,0:0:0:0:
256,192,201010,1,8,0:0:0:0:
256,192,201140,1,8,0:0:0:0:
256,192,201270,1,0,0:0:0:0:
256,192,201401,1,8,0:0:0:0:
256,192,201531,1,0,0:0:0:0:
256,192,201662,1,8,0:0:0:0:
256,192,201792,1,0,0:0:0:0:
256,192,201923,1,8,0:0:0:0:
256,192,202053,1,0,0:0:0:0:
256,192,202183,1,8,0:0:0:0:
256,192,202314,1,0,0:0:0:0:
256,192,202444,1,8,0:0:0:0:
256,192,202575,1,0,0:0:0:0:
256,192,202705,1,8,0:0:0:0:
256,192,202836,1,8,0:0:0:0:
256,192,202966,1,0,0:0:0:0:
256,192,203096,1,8,0:0:0:0:
256,192,203227,1,8,0:0:0:0:
256,192,203357,1,0,0:0:0:0:
256,192,203488,1,8,0:0:0:0:
256,192,203618,1,0,0:0:0:0:
256,192,203749,1,8,0:0:0:0:
256,192,203879,1,0,0:0:0:0:
256,192,204010,1,8,0:0:0:0:
256,192,204140,1,0,0:0:0:0:
256,192,204270,1,8,0:0:0:0:
256,192,204401,1,8,0:0:0:0:
256,192,204531,1,8,0:0:0:0:
256,192,204662,1,0,0:0:0:0:
256,192,204792,1,0,0:0:0:0:
256,192,204923,1,0,0:0:0:0:
256,192,205053,1,8,0:0:0:0:
256,192,205183,1,0,0:0:0:0:
256,192,205314,1,0,0:0:0:0:
256,192,205444,1,8,0:0:0:0:
256,192,205575,1,0,0:0:0:0:
256,192,205705,1,8,0:0:0:0:
256,192,205836,1,8,0:0:0:0:
256,192,205966,1,0,0:0:0:0:
256,192,206096,1,8,0:0:0:0:
256,192,206227,1,8,0:0:0:0:
256,192,206357,1,0,0:0:0:0:
256,192,206488,1,0,0:0:0:0:
256,192,206618,1,0,0:0:0:0:
256,192,206749,1,8,0:0:0:0:
256,192,206879,1,8,0:0:0:0:
256,192,207010,1,0,0:0:0:0:
256,192,207140,1,8,0:0:0:0:
256,192,207270,1,8,0:0:0:0:
256,192,207401,1,0,0:0:0:0:
256,192,207531,1,0,0:0:0:0:
256,192,207662,1,0,0:0:0:0:
256,192,207792,1,8,0:0:0:0:
256,192,207923,1,8,0:0:0:0:
256,192,208053,1,0,0:0:0:0:
256,192,208183,1,8,0:0:0:0:
256,192,208314,1,8,0:0:0:0:
256,192,208444,1,0,0:0:0:0:
256,192,208575,1,0,0:0:0:0:
256,192,208705,1,0,0:0:0:0:
256,192,208836,1,8,0:0:0:0:
256,192,208966,1,8,0:0:0:0:
256,192,209096,1,0,0:0:0:0:
256,192,209227,1,8,0:0:0:0:
256,192,209357,1,8,0:0:0:0:
256,192,209488,1,0,0:0:0:0:
256,192,209618,1,0,0:0:0:0:
256,192,209749,1,0,0:0:0:0:
256,192,209879,1,8,0:0:0:0:
256,192,210010,1,8,0:0:0:0:
256,192,210140,1,0,0:0:0:0:
256,192,210270,1,8,0:0:0:0:
256,192,210401,1,8,0:0:0:0:
256,192,210531,1,0,0:0:0:0:
256,192,210662,1,0,0:0:0:0:
256,192,210792,1,0,0:0:0:0:
256,192,210923,1,8,0:0:0:0:
256,192,211053,1,8,0:0:0:0:
256,192,211183,1,0,0:0:0:0:
256,192,211314,1,8,0:0:0:0:
256,192,211444,1,8,0:0:0:0:
256,192,211575,1,0,0:0:0:0:
256,192,211705,1,0,0:0:0:0:
256,192,211836,1,0,0:0:0:0:
256,192,211966,1,8,0:0:0:0:
256,192,212096,1,8,0:0:0:0:
256,192,212227,1,0,0:0:0:0:
256,192,212357,1,8,0:0:0:0:
256,192,212488,1,8,0:0:0:0:
256,192,212618,1,0,0:0:0:0:
256,192,212749,1,0,0:0:0:0:
256,192,212879,1,8,0:0:0:0:
256,192,212966,1,0,0:0:0:0:
256,192,213053,1,8,0:0:0:0:
256,192,213140,1,8,0:0:0:0:
256,192,213227,1,0,0:0:0:0:
256,192,213314,1,0,0:0:0:0:
256,192,213401,1,8,0:0:0:0:
256,192,213488,1,0,0:0:0:0:
256,192,213575,1,8,0:0:0:0:
256,192,213662,1,8,0:0:0:0:
256,192,213749,1,0,0:0:0:0:
256,192,213836,1,0,0:0:0:0:
256,192,213923,1,12,0:0:0:0:
256,192,214053,12,0,232705,0:0:0:0:
