osu file format v14

[General]
AudioFilename: audio.mp3
AudioLeadIn: 0
PreviewTime: -1
Countdown: 1
SampleSet: Soft
StackLeniency: 0.7
Mode: 0
LetterboxInBreaks: 0
WidescreenStoryboard: 1

[Editor]
DistanceSpacing: 2.5
BeatDivisor: 4
GridSize: 4
TimelineZoom: 2.979998

[Metadata]
Title:Daughter of the Flame
TitleUnicode:Daughter of the Flame
Artist:Audiopizza
ArtistUnicode:Audiopizza
Creator:HowRengar
Version:Nightmare
Source:
Tags:Rock
BeatmapID:1562677
BeatmapSetID:719433

[Difficulty]
HPDrainRate:7
CircleSize:4.4
OverallDifficulty:9
ApproachRate:9.6
SliderMultiplier:1.54999990463257
SliderTickRate:1

[Events]
//Background and Video events
0,0,"BlairOSU.jpg",0,0
//Break Periods
//Storyboard Layer 0 (Background)
//Storyboard Layer 1 (Fail)
//Storyboard Layer 2 (Pass)
//Storyboard Layer 3 (Foreground)
//Storyboard Sound Samples

[TimingPoints]
5292,322.58064516129,4,2,0,100,1,0
5292,-200,4,2,0,25,0,0
15614,-133.333333333333,4,2,0,50,0,0
25614,-200,4,2,0,50,0,0
25856,-200,4,2,0,5,0,0
25937,-100,4,2,0,50,0,0
28195,-200,4,2,0,50,0,0
28437,-200,4,2,0,5,0,0
28517,-100,4,2,0,50,0,0
30775,-200,4,2,0,50,0,0
31017,-200,4,2,0,5,0,0
31098,-100,4,2,0,50,0,0
33356,-200,4,2,0,50,0,0
33598,-200,4,2,0,5,0,0
33679,-100,4,2,0,50,0,0
35937,-200,4,2,0,50,0,0
36179,-200,4,2,0,5,0,0
36259,-100,4,2,0,50,0,0
38517,-200,4,2,0,50,0,0
38759,-200,4,2,0,5,0,0
38840,-100,4,2,0,50,0,0
41098,-200,4,2,0,50,0,0
41340,-200,4,2,0,5,0,0
41421,-100,4,2,0,50,0,0
43679,-200,4,2,0,50,0,0
43921,-200,4,2,0,5,0,0
44001,-100,4,2,0,50,0,0
46259,-200,4,2,0,50,0,0
46501,-200,4,2,0,5,0,0
46582,-100,4,2,0,50,0,0
48195,-500,4,2,0,50,0,0
48517,-100,4,2,0,50,0,0
48840,-50,4,2,0,50,0,0
49162,-83.3333333333333,4,2,0,50,0,0
51421,-200,4,2,0,50,0,0
51662,-200,4,2,0,5,0,0
51743,-83.3333333333333,4,2,0,50,0,0
54001,-200,4,2,0,50,0,0
54243,-200,4,2,0,5,0,0
54324,-83.3333333333333,4,2,0,50,0,0
56582,-200,4,2,0,50,0,0
56824,-200,4,2,0,5,0,0
56904,-83.3333333333333,4,2,0,50,0,0
59162,-200,4,2,0,50,0,0
59404,-200,4,2,0,5,0,0
59485,-83.3333333333333,4,2,0,50,0,0
61743,-200,4,2,0,50,0,0
61985,-200,4,2,0,5,0,0
62066,-83.3333333333333,4,2,0,50,0,0
64324,-200,4,2,0,50,0,0
64566,-200,4,2,0,5,0,0
64646,-83.3333333333333,4,2,0,50,0,0
66904,-200,4,2,0,50,0,0
67146,-200,4,2,0,5,0,0
67227,-83.3333333333333,4,2,0,50,0,0
68679,-200,4,2,0,50,0,0
69001,-100,4,2,0,60,0,0
69324,-66.6666666666667,4,2,0,70,0,0
69485,-50,4,2,0,80,0,0
69646,-40,4,2,0,90,0,0
69808,-76.9230769230769,4,2,0,50,0,1
90453,-80,4,2,0,50,0,0
93033,-200,4,2,0,50,0,0
98195,-133.333333333333,4,2,0,50,0,0
102550,-200,4,2,0,50,0,0
102711,-200,4,2,0,50,0,0
102872,-133.333333333333,4,2,0,60,0,0
103033,-100,4,2,0,70,0,0
103195,-80,4,2,0,85,0,0
103356,-80,4,2,0,50,0,0

[Colours]
Combo1 : 191,242,140
Combo2 : 249,119,122
Combo3 : 194,146,248
Combo4 : 121,221,242

[HitObjects]
256,192,775,12,0,4646,0:0:0:0:
68,256,5292,6,0,L|112:280,1,38.7499976158143,4|0,0:0|0:0,0:0:0:0:
196,252,5614,1,0,0:0:0:0:
132,180,5775,2,0,L|100:136,1,38.7499976158143
92,56,6098,1,0,0:0:0:0:
184,80,6259,2,0,L|232:96,1,38.7499976158143
316,76,6582,1,0,0:0:0:0:
328,172,6743,2,0,L|332:228,1,38.7499976158143
344,308,7066,1,0,0:0:0:0:
472,240,7227,5,0,0:0:0:0:
288,196,7388,1,0,0:0:0:0:
452,72,7550,1,0,0:0:0:0:
400,248,7711,1,0,0:0:0:0:
364,80,7872,6,0,L|324:56,1,38.7499976158143,8|0,0:0|0:0,0:0:0:0:
248,52,8195,1,8,0:0:0:0:
184,108,8356,2,0,L|220:144,1,38.7499976158143
272,196,8679,1,0,0:0:0:0:
344,240,8840,2,0,L|380:260,1,38.7499976158143
448,308,9162,1,0,0:0:0:0:
372,348,9324,2,0,L|332:352,1,38.7499976158143
248,348,9646,1,0,0:0:0:0:
416,252,9808,5,0,0:0:0:0:
204,240,9969,1,0,0:0:0:0:
368,144,10130,1,0,0:0:0:0:
176,172,10291,1,0,0:0:0:0:
304,60,10453,6,0,L|356:40,1,38.7499976158143,4|0,0:0|0:0,0:0:0:0:
420,20,10775,1,0,0:0:0:0:
448,100,10937,2,0,L|460:152,1,38.7499976158143
464,224,11259,1,0,0:0:0:0:
380,220,11421,2,0,L|340:184,1,38.7499976158143
316,116,11743,1,0,0:0:0:0:
352,192,11904,2,0,L|336:244,1,38.7499976158143
276,284,12227,1,0,0:0:0:0:
264,96,12388,5,0,0:0:0:0:
164,260,12550,1,0,0:0:0:0:
148,104,12711,1,0,0:0:0:0:
296,244,12872,1,0,0:0:0:0:
72,152,13033,6,0,L|64:196,1,38.7499976158143,8|0,0:0|0:0,0:0:0:0:
76,272,13356,1,8,0:0:0:0:
148,228,13517,2,0,L|172:196,1,38.7499976158143
220,128,13840,1,0,0:0:0:0:
136,108,14001,2,0,L|120:64,1,38.7499976158143
80,0,14324,1,0,0:0:0:0:
160,24,14485,2,0,L|212:32,1,38.7499976158143
268,80,14808,1,0,0:0:0:0:
96,104,14969,5,0,0:0:0:0:
256,168,15130,1,0,0:0:0:0:
192,252,15291,1,0,0:0:0:0:
360,96,15453,1,0,0:0:0:0:
492,276,15614,6,0,B|440:304|440:304|376:296,1,116.249997282028,4|0,0:0|0:0,0:0:0:0:
260,260,16098,1,0,0:0:0:0:
344,164,16259,2,0,P|376:136|396:124,1,58.1249986410141
488,44,16582,2,0,B|424:20|424:20|360:44,1,116.249997282028
260,88,17066,2,0,P|232:108|208:128,1,58.1249986410141
132,220,17388,1,0,0:0:0:0:
376,208,17550,5,0,0:0:0:0:
232,308,17711,1,0,0:0:0:0:
336,116,17872,1,0,0:0:0:0:
360,332,18033,1,0,0:0:0:0:
472,176,18195,6,8,B|504:120|504:120|480:64,1,116.249997282028
372,8,18679,1,0,0:0:0:0:
268,80,18840,2,0,P|224:96|204:100,1,58.1249986410141
84,108,19162,2,0,B|100:164|100:164|160:196,1,116.249997282028
272,232,19646,2,0,P|296:252|312:284,1,58.1249986410141
228,376,19969,1,0,0:0:0:0:
416,304,20130,5,0,0:0:0:0:
272,232,20291,1,0,0:0:0:0:
380,196,20453,1,0,0:0:0:0:
200,296,20614,1,0,0:0:0:0:
200,296,20695,1,0,0:0:0:0:
200,296,20775,6,0,P|152:268|136:252,1,58.1249986410141,4|0,0:0|0:0,0:0:0:0:
52,184,21098,1,0,0:0:0:0:
52,184,21259,1,0,0:0:0:0:
312,88,21743,6,0,P|360:116|376:132,1,58.1249986410141
460,200,22066,1,0,0:0:0:0:
460,200,22227,1,0,0:0:0:0:
96,76,22711,5,0,0:0:0:0:
144,196,22872,1,0,0:0:0:0:
32,136,23033,1,0,0:0:0:0:
208,100,23195,1,0,0:0:0:0:
312,296,23356,6,0,P|360:268|376:252,1,58.1249986410141,8|0,0:0|0:0,0:0:0:0:
460,184,23679,1,8,0:0:0:0:
460,184,23840,1,0,0:0:0:0:
200,88,24324,6,0,P|152:116|136:132,1,58.1249986410141
52,200,24647,1,0,0:0:0:0:
52,200,24808,1,0,0:0:0:0:
404,52,25291,5,0,0:0:0:0:
276,76,25453,1,0,0:0:0:0:
392,120,25614,2,0,L|444:156,1,58.1249964237214
480,184,25937,6,0,P|448:216|408:232,1,77.4999952316285,4|0,0:0|0:0,0:0:0:0:
340,76,26259,2,0,P|380:44|408:36,1,77.4999952316285
344,196,26582,2,0,B|256:184|280:128|184:120,1,154.999990463257,8|0,0:0|0:0,0:0:0:0:
64,212,27066,2,0,P|88:256|112:276,1,77.4999952316285
276,304,27388,1,0,0:0:0:0:
312,300,27469,1,0,0:0:0:0:
344,280,27550,5,0,0:0:0:0:
204,184,27711,1,0,0:0:0:0:
372,172,27872,1,8,0:0:0:0:
216,104,28033,1,0,0:0:0:0:
376,32,28195,2,0,L|436:56,1,58.1249964237214,4|0,0:0|0:0,0:0:0:0:
464,68,28517,6,0,P|464:124|448:160,1,77.4999952316285
320,244,28840,2,0,P|284:212|276:176,1,77.4999952316285
444,208,29162,2,0,P|468:292|424:344,1,154.999990463257,8|0,0:0|0:0,0:0:0:0:
320,244,29646,2,0,P|288:220|276:184,1,77.4999952316285
328,24,29969,1,0,0:0:0:0:
160,60,30130,1,0,0:0:0:0:
324,96,30291,1,0,0:0:0:0:
347,108,30372,1,0,0:0:0:0:
375,132,30453,1,8,0:0:0:0:
472,272,30614,1,0,0:0:0:0:
260,236,30775,2,0,L|188:220,1,58.1249964237214,4|0,0:0|0:0,0:0:0:0:
180,212,31098,6,0,P|160:168|164:132,1,77.4999952316285
328,100,31421,2,0,P|364:144|368:176,1,77.4999952316285
272,304,31743,2,0,B|208:284|232:208|168:192,1,154.999990463257,8|0,0:0|0:0,0:0:0:0:
48,312,32227,2,0,P|96:340|124:340,1,77.4999952316285
276,280,32550,1,0,0:0:0:0:
120,208,32711,1,0,0:0:0:0:
280,152,32872,2,0,L|244:128,1,38.7499976158143
176,84,33033,1,8,0:0:0:0:
344,48,33195,1,0,0:0:0:0:
144,36,33356,2,0,L|96:72,1,58.1249964237214,4|0,0:0|0:0,0:0:0:0:
80,88,33679,6,0,P|56:128|48:164,1,77.4999952316285
220,168,34001,2,0,P|280:156|304:140,1,77.4999952316285
172,28,34324,2,0,B|128:92|192:112|144:176,1,154.999990463257,8|0,0:0|0:0,0:0:0:0:
32,300,34808,2,0,P|4:248|4:224,1,77.4999952316285
36,64,35130,1,0,0:0:0:0:
56,40,35211,1,0,0:0:0:0:
92,28,35291,1,0,0:0:0:0:
172,180,35453,2,0,L|192:220,2,38.7499976158143,0|0|8,0:0|0:0|0:0,0:0:0:0:
92,28,35775,1,0,0:0:0:0:
276,28,35937,2,0,L|344:28,1,58.1249964237214,4|0,0:0|0:0,0:0:0:0:
360,28,36259,6,0,P|368:88|384:112,1,77.4999952316285
392,272,36582,2,0,P|444:216|440:192,1,77.4999952316285
296,136,36904,2,0,P|220:116|160:160,1,154.999990463257,8|0,0:0|0:0,0:0:0:0:
256,300,37388,2,0,P|340:320|404:268,1,154.999990463257
416,252,37791,1,0,0:0:0:0:
436,220,37872,2,0,P|448:180|436:140,1,77.4999952316285
316,28,38195,1,8,0:0:0:0:
160,96,38356,1,0,0:0:0:0:
380,164,38517,6,0,L|448:184,1,58.1249964237214,4|0,0:0|0:0,0:0:0:0:
468,200,38840,6,0,P|476:248|456:292,1,77.4999952316285
304,232,39162,2,0,P|288:184|296:152,1,77.4999952316285
408,8,39485,2,0,P|452:80|436:156,1,154.999990463257,8|0,0:0|0:0,0:0:0:0:
316,264,39969,1,0,0:0:0:0:
279,276,40049,1,0,0:0:0:0:
244,280,40130,2,0,P|200:276|168:260,1,77.4999952316285
292,144,40453,2,0,P|356:140|392:148,1,77.4999952316285
508,240,40775,1,8,0:0:0:0:
368,340,40937,1,0,0:0:0:0:
248,216,41098,2,0,L|208:172,1,58.1249964237214,4|0,0:0|0:0,0:0:0:0:
192,152,41421,6,0,P|208:96|232:68,1,77.4999952316285
340,200,41743,2,0,P|344:256|332:280,1,77.4999952316285
168,240,42066,2,0,P|136:184|156:96,1,154.999990463257,8|0,0:0|0:0,0:0:0:0:
392,168,42550,2,0,P|411:241|377:309,1,154.999990463257
208,336,43033,1,0,0:0:0:0:
316,204,43195,1,0,0:0:0:0:
148,232,43356,1,8,0:0:0:0:
312,276,43517,1,0,0:0:0:0:
156,136,43679,2,0,L|104:84,1,58.1249964237214,4|0,0:0|0:0,0:0:0:0:
92,76,44001,6,0,P|76:120|72:180,1,77.4999952316285
204,260,44324,2,0,P|256:264|300:240,1,77.4999952316285
212,100,44646,2,0,P|164:112|132:136,1,77.4999952316285,8|0,0:0|0:0,0:0:0:0:
68,280,44969,1,0,0:0:0:0:
244,233,45130,2,0,B|318:210|285:133|368:108,1,154.999990463257
484,20,45614,5,0,0:0:0:0:
316,48,45775,1,0,0:0:0:0:
278,55,45855,1,0,0:0:0:0:
244,74,45936,1,8,0:0:0:0:
396,160,46098,1,0,0:0:0:0:
168,208,46259,2,0,L|100:224,1,58.1249964237214,4|0,0:0|0:0,0:0:0:0:
68,232,46582,1,4,0:0:0:0:
256,192,46743,12,0,47550,0:0:0:0:
348,216,47872,5,0,0:0:0:0:
420,64,48033,1,0,0:0:0:0:
436,196,48195,5,8,0:0:0:0:
432,204,48275,1,0,0:0:0:0:
420,216,48356,1,0,0:0:0:0:
412,224,48436,1,0,0:0:0:0:
392,240,48517,5,8,0:0:0:0:
361,263,48597,1,0,0:0:0:0:
324,272,48678,1,0,0:0:0:0:
286,263,48758,1,0,0:0:0:0:
248,240,48840,5,8,0:0:0:0:
199,181,48920,1,0,0:0:0:0:
201,105,49001,1,8,0:0:0:0:
253,50,49081,1,0,0:0:0:0:
328,20,49162,6,0,P|384:20|432:48,1,92.9999914398197,4|0,0:0|0:0,0:0:0:0:
284,168,49485,2,0,P|216:176|176:152,1,92.9999914398197
360,80,49808,2,0,P|412:124|424:164,1,92.9999914398197,8|0,0:0|0:0,0:0:0:0:
344,312,50130,1,0,0:0:0:0:
252,152,50291,2,0,P|176:116|164:212,1,185.999982879639
224,364,50775,1,0,0:0:0:0:
48,300,50937,1,0,0:0:0:0:
228,260,51098,1,8,0:0:0:0:
76,368,51259,1,0,0:0:0:0:
184,192,51421,2,0,L|216:144,1,58.1249964237214,4|0,0:0|0:0,0:0:0:0:
232,120,51743,6,0,P|268:84|312:68,1,92.9999914398197
300,256,52066,2,0,P|216:264|196:252,1,92.9999914398197
80,72,52388,2,0,P|48:132|88:240,1,185.999982879639,8|0,0:0|0:0,0:0:0:0:
280,64,52872,2,0,P|336:88|368:212,1,185.999982879639
276,360,53356,1,0,0:0:0:0:
160,216,53517,1,0,0:0:0:0:
164,192,53598,1,0,0:0:0:0:
180,168,53679,1,8,0:0:0:0:
304,96,53840,1,0,0:0:0:0:
376,260,54001,2,0,L|404:320,1,58.1249964237214,4|0,0:0|0:0,0:0:0:0:
400,312,54324,6,0,P|380:228|388:184,1,92.9999914398197
436,44,54646,1,0,0:0:0:0:
488,224,54808,1,0,0:0:0:0:
360,88,54969,2,0,P|308:64|268:60,1,92.9999914398197,8|0,0:0|0:0,0:0:0:0:
96,116,55291,1,0,0:0:0:0:
276,168,55453,2,0,P|340:212|288:296,1,185.999982879639
120,236,55937,1,0,0:0:0:0:
236,380,56098,1,0,0:0:0:0:
72,296,56259,1,8,0:0:0:0:
240,380,56421,1,0,0:0:0:0:
120,236,56582,2,0,L|76:180,1,58.1249964237214,4|0,0:0|0:0,0:0:0:0:
72,172,56904,6,0,P|104:128|136:108,1,92.9999914398197
188,296,57227,2,0,P|144:336|108:344,1,92.9999914398197
212,176,57550,2,0,P|308:144|344:244,1,185.999982879639,8|0,0:0|0:0,0:0:0:0:
156,224,58033,2,0,P|88:264|124:360,1,185.999982879639
308,356,58517,1,0,0:0:0:0:
420,196,58679,2,0,L|456:168,2,46.4999957199098,0|0|8,0:0|0:0|0:0,0:0:0:0:
236,260,59001,1,0,0:0:0:0:
376,116,59162,2,0,L|420:76,1,58.1249964237214,4|0,0:0|0:0,0:0:0:0:
419,76,59485,6,0,P|384:152|388:176,1,92.9999914398197
440,348,59808,2,0,P|464:280|452:248,1,92.9999914398197
304,144,60130,2,0,B|228:120|160:184|92:108,1,185.999982879639,8|0,0:0|0:0,0:0:0:0:
292,32,60614,2,0,P|352:48|408:168,1,185.999982879639
304,316,61098,2,0,P|244:272|236:240,1,92.9999914398197
264,64,61421,1,8,0:0:0:0:
380,220,61582,1,0,0:0:0:0:
164,196,61743,2,0,L|96:184,1,58.1249964237214,4|0,0:0|0:0,0:0:0:0:
80,180,62066,6,0,P|60:240|84:284,1,92.9999914398197
244,184,62388,2,0,P|264:140|260:88,1,92.9999914398197
80,28,62711,2,0,B|16:92|40:204,1,185.999982879639,8|0,0:0|0:0,0:0:0:0:
140,368,63195,2,0,P|184:332|196:288,1,92.9999914398197
144,112,63517,1,0,0:0:0:0:
184,92,63598,1,0,0:0:0:0:
228,80,63679,1,0,0:0:0:0:
24,92,63840,1,0,0:0:0:0:
204,192,64001,1,8,0:0:0:0:
72,172,64162,1,0,0:0:0:0:
288,92,64324,2,0,L|344:72,1,58.1249964237214,4|0,0:0|0:0,0:0:0:0:
364,68,64646,6,0,P|428:76|456:104,1,92.9999914398197
292,212,64969,2,0,P|232:216|192:200,1,92.9999914398197
372,112,65291,2,0,P|408:160|404:208,1,92.9999914398197,8|0,0:0|0:0,0:0:0:0:
208,228,65614,1,0,0:0:0:0:
404,292,65775,2,0,P|472:244|436:160,1,185.999982879639
240,104,66259,1,0,0:0:0:0:
440,64,66421,1,0,0:0:0:0:
292,204,66582,2,0,P|224:216|196:208,1,92.9999914398197,8|0,0:0|0:0,0:0:0:0:
100,68,66904,2,0,L|168:44,1,58.1249964237214,4|0,0:0|0:0,0:0:0:0:
180,40,67227,6,0,P|236:40|280:60,1,92.9999914398197
108,176,67550,2,0,P|128:236|160:248,1,92.9999914398197
316,124,67872,2,0,P|424:128|448:224,1,185.999982879639,8|0,0:0|0:0,0:0:0:0:
268,276,68356,1,0,0:0:0:0:
240,280,68437,1,0,0:0:0:0:
212,276,68517,1,0,0:0:0:0:
48,100,68679,5,0,0:0:0:0:
66,93,68759,1,0,0:0:0:0:
85,91,68840,1,8,0:0:0:0:
104,94,68920,1,0,0:0:0:0:
140,108,69002,5,0,0:0:0:0:
173,126,69082,1,0,0:0:0:0:
197,156,69163,1,8,0:0:0:0:
207,193,69243,1,0,0:0:0:0:
212,232,69324,5,0,0:0:0:0:
242,278,69404,1,0,0:0:0:0:
316,300,69485,1,8,0:0:0:0:
386,284,69565,1,0,0:0:0:0:
424,216,69646,1,8,0:0:0:0:
418,130,69726,1,0,0:0:0:0:
376,44,69808,6,0,P|312:12|264:16,1,100.749989189149,4|0,0:0|0:0,0:0:0:0:
168,200,70130,2,0,P|116:212|68:192,1,100.749989189149
256,68,70453,2,0,P|312:108|324:160,1,100.749989189149,8|0,0:0|0:0,0:0:0:0:
168,296,70775,1,0,0:0:0:0:
392,296,70937,2,0,P|424:196|396:100,1,201.499978378297
196,92,71421,5,0,0:0:0:0:
448,44,71583,1,0,0:0:0:0:
228,176,71744,1,8,0:0:0:0:
484,192,71905,1,0,0:0:0:0:
236,244,72066,1,0,0:0:0:0:
484,308,72228,1,0,0:0:0:0:
284,220,72388,6,0,P|224:184|204:156,1,100.749989189149,4|0,0:0|0:0,0:0:0:0:
124,32,72711,1,0,0:0:0:0:
344,28,72872,1,0,0:0:0:0:
156,148,73033,2,0,P|116:184|104:232,1,100.749989189149,8|0,0:0|0:0,0:0:0:0:
124,372,73356,1,0,0:0:0:0:
332,296,73517,2,0,P|373:221|286:182,1,201.499978378297
52,264,74001,5,0,0:0:0:0:
192,40,74162,1,0,0:0:0:0:
256,280,74323,1,8,0:0:0:0:
64,64,74484,1,0,0:0:0:0:
384,144,74645,1,8,0:0:0:0:
60,180,74807,1,8,0:0:0:0:
300,276,74969,6,0,P|352:296|416:296,1,100.749989189149,4|0,0:0|0:0,0:0:0:0:
464,148,75291,2,0,P|416:120|364:116,1,100.749989189149
224,272,75614,2,0,P|156:240|172:120,1,201.499978378297,8|0,0:0|0:0,0:0:0:0:
380,176,76098,2,0,P|400:84|319:36,1,201.499978378297
100,72,76582,5,0,0:0:0:0:
300,164,76743,1,0,0:0:0:0:
80,200,76904,1,8,0:0:0:0:
312,76,77066,1,0,0:0:0:0:
56,140,77227,1,0,0:0:0:0:
340,272,77388,1,0,0:0:0:0:
56,292,77550,6,0,P|112:344|160:344,1,100.749989189149,4|0,0:0|0:0,0:0:0:0:
352,316,77872,1,0,0:0:0:0:
144,240,78033,1,0,0:0:0:0:
364,220,78195,2,0,P|424:192|444:156,1,100.749989189149,8|0,0:0|0:0,0:0:0:0:
232,96,78517,1,0,0:0:0:0:
400,36,78679,2,0,P|480:68|456:184,1,201.499978378297
296,300,79162,5,0,0:0:0:0:
112,176,79324,1,0,0:0:0:0:
85,134,79404,1,0,0:0:0:0:
92,85,79485,1,8,0:0:0:0:
236,16,79646,1,0,0:0:0:0:
360,100,79808,2,0,P|396:152|396:192,1,100.749989189149
72,276,80130,6,0,P|56:216|72:176,1,100.749989189149,4|0,0:0|0:0,0:0:0:0:
264,20,80453,2,0,P|276:84|260:120,1,100.749989189149
108,316,80775,2,0,P|184:284|308:304,1,201.499978378297,8|0,0:0|0:0,0:0:0:0:
472,292,81259,2,0,P|416:248|400:120,1,201.499978378297
424,12,81743,5,0,0:0:0:0:
304,232,81904,1,0,0:0:0:0:
308,68,82066,1,8,0:0:0:0:
432,288,82227,1,0,0:0:0:0:
416,144,82388,1,0,0:0:0:0:
208,288,82550,1,0,0:0:0:0:
280,48,82711,6,0,P|352:56|388:80,1,100.749989189149,4|0,0:0|0:0,0:0:0:0:
128,100,83033,2,0,P|96:164|96:200,1,100.749989189149
340,132,83356,2,0,P|400:144|436:168,1,100.749989189149,8|0,0:0|0:0,0:0:0:0:
196,256,83679,1,0,0:0:0:0:
440,312,83840,2,0,B|416:224|304:272|276:176,1,201.499978378297
336,52,84324,5,0,0:0:0:0:
108,152,84485,1,0,0:0:0:0:
360,164,84646,1,8,0:0:0:0:
76,288,84808,1,0,0:0:0:0:
420,216,84969,1,0,0:0:0:0:
136,56,85130,1,0,0:0:0:0:
460,316,85291,6,0,P|496:248|488:212,1,100.749989189149,4|0,0:0|0:0,0:0:0:0:
428,36,85614,1,0,0:0:0:0:
388,232,85775,1,0,0:0:0:0:
280,60,85937,2,0,P|228:36|184:40,1,100.749989189149,8|0,0:0|0:0,0:0:0:0:
12,136,86259,1,0,0:0:0:0:
216,136,86421,2,0,P|312:160|364:244,1,201.499978378297
168,288,86904,5,0,0:0:0:0:
464,256,87066,1,0,0:0:0:0:
172,128,87227,1,8,0:0:0:0:
248,364,87388,1,0,0:0:0:0:
344,188,87550,2,0,P|384:148|432:144,1,100.749989189149
380,340,87872,6,0,P|284:332|268:316,1,100.749989189149,4|0,0:0|0:0,0:0:0:0:
112,216,88195,1,0,0:0:0:0:
404,240,88356,1,0,0:0:0:0:
148,92,88517,1,8,0:0:0:0:
204,368,88679,1,0,0:0:0:0:
300,104,88840,5,0,0:0:0:0:
496,296,89001,1,0,0:0:0:0:
368,64,89162,1,8,0:0:0:0:
52,188,89324,1,0,0:0:0:0:
136,12,89485,5,0,0:0:0:0:
368,268,89646,1,0,0:0:0:0:
60,100,89808,1,8,0:0:0:0:
192,372,89969,1,0,0:0:0:0:
380,152,90130,1,8,0:0:0:0:
48,280,90291,1,0,0:0:0:0:
428,68,90453,1,8,0:0:0:0:
256,192,90775,12,0,92388,0:0:0:0:
84,276,93033,6,0,L|124:276,1,38.7499976158143,4|0,0:0|0:0,0:0:0:0:
220,276,93356,1,0,0:0:0:0:
168,168,93517,2,0,L|204:136,1,38.7499976158143
268,76,93840,1,0,0:0:0:0:
300,200,94001,2,0,L|328:244,1,38.7499976158143
416,252,94324,1,0,0:0:0:0:
440,160,94485,2,0,L|456:112,1,38.7499976158143
472,28,94808,1,0,0:0:0:0:
260,84,94969,5,0,0:0:0:0:
364,128,95130,1,0,0:0:0:0:
280,172,95291,1,0,0:0:0:0:
368,44,95453,1,0,0:0:0:0:
428,188,95614,6,0,L|440:228,1,38.7499976158143,8|0,0:0|0:0,0:0:0:0:
476,316,95937,1,8,0:0:0:0:
344,328,96098,2,0,L|304:304,1,38.7499976158143
268,220,96421,1,0,0:0:0:0:
176,320,96582,2,0,L|124:320,1,38.7499976158143
80,240,96904,1,0,0:0:0:0:
76,124,97066,2,0,L|76:80,1,38.7499976158143
16,12,97388,1,0,0:0:0:0:
208,64,97550,5,0,0:0:0:0:
152,160,97712,1,0,0:0:0:0:
280,84,97873,1,0,0:0:0:0:
116,32,98034,1,0,0:0:0:0:
248,176,98195,6,0,L|296:236,1,58.1249986410141,4|0,0:0|0:0,0:0:0:0:
356,312,98517,1,0,0:0:0:0:
400,204,98679,2,0,L|428:128,1,58.1249986410141
396,40,99001,1,0,0:0:0:0:
304,108,99162,2,0,L|248:152,1,58.1249986410141
196,48,99485,1,0,0:0:0:0:
112,128,99646,2,0,L|136:208,1,58.1249986410141
60,276,99969,1,0,0:0:0:0:
280,304,100130,5,0,0:0:0:0:
204,216,100291,1,0,0:0:0:0:
356,164,100453,1,0,0:0:0:0:
168,144,100614,1,0,0:0:0:0:
344,48,100775,6,0,L|408:36,1,58.1249986410141,8|0,0:0|0:0,0:0:0:0:
500,96,101098,1,8,0:0:0:0:
352,124,101259,2,0,L|272:120,1,58.1249986410141
188,76,101582,1,0,0:0:0:0:
272,200,101743,2,0,L|332:228,1,58.1249986410141
432,272,102066,1,0,0:0:0:0:
236,312,102227,2,0,L|172:300,1,58.1249986410141
52,116,102550,1,0,0:0:0:0:
52,116,102630,1,0,0:0:0:0:
52,116,102711,6,0,L|68:144,1,19.3749988079071,8|0,0:0|0:0,0:0:0:0:
132,240,102872,2,0,L|160:200,1,29.0624993205071
240,76,103033,2,0,L|264:128,1,38.7499976158143,8|0,0:0|0:0,0:0:0:0:
348,300,103195,2,0,L|380:220,1,48.4374970197678,8|0,0:0|0:0,0:0:0:0:
404,52,103356,6,0,P|352:40|308:40,1,96.8749940395356,12|0,0:0|0:0,0:0:0:0:
116,68,103679,1,0,0:0:0:0:
240,92,103840,1,0,0:0:0:0:
72,188,104001,2,0,P|60:256|84:288,1,96.8749940395356,8|0,0:0|0:0,0:0:0:0:
256,212,104324,2,0,P|280:140|264:112,1,96.8749940395356
56,84,104646,5,0,0:0:0:0:
356,36,104808,1,0,0:0:0:0:
172,256,104969,1,0,0:0:0:0:
160,20,105130,1,0,0:0:0:0:
264,264,105291,5,8,0:0:0:0:
304,32,105453,1,0,0:0:0:0:
456,168,105614,1,0,0:0:0:0:
120,72,105775,1,0,0:0:0:0:
288,252,105937,6,0,P|352:240|380:212,1,96.8749940395356,4|0,0:0|0:0,0:0:0:0:
428,36,106259,1,0,0:0:0:0:
476,224,106421,1,0,0:0:0:0:
344,84,106582,2,0,P|296:60|244:68,1,96.8749940395356,8|0,0:0|0:0,0:0:0:0:
100,180,106904,2,0,P|160:224|204:220,1,96.8749940395356
384,56,107227,5,0,0:0:0:0:
440,312,107388,1,0,0:0:0:0:
236,128,107550,1,0,0:0:0:0:
484,184,107711,1,0,0:0:0:0:
260,40,107872,5,8,0:0:0:0:
420,312,108033,1,0,0:0:0:0:
448,64,108195,1,0,0:0:0:0:
248,328,108356,1,0,0:0:0:0:
48,192,108517,6,0,P|16:148|20:92,1,96.8749940395356,4|0,0:0|0:0,0:0:0:0:
248,36,108840,1,0,0:0:0:0:
8,44,109001,1,0,0:0:0:0:
192,120,109162,2,0,P|252:128|292:124,1,96.8749940395356,8|0,0:0|0:0,0:0:0:0:
428,100,109485,2,0,P|404:160|372:192,1,96.8749940395356
140,300,109808,5,0,0:0:0:0:
420,264,109969,1,0,0:0:0:0:
244,184,110130,1,0,0:0:0:0:
440,52,110291,1,0,0:0:0:0:
328,272,110453,5,8,0:0:0:0:
312,16,110614,1,0,0:0:0:0:
492,176,110775,1,0,0:0:0:0:
176,80,110937,1,0,0:0:0:0:
40,292,111098,6,0,P|80:340|140:328,1,96.8749940395356,4|0,0:0|0:0,0:0:0:0:
380,256,111421,1,0,0:0:0:0:
144,204,111582,1,0,0:0:0:0:
332,52,111743,2,0,P|260:88|244:116,1,96.8749940395356,8|0,0:0|0:0,0:0:0:0:
360,328,112066,2,0,P|416:284|436:244,1,96.8749940395356
396,24,112388,5,0,0:0:0:0:
296,308,112550,1,0,0:0:0:0:
164,40,112711,1,0,0:0:0:0:
216,288,112872,1,0,0:0:0:0:
40,96,113033,5,8,0:0:0:0:
292,200,113195,1,0,0:0:0:0:
48,224,113356,1,0,0:0:0:0:
272,72,113517,1,0,0:0:0:0:
172,304,113679,6,0,P|232:336|272:332,1,96.8749940395356,4|0,0:0|0:0,0:0:0:0:
456,280,114001,1,0,0:0:0:0:
328,208,114162,1,0,0:0:0:0:
328,208,114243,1,0,0:0:0:0:
328,208,114324,2,0,P|256:188|220:188,1,96.8749940395356,8|0,0:0|0:0,0:0:0:0:
144,336,114646,2,0,P|104:296|92:252,1,96.8749940395356
220,100,114969,5,0,0:0:0:0:
24,280,115130,1,0,0:0:0:0:
344,140,115291,1,0,0:0:0:0:
40,88,115453,1,0,0:0:0:0:
284,28,115614,5,8,0:0:0:0:
192,276,115775,1,0,0:0:0:0:
436,60,115937,1,0,0:0:0:0:
320,292,116098,1,0,0:0:0:0:
472,240,116259,6,0,P|432:192|400:176,1,96.8749940395356,4|0,0:0|0:0,0:0:0:0:
224,280,116582,1,0,0:0:0:0:
436,320,116743,1,0,0:0:0:0:
436,320,116824,1,0,0:0:0:0:
436,320,116904,2,0,P|384:344|336:340,1,96.8749940395356,8|0,0:0|0:0,0:0:0:0:
408,144,117227,2,0,P|384:92|340:68,1,96.8749940395356
152,108,117550,5,0,0:0:0:0:
40,336,117711,1,0,0:0:0:0:
76,40,117872,1,0,0:0:0:0:
180,292,118033,1,0,0:0:0:0:
372,48,118195,5,8,0:0:0:0:
100,216,118356,1,0,0:0:0:0:
240,20,118517,1,0,0:0:0:0:
332,292,118679,1,0,0:0:0:0:
416,68,118840,6,0,P|420:132|400:168,1,96.8749940395356,4|0,0:0|0:0,0:0:0:0:
228,204,119162,1,0,0:0:0:0:
376,304,119324,1,0,0:0:0:0:
376,304,119404,1,0,0:0:0:0:
376,304,119485,2,0,P|432:256|440:232,1,96.8749940395356,8|0,0:0|0:0,0:0:0:0:
332,20,119808,2,0,P|292:64|284:108,1,96.8749940395356
376,324,120130,5,0,0:0:0:0:
104,168,120291,1,0,0:0:0:0:
380,160,120453,1,0,0:0:0:0:
136,260,120614,1,0,0:0:0:0:
432,248,120775,5,8,0:0:0:0:
288,40,120937,1,0,0:0:0:0:
284,288,121098,1,0,0:0:0:0:
428,96,121259,1,0,0:0:0:0:
244,256,121421,6,0,P|168:280|136:280,1,96.8749940395356,4|0,0:0|0:0,0:0:0:0:
64,152,121743,1,0,0:0:0:0:
220,336,121904,1,0,0:0:0:0:
220,336,121985,1,0,0:0:0:0:
220,336,122066,2,0,P|280:300|296:272,1,96.8749940395356,8|0,0:0|0:0,0:0:0:0:
392,60,122388,2,0,P|320:96|292:132,1,96.8749940395356
104,328,122711,5,0,0:0:0:0:
372,204,122872,1,0,0:0:0:0:
100,112,123033,1,0,0:0:0:0:
392,320,123195,1,0,0:0:0:0:
260,28,123356,5,8,0:0:0:0:
452,280,123517,1,0,0:0:0:0:
404,32,123679,1,0,0:0:0:0:
176,240,123840,1,0,0:0:0:0:
216,24,124001,5,4,0:0:0:0:
372,280,124162,1,0,0:0:0:0:
332,40,124324,1,0,0:0:0:0:
84,224,124485,1,4,0:0:0:0:
84,224,124969,5,4,0:0:0:0:
340,52,125130,1,0,0:0:0:0:
48,32,125292,1,0,0:0:0:0:
256,192,125453,1,4,0:0:0:0:
256,192,125775,12,0,126904,0:0:0:0:
