osu file format v14

[General]
AudioFilename: Aubrey Ashburn - Out of Darkness (Piano).mp3
AudioLeadIn: 0
PreviewTime: -1
Countdown: 0
SampleSet: Soft
StackLeniency: 0.7
Mode: 3
LetterboxInBreaks: 0
SpecialStyle: 0
WidescreenStoryboard: 0

[Editor]
DistanceSpacing: 0.6
BeatDivisor: 16
GridSize: 4
TimelineZoom: 1.3

[Metadata]
Title:Out of Darkness (Piano)
TitleUnicode:Out of Darkness (Piano)
Artist:Aubrey Ashburn
ArtistUnicode:Aubrey Ashburn
Creator:higurush
Version:Normal
Source:devil may cry 4
Tags:devil may cry 4 aubrey ashburn out of darkness
BeatmapID:883076
BeatmapSetID:406354

[Difficulty]
HPDrainRate:7
CircleSize:7
OverallDifficulty:6
ApproachRate:5
SliderMultiplier:1.4
SliderTickRate:1

[Events]
//Background and Video events
0,0,"bg.jpg",0,0
//Break Periods
//Storyboard Layer 0 (Background)
//Storyboard Layer 1 (Fail)
//Storyboard Layer 2 (Pass)
//Storyboard Layer 3 (Foreground)
//Storyboard Sound Samples

[TimingPoints]
5710,550.45871559633,4,2,0,20,1,0

[HitObjects]
475,192,5710,128,0,6260:0:0:0:0:
329,192,5710,128,0,6260:0:0:0:0:
256,192,6260,128,0,6810:0:0:0:0:
402,192,6260,128,0,6810:0:0:0:0:
329,192,6810,128,0,8427:0:0:0:0:
36,192,6810,1,0,0:0:0:0:
109,192,7086,1,0,0:0:0:0:
182,192,7361,1,0,0:0:0:0:
109,192,7636,1,0,0:0:0:0:
182,192,7911,1,0,0:0:0:0:
36,192,8187,1,0,0:0:0:0:
256,192,8427,1,0,0:0:0:0:
402,192,8427,128,0,10079:0:0:0:0:
182,192,8703,1,0,0:0:0:0:
109,192,8978,1,0,0:0:0:0:
36,192,9253,1,0,0:0:0:0:
182,192,9528,1,0,0:0:0:0:
109,192,9769,1,0,0:0:0:0:
329,192,10079,128,0,11696:0:0:0:0:
256,192,10079,1,0,0:0:0:0:
109,192,10354,1,0,0:0:0:0:
182,192,10629,1,0,0:0:0:0:
109,192,10904,1,0,0:0:0:0:
182,192,11180,1,0,0:0:0:0:
36,192,11455,1,0,0:0:0:0:
256,192,11696,128,0,12246:0:0:0:0:
402,192,12005,1,0,0:0:0:0:
182,192,12246,128,0,12797:0:0:0:0:
402,192,12521,1,0,0:0:0:0:
109,192,12797,128,0,13347:0:0:0:0:
329,192,13072,1,0,0:0:0:0:
36,192,13347,1,0,0:0:0:0:
402,192,13347,128,0,14964:0:0:0:0:
109,192,13622,1,0,0:0:0:0:
182,192,13898,1,0,0:0:0:0:
109,192,14173,1,0,0:0:0:0:
182,192,14448,1,0,0:0:0:0:
36,192,14723,1,0,0:0:0:0:
182,192,14964,128,0,15515:0:0:0:0:
329,192,14964,1,0,0:0:0:0:
475,192,15239,1,0,0:0:0:0:
109,192,15515,128,0,16065:0:0:0:0:
402,192,15790,1,0,0:0:0:0:
182,192,16065,128,0,16615:0:0:0:0:
329,192,16340,1,0,0:0:0:0:
329,192,16615,128,0,17166:0:0:0:0:
256,192,16615,1,0,0:0:0:0:
109,192,16856,1,0,0:0:0:0:
475,192,17166,1,0,0:0:0:0:
402,192,17166,128,0,17716:0:0:0:0:
182,192,17407,1,0,0:0:0:0:
329,192,17716,128,0,18267:0:0:0:0:
109,192,17957,1,0,0:0:0:0:
182,192,18267,128,0,18817:0:0:0:0:
256,192,18267,128,0,18817:0:0:0:0:
329,192,18817,128,0,19368:0:0:0:0:
36,192,19093,1,0,0:0:0:0:
109,192,19368,128,0,19884:0:0:0:0:
402,192,19609,1,0,0:0:0:0:
329,192,19884,128,0,20434:0:0:0:0:
36,192,19884,1,0,0:0:0:0:
402,192,20159,1,0,0:0:0:0:
182,192,20434,128,0,20985:0:0:0:0:
402,192,20709,1,0,0:0:0:0:
256,192,20985,128,0,21535:0:0:0:0:
402,192,21260,1,0,0:0:0:0:
329,192,21535,128,0,22086:0:0:0:0:
182,192,21535,1,0,0:0:0:0:
109,192,21810,1,0,0:0:0:0:
475,192,22086,1,0,0:0:0:0:
402,192,22086,128,0,22602:0:0:0:0:
182,192,22361,1,0,0:0:0:0:
36,192,22602,1,0,0:0:0:0:
329,192,22602,128,0,23152:0:0:0:0:
109,192,22877,1,0,0:0:0:0:
402,192,23152,128,0,23703:0:0:0:0:
109,192,23427,1,0,0:0:0:0:
329,192,23703,128,0,24253:0:0:0:0:
182,192,23978,1,0,0:0:0:0:
402,192,24253,128,0,24804:0:0:0:0:
109,192,24528,1,0,0:0:0:0:
256,192,24804,128,0,25354:0:0:0:0:
329,192,24804,1,0,0:0:0:0:
36,192,25079,1,0,0:0:0:0:
182,192,25354,128,0,25904:0:0:0:0:
475,192,25629,1,0,0:0:0:0:
402,192,25904,128,0,26455:0:0:0:0:
329,192,25904,128,0,26455:0:0:0:0:
182,192,26455,128,0,27005:0:0:0:0:
256,192,26455,128,0,27005:0:0:0:0:
475,192,26730,1,0,0:0:0:0:
329,192,27005,128,0,27556:0:0:0:0:
36,192,27281,1,0,0:0:0:0:
402,192,27556,128,0,28106:0:0:0:0:
36,192,27831,1,0,0:0:0:0:
182,192,28106,128,0,28657:0:0:0:0:
329,192,28382,1,0,0:0:0:0:
256,192,28657,128,0,29207:0:0:0:0:
402,192,28932,1,0,0:0:0:0:
109,192,29207,128,0,29758:0:0:0:0:
329,192,29482,1,0,0:0:0:0:
402,192,29758,128,0,31375:0:0:0:0:
256,192,29758,1,0,0:0:0:0:
182,192,30033,1,0,0:0:0:0:
329,192,30308,1,0,0:0:0:0:
182,192,30583,1,0,0:0:0:0:
256,192,30859,1,0,0:0:0:0:
36,192,30859,1,0,0:0:0:0:
182,192,31099,1,0,0:0:0:0:
256,192,31375,128,0,31925:0:0:0:0:
329,192,31375,1,0,0:0:0:0:
475,192,31684,1,0,0:0:0:0:
329,192,31925,128,0,33060:0:0:0:0:
36,192,32235,1,0,0:0:0:0:
402,192,32510,1,0,0:0:0:0:
109,192,32510,1,0,0:0:0:0:
36,192,32785,1,0,0:0:0:0:
182,192,33060,128,0,33576:0:0:0:0:
402,192,33336,1,0,0:0:0:0:
329,192,33576,128,0,34677:0:0:0:0:
256,192,33576,1,0,0:0:0:0:
109,192,33852,1,0,0:0:0:0:
182,192,34127,1,0,0:0:0:0:
36,192,34402,1,0,0:0:0:0:
402,192,34677,128,0,35778:0:0:0:0:
109,192,34677,1,0,0:0:0:0:
182,192,34953,1,0,0:0:0:0:
36,192,35228,1,0,0:0:0:0:
109,192,35228,1,0,0:0:0:0:
256,192,35778,128,0,36294:0:0:0:0:
475,192,35778,128,0,37395:0:0:0:0:
36,192,36294,1,0,0:0:0:0:
329,192,36604,1,0,0:0:0:0:
109,192,36879,1,0,0:0:0:0:
36,192,37154,1,0,0:0:0:0:
182,192,37395,1,0,0:0:0:0:
109,192,37395,128,0,37946:0:0:0:0:
256,192,37946,128,0,38806:0:0:0:0:
36,192,37946,128,0,38806:0:0:0:0:
475,192,38221,1,0,0:0:0:0:
402,192,38496,1,0,0:0:0:0:
182,192,38806,128,0,39563:0:0:0:0:
402,192,39047,1,0,0:0:0:0:
329,192,39322,1,0,0:0:0:0:
256,192,39563,1,0,0:0:0:0:
475,192,39563,128,0,40664:0:0:0:0:
109,192,39872,1,0,0:0:0:0:
182,192,40148,1,0,0:0:0:0:
329,192,40423,1,0,0:0:0:0:
402,192,40664,128,0,41765:0:0:0:0:
36,192,40664,128,0,41765:0:0:0:0:
256,192,40939,1,0,0:0:0:0:
182,192,41214,1,0,0:0:0:0:
329,192,41214,1,0,0:0:0:0:
109,192,41489,1,0,0:0:0:0:
182,192,41765,1,0,0:0:0:0:
256,192,42040,1,0,0:0:0:0:
329,192,42040,1,0,0:0:0:0:
475,192,42315,128,0,43966:0:0:0:0:
109,192,42315,1,0,0:0:0:0:
36,192,42590,1,0,0:0:0:0:
256,192,42831,1,0,0:0:0:0:
182,192,42831,1,0,0:0:0:0:
109,192,43106,1,0,0:0:0:0:
182,192,43416,1,0,0:0:0:0:
329,192,43691,1,0,0:0:0:0:
256,192,43966,1,0,0:0:0:0:
182,192,43966,128,0,44482:0:0:0:0:
402,192,44207,1,0,0:0:0:0:
109,192,44482,128,0,46134:0:0:0:0:
36,192,44482,1,0,0:0:0:0:
329,192,44758,1,0,0:0:0:0:
402,192,45033,1,0,0:0:0:0:
329,192,45308,1,0,0:0:0:0:
402,192,45583,1,0,0:0:0:0:
475,192,45859,1,0,0:0:0:0:
402,192,46134,128,0,47751:0:0:0:0:
256,192,46134,1,0,0:0:0:0:
329,192,46134,1,0,0:0:0:0:
36,192,46409,1,0,0:0:0:0:
256,192,46684,1,0,0:0:0:0:
109,192,46684,1,0,0:0:0:0:
182,192,46959,1,0,0:0:0:0:
256,192,47235,1,0,0:0:0:0:
36,192,47235,1,0,0:0:0:0:
109,192,47510,1,0,0:0:0:0:
329,192,47751,1,0,0:0:0:0:
182,192,47751,128,0,48301:0:0:0:0:
36,192,48026,1,0,0:0:0:0:
256,192,48301,128,0,48852:0:0:0:0:
475,192,48576,1,0,0:0:0:0:
329,192,48852,128,0,49402:0:0:0:0:
182,192,48852,128,0,49402:0:0:0:0:
402,192,49402,128,0,49677:0:0:0:0:
109,192,49402,128,0,49677:0:0:0:0:
36,192,49677,128,0,49953:0:0:0:0:
329,192,49677,128,0,49953:0:0:0:0:
182,192,49677,128,0,49953:0:0:0:0:
475,192,49677,128,0,49953:0:0:0:0:
402,192,49953,128,0,51019:0:0:0:0:
256,192,49953,1,0,0:0:0:0:
109,192,50228,1,0,0:0:0:0:
182,192,50503,1,0,0:0:0:0:
109,192,50778,1,0,0:0:0:0:
256,192,51019,1,0,0:0:0:0:
329,192,51019,128,0,52120:0:0:0:0:
